osu file format v14

[General]
AudioFilename: audio.mp3
AudioLeadIn: 0
PreviewTime: 55995
Countdown: 0
SampleSet: Soft
StackLeniency: 0.7
Mode: 2
LetterboxInBreaks: 0
WidescreenStoryboard: 1

[Editor]
DistanceSpacing: 1.1
BeatDivisor: 8
GridSize: 16
TimelineZoom: 3.759999

[Metadata]
Title:asura
TitleUnicode:asura
Artist:Co shu Nie
ArtistUnicode:Cö shu Nie
Creator:skill issue lol
Version:aurora
Source:
Tags:fayew baron alienflybot autofanboy afb ymiir fii -wwwww アスラ rock alternative experimental Aurora EP japanese pop Miku Nakamura コシュニエ 中村未来 Shunsuke Matsumoto 松本駿介 Ryosuke Fujita 藤田亮介 j-pop jpop j-rock jrock math
BeatmapID:3919589
BeatmapSetID:1101376

[Difficulty]
HPDrainRate:6.5
CircleSize:4.5
OverallDifficulty:9.6
ApproachRate:9.6
SliderMultiplier:2.1
SliderTickRate:2

[Events]
//Background and Video events
0,0,"asura.jpg",0,0
//Break Periods
//Storyboard Layer 0 (Background)
//Storyboard Layer 1 (Fail)
//Storyboard Layer 2 (Pass)
//Storyboard Layer 3 (Foreground)
//Storyboard Layer 4 (Overlay)
//Storyboard Sound Samples

[TimingPoints]
399,333.333333333333,4,2,2,50,1,0
3065,-100,4,2,2,50,0,0
4398,333.333333333333,5,2,2,50,1,0
6065,333.333333333333,3,2,2,50,1,0
10064,333.333333333333,5,2,2,50,1,0
11730,333.333333333333,3,2,2,50,1,0
12729,333.333333333333,4,2,2,50,1,0
14062,333.333333333333,4,2,2,50,1,1
14062,-83.3333333333333,4,2,2,50,0,1
30061,-100,4,2,2,50,0,0
32728,333.333333333333,3,2,2,50,1,0
34394,-83.3333333333333,3,2,2,50,0,0
34728,-100,3,2,2,50,0,0
42394,-66.6666666666667,3,2,2,50,0,0
42727,-100,3,2,2,50,0,0
44727,416.666666666667,4,2,2,50,1,0
44727,-72.463768115942,4,2,2,50,0,0
51400,333.333333333333,3,2,2,50,1,0
53400,333.333333333333,5,2,2,50,1,0
54900,333.333333333333,3,2,2,50,1,0
56400,-66.6666666666667,3,2,2,50,0,0
56816,-66.6666666666667,3,2,2,5,0,0
56900,333.333333333333,3,2,2,50,1,1
56900,-83.3333333333333,3,2,2,50,0,1
60899,333.333333333333,5,2,2,50,1,0
60899,-83.3333333333333,5,2,2,50,0,1
62565,333.333333333333,3,2,2,50,1,0
62565,-83.3333333333333,3,2,2,50,0,1
64565,-100,3,2,2,50,0,0
65565,333.333333333333,4,1,0,50,1,0
67731,-40,3,2,2,50,0,0
68231,-90.9090909090909,3,2,2,50,0,1
70565,-100,3,2,2,50,0,0
70898,-83.3333333333333,4,2,2,50,0,1
71231,-83.3333333333333,4,2,2,50,0,1
77898,-83.3333333333333,3,2,2,50,0,1
78898,333.333333333333,5,2,2,50,1,0
82231,333.333333333333,3,2,2,50,1,0
82231,-83.3333333333333,3,2,2,50,0,0
87587,333.333333333333,3,2,2,50,1,0
87587,-83.3333333333333,3,2,2,50,0,0
87940,333.333333333333,3,2,2,50,1,0
87940,-83.3333333333333,3,2,2,50,0,0
88255,333.333333333333,3,2,2,50,1,0
88255,-83.3333333333333,3,2,2,50,0,0
88480,333.333333333333,4,2,2,50,1,0
88480,-83.3333333333333,4,2,2,50,0,0
89729,-66.6666666666667,3,2,2,50,0,0

[Colours]
Combo1 : 130,238,254
Combo2 : 246,138,146
Combo3 : 141,164,242
Combo4 : 238,221,146

[HitObjects]
368,192,3065,5,8,0:0:0:0:
144,192,3148,1,8,0:0:0:0:
256,192,3315,2,0,L|256:64,1,105,8|2,0:0|0:1,0:0:0:0:
64,192,3565,2,0,L|144:192,1,52.5,2|2,0:1|0:1,0:0:0:0:
384,192,3732,2,0,L|304:192,1,52.5,2|2,0:1|0:1,0:0:0:0:
144,192,3898,6,0,L|144:64,1,105,8|2,0:0|0:1,0:0:0:0:
384,192,4148,2,0,L|384:80,1,105,8|2,0:0|0:1,0:0:0:0:
144,192,4398,6,0,L|144:16,1,157.5,4|0,0:0|0:0,0:0:0:0:
304,192,4732,2,0,L|304:128,1,52.5,8|0,0:0|0:0,0:0:0:0:
160,128,4897,1,8,0:0:0:0:
304,128,4981,1,8,0:0:0:0:
160,192,5065,6,0,L|160:64,1,105,4|0,0:0|0:0,0:0:0:0:
224,96,5315,1,8,0:0:0:0:
440,192,5398,1,8,0:0:0:0:
372,192,5482,1,8,0:0:0:0:
308,192,5565,1,8,0:0:0:0:
244,192,5648,1,8,0:0:0:0:
464,192,5731,5,8,0:3:0:0:
400,192,5815,1,8,0:3:0:0:
224,192,5897,1,0,0:0:0:0:
288,192,5982,1,0,0:0:0:0:
464,192,6065,6,0,L|469:46,1,105,6|8,0:0|0:0,0:0:0:0:
400,192,6315,1,0,0:0:0:0:
224,192,6398,2,0,L|142:193,2,52.5,8|0|2,0:0|0:0|0:0,0:0:0:0:
362,287,6648,2,0,L|370:192,1,52.5,8|4,0:0|0:0,0:0:0:0:
224,192,6814,2,0,L|231:114,1,52.5,8|2,0:0|0:0,0:0:0:0:
299,128,6981,1,0,0:0:0:0:
140,49,7064,6,0,L|149:155,1,105,2|2,0:1|0:1,0:0:0:0:
78,169,7314,1,8,0:0:0:0:
260,232,7398,2,0,L|112:233,1,105,4|2,0:0|0:1,0:0:0:0:
381,76,7731,2,0,L|481:76,2,78.75,8|8|4,0:0|0:0|0:0,0:0:0:0:
194,96,8064,6,0,L|87:109,1,105,6|8,0:0|0:0,0:0:0:0:
149,136,8314,1,8,0:0:0:0:
296,69,8398,2,0,L|383:69,1,52.5,2|0,0:0|0:0,0:0:0:0:
270,18,8564,1,8,0:0:0:0:
448,192,8731,2,0,L|448:128,1,52.5,2|8,0:0|0:0,0:0:0:0:
384,128,8898,1,8,0:0:0:0:
448,128,8981,1,8,0:0:0:0:
280,118,9065,6,0,L|280:250,1,105,2|0,0:1|0:0,0:0:0:0:
380,245,9398,1,2,0:1:0:0:
161,261,9564,1,2,0:0:0:0:
127,126,9731,1,0,0:0:0:0:
265,72,9898,2,0,L|341:70,1,52.5,8|8,0:0|0:0,0:0:0:0:
140,124,10064,6,0,L|13:121,1,105,6|0,0:0|0:0,0:0:0:0:
184,156,10397,1,2,0:1:0:0:
35,121,10564,2,0,L|44:233,1,105,8|8,0:0|0:0,0:0:0:0:
311,182,10897,6,0,L|402:184,1,52.5,12|8,0:0|0:0,0:0:0:0:
187,226,11063,2,0,L|134:224,1,52.5,2|0,0:0|0:0,0:0:0:0:
190,239,11230,2,0,L|196:314,1,52.5,8|0,0:0|0:0,0:0:0:0:
348,58,11397,2,0,L|212:57,1,105,2|8,0:0|0:0,0:0:0:0:
191,56,11647,1,8,0:0:0:0:
436,203,11730,6,0,L|430:91,1,105,4|2,0:0|0:1,0:0:0:0:
363,102,11980,1,8,0:0:0:0:
199,66,12063,1,8,0:0:0:0:
433,160,12230,2,0,L|297:156,1,105,2|8,0:0|0:0,0:0:0:0:
255,125,12480,1,8,0:0:0:0:
199,66,12563,1,8,0:0:0:0:
449,245,12729,6,0,P|463:146|445:87,1,157.5,6|0,0:0|0:0,0:0:0:0:
251,99,13062,2,0,L|384:100,1,105,2|8,0:0|0:0,0:0:0:0:
302,77,13312,1,8,0:0:0:0:
138,47,13395,1,2,0:1:0:0:
463,19,13562,5,6,0:0:0:0:
316,72,13728,1,2,0:3:0:0:
384,101,13811,1,2,0:3:0:0:
453,131,13894,1,2,0:3:0:0:
360,153,13978,1,2,0:3:0:0:
149,262,14062,6,0,L|14:262,1,125.999996154785,4|0,0:1|0:0,0:0:0:0:
87,241,14312,1,2,0:0:0:0:
297,202,14395,2,0,L|305:75,1,125.999996154785,8|8,0:0|0:0,0:0:0:0:
235,72,14645,1,0,0:0:0:0:
479,25,14728,2,0,L|330:31,1,125.999996154785,2|8,0:0|0:0,0:0:0:0:
231,218,15062,2,0,L|369:215,1,125.999996154785,8|8,0:0|0:0,0:0:0:0:
77,171,15395,6,0,L|54:32,1,125.999996154785,6|8,0:0|0:0,0:0:0:0:
109,53,15645,1,0,0:0:0:0:
356,60,15728,2,0,L|215:62,1,125.999996154785,8|2,0:0|0:0,0:0:0:0:
295,104,15978,1,0,0:0:0:0:
458,206,16062,2,0,L|474:142,1,62.9999980773926,4|0,0:0|0:0,0:0:0:0:
251,167,16228,2,0,L|161:167,1,62.9999980773926,2|0,0:0|0:0,0:0:0:0:
374,81,16395,2,0,L|505:75,1,125.999996154785,8|8,0:0|0:0,0:0:0:0:
110,54,16728,5,2,0:1:0:0:
228,47,16895,2,0,L|214:136,1,62.9999980773926,0|2,0:0|0:0,0:0:0:0:
58,174,17062,1,8,0:0:0:0:
197,152,17228,2,0,L|300:148,1,62.9999980773926,8|0,0:0|0:0,0:0:0:0:
17,234,17395,2,0,L|159:232,1,125.999996154785,2|8,0:0|0:0,0:0:0:0:
255,335,17728,2,0,L|111:333,1,125.999996154785,8|0,0:0|0:0,0:0:0:0:
468,38,18062,6,0,L|461:177,1,125.999996154785,2|0,0:1|0:0,0:0:0:0:
401,166,18312,1,2,0:0:0:0:
198,158,18395,1,8,0:0:0:0:
302,207,18562,1,8,0:0:0:0:
68,220,18728,2,0,L|49:57,1,125.999996154785,2|2,0:0|0:1,0:0:0:0:
218,56,19062,2,0,L|301:55,1,62.9999980773926,8|8,0:0|0:0,0:0:0:0:
108,149,19228,2,0,L|170:148,1,62.9999980773926,8|8,0:0|0:0,0:0:0:0:
413,150,19395,6,0,L|287:150,1,125.999996154785,4|0,0:1|0:0,0:0:0:0:
343,116,19645,1,2,0:0:0:0:
139,58,19728,2,0,L|293:56,1,125.999996154785,8|2,0:0|0:0,0:0:0:0:
331,55,19978,1,0,0:0:0:0:
66,38,20062,2,0,L|77:168,1,125.999996154785,8|2,0:0|0:0,0:0:0:0:
246,162,20395,2,0,L|391:159,1,125.999996154785,8|8,0:0|0:0,0:0:0:0:
84,254,20728,6,0,L|71:103,1,125.999996154785,2|0,0:0|0:0,0:0:0:0:
142,131,20978,1,2,0:0:0:0:
319,84,21062,2,0,L|461:78,1,125.999996154785,10|2,0:0|0:0,0:0:0:0:
377,72,21312,1,0,0:0:0:0:
169,80,21395,2,0,L|26:83,1,125.999996154785,8|2,0:0|0:0,0:0:0:0:
275,155,21728,2,0,L|450:158,1,125.999996154785,8|8,0:0|0:0,0:0:0:0:
153,266,22062,6,0,L|52:172,1,125.999996154785,6|0,0:0|0:0,0:0:0:0:
115,171,22312,1,8,0:0:0:0:
339,121,22395,2,0,L|173:121,1,125.999996154785,2|2,0:0|0:1,0:0:0:0:
158,120,22645,1,0,0:0:0:0:
485,198,22728,2,0,L|354:201,1,125.999996154785,2|8,0:0|0:0,0:0:0:0:
45,81,23062,2,0,L|199:80,1,125.999996154785,2|8,0:0|0:0,0:0:0:0:
408,44,23395,6,0,L|405:194,1,125.999996154785,6|0,0:0|0:0,0:0:0:0:
345,178,23645,1,2,0:1:0:0:
146,187,23728,2,0,L|288:189,1,125.999996154785,2|8,0:0|0:0,0:0:0:0:
215,153,23978,1,0,0:0:0:0:
400,48,24062,2,0,L|393:115,1,62.9999980773926,8|2,0:0|0:1,0:0:0:0:
183,99,24228,2,0,L|276:97,1,62.9999980773926,8|2,0:0|0:1,0:0:0:0:
472,144,24395,2,0,L|397:144,1,62.9999980773926,8|8,0:0|0:0,0:0:0:0:
345,144,24561,1,8,0:0:0:0:
409,144,24645,1,8,0:0:0:0:
242,179,24728,6,0,L|72:179,1,125.999996154785,4|0,0:1|0:0,0:0:0:0:
51,175,24978,1,8,0:0:0:0:
224,232,25062,2,0,L|363:238,1,125.999996154785,2|8,0:0|0:0,0:0:0:0:
286,209,25312,1,8,0:0:0:0:
69,124,25395,2,0,L|226:123,1,125.999996154785,2|8,0:0|0:0,0:0:0:0:
368,48,25728,2,0,L|493:47,1,125.999996154785,2|8,0:0|0:0,0:0:0:0:
238,233,26062,6,0,L|98:235,1,125.999996154785,6|8,0:0|0:0,0:0:0:0:
171,181,26312,1,0,0:0:0:0:
387,153,26395,1,8,0:0:0:0:
239,129,26562,2,0,L|151:128,1,62.9999980773926,2|0,0:0|0:0,0:0:0:0:
378,39,26728,1,8,0:0:0:0:
380,96,26811,1,0,0:0:0:0:
352,151,26894,1,2,0:0:0:0:
282,171,26978,1,0,0:0:0:0:
435,200,27062,2,0,L|278:193,1,125.999996154785,8|2,0:0|0:0,0:0:0:0:
70,307,27395,6,0,L|41:168,1,125.999996154785,6|0,0:0|0:0,0:0:0:0:
106,163,27645,1,2,0:1:0:0:
375,113,27728,2,0,L|244:112,1,125.999996154785,8|0,0:0|0:0,0:0:0:0:
193,112,27978,1,8,0:0:0:0:
452,13,28062,2,0,L|446:174,1,125.999996154785,8|8,0:0|0:0,0:0:0:0:
266,32,28395,2,0,L|140:34,1,125.999996154785,2|8,0:0|0:0,0:0:0:0:
425,260,28728,6,0,P|490:195|435:130,1,188.999994232178,6|0,0:0|0:0,0:0:0:0:
146,93,29061,1,2,0:0:0:0:
300,89,29145,1,2,0:0:0:0:
454,85,29228,1,2,0:0:0:0:
300,89,29312,1,2,0:0:0:0:
146,93,29395,2,0,L|223:91,1,62.9999980773926,2|8,0:0|0:0,0:0:0:0:
370,152,29562,2,0,L|445:151,1,62.9999980773926,2|2,0:1|0:1,0:0:0:0:
258,107,29728,2,0,L|232:40,1,62.9999980773926,2|2,0:1|0:1,0:0:0:0:
308,30,29895,2,0,L|426:27,1,62.9999980773926,2|2,0:1|0:1,0:0:0:0:
109,35,30062,5,4,0:0:0:0:
256,32,30562,1,0,0:0:0:0:
109,35,31062,1,4,0:0:0:0:
337,32,31395,1,0,0:0:0:0:
164,33,31617,1,4,0:0:0:0:
342,35,32062,2,0,L|346:184,1,105,2|4,0:1|0:0,0:0:0:0:
167,185,32395,2,0,L|93:184,1,52.5,8|8,0:0|0:0,0:0:0:0:
354,118,32562,2,0,L|283:118,1,52.5,8|8,0:0|0:0,0:0:0:0:
145,130,32728,6,0,L|20:132,1,105,6|0,0:1|0:0,0:0:0:0:
297,62,32978,1,8,0:0:0:0:
366,59,33061,1,0,0:0:0:0:
294,57,33144,1,0,0:0:0:0:
152,125,33228,2,0,L|81:126,1,52.5,2|0,0:0|0:0,0:0:0:0:
317,242,33394,2,0,L|254:240,1,52.5,8|0,0:0|0:0,0:0:0:0:
81,239,33561,2,0,L|73:166,1,52.5,2|0,0:0|0:0,0:0:0:0:
281,112,33728,6,0,L|427:111,1,105,4|0,0:0|0:0,0:0:0:0:
158,80,33978,1,8,0:0:0:0:
210,79,34061,1,8,0:0:0:0:
341,47,34228,1,2,0:0:0:0:
199,117,34394,2,0,L|107:117,1,62.9999980773926,8|8,0:0|0:0,0:0:0:0:
137,118,34561,2,0,L|229:117,1,62.9999980773926,8|2,0:0|0:0,0:0:0:0:
415,40,34728,6,0,P|421:104|400:160,1,105,6|0,0:0|0:0,0:0:0:0:
339,145,34978,1,2,0:0:0:0:
171,185,35061,1,8,0:0:0:0:
317,218,35228,1,2,0:0:0:0:
150,178,35395,2,0,L|19:180,1,105,2|8,0:0|0:0,0:0:0:0:
384,80,35728,6,0,L|288:78,1,52.5,2|8,0:0|0:0,0:0:0:0:
128,224,35894,2,0,L|64:224,1,52.5,2|8,0:0|0:0,0:0:0:0:
80,128,36061,2,0,L|144:128,1,52.5,8|0,0:0|0:0,0:0:0:0:
304,64,36228,2,0,L|368:64,1,52.5,2|0,0:0|0:0,0:0:0:0:
145,33,36394,2,0,L|256:32,1,105,8|8,0:0|0:0,0:0:0:0:
309,32,36644,1,8,0:0:0:0:
47,108,36727,6,0,L|55:223,1,105,6|8,0:0|0:0,0:0:0:0:
200,196,36977,1,0,0:0:0:0:
51,219,37061,2,0,L|119:218,1,52.5,8|0,0:0|0:0,0:0:0:0:
308,154,37227,2,0,L|179:147,1,105,2|8,0:0|0:0,0:0:0:0:
334,92,37561,1,0,0:0:0:0:
39,111,37727,6,0,L|52:228,1,105,2|0,0:0|0:0,0:0:0:0:
123,222,37977,1,8,0:0:0:0:
294,228,38061,2,0,L|419:224,1,105,8|2,0:0|0:0,0:0:0:0:
112,156,38394,2,0,L|216:156,1,105,8|8,0:0|0:0,0:0:0:0:
165,134,38644,1,8,0:0:0:0:
387,56,38727,6,0,B|415:100|415:100|379:170,1,105,6|0,0:0|0:0,0:0:0:0:
337,165,38977,1,8,0:0:0:0:
186,206,39061,2,0,L|310:210,1,105,8|2,0:0|0:0,0:0:0:0:
444,99,39394,2,0,L|327:105,1,105,8|2,0:0|0:0,0:0:0:0:
54,53,39727,6,0,L|62:177,1,105,6|0,0:0|0:0,0:0:0:0:
124,173,39977,1,8,0:0:0:0:
305,198,40061,1,2,0:0:0:0:
54,53,40227,1,2,0:0:0:0:
308,69,40394,2,0,L|116:56,1,157.5,2|2,0:0|0:1,0:0:0:0:
320,128,40728,6,0,L|444:127,1,105,4|8,0:0|0:0,0:0:0:0:
277,104,40977,1,0,0:0:0:0:
424,127,41061,2,0,L|324:128,1,52.5,2|0,0:0|0:0,0:0:0:0:
197,127,41227,1,4,0:0:0:0:
337,35,41394,2,0,L|421:35,1,52.5,8|0,0:0|0:0,0:0:0:0:
197,127,41561,1,2,0:0:0:0:
467,166,41727,6,0,L|354:164,1,105,4|8,0:0|0:0,0:0:0:0:
299,174,41977,1,0,0:0:0:0:
473,199,42061,2,0,L|395:199,1,52.5,2|0,0:0|0:0,0:0:0:0:
201,199,42227,2,0,L|142:220,1,52.5,4|0,0:0|0:0,0:0:0:0:
357,141,42394,2,0,L|446:141,1,78.7500030040742,8|0,0:0|0:0,0:0:0:0:
437,43,42561,2,0,L|352:42,1,78.7500030040742,2|0,0:0|0:0,0:0:0:0:
91,178,42727,6,0,L|77:62,1,105,4|8,0:0|0:0,0:0:0:0:
242,96,42976,1,0,0:0:0:0:
46,62,43060,2,0,L|136:58,1,52.5,2|0,0:0|0:0,0:0:0:0:
301,46,43227,1,8,0:0:0:0:
62,54,43393,2,0,L|157:52,1,52.5,8|0,0:0|0:0,0:0:0:0:
311,41,43560,1,2,0:0:0:0:
57,203,43727,6,0,L|160:187,1,105,4|2,0:0|0:0,0:0:0:0:
325,233,43976,1,0,0:0:0:0:
182,220,44061,1,2,0:0:0:0:
145,180,44144,1,8,0:0:0:0:
333,229,44227,2,0,L|388:223,1,52.5,2|0,0:0|0:0,0:0:0:0:
124,274,44393,2,0,L|176:274,1,52.5,8|0,0:0|0:0,0:0:0:0:
345,250,44561,1,2,0:0:0:0:
177,274,44644,1,2,0:0:0:0:
345,250,44727,6,0,P|393:186|311:139,1,173.88000026532,6|2,0:0|1:0,0:0:0:0:
145,136,45060,2,0,L|145:56,1,57.9600000884399,4|2,0:0|1:0,0:0:0:0:
209,152,45227,2,0,L|120:149,1,57.9600000884399,8|8,0:0|0:0,0:0:0:0:
335,226,45393,2,0,L|393:223,1,57.9600000884399,2|4,1:0|0:0,0:0:0:0:
335,226,45560,6,0,L|270:216,1,57.9600000884399,8|4,0:0|0:0,0:0:0:0:
56,94,45727,1,2,0:1:0:0:
90,91,45768,1,0,0:0:0:0:
125,90,45810,1,2,1:0:0:0:
264,43,45893,2,0,L|348:43,2,57.9600000884399,2|8|2,0:0|0:0|1:0,0:0:0:0:
424,180,46143,2,0,L|421:114,1,57.9600000884399,2|2,0:0|1:0,0:0:0:0:
249,101,46310,1,2,0:0:0:0:
417,125,46393,6,0,L|274:128,1,115.92000017688,6|0,0:0|0:0,0:0:0:0:
243,126,46643,1,2,1:0:0:0:
393,221,46726,2,0,L|475:222,1,57.9600000884399,2|2,0:0|1:0,0:0:0:0:
457,158,46893,2,0,L|400:160,1,57.9600000884399,0|2,0:0|1:0,0:0:0:0:
231,305,47059,2,0,L|167:302,1,57.9600000884399,2|2,1:0|0:0,0:0:0:0:
377,228,47226,6,0,L|448:217,1,57.9600000884399,8|0,0:0|0:0,0:0:0:0:
438,142,47393,2,0,L|348:144,1,57.9600000884399,0|2,0:0|1:0,0:0:0:0:
220,43,47560,2,0,L|127:43,2,57.9600000884399,2|2|2,0:0|1:0|0:0,0:0:0:0:
57,190,47809,2,0,L|47:131,1,57.9600000884399,8|8,0:0|0:0,0:0:0:0:
218,155,47976,1,2,0:0:0:0:
51,129,48060,6,0,L|202:132,1,115.92000017688,6|0,0:0|0:0,0:0:0:0:
236,136,48310,1,2,1:0:0:0:
436,107,48393,2,0,L|434:47,1,57.9600000884399,2|2,0:0|1:0,0:0:0:0:
282,33,48559,2,0,L|209:33,1,57.9600000884399,8|8,0:0|0:0,0:0:0:0:
405,193,48726,2,0,L|473:186,1,57.9600000884399,2|2,1:0|0:0,0:0:0:0:
254,326,48893,6,0,L|254:255,1,57.9600000884399,8|4,0:0|0:0,0:0:0:0:
82,194,49060,1,2,0:1:0:0:
35,163,49101,1,0,0:0:0:0:
35,132,49143,1,2,1:0:0:0:
234,74,49226,2,0,L|307:74,1,57.9600000884399,2|8,0:0|0:0,0:0:0:0:
239,149,49393,2,0,L|180:149,2,57.9600000884399,2|2|2,1:0|0:0|1:0,0:0:0:0:
398,146,49643,1,2,0:0:0:0:
239,149,49726,6,0,L|88:153,1,115.92000017688,6|0,0:0|0:0,0:0:0:0:
182,150,49976,1,2,1:0:0:0:
343,159,50059,2,0,L|417:155,1,57.9600000884399,2|2,0:0|1:0,0:0:0:0:
237,125,50226,2,0,L|228:59,1,57.9600000884399,0|2,0:0|1:0,0:0:0:0:
286,48,50393,1,2,1:0:0:0:
450,44,50477,1,2,0:0:0:0:
286,48,50559,6,0,L|286:119,1,57.9600000884399,8|0,0:0|0:0,0:0:0:0:
453,182,50726,2,0,L|499:102,1,57.9600000884399,8|0,0:0|0:0,0:0:0:0:
218,47,50893,2,0,L|144:47,1,57.9600000884399,2|2,0:0|1:0,0:0:0:0:
388,93,51059,2,0,L|447:93,1,57.9600000884399,2|2,0:0|0:0,0:0:0:0:
388,93,51226,2,0,L|283:90,1,57.9600000884399,8|2,0:0|0:0,0:0:0:0:
79,263,51400,6,0,L|70:359,1,52.5,6|0,0:0|0:0,0:0:0:0:
308,256,51566,2,0,L|237:253,1,52.5,8|0,0:0|0:0,0:0:0:0:
188,228,51733,2,0,L|136:175,1,52.5,8|0,0:0|0:0,0:0:0:0:
443,96,51900,2,0,L|494:96,1,52.5,6|0,0:0|0:0,0:0:0:0:
313,148,52066,2,0,L|261:149,1,52.5,8|2,0:0|0:1,0:0:0:0:
178,87,52233,2,0,L|230:87,1,52.5,8|0,0:0|0:0,0:0:0:0:
483,21,52400,6,0,L|422:43,1,52.5,6|0,0:0|0:0,0:0:0:0:
166,136,52566,2,0,L|241:139,1,52.5,8|2,0:0|0:1,0:0:0:0:
302,158,52733,2,0,L|299:261,1,52.5,8|0,0:0|0:0,0:0:0:0:
72,304,52900,2,0,L|-18:312,1,52.5,6|2,0:0|0:1,0:0:0:0:
214,121,53066,2,0,L|296:130,1,52.5,8|0,0:0|0:0,0:0:0:0:
478,194,53233,2,0,L|426:183,1,52.5,8|0,0:0|0:0,0:0:0:0:
192,192,53400,6,0,L|32:192,1,126,6|0,0:0|0:0,0:0:0:0:
226,212,53816,1,2,0:3:0:0:
55,191,53983,1,2,0:3:0:0:
263,205,54233,2,0,L|135:205,1,105,4|0,0:3|0:0,0:0:0:0:
368,48,54483,6,0,L|480:48,1,105,6|0,0:0|0:0,0:0:0:0:
256,192,54733,2,0,L|352:192,1,52.5,6|0,0:0|0:1,0:0:0:0:
80,224,54900,2,0,L|80:352,1,105,2|0,0:1|0:0,0:0:0:0:
256,176,55150,2,0,L|112:176,1,105,2|0,0:1|0:0,0:0:0:0:
244,161,55400,2,0,L|372:161,1,105,2|0,0:1|0:0,0:0:0:0:
48,64,55650,2,0,L|160:64,1,105,6|0,0:0|0:0,0:0:0:0:
404,68,55900,6,0,P|472:128|384:176,1,210,6|0,0:0|0:0,0:0:0:0:
192,32,56441,6,0,P|120:48|40:288,1,354.375013518334,8|0,0:0|0:0,0:0:0:0:
350,333,56900,6,0,L|501:326,1,125.999996154785,6|8,0:1|0:0,0:0:0:0:
299,203,57233,2,0,L|201:203,1,62.9999980773926,8|0,0:0|0:0,0:0:0:0:
426,19,57400,2,0,L|416:94,1,62.9999980773926,2|8,0:0|0:0,0:0:0:0:
198,85,57566,2,0,L|275:84,1,62.9999980773926,8|2,0:0|0:0,0:0:0:0:
86,161,57733,2,0,L|177:160,1,62.9999980773926,8|0,0:0|0:0,0:0:0:0:
384,187,57900,5,2,0:0:0:0:
255,197,58066,2,0,L|254:107,1,62.9999980773926,0|8,0:0|0:0,0:0:0:0:
448,187,58233,2,0,L|376:187,1,62.9999980773926,8|8,0:0|0:0,0:0:0:0:
186,111,58400,2,0,L|117:111,1,62.9999980773926,8|8,0:0|0:0,0:0:0:0:
327,37,58566,2,0,L|476:55,1,125.999996154785,2|2,0:0|0:1,0:0:0:0:
404,93,58816,1,2,0:1:0:0:
114,323,58899,6,0,L|113:187,1,125.999996154785,6|2,0:0|0:1,0:0:0:0:
191,166,59149,1,0,0:0:0:0:
449,73,59233,2,0,L|268:66,1,125.999996154785,8|2,0:0|0:1,0:0:0:0:
190,46,59566,2,0,L|378:39,1,125.999996154785,2|2,0:0|0:0,0:0:0:0:
162,99,59816,1,2,0:0:0:0:
315,41,59899,6,0,P|421:112|322:210,1,251.999992309571,12|2,0:0|0:1,0:0:0:0:
221,249,60399,1,8,0:0:0:0:
62,241,60566,1,2,0:1:0:0:
221,249,60733,1,2,0:0:0:0:
62,241,60816,1,2,0:0:0:0:
221,249,60899,6,0,L|372:264,1,125.999996154785,12|0,0:0|0:0,0:0:0:0:
229,155,61232,2,0,L|391:143,1,125.999996154785,8|2,0:0|0:0,0:0:0:0:
117,48,61565,2,0,L|31:43,1,62.9999980773926,2|2,0:0|0:0,0:0:0:0:
291,27,61732,6,0,L|441:21,1,125.999996154785,12|2,0:0|0:0,0:0:0:0:
256,103,62065,1,8,0:0:0:0:
495,251,62232,2,0,L|489:104,1,125.999996154785,2|2,0:0|0:0,0:0:0:0:
330,119,62482,1,2,0:0:0:0:
489,125,62565,6,0,L|340:138,1,125.999996154785,6|0,0:0|0:0,0:0:0:0:
423,154,62815,1,8,0:0:0:0:
230,208,62898,1,8,0:0:0:0:
367,164,63065,2,0,L|218:151,2,125.999996154785,2|2|2,0:0|0:0|0:0,0:0:0:0:
296,181,63481,1,2,0:1:0:0:
70,264,63565,6,0,L|196:265,1,125.999996154785,6|0,0:0|0:0,0:0:0:0:
78,255,63898,2,0,L|49:112,1,125.999996154785,2|8,0:0|0:0,0:0:0:0:
207,87,64148,1,8,0:0:0:0:
362,42,64231,2,0,L|487:50,1,125.999996154785,2|6,0:1|0:0,0:0:0:0:
224,192,64565,6,0,L|199:109,1,52.5,8|2,0:0|0:3,0:0:0:0:
288,192,64731,2,0,L|323:142,1,52.5,2|8,0:0|0:0,0:0:0:0:
224,208,64898,2,0,L|176:176,1,52.5,2|2,0:3|0:3,0:0:0:0:
288,208,65065,2,0,L|368:208,1,52.5,2|2,0:3|0:3,0:0:0:0:
144,224,65231,1,2,0:3:0:0:
64,192,65314,1,2,0:3:0:0:
64,128,65397,1,2,0:3:0:0:
144,160,65481,1,2,0:3:0:0:
377,21,65565,5,4,0:1:0:0:
300,26,65898,1,2,0:1:0:0:
226,46,66231,1,2,0:1:0:0:
164,91,66565,1,2,0:1:0:0:
93,155,67065,1,8,0:0:0:0:
221,180,67231,1,2,0:0:0:0:
93,155,67398,1,2,0:0:0:0:
256,64,67731,2,0,B|493:41|493:41|495:289|495:289|381:89,1,656.25,6|0,0:0|0:0,0:0:0:0:
256,96,68231,5,12,0:0:0:0:
48,96,68315,1,2,0:0:0:0:
16,96,68481,1,2,0:1:0:0:
224,96,68565,1,2,0:0:0:0:
128,32,68731,2,0,L|64:32,1,57.7500017623902,2|8,0:0|0:0,0:0:0:0:
304,32,68898,1,0,0:0:0:0:
304,80,68981,1,2,0:1:0:0:
128,96,69065,2,0,L|195:94,1,57.7500017623902,8|0,0:0|0:0,0:0:0:0:
336,112,69231,2,0,L|400:112,1,57.7500017623902,2|0,0:0|0:0,0:0:0:0:
144,208,69398,2,0,L|201:203,1,57.7500017623902,8|8,0:0|0:0,0:0:0:0:
363,196,69565,5,2,0:0:0:0:
433,196,69648,1,2,0:1:0:0:
433,196,69731,1,2,0:1:0:0:
367,199,69814,1,2,0:1:0:0:
198,94,69897,1,2,0:1:0:0:
198,158,69980,1,2,0:1:0:0:
338,220,70064,1,2,0:1:0:0:
405,224,70147,1,2,0:1:0:0:
198,158,70231,1,8,0:0:0:0:
294,85,70398,2,0,L|399:95,1,57.7500017623902,2|2,0:0|0:0,0:0:0:0:
171,55,70565,1,8,0:0:0:0:
226,52,70648,1,2,0:0:0:0:
379,26,70731,1,8,0:0:0:0:
323,25,70814,1,2,0:0:0:0:
167,61,70898,6,0,L|338:66,1,125.999996154785,6|0,0:1|0:0,0:0:0:0:
229,89,71148,1,2,0:0:0:0:
59,212,71231,2,0,L|208:212,1,125.999996154785,8|2,0:0|0:0,0:0:0:0:
244,213,71481,1,0,0:0:0:0:
37,134,71564,2,0,L|169:131,1,125.999996154785,8|2,0:0|0:0,0:0:0:0:
429,63,71898,2,0,L|303:61,1,125.999996154785,8|0,0:0|0:0,0:0:0:0:
50,231,72231,5,6,0:0:0:0:
174,220,72398,2,0,L|96:211,1,62.9999980773926,0|2,0:0|0:0,0:0:0:0:
287,123,72564,2,0,L|135:125,1,125.999996154785,8|2,0:0|0:0,0:0:0:0:
108,140,72814,1,2,0:0:0:0:
319,221,72898,2,0,L|447:218,1,125.999996154785,8|2,0:0|0:0,0:0:0:0:
81,82,73231,2,0,L|206:79,1,125.999996154785,8|0,0:0|0:0,0:0:0:0:
435,301,73564,6,0,L|432:134,1,125.999996154785,6|0,0:0|0:0,0:0:0:0:
380,151,73814,1,2,0:0:0:0:
81,82,73898,2,0,L|232:80,1,125.999996154785,8|2,0:0|0:0,0:0:0:0:
155,100,74148,1,0,0:0:0:0:
464,92,74231,2,0,L|312:92,1,125.999996154785,8|2,0:0|0:0,0:0:0:0:
65,293,74564,2,0,L|201:293,1,125.999996154785,2|8,0:0|0:0,0:0:0:0:
483,155,74898,6,0,L|352:152,1,125.999996154785,6|0,0:0|0:0,0:0:0:0:
302,153,75148,1,2,0:0:0:0:
483,155,75231,2,0,L|330:159,1,125.999996154785,8|2,0:0|0:0,0:0:0:0:
200,182,75481,1,2,0:0:0:0:
357,152,75564,2,0,L|289:149,1,62.9999980773926,8|0,0:0|0:0,0:0:0:0:
153,172,75731,2,0,L|83:175,1,62.9999980773926,2|0,0:0|0:0,0:0:0:0:
280,94,75898,2,0,L|210:100,1,62.9999980773926,8|8,0:0|0:0,0:0:0:0:
367,148,76064,2,0,L|450:146,1,62.9999980773926,2|2,0:1|0:1,0:0:0:0:
236,225,76231,6,0,L|95:219,1,125.999996154785,6|0,0:0|0:0,0:0:0:0:
158,163,76481,1,2,0:0:0:0:
354,161,76564,2,0,P|337:106|354:28,1,125.999996154785,8|2,0:0|0:0,0:0:0:0:
412,57,76814,1,0,0:0:0:0:
194,41,76898,2,0,L|68:43,1,125.999996154785,8|2,0:0|0:0,0:0:0:0:
317,248,77231,2,0,L|155:246,1,125.999996154785,8|2,0:0|1:0,0:0:0:0:
456,181,77564,6,0,P|478:125|421:78,1,125.999996154785,6|0,0:0|0:0,0:0:0:0:
152,33,77814,6,0,P|54:110|137:178,1,251.999992309571,6|0,0:0|0:0,0:0:0:0:
302,49,78231,1,8,0:0:0:0:
121,178,78314,1,2,0:0:0:0:
302,49,78564,1,2,0:0:0:0:
374,63,78647,1,2,0:0:0:0:
378,127,78730,1,2,0:1:0:0:
307,153,78813,1,2,0:1:0:0:
134,88,78898,6,0,P|95:169|137:197,1,157.5,2|8,0:0|0:0,0:0:0:0:
299,231,79231,1,2,0:0:0:0:
153,200,79398,2,0,L|68:195,1,52.5,0|8,0:0|0:0,0:0:0:0:
312,133,79564,2,0,L|442:133,1,105,2|0,0:0|0:0,0:0:0:0:
375,115,79814,1,8,0:0:0:0:
162,86,79898,2,0,L|95:92,1,52.5,2|2,0:0|0:1,0:0:0:0:
62,150,80064,2,0,L|70:227,1,52.5,2|2,0:1|0:1,0:0:0:0:
144,277,80231,2,0,L|86:276,1,52.5,2|2,0:1|0:1,0:0:0:0:
173,218,80398,2,0,L|239:215,1,52.5,2|0,0:1|0:1,0:0:0:0:
385,226,80564,6,0,P|408:163|366:138,1,105,6|0,0:0|0:0,0:0:0:0:
318,149,80814,1,8,0:0:0:0:
154,155,80898,2,0,P|131:92|167:77,1,105,2|8,0:0|0:0,0:0:0:0:
215,64,81148,1,8,0:0:0:0:
58,195,81231,2,0,L|30:124,1,52.5,2|0,0:0|0:0,0:0:0:0:
193,99,81398,2,0,L|266:99,1,52.5,2|0,0:0|0:0,0:0:0:0:
400,80,81564,6,0,L|492:80,1,52.5,8|2,0:0|0:1,0:0:0:0:
208,224,81731,2,0,L|106:226,1,52.5,8|2,0:0|0:1,0:0:0:0:
304,160,81898,1,2,0:0:0:0:
352,160,81981,1,2,0:0:0:0:
352,128,82064,1,2,0:1:0:0:
304,128,82147,1,2,0:1:0:0:
40,36,82231,6,0,L|60:146,1,62.9999980773926,6|2,0:0|0:1,0:0:0:0:
113,111,82397,2,0,L|132:221,1,62.9999980773926,8|2,0:0|0:1,0:0:0:0:
186,186,82564,2,0,L|206:296,1,62.9999980773926,8|2,0:0|0:1,0:0:0:0:
429,252,82731,2,0,L|460:144,1,62.9999980773926,2|2,0:0|0:1,0:0:0:0:
393,150,82897,2,0,L|378:65,1,62.9999980773926,8|2,0:0|0:1,0:0:0:0:
315,77,83064,2,0,L|290:6,1,62.9999980773926,8|2,0:0|0:1,0:0:0:0:
106,123,83231,6,0,L|15:123,1,62.9999980773926,2|2,0:0|0:1,0:0:0:0:
103,235,83397,2,0,L|169:237,1,62.9999980773926,8|2,0:0|0:1,0:0:0:0:
261,243,83564,2,0,L|372:241,1,62.9999980773926,8|2,0:0|0:1,0:0:0:0:
87,182,83731,2,0,L|78:95,1,62.9999980773926,2|2,0:0|0:1,0:0:0:0:
164,95,83897,2,0,L|242:88,1,62.9999980773926,8|2,0:0|0:1,0:0:0:0:
293,15,84064,2,0,L|215:13,1,62.9999980773926,8|2,0:0|0:1,0:0:0:0:
440,223,84231,6,0,L|438:138,1,62.9999980773926,6|2,0:0|0:1,0:0:0:0:
257,132,84397,2,0,L|185:136,1,62.9999980773926,8|2,0:0|0:1,0:0:0:0:
130,141,84564,2,0,L|199:135,1,62.9999980773926,10|2,0:0|0:1,0:0:0:0:
374,34,84731,2,0,L|374:110,1,62.9999980773926,6|2,0:0|0:1,0:0:0:0:
218,188,84897,2,0,L|216:264,1,62.9999980773926,10|2,0:0|0:1,0:0:0:0:
120,276,85064,2,0,L|113:386,1,62.9999980773926,8|2,0:0|0:1,0:0:0:0:
351,286,85231,6,0,L|441:279,1,62.9999980773926,2|2,0:0|0:1,0:0:0:0:
124,164,85397,2,0,L|118:83,1,62.9999980773926,8|2,0:0|0:1,0:0:0:0:
186,13,85564,2,0,L|73:20,1,62.9999980773926,8|2,0:0|0:1,0:0:0:0:
384,6,85731,2,0,L|480:13,1,62.9999980773926,2|2,0:0|0:1,0:0:0:0:
224,112,85897,1,8,0:0:0:0:
160,128,85980,1,2,0:1:0:0:
160,192,86063,1,8,0:0:0:0:
224,208,86146,1,2,0:1:0:0:
450,162,86231,6,0,L|440:88,1,62.9999980773926,6|2,0:0|0:1,0:0:0:0:
291,146,86397,2,0,L|228:149,1,62.9999980773926,8|2,0:0|0:1,0:0:0:0:
36,95,86564,2,0,L|99:95,1,62.9999980773926,8|2,0:0|0:1,0:0:0:0:
323,20,86731,2,0,L|317:106,1,62.9999980773926,6|2,0:0|0:1,0:0:0:0:
151,179,86897,2,0,L|76:185,1,62.9999980773926,8|2,0:0|0:1,0:0:0:0:
390,245,87064,2,0,L|327:245,1,62.9999980773926,8|2,0:0|0:1,0:0:0:0:
74,108,87231,6,0,L|48:42,1,62.9999980773926,6|2,0:0|0:1,0:0:0:0:
202,12,87397,2,0,L|266:10,1,62.9999980773926,8|2,0:0|0:1,0:0:0:0:
484,58,87587,2,0,L|421:57,1,62.9999980773926,8|2,0:0|0:1,0:0:0:0:
300,104,87732,2,0,L|247:104,1,47.2499985580445,6|2,0:0|0:1,0:0:0:0:
90,209,87940,2,0,L|33:208,2,41.9999987182618,8|2|2,0:0|0:1|0:1,0:0:0:0:
215,138,88106,2,0,L|259:138,1,31.4999990386963,8|2,0:0|0:1,0:0:0:0:
281,138,88190,1,2,0:1:0:0:
144,32,88255,6,0,L|-16:32,1,125.999996154785,6|0,0:0|0:0,0:0:0:0:
256,160,88480,2,0,L|96:160,1,125.999996154785,6|0,0:0|0:0,0:0:0:0:
384,272,88730,2,0,L|464:272,1,62.9999980773926,6|0,0:0|0:0,0:0:0:0:
256,320,88896,2,0,L|16:320,1,188.999994232178,6|0,0:0|0:0,0:0:0:0:
384,192,89230,6,0,L|256:192,1,125.999996154785,6|0,0:0|0:0,0:0:0:0:
32,48,89479,2,0,L|176:48,1,125.999996154785,6|0,0:0|0:0,0:0:0:0:
352,37,89729,2,0,P|496:192|336:336,1,472.500018024445,6|2,0:0|0:3,0:0:0:0:
