osu file format v14

[General]
AudioFilename: audio.mp3
AudioLeadIn: 0
PreviewTime: 55995
Countdown: 0
SampleSet: Soft
StackLeniency: 0.7
Mode: 2
LetterboxInBreaks: 0
WidescreenStoryboard: 0

[Editor]
DistanceSpacing: 1.1
BeatDivisor: 4
GridSize: 4
TimelineZoom: 4.259998

[Metadata]
Title:asura
TitleUnicode:asura
Artist:Co shu Nie
ArtistUnicode:Cö shu Nie
Creator:skill issue lol
Version:afb's platter
Source:
Tags:fayew baron alienflybot autofanboy afb ymiir fii -wwwww アスラ rock alternative experimental Aurora EP japanese pop Miku Nakamura コシュニエ 中村未来 Shunsuke Matsumoto 松本駿介 Ryosuke Fujita 藤田亮介 j-pop jpop j-rock jrock math
BeatmapID:2308293
BeatmapSetID:1101376

[Difficulty]
HPDrainRate:5
CircleSize:3.5
OverallDifficulty:8
ApproachRate:8
SliderMultiplier:1.75
SliderTickRate:2

[Events]
//Background and Video events
0,0,"asura.jpg",0,0
//Break Periods
//Storyboard Layer 0 (Background)
//Storyboard Layer 1 (Fail)
//Storyboard Layer 2 (Pass)
//Storyboard Layer 3 (Foreground)
//Storyboard Layer 4 (Overlay)
//Storyboard Sound Samples

[TimingPoints]
399,333.333333333333,4,2,2,50,1,0
3065,-100,4,2,2,50,0,0
4398,333.333333333333,5,2,2,50,1,0
6065,333.333333333333,3,2,2,50,1,0
10064,333.333333333333,5,2,2,50,1,0
11730,333.333333333333,3,2,2,50,1,0
12729,333.333333333333,4,2,2,50,1,0
14062,333.333333333333,4,2,2,50,1,1
14062,-100,4,2,2,50,0,1
30061,-100,4,2,2,50,0,0
32728,333.333333333333,3,2,2,50,1,0
44727,416.666666666667,4,2,2,50,1,0
44727,-80,4,2,2,50,0,0
51400,333.333333333333,3,2,2,50,1,0
53400,333.333333333333,5,2,2,50,1,0
54900,333.333333333333,3,2,2,50,1,0
56400,-100,3,2,2,50,0,0
56816,-100,3,2,2,5,0,0
56900,333.333333333333,3,2,2,50,1,1
56900,-100,3,2,2,50,0,1
60899,333.333333333333,5,2,2,50,1,0
60899,-100,5,2,2,50,0,1
62565,333.333333333333,3,2,2,50,1,0
62565,-100,3,2,2,50,0,1
64565,-100,3,2,2,50,0,0
65565,333.333333333333,4,1,0,50,1,0
67731,-100,3,2,2,50,0,0
68231,-100,3,2,2,50,0,1
70565,-100,3,2,2,50,0,0
70898,-100,4,2,2,50,0,1
77898,-100,3,2,2,50,0,1
78898,333.333333333333,5,2,2,50,1,0
82231,333.333333333333,3,2,2,50,1,0
82231,-100,3,2,2,50,0,0
87587,333.333333333333,3,2,2,50,1,0
87940,333.333333333333,3,2,2,50,1,0
88255,333.333333333333,3,2,2,50,1,0
88480,333.333333333333,4,2,2,50,1,0
89729,-100,3,2,2,50,0,0

[Colours]
Combo1 : 130,238,254
Combo2 : 246,138,146
Combo3 : 141,164,242
Combo4 : 238,221,146

[HitObjects]
220,340,3065,6,0,P|239:279|207:224,1,131.25,8|8,0:0|0:0,0:0:0:0:
112,192,3482,2,0,L|24:192,1,87.5,2|2,0:1|0:1,0:0:0:0:
72,192,3732,1,2,0:1:0:0:
316,192,3898,6,0,L|448:192,2,131.25,8|8|4,0:0|0:0|0:0,0:0:0:0:
480,192,4732,2,0,L|488:104,1,87.5,8|8,0:0|0:0,0:0:0:0:
256,68,5065,1,4,0:0:0:0:
120,104,5315,5,8,0:0:0:0:
84,136,5398,1,8,0:0:0:0:
72,184,5482,1,8,0:0:0:0:
84,232,5565,1,8,0:0:0:0:
120,264,5648,1,8,0:0:0:0:
168,272,5732,2,0,L|256:272,1,87.5,8|0,0:3|0:0,0:0:0:0:
24,308,6065,6,0,L|16:220,1,87.5,6|8,0:0|0:0,0:0:0:0:
112,188,6398,1,8,0:0:0:0:
208,220,6564,2,0,L|216:132,1,87.5,2|4,0:0|0:0,0:0:0:0:
120,96,6898,1,2,0:0:0:0:
291,59,7064,6,0,P|339:125|287:188,1,175,2|4,0:1|0:0,0:0:0:0:
192,188,7564,1,2,0:1:0:0:
96,188,7731,1,8,0:0:0:0:
104,224,7856,1,8,0:0:0:0:
136,260,7981,1,4,0:0:0:0:
224,260,8064,6,0,L|312:260,2,87.5,6|8|2,0:0|0:0|0:0,0:0:0:0:
320,296,8564,2,0,L|328:208,1,87.5,8|2,0:0|0:0,0:0:0:0:
232,176,8898,1,8,0:0:0:0:
460,244,9064,6,0,P|508:178|456:115,1,175,2|2,0:1|0:1,0:0:0:0:
360,80,9564,2,0,L|272:80,2,87.5,2|0|8,0:0|0:0|0:0,0:0:0:0:
132,48,10064,6,0,P|52:77|20:156,1,175,6|2,0:0|0:1,0:0:0:0:
108,192,10564,2,0,L|196:192,1,87.5,8|8,0:0|0:0,0:0:0:0:
364,228,10897,6,0,P|331:306|251:335,1,175,12|8,0:0|0:0,0:0:0:0:
156,372,11397,2,0,L|148:284,1,87.5,2|8,0:0|0:0,0:0:0:0:
376,248,11730,6,0,L|508:248,2,131.25,4|8|2,0:0|0:0|0:0,0:0:0:0:
208,212,12396,2,0,L|120:212,1,87.5,8|8,0:0|0:0,0:0:0:0:
356,176,12729,6,0,P|404:110|352:47,1,175,6|2,0:0|0:0,0:0:0:0:
256,12,13229,2,0,L|344:12,1,87.5,8|2,0:0|0:1,0:0:0:0:
176,12,13562,2,0,L|88:12,1,87.5,6|2,0:0|0:3,0:0:0:0:
56,48,13812,1,2,0:3:0:0:
88,84,13895,1,2,0:3:0:0:
328,84,14062,6,0,P|408:112|441:190,1,175,4|8,0:1|0:0,0:0:0:0:
316,192,14645,1,0,0:0:0:0:
268,192,14728,2,0,L|260:280,1,87.5,2|8,0:0|0:0,0:0:0:0:
428,312,15062,1,8,0:0:0:0:
260,348,15395,6,0,L|172:348,1,87.5,6|8,0:0|0:0,0:0:0:0:
264,312,15728,1,8,0:0:0:0:
436,280,15895,2,0,P|403:202|323:173,1,175,2|2,0:0|0:0,0:0:0:0:
416,116,16395,2,0,L|504:116,1,87.5,8|8,0:0|0:0,0:0:0:0:
276,84,16728,6,0,P|196:112|163:190,1,175,2|8,0:1|0:0,0:0:0:0:
256,224,17228,2,0,L|264:312,1,87.5,8|2,0:0|0:0,0:0:0:0:
96,344,17562,2,0,L|8:344,2,87.5,8|8|0,0:0|0:0|0:0,0:0:0:0:
264,344,18062,6,0,P|344:316|377:238,1,175,2|8,0:1|0:0,0:0:0:0:
284,204,18562,2,0,L|276:116,1,87.5,8|2,0:0|0:0,0:0:0:0:
444,152,18895,2,0,L|452:64,1,87.5,2|8,0:1|0:0,0:0:0:0:
356,32,19228,1,8,0:0:0:0:
128,32,19395,6,0,P|80:98|132:161,1,175,4|8,0:1|0:0,0:0:0:0:
256,160,19978,1,0,0:0:0:0:
304,160,20062,2,0,L|217:160,1,87.5,8|2,0:0|0:0,0:0:0:0:
48,192,20395,1,8,0:0:0:0:
212,192,20728,6,0,L|300:192,1,87.5,2|0,0:0|0:0,0:0:0:0:
468,228,21062,2,0,L|293:228,2,175,10|8|8,0:0|0:0|0:0,0:0:0:0:
372,228,21895,1,8,0:0:0:0:
140,228,22062,6,0,P|92:294|144:357,1,175,6|2,0:0|0:0,0:0:0:0:
240,356,22562,2,0,L|248:268,1,87.5,2|2,0:1|0:0,0:0:0:0:
152,236,22895,1,8,0:0:0:0:
380,236,23062,1,2,0:0:0:0:
224,200,23395,6,0,P|144:171|112:93,1,175,6|2,0:0|0:0,0:0:0:0:
236,60,23978,1,0,0:0:0:0:
284,60,24062,2,0,L|292:148,1,87.5,8|8,0:0|0:0,0:0:0:0:
124,180,24395,1,8,0:0:0:0:
121,223,24478,1,8,0:0:0:0:
118,266,24562,1,8,0:0:0:0:
348,300,24728,6,0,P|428:272|461:194,1,175,4|2,0:1|0:0,0:0:0:0:
336,192,25311,1,8,0:0:0:0:
288,192,25395,2,0,L|280:104,1,87.5,2|8,0:0|0:0,0:0:0:0:
448,72,25728,1,2,0:0:0:0:
292,72,26062,6,0,L|204:72,1,87.5,6|8,0:0|0:0,0:0:0:0:
296,108,26395,1,8,0:0:0:0:
124,108,26562,2,0,P|156:188|236:216,1,175,2|2,0:0|0:0,0:0:0:0:
148,248,27062,2,0,L|60:248,1,87.5,8|2,0:0|0:0,0:0:0:0:
292,368,27395,6,0,P|340:302|288:239,1,175,6|8,0:0|0:0,0:0:0:0:
164,204,27978,1,8,0:0:0:0:
116,204,28062,2,0,L|203:204,1,87.5,8|8,0:0|0:0,0:0:0:0:
372,168,28395,2,0,L|460:168,2,87.5,2|8|6,0:0|0:0|0:0,0:0:0:0:
116,136,29062,5,2,0:0:0:0:
68,144,29145,1,2,0:0:0:0:
32,176,29228,1,2,0:0:0:0:
20,224,29312,1,2,0:0:0:0:
32,272,29395,1,2,0:0:0:0:
68,304,29478,1,8,0:0:0:0:
116,312,29562,2,0,L|204:312,2,87.5,2|2|2,0:1|0:1|0:1,0:0:0:0:
344,348,30062,5,4,0:0:0:0:
168,348,30562,1,0,0:0:0:0:
409,324,31062,2,0,L|438:30,1,291.666666666667,4|4,0:0|0:0,0:0:0:0:
216,260,32062,6,0,L|128:260,1,87.5,2|4,0:1|0:0,0:0:0:0:
296,260,32395,1,8,0:0:0:0:
340,260,32478,1,8,0:0:0:0:
384,260,32562,1,8,0:0:0:0:
156,224,32728,6,0,L|24:224,2,131.25,6|8|2,0:1|0:0|0:0,0:0:0:0:
324,224,33394,1,8,0:0:0:0:
156,192,33728,5,4,0:0:0:0:
256,192,33978,1,8,0:0:0:0:
356,192,34228,1,2,0:0:0:0:
188,160,34394,2,0,L|180:72,1,87.5,8|8,0:0|0:0,0:0:0:0:
416,40,34728,6,0,P|464:106|412:169,1,175,6|8,0:0|0:0,0:0:0:0:
316,200,35228,1,2,0:0:0:0:
484,236,35394,2,0,L|492:324,1,87.5,2|8,0:0|0:0,0:0:0:0:
396,356,35728,1,2,0:0:0:0:
168,356,35894,6,0,L|343:356,1,175,2|2,0:0|0:0,0:0:0:0:
176,320,36394,2,0,L|168:232,1,87.5,8|8,0:0|0:0,0:0:0:0:
412,200,36727,5,6,0:0:0:0:
440,128,36894,1,8,0:0:0:0:
412,56,37061,1,8,0:0:0:0:
340,24,37227,1,2,0:0:0:0:
172,24,37394,1,8,0:0:0:0:
344,60,37727,6,0,L|169:60,1,175,2|8,0:0|0:0,0:0:0:0:
264,60,38227,1,2,0:0:0:0:
432,92,38394,2,0,L|344:92,1,87.5,8|8,0:0|0:0,0:0:0:0:
104,92,38727,6,0,P|56:158|108:221,1,175,6|8,0:0|0:0,0:0:0:0:
204,220,39227,1,2,0:0:0:0:
36,256,39394,2,0,L|28:344,1,87.5,8|2,0:0|0:0,0:0:0:0:
256,376,39727,5,6,0:0:0:0:
328,344,39893,1,0,0:0:0:0:
356,272,40060,1,2,0:0:0:0:
328,200,40227,1,2,0:0:0:0:
256,168,40394,1,2,0:0:0:0:
92,168,40727,6,0,L|84:80,1,87.5,4|8,0:0|0:0,0:0:0:0:
180,48,41061,1,2,0:0:0:0:
276,12,41227,2,0,L|364:12,2,87.5,4|8|2,0:0|0:0|0:0,0:0:0:0:
444,48,41727,6,0,P|411:126|331:154,1,175,4|2,0:0|0:0,0:0:0:0:
236,120,42227,2,0,L|228:208,1,87.5,4|8,0:0|0:0,0:0:0:0:
484,176,42727,6,0,L|499:350,1,175,4|2,0:0|0:0,0:0:0:0:
404,384,43227,2,0,L|316:384,2,87.5,8|8|2,0:0|0:0|0:0,0:0:0:0:
236,352,43727,6,0,P|155:324|122:246,1,175,4|2,0:0|0:0,0:0:0:0:
216,212,44227,1,2,0:0:0:0:
312,176,44394,2,0,L|320:88,1,87.5,8|2,0:0|0:0,0:0:0:0:
80,56,44727,6,0,P|32:122|84:185,1,175,6|4,0:0|0:0,0:0:0:0:
188,220,45310,1,8,0:0:0:0:
396,256,45560,2,0,L|221:256,1,175,8|2,0:0|0:0,0:0:0:0:
116,256,46143,1,2,0:0:0:0:
452,292,46393,6,0,P|500:226|448:163,1,175,6|2,0:0|0:0,0:0:0:0:
344,128,46976,1,2,1:0:0:0:
140,96,47227,2,0,L|315:96,1,175,8|2,0:0|0:0,0:0:0:0:
420,96,47810,1,8,0:0:0:0:
108,60,48060,6,0,P|141:138|222:165,1,175,6|2,0:0|0:0,0:0:0:0:
116,200,48643,1,8,0:0:0:0:
320,200,48893,2,0,P|400:227|434:305,1,175,8|2,0:0|0:0,0:0:0:0:
328,340,49476,1,2,0:0:0:0:
16,340,49726,6,0,L|0:165,1,175,6|2,0:0|0:0,0:0:0:0:
104,132,50310,1,2,1:0:0:0:
308,204,50560,2,0,L|316:116,1,87.5,8|8,0:0|0:0,0:0:0:0:
220,84,50893,2,0,L|45:84,1,175,2|8,0:0|0:0,0:0:0:0:
304,52,51400,6,0,L|392:52,2,87.5,6|8|8,0:0|0:0|0:0,0:0:0:0:
132,52,51900,2,0,L|124:140,1,87.5,6|8,0:0|0:0,0:0:0:0:
220,172,52233,1,8,0:0:0:0:
448,172,52400,6,0,L|456:260,1,87.5,6|8,0:0|0:0,0:0:0:0:
360,292,52733,1,8,0:0:0:0:
188,292,52900,2,0,L|100:292,2,87.5,6|8|8,0:0|0:0|0:0,0:0:0:0:
416,292,53400,1,6,0:0:0:0:
260,324,54483,6,0,L|247:193,1,131.25,6|6,0:0|0:0,0:0:0:0:
80,228,54900,2,0,L|68:97,1,131.25,2|2,0:1|0:1,0:0:0:0:
380,64,55400,1,2,0:1:0:0:
260,32,55650,2,0,L|248:162,1,131.25,6|6,0:0|0:0,0:0:0:0:
444,196,56441,2,0,P|492:262|444:313,1,153.125,8|0,0:0|0:0,0:0:0:0:
208,360,56900,6,0,L|120:360,2,87.5,6|8|8,0:1|0:0|0:0,0:0:0:0:
304,360,57400,2,0,L|392:360,2,87.5,2|8|8,0:0|0:0|0:0,0:0:0:0:
72,324,57900,6,0,L|64:236,1,87.5,2|0,0:0|0:0,0:0:0:0:
160,204,58233,1,8,0:0:0:0:
196,172,58316,1,8,0:0:0:0:
208,124,58399,1,8,0:0:0:0:
196,76,58483,1,8,0:0:0:0:
160,44,58566,2,0,L|72:44,1,87.5,2|2,0:0|0:1,0:0:0:0:
304,12,58899,6,0,P|384:38|417:117,1,175,6|8,0:0|0:0,0:0:0:0:
324,152,59399,1,2,0:1:0:0:
228,188,59566,2,0,L|220:276,1,87.5,2|2,0:0|0:0,0:0:0:0:
448,308,59899,6,0,P|496:242|444:179,1,175,12|2,0:0|0:1,0:0:0:0:
348,144,60399,2,0,L|260:144,2,87.5,8|2|2,0:0|0:1|0:0,0:0:0:0:
120,180,60899,6,0,P|72:114|124:51,1,175,12|8,0:0|0:0,0:0:0:0:
216,88,61399,2,0,L|224:176,1,87.5,2|2,0:0|0:0,0:0:0:0:
56,140,61732,6,0,L|40:314,1,175,12|8,0:0|0:0,0:0:0:0:
136,348,62232,2,0,L|224:348,1,87.5,2|2,0:0|0:0,0:0:0:0:
392,316,62565,6,0,P|440:250|388:187,1,175,6|8,0:0|0:0,0:0:0:0:
292,156,63065,2,0,L|284:68,1,87.5,2|2,0:0|0:0,0:0:0:0:
380,36,63398,1,2,0:0:0:0:
152,0,63565,6,0,P|104:66|156:129,1,175,6|2,0:0|0:0,0:0:0:0:
252,164,64065,1,8,0:0:0:0:
296,164,64148,1,8,0:0:0:0:
340,164,64231,1,2,0:1:0:0:
172,200,64398,6,0,L|84:200,2,87.5,6|8|2,0:0|0:0|0:0,0:0:0:0:
216,200,64815,1,8,0:0:0:0:
256,192,65565,12,6,67731,0:0:0:0:
436,336,68231,6,0,L|304:336,2,131.25,12|2|2,0:0|0:1|0:0,0:0:0:0:
180,372,69065,2,0,P|132:306|184:243,1,175,8|8,0:0|0:0,0:0:0:0:
412,276,69565,5,2,0:0:0:0:
416,232,69647,1,2,0:1:0:0:
420,188,69731,2,0,L|332:188,2,87.5,2|2|2,0:1|0:1|0:1,0:0:0:0:
252,156,70231,1,8,0:0:0:0:
156,156,70398,1,2,0:0:0:0:
120,188,70481,1,2,0:0:0:0:
108,236,70564,1,8,0:0:0:0:
120,284,70648,1,2,0:0:0:0:
156,316,70731,1,8,0:0:0:0:
384,352,70898,6,0,P|432:286|380:223,1,175,6|8,0:1|0:0,0:0:0:0:
256,224,71481,1,0,0:0:0:0:
208,224,71565,2,0,L|295:224,1,87.5,8|2,0:0|0:0,0:0:0:0:
464,192,71898,1,8,0:0:0:0:
300,192,72231,6,0,L|212:192,1,87.5,6|0,0:0|0:0,0:0:0:0:
44,156,72565,2,0,L|219:156,2,175,8|8|8,0:0|0:0|0:0,0:0:0:0:
140,156,73398,1,0,0:0:0:0:
372,156,73565,6,0,P|420:90|368:27,1,175,6|8,0:0|0:0,0:0:0:0:
272,28,74065,2,0,L|264:116,1,87.5,2|8,0:0|0:0,0:0:0:0:
360,148,74398,1,2,0:0:0:0:
132,148,74565,1,2,0:0:0:0:
288,184,74898,6,0,P|368:213|400:291,1,175,6|8,0:0|0:0,0:0:0:0:
276,324,75481,1,2,0:0:0:0:
228,324,75565,2,0,L|220:236,1,87.5,8|2,0:0|0:0,0:0:0:0:
388,204,75898,1,8,0:0:0:0:
391,161,75981,1,8,0:0:0:0:
394,118,76065,1,2,0:1:0:0:
164,84,76231,6,0,P|84:112|51:190,1,175,6|8,0:0|0:0,0:0:0:0:
176,192,76814,1,0,0:0:0:0:
224,192,76898,2,0,L|311:192,1,87.5,8|2,0:0|0:0,0:0:0:0:
144,228,77231,1,8,0:0:0:0:
96,228,77314,1,0,0:0:0:0:
48,228,77398,1,2,1:0:0:0:
144,264,77564,5,6,0:0:0:0:
460,300,77814,1,6,0:0:0:0:
328,336,78231,5,8,0:0:0:0:
296,300,78314,1,2,0:0:0:0:
424,232,78565,1,2,0:0:0:0:
456,196,78648,1,2,0:0:0:0:
424,160,78732,1,2,0:1:0:0:
192,124,78898,6,0,P|112:153|80:231,1,175,2|2,0:0|0:0,0:0:0:0:
208,196,79481,1,8,0:0:0:0:
256,196,79564,2,0,P|336:225|368:303,1,175,2|2,0:0|0:0,0:0:0:0:
208,336,80231,2,0,L|200:248,1,87.5,2|2,0:1|0:1,0:0:0:0:
428,216,80564,6,0,L|436:128,1,87.5,6|0,0:0|0:0,0:0:0:0:
388,128,80814,1,8,0:0:0:0:
340,128,80898,1,2,0:0:0:0:
436,96,81064,1,8,0:0:0:0:
268,64,81231,1,2,0:0:0:0:
232,96,81314,1,0,0:0:0:0:
220,144,81397,1,2,0:0:0:0:
232,192,81481,1,0,0:0:0:0:
268,224,81564,6,0,L|355:224,1,87.5,8|8,0:0|0:0,0:0:0:0:
188,260,81898,1,2,0:0:0:0:
156,296,81981,1,2,0:0:0:0:
188,332,82065,1,2,0:1:0:0:
416,368,82231,6,0,L|424:280,1,87.5,6|8,0:0|0:0,0:0:0:0:
328,248,82564,1,8,0:0:0:0:
424,248,82731,2,0,L|512:248,2,87.5,2|8|8,0:0|0:0|0:0,0:0:0:0:
256,248,83231,6,0,L|248:160,1,87.5,2|8,0:0|0:0,0:0:0:0:
344,128,83564,1,8,0:0:0:0:
440,160,83731,2,0,L|448:72,1,87.5,2|8,0:0|0:0,0:0:0:0:
352,40,84064,1,8,0:0:0:0:
124,40,84231,6,0,L|36:40,2,87.5,6|8|10,0:0|0:0|0:0,0:0:0:0:
220,72,84731,2,0,L|228:160,1,87.5,6|10,0:0|0:0,0:0:0:0:
132,192,85064,1,8,0:0:0:0:
380,192,85231,6,0,L|388:280,1,87.5,2|8,0:0|0:0,0:0:0:0:
340,272,85480,1,2,0:1:0:0:
304,240,85564,1,8,0:0:0:0:
292,192,85647,1,2,0:1:0:0:
304,144,85730,1,2,0:0:0:0:
340,112,85813,1,2,0:1:0:0:
388,104,85897,2,0,L|396:192,1,87.5,8|8,0:0|0:0,0:0:0:0:
132,368,86231,6,0,L|124:280,1,87.5,6|8,0:0|0:0,0:0:0:0:
220,248,86564,1,8,0:0:0:0:
52,212,86731,2,0,L|44:124,1,87.5,6|8,0:0|0:0,0:0:0:0:
140,92,87064,1,8,0:0:0:0:
392,356,87231,6,0,L|400:268,1,87.5,6|8,0:0|0:0,0:0:0:0:
304,236,87587,1,8,0:0:0:0:
472,204,87732,1,6,0:0:0:0:
485,118,87940,1,8,0:0:0:0:
379,69,88106,1,8,0:0:0:0:
134,55,88255,5,6,0:0:0:0:
3,55,88480,2,0,L|135:55,1,131.25,6|6,0:0|0:0,0:0:0:0:
368,56,88896,1,6,0:0:0:0:
212,92,89230,6,0,P|152:124|132:180,1,131.25,6|6,0:0|0:0,0:0:0:0:
444,180,89730,2,0,P|492:248|368:308,1,262.5,6|2,0:0|0:3,0:0:0:0:
