osu file format v14

[General]
AudioFilename: Co shu Nie - asura.mp3
AudioLeadIn: 0
PreviewTime: 14106
Countdown: 0
SampleSet: Soft
StackLeniency: 0.3
Mode: 0
LetterboxInBreaks: 0
EpilepsyWarning: 1
WidescreenStoryboard: 1

[Editor]
DistanceSpacing: 0.5
BeatDivisor: 8
GridSize: 32
TimelineZoom: 3.499999

[Metadata]
Title:asura
TitleUnicode:asura
Artist:Co shu Nie
ArtistUnicode:Cö shu Nie
Creator:frozz
Version:keevy's Expert
Source:
Tags:aurora miku nakamura コシュニエ japanese rock j-rock jrock 中村未来 -keqing keeVY Nelliel shockolatte -_Frontier_- - Frontier - M i X M_i_X mix circlenoob101 Miyazu
BeatmapID:2347017
BeatmapSetID:1122590

[Difficulty]
HPDrainRate:5.5
CircleSize:4.2
OverallDifficulty:8.5
ApproachRate:9.2
SliderMultiplier:1.59999990463257
SliderTickRate:1

[Events]
//Background and Video events
0,0,"Co shu Nie - asura2.jpg",0,0
//Break Periods
2,30361,31534
//Storyboard Layer 0 (Background)
Sprite,Background,Centre,"Co shu Nie - asura2.jpg",320,240 F,0,0,,0
Sprite,Background,Centre,"sb\bg1.jpg",0,0 L,13659,3 MX,5,0,3100,310,320 MX,5,3100,6200,320,310 L,13659,3 MY,5,0,4200,220,240 MY,5,4200,6400,240,220 L,13659,3 R,5,0,6000,0.03,-0.03 R,5,6000,12000,-0.03,0.03 F,0,14159,,0,1 S,0,14159,,0.225 F,0,30162,,1,0
Sprite,Background,Centre,"sb\bgblur.jpg",0,0 L,13659,3 MX,5,0,3100,305,310 MX,5,3100,6200,310,305 L,13659,3 MY,5,0,4200,210,230 MY,5,4200,6400,230,210 L,13659,3 R,5,0,6000,0.03,-0.03 R,5,6000,12000,-0.03,0.03 F,0,14159,,0,0.4 S,0,14159,,0.225 F,0,30162,33128,0.4,0
Sprite,Background,Centre,"sb\bg3.jpg",0,0 L,13659,3 MX,5,0,3100,310,330 MX,5,3100,6200,330,310 L,13659,3 MY,5,0,4200,200,220 MY,5,4200,6400,220,200 F,0,14159,,0,0.2 S,0,14159,,0.2166667 F,0,30162,,0.2,0
Sprite,Background,Centre,"sb\bg1.jpg",0,0 L,70494,3 MX,5,0,3100,310,320 MX,5,3100,6200,320,310 L,70494,3 MY,5,0,4200,220,240 MY,5,4200,6400,240,220 L,70494,3 R,5,0,6000,0.03,-0.03 R,5,6000,12000,-0.03,0.03 F,0,70994,,0,1 S,0,70994,,0.225 F,0,82327,,1,0
Sprite,Background,Centre,"sb\bgblur.jpg",0,0 L,70494,3 MX,5,0,3100,305,310 MX,5,3100,6200,310,305 L,70494,3 MY,5,0,4200,210,230 MY,5,4200,6400,230,210 L,70494,3 R,5,0,6000,0.03,-0.03 R,5,6000,12000,-0.03,0.03 F,0,70994,,0,0.4 S,0,70994,,0.225 F,0,82327,85293,0.4,0
Sprite,Background,Centre,"sb\bg3.jpg",0,0 L,70494,3 MX,5,0,3100,310,330 MX,5,3100,6200,330,310 L,70494,3 MY,5,0,4200,200,220 MY,5,4200,6400,220,200 L,70494,3 R,5,0,6000,0.03,-0.03 R,5,6000,12000,-0.03,0.03 F,0,70994,,0,0.2 S,0,70994,,0.2166667 F,0,82327,,0.2,0
Sprite,Background,Centre,"sb\bg1.jpg",0,0 M,0,29828,,324,246 F,0,29828,,0.2 S,0,29828,,0.22 C,0,29828,,255,255,255 M,0,29868,,325,241 M,0,29908,,314,241 M,0,29948,,328,238 M,0,29988,,329,235 M,0,30028,,315,239 M,0,30068,,322,239 M,0,30108,,329,230 M,0,30148,,327,249
Sprite,Background,Centre,"sb\bg1.jpg",0,0 M,0,29828,,323,236 F,0,29828,,0.2 S,0,29828,,0.22 C,0,29828,,139,0,0 M,0,29868,,326,246 M,0,29908,,329,230 M,0,29948,,323,240 M,0,29988,,328,243 M,0,30028,,320,231 M,0,30068,,313,239 M,0,30108,,315,249 M,0,30148,,322,245
Sprite,Background,Centre,"sb\pt\flare.png",0,0 M,0,14162,,285,67 C,0,14162,,200,147,148 F,0,14162,14245,0,1 S,0,14162,15495,0.3,0.2 P,0,14162,15495,A F,0,14245,15495,1,0 M,0,15661,,311,359 C,0,15661,,192,172,165 F,0,15661,15744,0,1 S,0,15661,16994,0.3,0.2 P,0,15661,16994,A F,0,15744,16994,1,0 M,0,16994,,221.0095,177.5807 C,0,16994,,203,171,135 F,0,16994,17078,0,1 S,0,16994,18328,0.5,0.2 P,0,16994,18328,A F,0,17078,18328,1,0 M,0,18411,,348,226 C,0,18411,,200,147,148 F,0,18411,18494,0,1 S,0,18411,19744,0.3,0.2 P,0,18411,19744,A F,0,18494,19744,1,0 M,0,19828,,147,338 C,0,19828,,192,172,165 F,0,19828,19911,0,1 S,0,19828,21161,0.3,0.2 P,0,19828,21161,A F,0,19911,21161,1,0 M,0,21171,,115.4403,211.7429 C,0,21171,,203,171,135 F,0,21171,21254,0,1 S,0,21171,22504,0.5,0.2 P,0,21171,22504,A F,0,21254,22504,1,0 M,0,22505,,428.075,298.1904 C,0,22505,,192,172,165 F,0,22505,22588,0,1 S,0,22505,23838,0.5,0.2 P,0,22505,23838,A F,0,22588,23838,1,0 M,0,23848,,116.0589,237.8815 C,0,23848,,203,171,135 F,0,23848,23932,0,1 S,0,23848,25182,0.5,0.2 P,0,23848,25182,A F,0,23932,25182,1,0 M,0,25192,,374.2902,201.7447 C,0,25192,,192,172,165 F,0,25192,25275,0,1 S,0,25192,26525,0.5,0.2 P,0,25192,26525,A F,0,25275,26525,1,0 M,0,26526,,299.4651,240.3068 C,0,26526,,203,171,135 F,0,26526,26609,0,1 S,0,26526,27859,0.5,0.2 P,0,26526,27859,A F,0,26609,27859,1,0 M,0,27869,,173.9612,326.1692 C,0,27869,,200,147,148 F,0,27869,27953,0,1 S,0,27869,29203,0.5,0.2 P,0,27869,29203,A F,0,27953,29203,1,0 M,0,29245,,463,269 C,0,29245,,192,172,165 F,0,29245,29328,0,1 S,0,29245,30578,0.3,0.2 P,0,29245,30578,A F,0,29328,30578,1,0
Sprite,Background,Centre,"sb\pt\flare.png",0,0 M,0,14162,,285,67 C,0,14162,,200,147,148 F,0,14162,14245,0,1 S,0,14162,15495,0.5,0.2 P,0,14162,15495,A F,0,14245,15495,1,0 M,0,15661,,311,359 C,0,15661,,192,172,165 F,0,15661,15744,0,1 S,0,15661,16994,0.5,0.2 P,0,15661,16994,A F,0,15744,16994,1,0 M,0,17005,,227.5249,181.2891 C,0,17005,,203,171,135 F,0,17005,17088,0,1 S,0,17005,18338,0.5,0.2 P,0,17005,18338,A F,0,17088,18338,1,0 M,0,18495,,357,227 C,0,18495,,200,147,148 F,0,18495,18578,0,1 S,0,18495,19828,0.3,0.2 P,0,18495,19828,A F,0,18578,19828,1,0 M,0,19838,,150.6642,331.4724 C,0,19838,,192,172,165 F,0,19838,19921,0,1 S,0,19838,21171,0.5,0.2 P,0,19838,21171,A F,0,19921,21171,1,0 M,0,21181,,119.8477,216.5074 C,0,21181,,203,171,135 F,0,21181,21265,0,1 S,0,21181,22515,0.5,0.2 P,0,21181,22515,A F,0,21265,22515,1,0 M,0,22515,,421.3581,295.0585 C,0,22515,,192,172,165 F,0,22515,22599,0,1 S,0,22515,23849,0.5,0.2 P,0,22515,23849,A F,0,22599,23849,1,0 M,0,23859,,121.7493,242.7415 C,0,23859,,203,171,135 F,0,23859,23942,0,1 S,0,23859,25192,0.5,0.2 P,0,23859,25192,A F,0,23942,25192,1,0 M,0,25202,,381.6888,202.6087 C,0,25202,,192,172,165 F,0,25202,25286,0,1 S,0,25202,26536,0.5,0.2 P,0,25202,26536,A F,0,25286,26536,1,0 M,0,26536,,297.6994,233.0526 C,0,26536,,203,171,135 F,0,26536,26620,0,1 S,0,26536,27870,0.5,0.2 P,0,26536,27870,A F,0,26620,27870,1,0 M,0,27880,,167.0283,328.9547 C,0,27880,,200,147,148 F,0,27880,27963,0,1 S,0,27880,29213,0.5,0.2 P,0,27880,29213,A F,0,27963,29213,1,0 M,0,29328,,468,277 C,0,29328,,192,172,165 F,0,29328,29411,0,1 S,0,29328,30661,0.3,0.2 P,0,29328,30661,A F,0,29411,30661,1,0
Sprite,Background,Centre,"sb\pt\flare.png",0,0 M,0,14172,,292.4911,67.36542 C,0,14172,,200,147,148 F,0,14172,14255,0,1 S,0,14172,15505,0.5,0.2 P,0,14172,15505,A F,0,14255,15505,1,0 M,0,15671,,306.4674,353.0621 C,0,15671,,192,172,165 F,0,15671,15754,0,1 S,0,15671,17004,0.5,0.2 P,0,15671,17004,A F,0,15754,17004,1,0 M,0,17015,,234.3521,184.3875 C,0,17015,,203,171,135 F,0,17015,17098,0,1 S,0,17015,18348,0.5,0.2 P,0,17015,18348,A F,0,17098,18348,1,0 M,0,18495,,357,227 C,0,18495,,200,147,148 F,0,18495,18578,0,1 S,0,18495,19828,0.5,0.2 P,0,18495,19828,A F,0,18578,19828,1,0 M,0,19848,,154.0881,324.8528 C,0,19848,,192,172,165 F,0,19848,19932,0,1 S,0,19848,21182,0.5,0.2 P,0,19848,21182,A F,0,19932,21182,1,0 M,0,21192,,124.0674,221.442 C,0,21192,,203,171,135 F,0,21192,21275,0,1 S,0,21192,22525,0.5,0.2 P,0,21192,22525,A F,0,21275,22525,1,0 M,0,22526,,415.1068,291.0717 C,0,22526,,192,172,165 F,0,22526,22609,0,1 S,0,22526,23859,0.5,0.2 P,0,22526,23859,A F,0,22609,23859,1,0 M,0,23869,,127.1411,247.9313 C,0,23869,,203,171,135 F,0,23869,23953,0,1 S,0,23869,25203,0.5,0.2 P,0,23869,25203,A F,0,23953,25203,1,0 M,0,25213,,389.1393,202.6895 C,0,25213,,192,172,165 F,0,25213,25296,0,1 S,0,25213,26546,0.5,0.2 P,0,25213,26546,A F,0,25296,26546,1,0 M,0,26547,,296.5579,225.6699 C,0,26547,,203,171,135 F,0,26547,26630,0,1 S,0,26547,27880,0.5,0.2 P,0,26547,27880,A F,0,26630,27880,1,0 M,0,27890,,159.8885,331.1674 C,0,27890,,200,147,148 F,0,27890,27973,0,1 S,0,27890,29223,0.5,0.2 P,0,27890,29223,A F,0,27973,29223,1,0 M,0,29411,,473,285 C,0,29411,,192,172,165 F,0,29411,29494,0,1 S,0,29411,30744,0.3,0.2 P,0,29411,30744,A F,0,29494,30744,1,0
Sprite,Background,Centre,"sb\pt\flare.png",0,0 M,0,14182,,299.9822,67.73083 C,0,14182,,200,147,148 F,0,14182,14266,0,1 S,0,14182,15516,0.5,0.2 P,0,14182,15516,A F,0,14266,15516,1,0 M,0,15681,,302.243,346.9853 C,0,15681,,192,172,165 F,0,15681,15765,0,1 S,0,15681,17015,0.5,0.2 P,0,15681,17015,A F,0,15765,17015,1,0 M,0,17025,,241.4032,186.9373 C,0,17025,,203,171,135 F,0,17025,17109,0,1 S,0,17025,18359,0.5,0.2 P,0,17025,18359,A F,0,17109,18359,1,0 M,0,18505,,364.4376,227.8769 C,0,18505,,200,147,148 F,0,18505,18588,0,1 S,0,18505,19838,0.5,0.2 P,0,18505,19838,A F,0,18588,19838,1,0 M,0,19859,,156.877,317.9391 C,0,19859,,192,172,165 F,0,19859,19942,0,1 S,0,19859,21192,0.5,0.2 P,0,19859,21192,A F,0,19942,21192,1,0 M,0,21202,,128.0935,226.5405 C,0,21202,,203,171,135 F,0,21202,21286,0,1 S,0,21202,22536,0.5,0.2 P,0,21202,22536,A F,0,21286,22536,1,0 M,0,22536,,409.4282,286.2968 C,0,22536,,192,172,165 F,0,22536,22620,0,1 S,0,22536,23870,0.5,0.2 P,0,22536,23870,A F,0,22620,23870,1,0 M,0,23880,,132.2154,253.4329 C,0,23880,,203,171,135 F,0,23880,23963,0,1 S,0,23880,25213,0.5,0.2 P,0,23880,25213,A F,0,23963,25213,1,0 M,0,25223,,396.5597,201.9854 C,0,25223,,192,172,165 F,0,25223,25306,0,1 S,0,25223,26556,0.5,0.2 P,0,25223,26556,A F,0,25306,26556,1,0 M,0,26557,,296.0496,218.2111 C,0,26557,,203,171,135 F,0,26557,26640,0,1 S,0,26557,27890,0.5,0.2 P,0,26557,27890,A F,0,26640,27890,1,0 M,0,27900,,152.5884,332.792 C,0,27900,,200,147,148 F,0,27900,27984,0,1 S,0,27900,29234,0.5,0.2 P,0,27900,29234,A F,0,27984,29234,1,0 M,0,29495,,478,293 C,0,29495,,192,172,165 F,0,29495,29578,0,1 S,0,29495,30828,0.3,0.2 P,0,29495,30828,A F,0,29578,30828,1,0
Sprite,Background,Centre,"sb\pt\flare.png",0,0 M,0,14193,,307.4733,68.09626 C,0,14193,,200,147,148 F,0,14193,14276,0,1 S,0,14193,15526,0.5,0.2 P,0,14193,15526,A F,0,14276,15526,1,0 M,0,15692,,298.8571,340.3964 C,0,15692,,192,172,165 F,0,15692,15775,0,1 S,0,15692,17025,0.5,0.2 P,0,15692,17025,A F,0,15775,17025,1,0 M,0,17036,,248.6183,188.979 C,0,17036,,203,171,135 F,0,17036,17119,0,1 S,0,17036,18369,0.5,0.2 P,0,17036,18369,A F,0,17119,18369,1,0 M,0,18515,,371.868,228.5816 C,0,18515,,200,147,148 F,0,18515,18599,0,1 S,0,18515,19849,0.5,0.2 P,0,18515,19849,A F,0,18599,19849,1,0 M,0,19869,,159.0062,310.7907 C,0,19869,,192,172,165 F,0,19869,19953,0,1 S,0,19869,21203,0.5,0.2 P,0,19869,21203,A F,0,19953,21203,1,0 M,0,21213,,131.7335,231.9221 C,0,21213,,203,171,135 F,0,21213,21296,0,1 S,0,21213,22546,0.5,0.2 P,0,21213,22546,A F,0,21296,22546,1,0 M,0,22547,,404.4201,280.814 C,0,22547,,192,172,165 F,0,22547,22630,0,1 S,0,22547,23880,0.5,0.2 P,0,22547,23880,A F,0,22630,23880,1,0 M,0,23890,,136.9543,259.227 C,0,23890,,203,171,135 F,0,23890,23973,0,1 S,0,23890,25223,0.5,0.2 P,0,23890,25223,A F,0,23973,25223,1,0 M,0,25233,,403.868,200.5036 C,0,25233,,192,172,165 F,0,25233,25317,0,1 S,0,25233,26567,0.5,0.2 P,0,25233,26567,A F,0,25317,26567,1,0 M,0,26567,,296.1795,210.7293 C,0,26567,,203,171,135 F,0,26567,26651,0,1 S,0,26567,27901,0.5,0.2 P,0,26567,27901,A F,0,26651,27901,1,0 M,0,27911,,145.1756,333.8172 C,0,27911,,200,147,148 F,0,27911,27994,0,1 S,0,27911,29244,0.5,0.2 P,0,27911,29244,A F,0,27994,29244,1,0 M,0,29495,,478,293 C,0,29495,,192,172,165 F,0,29495,29578,0,1 S,0,29495,30828,0.5,0.2 P,0,29495,30828,A F,0,29578,30828,1,0
Sprite,Background,Centre,"sb\pt\flare.png",0,0 M,0,14203,,314.9644,68.46168 C,0,14203,,200,147,148 F,0,14203,14286,0,1 S,0,14203,15536,0.5,0.2 P,0,14203,15536,A F,0,14286,15536,1,0 M,0,15702,,296.37,333.4071 C,0,15702,,192,172,165 F,0,15702,15785,0,1 S,0,15702,17035,0.5,0.2 P,0,15702,17035,A F,0,15785,17035,1,0 M,0,17046,,255.9401,190.5993 C,0,17046,,203,171,135 F,0,17046,17130,0,1 S,0,17046,18380,0.5,0.2 P,0,17046,18380,A F,0,17130,18380,1,0 M,0,18526,,379.3346,228.7082 C,0,18526,,200,147,148 F,0,18526,18609,0,1 S,0,18526,19859,0.5,0.2 P,0,18526,19859,A F,0,18609,19859,1,0 M,0,19880,,160.4563,303.4693 C,0,19880,,192,172,165 F,0,19880,19963,0,1 S,0,19880,21213,0.5,0.2 P,0,19880,21213,A F,0,19963,21213,1,0 M,0,21223,,135.2722,237.3617 C,0,21223,,203,171,135 F,0,21223,21306,0,1 S,0,21223,22556,0.5,0.2 P,0,21223,22556,A F,0,21306,22556,1,0 M,0,22557,,400.1695,274.7152 C,0,22557,,192,172,165 F,0,22557,22640,0,1 S,0,22557,23890,0.5,0.2 P,0,22557,23890,A F,0,22640,23890,1,0 M,0,23900,,141.341,265.2932 C,0,23900,,203,171,135 F,0,23900,23984,0,1 S,0,23900,25234,0.5,0.2 P,0,23900,25234,A F,0,23984,25234,1,0 M,0,25244,,410.9834,198.2597 C,0,25244,,192,172,165 F,0,25244,25327,0,1 S,0,25244,26577,0.5,0.2 P,0,25244,26577,A F,0,25327,26577,1,0 M,0,26661,,430,121 C,0,26661,,203,171,135 F,0,26661,26744,0,1 S,0,26661,27994,0.3,0.2 P,0,26661,27994,A F,0,26744,27994,1,0 M,0,28078,,82,243 C,0,28078,,200,147,148 F,0,28078,28161,0,1 S,0,28078,29411,0.3,0.2 P,0,28078,29411,A F,0,28161,29411,1,0 M,0,29505,,471.0072,295.688 C,0,29505,,192,172,165 F,0,29505,29588,0,1 S,0,29505,30838,0.5,0.2 P,0,29505,30838,A F,0,29588,30838,1,0
Sprite,Background,Centre,"sb\pt\flare.png",0,0 M,0,14214,,322.4554,68.8271 C,0,14214,,200,147,148 F,0,14214,14297,0,1 S,0,14214,15547,0.5,0.2 P,0,14214,15547,A F,0,14297,15547,1,0 M,0,15713,,294.828,326.1362 C,0,15713,,192,172,165 F,0,15713,15796,0,1 S,0,15713,17046,0.5,0.2 P,0,15713,17046,A F,0,15796,17046,1,0 M,0,17057,,263.3373,191.8317 C,0,17057,,203,171,135 F,0,17057,17140,0,1 S,0,17057,18390,0.5,0.2 P,0,17057,18390,A F,0,17140,18390,1,0 M,0,18536,,386.7942,228.2551 C,0,18536,,200,147,148 F,0,18536,18620,0,1 S,0,18536,19870,0.5,0.2 P,0,18536,19870,A F,0,18620,19870,1,0 M,0,19890,,161.2137,296.0381 C,0,19890,,192,172,165 F,0,19890,19973,0,1 S,0,19890,21223,0.5,0.2 P,0,19890,21223,A F,0,19973,21223,1,0 M,0,21233,,138.5966,242.9364 C,0,21233,,203,171,135 F,0,21233,21317,0,1 S,0,21233,22567,0.5,0.2 P,0,21233,22567,A F,0,21317,22567,1,0 M,0,22567,,396.7509,268.103 C,0,22567,,192,172,165 F,0,22567,22651,0,1 S,0,22567,23901,0.5,0.2 P,0,22567,23901,A F,0,22651,23901,1,0 M,0,23911,,145.3599,271.6104 C,0,23911,,203,171,135 F,0,23911,23994,0,1 S,0,23911,25244,0.5,0.2 P,0,23911,25244,A F,0,23994,25244,1,0 M,0,25254,,417.8271,195.2775 C,0,25254,,192,172,165 F,0,25254,25338,0,1 S,0,25254,26588,0.5,0.2 P,0,25254,26588,A F,0,25338,26588,1,0 M,0,26661,,430,121 C,0,26661,,203,171,135 F,0,26661,26744,0,1 S,0,26661,27994,0.5,0.2 P,0,26661,27994,A F,0,26744,27994,1,0 M,0,28078,,82,243 C,0,28078,,200,147,148 F,0,28078,28161,0,1 S,0,28078,29411,0.5,0.2 P,0,28078,29411,A F,0,28161,29411,1,0 M,0,29515,,464.0831,298.4981 C,0,29515,,192,172,165 F,0,29515,29599,0,1 S,0,29515,30849,0.5,0.2 P,0,29515,30849,A F,0,29599,30849,1,0
Sprite,Background,Centre,"sb\pt\flare.png",0,0 M,0,14224,,329.256,71.23849 C,0,14224,,200,147,148 F,0,14224,14307,0,1 S,0,14224,15557,0.5,0.2 P,0,14224,15557,A F,0,14307,15557,1,0 M,0,15723,,294.2624,318.7076 C,0,15723,,192,172,165 F,0,15723,15806,0,1 S,0,15723,17056,0.5,0.2 P,0,15723,17056,A F,0,15806,17056,1,0 M,0,17067,,270.7799,192.7516 C,0,17067,,203,171,135 F,0,17067,17150,0,1 S,0,17067,18400,0.5,0.2 P,0,17067,18400,A F,0,17150,18400,1,0 M,0,18547,,394.2037,227.2238 C,0,18547,,200,147,148 F,0,18547,18630,0,1 S,0,18547,19880,0.5,0.2 P,0,18547,19880,A F,0,18630,19880,1,0 M,0,19900,,161.2704,288.5613 C,0,19900,,192,172,165 F,0,19900,19984,0,1 S,0,19900,21234,0.5,0.2 P,0,19900,21234,A F,0,19984,21234,1,0 M,0,21244,,141.702,248.6388 C,0,21244,,203,171,135 F,0,21244,21327,0,1 S,0,21244,22577,0.5,0.2 P,0,21244,22577,A F,0,21327,22577,1,0 M,0,22578,,394.2255,261.0887 C,0,22578,,192,172,165 F,0,22578,22661,0,1 S,0,22578,23911,0.5,0.2 P,0,22578,23911,A F,0,22661,23911,1,0 M,0,23921,,148.9969,278.1564 C,0,23921,,203,171,135 F,0,23921,24005,0,1 S,0,23921,25255,0.5,0.2 P,0,23921,25255,A F,0,24005,25255,1,0 M,0,25265,,424.323,191.5891 C,0,25265,,192,172,165 F,0,25265,25348,0,1 S,0,25265,26598,0.5,0.2 P,0,25265,26598,A F,0,25348,26598,1,0 M,0,26671,,423.5318,124.779 C,0,26671,,203,171,135 F,0,26671,26754,0,1 S,0,26671,28004,0.5,0.2 P,0,26671,28004,A F,0,26754,28004,1,0 M,0,28088,,87.22568,237.6279 C,0,28088,,200,147,148 F,0,28088,28171,0,1 S,0,28088,29421,0.5,0.2 P,0,28088,29421,A F,0,28171,29421,1,0 M,0,29526,,457.3592,301.7655 C,0,29526,,192,172,165 F,0,29526,29609,0,1 S,0,29526,30859,0.5,0.2 P,0,29526,30859,A F,0,29609,30859,1,0
Sprite,Background,Centre,"sb\pt\flare.png",0,0 M,0,14234,,335.4363,75.48746 C,0,14234,,200,147,148 F,0,14234,14318,0,1 S,0,14234,15568,0.5,0.2 P,0,14234,15568,A F,0,14318,15568,1,0 M,0,15733,,294.6888,311.2485 C,0,15733,,192,172,165 F,0,15733,15817,0,1 S,0,15733,17067,0.5,0.2 P,0,15733,17067,A F,0,15817,17067,1,0 M,0,17161,,358,184 C,0,17161,,203,171,135 F,0,17161,17244,0,1 S,0,17161,18494,0.3,0.2 P,0,17161,18494,A F,0,17244,18494,1,0 M,0,18557,,401.5201,225.6184 C,0,18557,,200,147,148 F,0,18557,18640,0,1 S,0,18557,19890,0.5,0.2 P,0,18557,19890,A F,0,18640,19890,1,0 M,0,19995,,113,191 C,0,19995,,192,172,165 F,0,19995,20078,0,1 S,0,19995,21328,0.3,0.2 P,0,19995,21328,A F,0,20078,21328,1,0 M,0,21338,,157.8527,304.4496 C,0,21338,,203,171,135 F,0,21338,21421,0,1 S,0,21338,22671,0.5,0.2 P,0,21338,22671,A F,0,21421,22671,1,0 M,0,22672,,414.7303,201.3543 C,0,22672,,192,172,165 F,0,22672,22755,0,1 S,0,22672,24005,0.5,0.2 P,0,22672,24005,A F,0,22755,24005,1,0 M,0,24078,,162,338 C,0,24078,,203,171,135 F,0,24078,24161,0,1 S,0,24078,25411,0.3,0.2 P,0,24078,25411,A F,0,24161,25411,1,0 M,0,25495,,382,57 C,0,25495,,192,172,165 F,0,25495,25578,0,1 S,0,25495,26828,0.3,0.2 P,0,25495,26828,A F,0,25578,26828,1,0 M,0,26995,,441,259 C,0,26995,,203,171,135 F,0,26995,27078,0,1 S,0,26995,28328,0.3,0.2 P,0,26995,28328,A F,0,27078,28328,1,0 M,0,28338,,202.1319,90.90697 C,0,28338,,200,147,148 F,0,28338,28421,0,1 S,0,28338,29671,0.5,0.2 P,0,28338,29671,A F,0,28421,29671,1,0
Sprite,Background,Centre,"sb\pt\flare.png",0,0 M,0,14245,,341.6166,79.73643 C,0,14245,,200,147,148 F,0,14245,14328,0,1 S,0,14245,15578,0.5,0.2 P,0,14245,15578,A F,0,14328,15578,1,0 M,0,15828,,259,205 C,0,15828,,192,172,165 F,0,15828,15911,0,1 S,0,15828,17161,0.3,0.2 P,0,15828,17161,A F,0,15911,17161,1,0 M,0,17171,,362.2939,177.8529 C,0,17171,,203,171,135 F,0,17171,17254,0,1 S,0,17171,18504,0.5,0.2 P,0,17171,18504,A F,0,17254,18504,1,0 M,0,18567,,408.5537,223.0465 C,0,18567,,200,147,148 F,0,18567,18651,0,1 S,0,18567,19901,0.5,0.2 P,0,18567,19901,A F,0,18651,19901,1,0 M,0,20161,,256,272 C,0,20161,,192,172,165 F,0,20161,20244,0,1 S,0,20161,21494,0.3,0.2 P,0,20161,21494,A F,0,20244,21494,1,0 M,0,21495,,108,405 C,0,21495,,203,171,135 F,0,21495,21578,0,1 S,0,21495,22828,0.3,0.2 P,0,21495,22828,A F,0,21578,22828,1,0 M,0,22838,,548.584,219.3338 C,0,22838,,192,172,165 F,0,22838,22921,0,1 S,0,22838,24171,0.5,0.2 P,0,22838,24171,A F,0,22921,24171,1,0 M,0,24181,,175.9472,341.5832 C,0,24181,,203,171,135 F,0,24181,24265,0,1 S,0,24181,25515,0.5,0.2 P,0,24181,25515,A F,0,24265,25515,1,0 M,0,25515,,367.0782,58.38034 C,0,25515,,192,172,165 F,0,25515,25599,0,1 S,0,25515,26849,0.5,0.2 P,0,25515,26849,A F,0,25599,26849,1,0 M,0,26995,,441,259 C,0,26995,,203,171,135 F,0,26995,27078,0,1 S,0,26995,28328,0.5,0.2 P,0,26995,28328,A F,0,27078,28328,1,0 M,0,28348,,199.5067,97.8575 C,0,28348,,200,147,148 F,0,28348,28432,0,1 S,0,28348,29682,0.5,0.2 P,0,28348,29682,A F,0,28432,29682,1,0
Sprite,Background,Centre,"sb\pt\flare.png",0,0 M,0,14255,,347.7969,83.9854 C,0,14255,,200,147,148 F,0,14255,14339,0,1 S,0,14255,15589,0.5,0.2 P,0,14255,15589,A F,0,14339,15589,1,0 M,0,15828,,259,205 C,0,15828,,192,172,165 F,0,15828,15911,0,1 S,0,15828,17161,0.5,0.2 P,0,15828,17161,A F,0,15911,17161,1,0 M,0,17181,,366.6548,171.7582 C,0,17181,,203,171,135 F,0,17181,17265,0,1 S,0,17181,18515,0.5,0.2 P,0,17181,18515,A F,0,17265,18515,1,0 M,0,18661,,504,153 C,0,18661,,200,147,148 F,0,18661,18744,0,1 S,0,18661,19994,0.3,0.2 P,0,18661,19994,A F,0,18744,19994,1,0 M,0,20161,,256,272 C,0,20161,,192,172,165 F,0,20161,20244,0,1 S,0,20161,21494,0.5,0.2 P,0,20161,21494,A F,0,20244,21494,1,0 M,0,21661,,246,323 C,0,21661,,200,147,148 F,0,21661,21744,0,1 S,0,21661,22994,0.3,0.2 P,0,21661,22994,A F,0,21744,22994,1,0 M,0,22995,,564,77 C,0,22995,,192,172,165 F,0,22995,23078,0,1 S,0,22995,24328,0.3,0.2 P,0,22995,24328,A F,0,23078,24328,1,0 M,0,24338,,297.4875,399.9848 C,0,24338,,203,171,135 F,0,24338,24421,0,1 S,0,24338,25671,0.5,0.2 P,0,24338,25671,A F,0,24421,25671,1,0 M,0,25681,,236.5138,144.7776 C,0,25681,,192,172,165 F,0,25681,25765,0,1 S,0,25681,27015,0.5,0.2 P,0,25681,27015,A F,0,25765,27015,1,0 M,0,27015,,447.5239,272.4833 C,0,27015,,203,171,135 F,0,27015,27099,0,1 S,0,27015,28349,0.5,0.2 P,0,27015,28349,A F,0,27099,28349,1,0 M,0,28359,,197.6481,105.0584 C,0,28359,,200,147,148 F,0,28359,28442,0,1 S,0,28359,29692,0.5,0.2 P,0,28359,29692,A F,0,28442,29692,1,0
Sprite,Background,Centre,"sb\pt\flare.png",0,0 M,0,14266,,353.9772,88.23436 C,0,14266,,200,147,148 F,0,14266,14349,0,1 S,0,14266,15599,0.5,0.2 P,0,14266,15599,A F,0,14349,15599,1,0 M,0,15838,,265.6749,208.3845 C,0,15838,,192,172,165 F,0,15838,15921,0,1 S,0,15838,17171,0.5,0.2 P,0,15838,17171,A F,0,15921,17171,1,0 M,0,17192,,371.2114,165.808 C,0,17192,,203,171,135 F,0,17192,17275,0,1 S,0,17192,18525,0.5,0.2 P,0,17192,18525,A F,0,17275,18525,1,0 M,0,18661,,504,153 C,0,18661,,200,147,148 F,0,18661,18744,0,1 S,0,18661,19994,0.5,0.2 P,0,18661,19994,A F,0,18744,19994,1,0 M,0,20171,,261.2576,266.6685 C,0,20171,,192,172,165 F,0,20171,20254,0,1 S,0,20171,21504,0.5,0.2 P,0,20171,21504,A F,0,20254,21504,1,0 M,0,21661,,246,323 C,0,21661,,200,147,148 F,0,21661,21744,0,1 S,0,21661,22994,0.5,0.2 P,0,21661,22994,A F,0,21744,22994,1,0 M,0,23161,,468,108 C,0,23161,,192,172,165 F,0,23161,23244,0,1 S,0,23161,24494,0.3,0.2 P,0,23161,24494,A F,0,23244,24494,1,0 M,0,24495,,401,316 C,0,24495,,200,147,148 F,0,24495,24578,0,1 S,0,24495,25828,0.3,0.2 P,0,24495,25828,A F,0,24578,25828,1,0 M,0,25838,,82.20826,117.0485 C,0,25838,,192,172,165 F,0,25838,25921,0,1 S,0,25838,27171,0.5,0.2 P,0,25838,27171,A F,0,25921,27171,1,0 M,0,27181,,467.0898,405.7716 C,0,27181,,203,171,135 F,0,27181,27265,0,1 S,0,27181,28515,0.5,0.2 P,0,27181,28515,A F,0,27265,28515,1,0 M,0,28515,,281.8214,189.8061 C,0,28515,,200,147,148 F,0,28515,28599,0,1 S,0,28515,29849,0.5,0.2 P,0,28515,29849,A F,0,28599,29849,1,0
Sprite,Background,Centre,"sb\pt\flare.png",0,0 M,0,14276,,360.6162,91.10327 C,0,14276,,200,147,148 F,0,14276,14359,0,1 S,0,14276,15609,0.5,0.2 P,0,14276,15609,A F,0,14359,15609,1,0 M,0,15848,,272.1569,212.0496 C,0,15848,,192,172,165 F,0,15848,15932,0,1 S,0,15848,17182,0.5,0.2 P,0,15848,17182,A F,0,15932,17182,1,0 M,0,17202,,375.959,160.0083 C,0,17202,,203,171,135 F,0,17202,17286,0,1 S,0,17202,18536,0.5,0.2 P,0,17202,18536,A F,0,17286,18536,1,0 M,0,18671,,499.435,158.9229 C,0,18671,,200,147,148 F,0,18671,18754,0,1 S,0,18671,20004,0.5,0.2 P,0,18671,20004,A F,0,18754,20004,1,0 M,0,20181,,266.6644,261.5298 C,0,20181,,192,172,165 F,0,20181,20265,0,1 S,0,20181,21515,0.5,0.2 P,0,20181,21515,A F,0,20265,21515,1,0 M,0,21671,,246.1355,316.5075 C,0,21671,,200,147,148 F,0,21671,21754,0,1 S,0,21671,23004,0.5,0.2 P,0,21671,23004,A F,0,21754,23004,1,0 M,0,23161,,468,108 C,0,23161,,192,172,165 F,0,23161,23244,0,1 S,0,23161,24494,0.5,0.2 P,0,23161,24494,A F,0,23244,24494,1,0 M,0,24578,,408,309 C,0,24578,,200,147,148 F,0,24578,24661,0,1 S,0,24578,25911,0.3,0.2 P,0,24578,25911,A F,0,24661,25911,1,0 M,0,25911,,97.71527,78.147 C,0,25911,,192,172,165 F,0,25911,25994,0,1 S,0,25911,27244,0.5,0.2 P,0,25911,27244,A F,0,25994,27244,1,0 M,0,27254,,424.2253,376.2274 C,0,27254,,203,171,135 F,0,27254,27338,0,1 S,0,27254,28588,0.5,0.2 P,0,27254,28588,A F,0,27338,28588,1,0 M,0,28588,,325.8175,162.7811 C,0,28588,,200,147,148 F,0,28588,28672,0,1 S,0,28588,29922,0.5,0.2 P,0,28588,29922,A F,0,28672,29922,1,0
Sprite,Background,Centre,"sb\pt\flare.png",0,0 M,0,14286,,368.1104,91.39909 C,0,14286,,200,147,148 F,0,14286,14370,0,1 S,0,14286,15620,0.5,0.2 P,0,14286,15620,A F,0,14370,15620,1,0 M,0,15859,,278.2156,216.3804 C,0,15859,,192,172,165 F,0,15859,15942,0,1 S,0,15859,17192,0.5,0.2 P,0,15859,17192,A F,0,15942,17192,1,0 M,0,17213,,380.8929,154.3652 C,0,17213,,203,171,135 F,0,17213,17296,0,1 S,0,17213,18546,0.5,0.2 P,0,17213,18546,A F,0,17296,18546,1,0 M,0,18681,,495.1583,164.9948 C,0,18681,,200,147,148 F,0,18681,18765,0,1 S,0,18681,20015,0.5,0.2 P,0,18681,20015,A F,0,18765,20015,1,0 M,0,20192,,272.5014,256.8822 C,0,20192,,192,172,165 F,0,20192,20275,0,1 S,0,20192,21525,0.5,0.2 P,0,20192,21525,A F,0,20275,21525,1,0 M,0,21681,,246.2017,310.0275 C,0,21681,,200,147,148 F,0,21681,21765,0,1 S,0,21681,23015,0.5,0.2 P,0,21681,23015,A F,0,21765,23015,1,0 M,0,23171,,461.2094,104.8229 C,0,23171,,192,172,165 F,0,23171,23254,0,1 S,0,23171,24504,0.5,0.2 P,0,23171,24504,A F,0,23254,24504,1,0 M,0,24661,,414,302 C,0,24661,,200,147,148 F,0,24661,24744,0,1 S,0,24661,25994,0.3,0.2 P,0,24661,25994,A F,0,24744,25994,1,0 M,0,25994,,131.4244,127.0974 C,0,25994,,192,172,165 F,0,25994,26078,0,1 S,0,25994,27328,0.5,0.2 P,0,25994,27328,A F,0,26078,27328,1,0 M,0,27338,,365.5699,366.9387 C,0,27338,,203,171,135 F,0,27338,27421,0,1 S,0,27338,28671,0.5,0.2 P,0,27338,28671,A F,0,27421,28671,1,0 M,0,28672,,363.5438,175.4983 C,0,28672,,200,147,148 F,0,28672,28755,0,1 S,0,28672,30005,0.5,0.2 P,0,28672,30005,A F,0,28755,30005,1,0
Sprite,Background,Centre,"sb\pt\flare.png",0,0 M,0,14297,,375.6046,91.69492 C,0,14297,,200,147,148 F,0,14297,14380,0,1 S,0,14297,15630,0.5,0.2 P,0,14297,15630,A F,0,14380,15630,1,0 M,0,15869,,283.7831,221.3286 C,0,15869,,192,172,165 F,0,15869,15952,0,1 S,0,15869,17202,0.5,0.2 P,0,15869,17202,A F,0,15952,17202,1,0 M,0,17223,,386.0079,148.8846 C,0,17223,,203,171,135 F,0,17223,17306,0,1 S,0,17223,18556,0.5,0.2 P,0,17223,18556,A F,0,17306,18556,1,0 M,0,18692,,491.6191,171.5281 C,0,18692,,200,147,148 F,0,18692,18775,0,1 S,0,18692,20025,0.5,0.2 P,0,18692,20025,A F,0,18775,20025,1,0 M,0,20202,,278.7247,252.7612 C,0,20202,,192,172,165 F,0,20202,20286,0,1 S,0,20202,21536,0.5,0.2 P,0,20202,21536,A F,0,20286,21536,1,0 M,0,21692,,245.8977,303.5501 C,0,21692,,200,147,148 F,0,21692,21775,0,1 S,0,21692,23025,0.5,0.2 P,0,21692,23025,A F,0,21775,23025,1,0 M,0,23181,,454.3654,101.7791 C,0,23181,,192,172,165 F,0,23181,23265,0,1 S,0,23181,24515,0.5,0.2 P,0,23181,24515,A F,0,23265,24515,1,0 M,0,24745,,420,294 C,0,24745,,200,147,148 F,0,24745,24828,0,1 S,0,24745,26078,0.3,0.2 P,0,24745,26078,A F,0,24828,26078,1,0 M,0,26161,,109,259 C,0,26161,,203,171,135 F,0,26161,26244,0,1 S,0,26161,27494,0.3,0.2 P,0,26161,27494,A F,0,26244,27494,1,0 M,0,27495,,213,422 C,0,27495,,200,147,148 F,0,27495,27578,0,1 S,0,27495,28828,0.3,0.2 P,0,27495,28828,A F,0,27578,28828,1,0 M,0,28838,,513.1522,190.0633 C,0,28838,,192,172,165 F,0,28838,28921,0,1 S,0,28838,30171,0.5,0.2 P,0,28838,30171,A F,0,28921,30171,1,0
Sprite,Background,Centre,"sb\pt\flare.png",0,0 M,0,14307,,383.0987,91.99074 C,0,14307,,200,147,148 F,0,14307,14391,0,1 S,0,14307,15641,0.5,0.2 P,0,14307,15641,A F,0,14391,15641,1,0 M,0,15880,,288.7972,226.8394 C,0,15880,,192,172,165 F,0,15880,15963,0,1 S,0,15880,17213,0.5,0.2 P,0,15880,17213,A F,0,15963,17213,1,0 M,0,17233,,391.2988,143.5721 C,0,17233,,203,171,135 F,0,17233,17317,0,1 S,0,17233,18567,0.5,0.2 P,0,17233,18567,A F,0,17317,18567,1,0 M,0,18702,,488.8659,178.4354 C,0,18702,,200,147,148 F,0,18702,18786,0,1 S,0,18702,20036,0.5,0.2 P,0,18702,20036,A F,0,18786,20036,1,0 M,0,20213,,285.288,249.1984 C,0,20213,,192,172,165 F,0,20213,20296,0,1 S,0,20213,21546,0.5,0.2 P,0,20213,21546,A F,0,20296,21546,1,0 M,0,21702,,245.2236,297.0944 C,0,21702,,200,147,148 F,0,21702,21786,0,1 S,0,21702,23036,0.5,0.2 P,0,21702,23036,A F,0,21786,23036,1,0 M,0,23192,,447.3914,99.04578 C,0,23192,,192,172,165 F,0,23192,23275,0,1 S,0,23192,24525,0.5,0.2 P,0,23192,24525,A F,0,23275,24525,1,0 M,0,24828,,425,286 C,0,24828,,192,172,165 F,0,24828,24911,0,1 S,0,24828,26161,0.3,0.2 P,0,24828,26161,A F,0,24911,26161,1,0 M,0,26328,,255,378 C,0,26328,,203,171,135 F,0,26328,26411,0,1 S,0,26328,27661,0.3,0.2 P,0,26328,27661,A F,0,26411,27661,1,0 M,0,27745,,208,314 C,0,27745,,200,147,148 F,0,27745,27828,0,1 S,0,27745,29078,0.3,0.2 P,0,27745,29078,A F,0,27828,29078,1,0 M,0,29161,,458,261 C,0,29161,,192,172,165 F,0,29161,29244,0,1 S,0,29161,30494,0.3,0.2 P,0,29161,30494,A F,0,29244,30494,1,0
Sprite,Background,Centre,"sb\pt\flare.png",0,0 M,0,14318,,390.5929,92.28656 C,0,14318,,200,147,148 F,0,14318,14401,0,1 S,0,14318,15651,0.5,0.2 P,0,14318,15651,A F,0,14401,15651,1,0 M,0,15890,,293.2014,232.8514 C,0,15890,,192,172,165 F,0,15890,15973,0,1 S,0,15890,17223,0.5,0.2 P,0,15890,17223,A F,0,15973,17223,1,0 M,0,17328,,377,300 C,0,17328,,203,171,135 F,0,17328,17411,0,1 S,0,17328,18661,0.3,0.2 P,0,17328,18661,A F,0,17411,18661,1,0 M,0,18713,,486.9376,185.6242 C,0,18713,,200,147,148 F,0,18713,18796,0,1 S,0,18713,20046,0.5,0.2 P,0,18713,20046,A F,0,18796,20046,1,0 M,0,20223,,292.1422,246.2213 C,0,20223,,192,172,165 F,0,20223,20306,0,1 S,0,20223,21556,0.5,0.2 P,0,20223,21556,A F,0,20306,21556,1,0 M,0,21713,,244.1804,290.6797 C,0,21713,,200,147,148 F,0,21713,21796,0,1 S,0,21713,23046,0.5,0.2 P,0,21713,23046,A F,0,21796,23046,1,0 M,0,23202,,440.3015,96.62849 C,0,23202,,192,172,165 F,0,23202,23286,0,1 S,0,23202,24536,0.5,0.2 P,0,23202,24536,A F,0,23286,24536,1,0 M,0,24828,,425,286 C,0,24828,,192,172,165 F,0,24828,24911,0,1 S,0,24828,26161,0.5,0.2 P,0,24828,26161,A F,0,24911,26161,1,0 M,0,26328,,255,378 C,0,26328,,203,171,135 F,0,26328,26411,0,1 S,0,26328,27661,0.5,0.2 P,0,26328,27661,A F,0,26411,27661,1,0 M,0,27828,,199,310 C,0,27828,,200,147,148 F,0,27828,27911,0,1 S,0,27828,29161,0.3,0.2 P,0,27828,29161,A F,0,27911,29161,1,0 M,0,29536,,450.864,305.477 C,0,29536,,192,172,165 F,0,29536,29620,0,1 S,0,29536,30870,0.5,0.2 P,0,29536,30870,A F,0,29620,30870,1,0
Sprite,Background,Centre,"sb\pt\flare.png",0,0 M,0,14412,,407,89 C,0,14412,,200,147,148 F,0,14412,14495,0,1 S,0,14412,15745,0.3,0.2 P,0,14412,15745,A F,0,14495,15745,1,0 M,0,15900,,296.9461,239.2979 C,0,15900,,192,172,165 F,0,15900,15984,0,1 S,0,15900,17234,0.5,0.2 P,0,15900,17234,A F,0,15984,17234,1,0 M,0,17328,,377,300 C,0,17328,,203,171,135 F,0,17328,17411,0,1 S,0,17328,18661,0.5,0.2 P,0,17328,18661,A F,0,17411,18661,1,0 M,0,18723,,485.8621,192.9981 C,0,18723,,200,147,148 F,0,18723,18806,0,1 S,0,18723,20056,0.5,0.2 P,0,18723,20056,A F,0,18806,20056,1,0 M,0,20233,,299.236,243.8534 C,0,20233,,192,172,165 F,0,20233,20317,0,1 S,0,20233,21567,0.5,0.2 P,0,20233,21567,A F,0,20317,21567,1,0 M,0,21723,,242.3917,284.437 C,0,21723,,200,147,148 F,0,21723,21806,0,1 S,0,21723,23056,0.5,0.2 P,0,21723,23056,A F,0,21806,23056,1,0 M,0,23213,,433.1096,94.53214 C,0,23213,,192,172,165 F,0,23213,23296,0,1 S,0,23213,24546,0.5,0.2 P,0,23213,24546,A F,0,23296,24546,1,0 M,0,24838,,417.5721,285.05 C,0,24838,,192,172,165 F,0,24838,24921,0,1 S,0,24838,26171,0.5,0.2 P,0,24838,26171,A F,0,24921,26171,1,0 M,0,26338,,259.6768,372.1703 C,0,26338,,203,171,135 F,0,26338,26421,0,1 S,0,26338,27671,0.5,0.2 P,0,26338,27671,A F,0,26421,27671,1,0 M,0,27828,,199,310 C,0,27828,,200,147,148 F,0,27828,27911,0,1 S,0,27828,29161,0.5,0.2 P,0,27828,29161,A F,0,27911,29161,1,0 M,0,29547,,444.6258,309.6177 C,0,29547,,192,172,165 F,0,29547,29630,0,1 S,0,29547,30880,0.5,0.2 P,0,29547,30880,A F,0,29630,30880,1,0
Sprite,Background,Centre,"sb\pt\flare.png",0,0 M,0,14495,,416,86 C,0,14495,,200,147,148 F,0,14495,14578,0,1 S,0,14495,15828,0.3,0.2 P,0,14495,15828,A F,0,14578,15828,1,0 M,0,15911,,299.989,246.1071 C,0,15911,,192,172,165 F,0,15911,15994,0,1 S,0,15911,17244,0.5,0.2 P,0,15911,17244,A F,0,15994,17244,1,0 M,0,17338,,371.0523,295.4418 C,0,17338,,203,171,135 F,0,17338,17421,0,1 S,0,17338,18671,0.5,0.2 P,0,17338,18671,A F,0,17421,18671,1,0 M,0,18733,,485.6564,200.4579 C,0,18733,,200,147,148 F,0,18733,18817,0,1 S,0,18733,20067,0.5,0.2 P,0,18733,20067,A F,0,18817,20067,1,0 M,0,20328,,402,273 C,0,20328,,192,172,165 F,0,20328,20411,0,1 S,0,20328,21661,0.3,0.2 P,0,20328,21661,A F,0,20411,21661,1,0 M,0,21733,,240.5184,278.2339 C,0,21733,,200,147,148 F,0,21733,21817,0,1 S,0,21733,23067,0.5,0.2 P,0,21733,23067,A F,0,21817,23067,1,0 M,0,23223,,425.8306,92.76093 C,0,23223,,192,172,165 F,0,23223,23306,0,1 S,0,23223,24556,0.5,0.2 P,0,23223,24556,A F,0,23306,24556,1,0 M,0,24848,,410.2103,283.8334 C,0,24848,,192,172,165 F,0,24848,24932,0,1 S,0,24848,26182,0.5,0.2 P,0,24848,26182,A F,0,24932,26182,1,0 M,0,26348,,264.0275,366.1689 C,0,26348,,203,171,135 F,0,26348,26432,0,1 S,0,26348,27682,0.5,0.2 P,0,26348,27682,A F,0,26432,27682,1,0 M,0,27838,,193.074,314.5801 C,0,27838,,200,147,148 F,0,27838,27921,0,1 S,0,27838,29171,0.5,0.2 P,0,27838,29171,A F,0,27921,29171,1,0 M,0,29557,,438.6717,314.1709 C,0,29557,,192,172,165 F,0,29557,29640,0,1 S,0,29557,30890,0.5,0.2 P,0,29557,30890,A F,0,29640,30890,1,0
Sprite,Background,Centre,"sb\pt\flare.png",0,0 M,0,14495,,416,86 C,0,14495,,200,147,148 F,0,14495,14578,0,1 S,0,14495,15828,0.5,0.2 P,0,14495,15828,A F,0,14578,15828,1,0 M,0,15921,,302.2955,253.2035 C,0,15921,,192,172,165 F,0,15921,16005,0,1 S,0,15921,17255,0.5,0.2 P,0,15921,17255,A F,0,16005,17255,1,0 M,0,17348,,365.006,291.0414 C,0,17348,,203,171,135 F,0,17348,17432,0,1 S,0,17348,18682,0.5,0.2 P,0,17348,18682,A F,0,17432,18682,1,0 M,0,18828,,540,272 C,0,18828,,200,147,148 F,0,18828,18911,0,1 S,0,18828,20161,0.3,0.2 P,0,18828,20161,A F,0,18911,20161,1,0 M,0,20495,,418,110 C,0,20495,,192,172,165 F,0,20495,20578,0,1 S,0,20495,21828,0.3,0.2 P,0,20495,21828,A F,0,20578,21828,1,0 M,0,21838,,267.363,425.7272 C,0,21838,,200,147,148 F,0,21838,21921,0,1 S,0,21838,23171,0.5,0.2 P,0,21838,23171,A F,0,21921,23171,1,0 M,0,23233,,418.4787,91.31848 C,0,23233,,192,172,165 F,0,23233,23317,0,1 S,0,23233,24567,0.5,0.2 P,0,23233,24567,A F,0,23317,24567,1,0 M,0,24859,,402.9841,281.9707 C,0,24859,,192,172,165 F,0,24859,24942,0,1 S,0,24859,26192,0.5,0.2 P,0,24859,26192,A F,0,24942,26192,1,0 M,0,26359,,267.5704,359.6535 C,0,26359,,203,171,135 F,0,26359,26442,0,1 S,0,26359,27692,0.5,0.2 P,0,26359,27692,A F,0,26442,27692,1,0 M,0,27848,,187.0266,318.9579 C,0,27848,,200,147,148 F,0,27848,27932,0,1 S,0,27848,29182,0.5,0.2 P,0,27848,29182,A F,0,27932,29182,1,0 M,0,29567,,433.3204,319.4139 C,0,29567,,192,172,165 F,0,29567,29651,0,1 S,0,29567,30901,0.5,0.2 P,0,29567,30901,A F,0,29651,30901,1,0
Sprite,Background,Centre,"sb\pt\flare.png",0,0 M,0,14505,,409.5024,89.72504 C,0,14505,,200,147,148 F,0,14505,14588,0,1 S,0,14505,15838,0.5,0.2 P,0,14505,15838,A F,0,14588,15838,1,0 M,0,15932,,303.8389,260.5078 C,0,15932,,192,172,165 F,0,15932,16015,0,1 S,0,15932,17265,0.5,0.2 P,0,15932,17265,A F,0,16015,17265,1,0 M,0,17359,,358.6864,287.0416 C,0,17359,,203,171,135 F,0,17359,17442,0,1 S,0,17359,18692,0.5,0.2 P,0,17359,18692,A F,0,17442,18692,1,0 M,0,18995,,570,419 C,0,18995,,200,147,148 F,0,18995,19078,0,1 S,0,18995,20328,0.3,0.2 P,0,18995,20328,A F,0,19078,20328,1,0 M,0,20495,,418,110 C,0,20495,,192,172,165 F,0,20495,20578,0,1 S,0,20495,21828,0.5,0.2 P,0,20495,21828,A F,0,20578,21828,1,0 M,0,21848,,273.6892,424.3925 C,0,21848,,200,147,148 F,0,21848,21932,0,1 S,0,21848,23182,0.5,0.2 P,0,21848,23182,A F,0,21932,23182,1,0 M,0,23244,,411.069,90.20776 C,0,23244,,192,172,165 F,0,23244,23327,0,1 S,0,23244,24577,0.5,0.2 P,0,23244,24577,A F,0,23327,24577,1,0 M,0,24869,,395.9495,279.4761 C,0,24869,,192,172,165 F,0,24869,24953,0,1 S,0,24869,26203,0.5,0.2 P,0,24869,26203,A F,0,24953,26203,1,0 M,0,26369,,270.2459,352.7307 C,0,26369,,203,171,135 F,0,26369,26453,0,1 S,0,26369,27703,0.5,0.2 P,0,26369,27703,A F,0,26453,27703,1,0 M,0,27859,,180.6418,322.8295 C,0,27859,,200,147,148 F,0,27859,27942,0,1 S,0,27859,29192,0.5,0.2 P,0,27859,29192,A F,0,27942,29192,1,0
Sprite,Background,Centre,"sb\pt\flare.png",0,0 M,0,14515,,403.1497,93.64671 C,0,14515,,200,147,148 F,0,14515,14599,0,1 S,0,14515,15849,0.5,0.2 P,0,14515,15849,A F,0,14599,15849,1,0 M,0,15942,,304.6011,267.9388 C,0,15942,,192,172,165 F,0,15942,16025,0,1 S,0,15942,17275,0.5,0.2 P,0,15942,17275,A F,0,16025,17275,1,0 M,0,17369,,352.1198,283.4591 C,0,17369,,203,171,135 F,0,17369,17453,0,1 S,0,17369,18703,0.5,0.2 P,0,17369,18703,A F,0,17453,18703,1,0 M,0,18995,,570,419 C,0,18995,,200,147,148 F,0,18995,19078,0,1 S,0,18995,20328,0.5,0.2 P,0,18995,20328,A F,0,19078,20328,1,0 M,0,20505,,413.5267,103.9909 C,0,20505,,192,172,165 F,0,20505,20588,0,1 S,0,20505,21838,0.5,0.2 P,0,20505,21838,A F,0,20588,21838,1,0 M,0,21859,,279.9081,422.5916 C,0,21859,,200,147,148 F,0,21859,21942,0,1 S,0,21859,23192,0.5,0.2 P,0,21859,23192,A F,0,21942,23192,1,0 M,0,23254,,403.6161,89.43102 C,0,23254,,192,172,165 F,0,23254,23338,0,1 S,0,23254,24588,0.5,0.2 P,0,23254,24588,A F,0,23338,24588,1,0 M,0,24880,,389.1613,276.3689 C,0,24880,,192,172,165 F,0,24880,24963,0,1 S,0,24880,26213,0.5,0.2 P,0,24880,26213,A F,0,24963,26213,1,0 M,0,26380,,272.0085,345.5136 C,0,26380,,203,171,135 F,0,26380,26463,0,1 S,0,26380,27713,0.5,0.2 P,0,26380,27713,A F,0,26463,27713,1,0 M,0,27921,,137.6988,334.2354 C,0,27921,,200,147,148 F,0,27921,28005,0,1 S,0,27921,29255,0.5,0.2 P,0,27921,29255,A F,0,28005,29255,1,0
Sprite,Background,Centre,"sb\pt\flare.png",0,0 M,0,14526,,397.1402,98.07802 C,0,14526,,200,147,148 F,0,14526,14609,0,1 S,0,14526,15859,0.5,0.2 P,0,14526,15859,A F,0,14609,15859,1,0 M,0,15952,,304.5725,275.4135 C,0,15952,,192,172,165 F,0,15952,16036,0,1 S,0,15952,17286,0.5,0.2 P,0,15952,17286,A F,0,16036,17286,1,0 M,0,17380,,345.3332,280.3089 C,0,17380,,203,171,135 F,0,17380,17463,0,1 S,0,17380,18713,0.5,0.2 P,0,17380,18713,A F,0,17463,18713,1,0 M,0,19005,,563.7377,423.082 C,0,19005,,200,147,148 F,0,19005,19088,0,1 S,0,19005,20338,0.5,0.2 P,0,19005,20338,A F,0,19088,20338,1,0 M,0,20515,,408.899,98.12568 C,0,20515,,192,172,165 F,0,20515,20599,0,1 S,0,20515,21849,0.5,0.2 P,0,20515,21849,A F,0,20599,21849,1,0 M,0,21869,,285.9894,420.3308 C,0,21869,,200,147,148 F,0,21869,21953,0,1 S,0,21869,23203,0.5,0.2 P,0,21869,23203,A F,0,21953,23203,1,0 M,0,23265,,396.1351,88.98991 C,0,23265,,192,172,165 F,0,23265,23348,0,1 S,0,23265,24598,0.5,0.2 P,0,23265,24598,A F,0,23348,24598,1,0 M,0,24890,,382.6725,272.6727 C,0,24890,,192,172,165 F,0,24890,24973,0,1 S,0,24890,26223,0.5,0.2 P,0,24890,26223,A F,0,24973,26223,1,0 M,0,26390,,272.8267,338.1203 C,0,26390,,203,171,135 F,0,26390,26473,0,1 S,0,26390,27723,0.5,0.2 P,0,26390,27723,A F,0,26473,27723,1,0 M,0,27932,,130.2068,334.0428 C,0,27932,,200,147,148 F,0,27932,28015,0,1 S,0,27932,29265,0.5,0.2 P,0,27932,29265,A F,0,28015,29265,1,0
Sprite,Background,Centre,"sb\pt\flare.png",0,0 M,0,14536,,391.514,102.9895 C,0,14536,,200,147,148 F,0,14536,14619,0,1 S,0,14536,15869,0.5,0.2 P,0,14536,15869,A F,0,14619,15869,1,0 M,0,15963,,303.7524,282.8484 C,0,15963,,192,172,165 F,0,15963,16046,0,1 S,0,15963,17296,0.5,0.2 P,0,15963,17296,A F,0,16046,17296,1,0 M,0,17390,,338.3547,277.6044 C,0,17390,,203,171,135 F,0,17390,17473,0,1 S,0,17390,18723,0.5,0.2 P,0,17390,18723,A F,0,17473,18723,1,0 M,0,19015,,557.3633,426.8752 C,0,19015,,200,147,148 F,0,19015,19099,0,1 S,0,19015,20349,0.5,0.2 P,0,19015,20349,A F,0,19099,20349,1,0 M,0,20526,,403.8478,92.61929 C,0,20526,,192,172,165 F,0,20526,20609,0,1 S,0,20526,21859,0.5,0.2 P,0,20526,21859,A F,0,20609,21859,1,0 M,0,21880,,291.6888,417.2284 C,0,21880,,200,147,148 F,0,21880,21963,0,1 S,0,21880,23213,0.5,0.2 P,0,21880,23213,A F,0,21963,23213,1,0 M,0,23275,,388.641,88.88541 C,0,23275,,192,172,165 F,0,23275,23358,0,1 S,0,23275,24608,0.5,0.2 P,0,23275,24608,A F,0,23358,24608,1,0 M,0,24900,,376.5336,268.4159 C,0,24900,,192,172,165 F,0,24900,24984,0,1 S,0,24900,26234,0.5,0.2 P,0,24900,26234,A F,0,24984,26234,1,0 M,0,26400,,272.6843,330.6722 C,0,26400,,203,171,135 F,0,26400,26484,0,1 S,0,26400,27734,0.5,0.2 P,0,26400,27734,A F,0,26484,27734,1,0 M,0,27942,,122.8128,332.85 C,0,27942,,200,147,148 F,0,27942,28025,0,1 S,0,27942,29275,0.5,0.2 P,0,27942,29275,A F,0,28025,29275,1,0
Sprite,Background,Centre,"sb\pt\flare.png",0,0 M,0,14547,,386.3091,108.3485 C,0,14547,,200,147,148 F,0,14547,14630,0,1 S,0,14547,15880,0.5,0.2 P,0,14547,15880,A F,0,14630,15880,1,0 M,0,15973,,302.1487,290.1602 C,0,15973,,192,172,165 F,0,15973,16057,0,1 S,0,15973,17307,0.5,0.2 P,0,15973,17307,A F,0,16057,17307,1,0 M,0,17400,,331.2131,275.357 C,0,17400,,203,171,135 F,0,17400,17484,0,1 S,0,17400,18734,0.5,0.2 P,0,17400,18734,A F,0,17484,18734,1,0 M,0,19026,,550.5718,429.8722 C,0,19026,,200,147,148 F,0,19026,19109,0,1 S,0,19026,20359,0.5,0.2 P,0,19026,20359,A F,0,19109,20359,1,0 M,0,20536,,398.4003,87.50191 C,0,20536,,192,172,165 F,0,20536,20620,0,1 S,0,20536,21870,0.5,0.2 P,0,20536,21870,A F,0,20620,21870,1,0 M,0,21890,,297.2627,413.9602 C,0,21890,,200,147,148 F,0,21890,21973,0,1 S,0,21890,23223,0.5,0.2 P,0,21890,23223,A F,0,21973,23223,1,0 M,0,23286,,381.1489,89.11777 C,0,23286,,192,172,165 F,0,23286,23369,0,1 S,0,23286,24619,0.5,0.2 P,0,23286,24619,A F,0,23369,24619,1,0 M,0,24911,,370.7927,263.6311 C,0,24911,,192,172,165 F,0,24911,24994,0,1 S,0,24911,26244,0.5,0.2 P,0,24911,26244,A F,0,24994,26244,1,0 M,0,26495,,308,261 C,0,26495,,203,171,135 F,0,26495,26578,0,1 S,0,26495,27828,0.3,0.2 P,0,26495,27828,A F,0,26578,27828,1,0 M,0,27953,,115.4937,331.3806 C,0,27953,,200,147,148 F,0,27953,28036,0,1 S,0,27953,29286,0.5,0.2 P,0,27953,29286,A F,0,28036,29286,1,0
Sprite,Background,Centre,"sb\pt\flare.png",0,0 M,0,14557,,381.5607,114.1195 C,0,14557,,200,147,148 F,0,14557,14640,0,1 S,0,14557,15890,0.5,0.2 P,0,14557,15890,A F,0,14640,15890,1,0 M,0,15984,,299.778,297.2669 C,0,15984,,192,172,165 F,0,15984,16067,0,1 S,0,15984,17317,0.5,0.2 P,0,15984,17317,A F,0,16067,17317,1,0 M,0,17411,,323.9379,273.5766 C,0,17411,,203,171,135 F,0,17411,17494,0,1 S,0,17411,18744,0.5,0.2 P,0,17411,18744,A F,0,17494,18744,1,0 M,0,19036,,543.4594,432.0284 C,0,19036,,200,147,148 F,0,19036,19120,0,1 S,0,19036,20370,0.5,0.2 P,0,19036,20370,A F,0,19120,20370,1,0 M,0,20547,,392.586,82.80161 C,0,20547,,192,172,165 F,0,20547,20630,0,1 S,0,20547,21880,0.5,0.2 P,0,20547,21880,A F,0,20630,21880,1,0 M,0,21900,,302.5845,410.2863 C,0,21900,,200,147,148 F,0,21900,21984,0,1 S,0,21900,23234,0.5,0.2 P,0,21900,23234,A F,0,21984,23234,1,0 M,0,23296,,373.6737,89.68667 C,0,23296,,192,172,165 F,0,23296,23379,0,1 S,0,23296,24629,0.5,0.2 P,0,23296,24629,A F,0,23379,24629,1,0 M,0,24921,,365.4947,258.3551 C,0,24921,,192,172,165 F,0,24921,25005,0,1 S,0,24921,26255,0.5,0.2 P,0,24921,26255,A F,0,25005,26255,1,0 M,0,26495,,308,261 C,0,26495,,203,171,135 F,0,26495,26578,0,1 S,0,26495,27828,0.5,0.2 P,0,26495,27828,A F,0,26578,27828,1,0 M,0,27963,,108.3178,329.3199 C,0,27963,,200,147,148 F,0,27963,28046,0,1 S,0,27963,29296,0.5,0.2 P,0,27963,29296,A F,0,28046,29296,1,0
Sprite,Background,Centre,"sb\pt\flare.png",0,0 M,0,14567,,377.301,120.2641 C,0,14567,,200,147,148 F,0,14567,14651,0,1 S,0,14567,15901,0.5,0.2 P,0,14567,15901,A F,0,14651,15901,1,0 M,0,16078,,286,310 C,0,16078,,192,172,165 F,0,16078,16161,0,1 S,0,16078,17411,0.3,0.2 P,0,16078,17411,A F,0,16161,17411,1,0 M,0,17421,,316.5591,272.2709 C,0,17421,,203,171,135 F,0,17421,17505,0,1 S,0,17421,18755,0.5,0.2 P,0,17421,18755,A F,0,17505,18755,1,0 M,0,19047,,536.1271,433.3102 C,0,19047,,200,147,148 F,0,19047,19130,0,1 S,0,19047,20380,0.5,0.2 P,0,19047,20380,A F,0,19130,20380,1,0 M,0,20557,,386.4361,78.54433 C,0,20557,,192,172,165 F,0,20557,20640,0,1 S,0,20557,21890,0.5,0.2 P,0,20557,21890,A F,0,20640,21890,1,0 M,0,21911,,307.628,406.223 C,0,21911,,200,147,148 F,0,21911,21994,0,1 S,0,21911,23244,0.5,0.2 P,0,21911,23244,A F,0,21994,23244,1,0 M,0,23306,,366.2306,90.59102 C,0,23306,,192,172,165 F,0,23306,23390,0,1 S,0,23306,24640,0.5,0.2 P,0,23306,24640,A F,0,23390,24640,1,0 M,0,24932,,360.6815,252.6283 C,0,24932,,192,172,165 F,0,24932,25015,0,1 S,0,24932,26265,0.5,0.2 P,0,24932,26265,A F,0,25015,26265,1,0 M,0,26505,,304.8117,254.2246 C,0,26505,,203,171,135 F,0,26505,26588,0,1 S,0,26505,27838,0.5,0.2 P,0,26505,27838,A F,0,26588,27838,1,0 M,0,27973,,101.3321,326.6813 C,0,27973,,200,147,148 F,0,27973,28057,0,1 S,0,27973,29307,0.5,0.2 P,0,27973,29307,A F,0,28057,29307,1,0
Sprite,Background,Centre,"sb\pt\flare.png",0,0 M,0,14578,,373.5591,126.7416 C,0,14578,,200,147,148 F,0,14578,14661,0,1 S,0,14578,15911,0.5,0.2 P,0,14578,15911,A F,0,14661,15911,1,0 M,0,16161,,275,316 C,0,16161,,192,172,165 F,0,16161,16244,0,1 S,0,16161,17494,0.3,0.2 P,0,16161,17494,A F,0,16244,17494,1,0 M,0,17494,,264.8277,277.2509 C,0,17494,,203,171,135 F,0,17494,17578,0,1 S,0,17494,18828,0.5,0.2 P,0,17494,18828,A F,0,17578,18828,1,0 M,0,19057,,528.6792,433.6956 C,0,19057,,200,147,148 F,0,19057,19140,0,1 S,0,19057,20390,0.5,0.2 P,0,19057,20390,A F,0,19140,20390,1,0 M,0,20567,,379.9838,74.75368 C,0,20567,,192,172,165 F,0,20567,20651,0,1 S,0,20567,21901,0.5,0.2 P,0,20567,21901,A F,0,20651,21901,1,0 M,0,21921,,312.3674,401.7876 C,0,21921,,200,147,148 F,0,21921,22005,0,1 S,0,21921,23255,0.5,0.2 P,0,21921,23255,A F,0,22005,23255,1,0 M,0,23317,,358.8346,91.82915 C,0,23317,,192,172,165 F,0,23317,23400,0,1 S,0,23317,24650,0.5,0.2 P,0,23317,24650,A F,0,23400,24650,1,0 M,0,24942,,356.391,246.4947 C,0,24942,,192,172,165 F,0,24942,25025,0,1 S,0,24942,26275,0.5,0.2 P,0,24942,26275,A F,0,25025,26275,1,0 M,0,26515,,301.8417,247.3809 C,0,26515,,203,171,135 F,0,26515,26599,0,1 S,0,26515,27849,0.5,0.2 P,0,26515,27849,A F,0,26599,27849,1,0 M,0,27984,,94.58259,323.4816 C,0,27984,,200,147,148 F,0,27984,28067,0,1 S,0,27984,29317,0.5,0.2 P,0,27984,29317,A F,0,28067,29317,1,0
Sprite,Background,Centre,"sb\pt\flare.png",0,0 M,0,14588,,370.3608,133.5089 C,0,14588,,200,147,148 F,0,14588,14672,0,1 S,0,14588,15922,0.5,0.2 P,0,14588,15922,A F,0,14672,15922,1,0 M,0,16161,,275,316 C,0,16161,,192,172,165 F,0,16161,16244,0,1 S,0,16161,17494,0.5,0.2 P,0,16161,17494,A F,0,16244,17494,1,0 M,0,17505,,257.7994,279.8271 C,0,17505,,203,171,135 F,0,17505,17588,0,1 S,0,17505,18838,0.5,0.2 P,0,17505,18838,A F,0,17588,18838,1,0 M,0,19067,,521.2223,433.1747 C,0,19067,,200,147,148 F,0,19067,19151,0,1 S,0,19067,20401,0.5,0.2 P,0,19067,20401,A F,0,19151,20401,1,0 M,0,20578,,373.2639,71.45089 C,0,20578,,192,172,165 F,0,20578,20661,0,1 S,0,20578,21911,0.5,0.2 P,0,20578,21911,A F,0,20661,21911,1,0 M,0,21932,,316.4016,396.7049 C,0,21932,,200,147,148 F,0,21932,22015,0,1 S,0,21932,23265,0.5,0.2 P,0,21932,23265,A F,0,22015,23265,1,0 M,0,23495,,217,246 C,0,23495,,203,171,135 F,0,23495,23578,0,1 S,0,23495,24828,0.3,0.2 P,0,23495,24828,A F,0,23578,24828,1,0 M,0,24953,,352.6573,240.0015 C,0,24953,,192,172,165 F,0,24953,25036,0,1 S,0,24953,26286,0.5,0.2 P,0,24953,26286,A F,0,25036,26286,1,0 M,0,26681,,417.1999,128.7436 C,0,26681,,203,171,135 F,0,26681,26765,0,1 S,0,26681,28015,0.5,0.2 P,0,26681,28015,A F,0,26765,28015,1,0 M,0,28098,,92.31458,232.1436 C,0,28098,,200,147,148 F,0,28098,28182,0,1 S,0,28098,29432,0.5,0.2 P,0,28098,29432,A F,0,28182,29432,1,0
Sprite,Background,Centre,"sb\pt\flare.png",0,0 M,0,14599,,367.7282,140.5211 C,0,14599,,200,147,148 F,0,14599,14682,0,1 S,0,14599,15932,0.5,0.2 P,0,14599,15932,A F,0,14682,15932,1,0 M,0,16171,,267.7604,314.0629 C,0,16171,,192,172,165 F,0,16171,16254,0,1 S,0,16171,17504,0.5,0.2 P,0,16171,17504,A F,0,16254,17504,1,0 M,0,17515,,250.9503,282.8545 C,0,17515,,203,171,135 F,0,17515,17598,0,1 S,0,17515,18848,0.5,0.2 P,0,17515,18848,A F,0,17598,18848,1,0 M,0,19161,,448,410 C,0,19161,,200,147,148 F,0,19161,19244,0,1 S,0,19161,20494,0.3,0.2 P,0,19161,20494,A F,0,19244,20494,1,0 M,0,20588,,366.3127,68.65462 C,0,20588,,192,172,165 F,0,20588,20672,0,1 S,0,20588,21922,0.5,0.2 P,0,20588,21922,A F,0,20672,21922,1,0 M,0,21942,,320.2824,391.5379 C,0,21942,,200,147,148 F,0,21942,22025,0,1 S,0,21942,23275,0.5,0.2 P,0,21942,23275,A F,0,22025,23275,1,0 M,0,23495,,217,246 C,0,23495,,203,171,135 F,0,23495,23578,0,1 S,0,23495,24828,0.5,0.2 P,0,23495,24828,A F,0,23578,24828,1,0 M,0,24963,,349.5104,233.1989 C,0,24963,,192,172,165 F,0,24963,25046,0,1 S,0,24963,26296,0.5,0.2 P,0,24963,26296,A F,0,25046,26296,1,0 M,0,26692,,411.1882,133.1803 C,0,26692,,203,171,135 F,0,26692,26775,0,1 S,0,26692,28025,0.5,0.2 P,0,26692,28025,A F,0,26775,28025,1,0 M,0,28109,,97.06581,226.3634 C,0,28109,,200,147,148 F,0,28109,28192,0,1 S,0,28109,29442,0.5,0.2 P,0,28109,29442,A F,0,28192,29442,1,0
Sprite,Background,Centre,"sb\pt\flare.png",0,0 M,0,14609,,365.68,147.7314 C,0,14609,,200,147,148 F,0,14609,14692,0,1 S,0,14609,15942,0.5,0.2 P,0,14609,15942,A F,0,14692,15942,1,0 M,0,16181,,260.4954,312.2789 C,0,16181,,192,172,165 F,0,16181,16265,0,1 S,0,16181,17515,0.5,0.2 P,0,16181,17515,A F,0,16265,17515,1,0 M,0,17525,,244.309,286.321 C,0,17525,,203,171,135 F,0,17525,17609,0,1 S,0,17525,18859,0.5,0.2 P,0,17525,18859,A F,0,17609,18859,1,0 M,0,19161,,448,410 C,0,19161,,200,147,148 F,0,19161,19244,0,1 S,0,19161,20494,0.5,0.2 P,0,19161,20494,A F,0,19244,20494,1,0 M,0,20599,,359.1676,66.38092 C,0,20599,,192,172,165 F,0,20599,20682,0,1 S,0,20599,21932,0.5,0.2 P,0,20599,21932,A F,0,20682,21932,1,0 M,0,21953,,323.7744,386.0932 C,0,21953,,200,147,148 F,0,21953,22036,0,1 S,0,21953,23286,0.5,0.2 P,0,21953,23286,A F,0,22036,23286,1,0 M,0,23505,,222.5591,241.0093 C,0,23505,,203,171,135 F,0,23505,23588,0,1 S,0,23505,24838,0.5,0.2 P,0,23505,24838,A F,0,23588,24838,1,0 M,0,24973,,347.3719,226.0223 C,0,24973,,192,172,165 F,0,24973,25057,0,1 S,0,24973,26307,0.5,0.2 P,0,24973,26307,A F,0,25057,26307,1,0 M,0,26702,,405.5317,138.0636 C,0,26702,,203,171,135 F,0,26702,26786,0,1 S,0,26702,28036,0.5,0.2 P,0,26702,28036,A F,0,26786,28036,1,0 M,0,28119,,101.4624,220.308 C,0,28119,,200,147,148 F,0,28119,28203,0,1 S,0,28119,29453,0.5,0.2 P,0,28119,29453,A F,0,28203,29453,1,0
Sprite,Background,Centre,"sb\pt\flare.png",0,0 M,0,14619,,364.6283,155.1469 C,0,14619,,200,147,148 F,0,14619,14703,0,1 S,0,14619,15953,0.5,0.2 P,0,14619,15953,A F,0,14703,15953,1,0 M,0,16192,,253.1367,310.9264 C,0,16192,,192,172,165 F,0,16192,16275,0,1 S,0,16192,17525,0.5,0.2 P,0,16192,17525,A F,0,16275,17525,1,0 M,0,17536,,237.9031,290.2128 C,0,17536,,203,171,135 F,0,17536,17619,0,1 S,0,17536,18869,0.5,0.2 P,0,17536,18869,A F,0,17619,18869,1,0 M,0,19171,,443.2495,404.2065 C,0,19171,,200,147,148 F,0,19171,19254,0,1 S,0,19171,20504,0.5,0.2 P,0,19171,20504,A F,0,19254,20504,1,0 M,0,20609,,351.7976,65.03783 C,0,20609,,192,172,165 F,0,20609,20692,0,1 S,0,20609,21942,0.5,0.2 P,0,20609,21942,A F,0,20692,21942,1,0 M,0,21963,,326.8595,380.3957 C,0,21963,,200,147,148 F,0,21963,22046,0,1 S,0,21963,23296,0.5,0.2 P,0,21963,23296,A F,0,22046,23296,1,0 M,0,23515,,227.7996,235.7811 C,0,23515,,203,171,135 F,0,23515,23599,0,1 S,0,23515,24849,0.5,0.2 P,0,23515,24849,A F,0,23599,24849,1,0 M,0,24984,,345.536,218.7904 C,0,24984,,192,172,165 F,0,24984,25067,0,1 S,0,24984,26317,0.5,0.2 P,0,24984,26317,A F,0,25067,26317,1,0 M,0,26713,,400.2631,143.3655 C,0,26713,,203,171,135 F,0,26713,26796,0,1 S,0,26713,28046,0.5,0.2 P,0,26713,28046,A F,0,26796,28046,1,0 M,0,28130,,105.4885,213.9988 C,0,28130,,200,147,148 F,0,28130,28213,0,1 S,0,28130,29463,0.5,0.2 P,0,28130,29463,A F,0,28213,29463,1,0
Sprite,Background,Centre,"sb\pt\flare.png",0,0 M,0,14630,,363.8568,162.5721 C,0,14630,,200,147,148 F,0,14630,14713,0,1 S,0,14630,15963,0.5,0.2 P,0,14630,15963,A F,0,14713,15963,1,0 M,0,16202,,245.7092,310.01 C,0,16202,,192,172,165 F,0,16202,16285,0,1 S,0,16202,17535,0.5,0.2 P,0,16202,17535,A F,0,16285,17535,1,0 M,0,17546,,231.9421,294.7534 C,0,17546,,203,171,135 F,0,17546,17630,0,1 S,0,17546,18880,0.5,0.2 P,0,17546,18880,A F,0,17630,18880,1,0 M,0,19181,,438.3582,398.5552 C,0,19181,,200,147,148 F,0,19181,19265,0,1 S,0,19181,20515,0.5,0.2 P,0,19181,20515,A F,0,19265,20515,1,0 M,0,20620,,344.4111,63.91862 C,0,20620,,192,172,165 F,0,20620,20703,0,1 S,0,20620,21953,0.5,0.2 P,0,20620,21953,A F,0,20703,21953,1,0 M,0,21973,,329.5207,374.4716 C,0,21973,,200,147,148 F,0,21973,22057,0,1 S,0,21973,23307,0.5,0.2 P,0,21973,23307,A F,0,22057,23307,1,0 M,0,23526,,232.2775,229.882 C,0,23526,,203,171,135 F,0,23526,23609,0,1 S,0,23526,24859,0.5,0.2 P,0,23526,24859,A F,0,23609,24859,1,0 M,0,25078,,348,203 C,0,25078,,192,172,165 F,0,25078,25161,0,1 S,0,25078,26411,0.3,0.2 P,0,25078,26411,A F,0,25161,26411,1,0 M,0,26723,,395.4131,149.0556 C,0,26723,,203,171,135 F,0,26723,26806,0,1 S,0,26723,28056,0.5,0.2 P,0,26723,28056,A F,0,26806,28056,1,0 M,0,28140,,109.1298,207.4581 C,0,28140,,200,147,148 F,0,28140,28223,0,1 S,0,28140,29473,0.5,0.2 P,0,28140,29473,A F,0,28223,29473,1,0
Sprite,Background,Centre,"sb\pt\flare.png",0,0 M,0,14640,,363.6984,170.0365 C,0,14640,,200,147,148 F,0,14640,14724,0,1 S,0,14640,15974,0.5,0.2 P,0,14640,15974,A F,0,14724,15974,1,0 M,0,16213,,238.2383,309.5333 C,0,16213,,192,172,165 F,0,16213,16296,0,1 S,0,16213,17546,0.5,0.2 P,0,16213,17546,A F,0,16296,17546,1,0 M,0,17557,,226.1432,299.4745 C,0,17557,,203,171,135 F,0,17557,17640,0,1 S,0,17557,18890,0.5,0.2 P,0,17557,18890,A F,0,17640,18890,1,0 M,0,19192,,433.0805,393.2616 C,0,19192,,200,147,148 F,0,19192,19275,0,1 S,0,19192,20525,0.5,0.2 P,0,19192,20525,A F,0,19275,20525,1,0 M,0,20630,,336.9607,63.35084 C,0,20630,,192,172,165 F,0,20630,20713,0,1 S,0,20630,21963,0.5,0.2 P,0,20630,21963,A F,0,20713,21963,1,0 M,0,21984,,331.2482,368.2166 C,0,21984,,200,147,148 F,0,21984,22067,0,1 S,0,21984,23317,0.5,0.2 P,0,21984,23317,A F,0,22067,23317,1,0 M,0,23536,,235.9086,223.4205 C,0,23536,,203,171,135 F,0,23536,23620,0,1 S,0,23536,24870,0.5,0.2 P,0,23536,24870,A F,0,23620,24870,1,0 M,0,25161,,353,195 C,0,25161,,192,172,165 F,0,25161,25244,0,1 S,0,25161,26494,0.3,0.2 P,0,25161,26494,A F,0,25244,26494,1,0 M,0,26733,,391.0099,155.1014 C,0,26733,,203,171,135 F,0,26733,26817,0,1 S,0,26733,28067,0.5,0.2 P,0,26733,28067,A F,0,26817,28067,1,0 M,0,28150,,112.3729,200.7091 C,0,28150,,200,147,148 F,0,28150,28234,0,1 S,0,28150,29484,0.5,0.2 P,0,28150,29484,A F,0,28234,29484,1,0
Sprite,Background,Centre,"sb\pt\flare.png",0,0 M,0,14651,,364.1542,177.4899 C,0,14651,,200,147,148 F,0,14651,14734,0,1 S,0,14651,15984,0.5,0.2 P,0,14651,15984,A F,0,14734,15984,1,0 M,0,16223,,230.7494,309.4981 C,0,16223,,192,172,165 F,0,16223,16306,0,1 S,0,16223,17556,0.5,0.2 P,0,16223,17556,A F,0,16306,17556,1,0 M,0,17567,,220.6621,304.5618 C,0,17567,,203,171,135 F,0,17567,17650,0,1 S,0,17567,18900,0.5,0.2 P,0,17567,18900,A F,0,17650,18900,1,0 M,0,19202,,427.4419,388.3517 C,0,19202,,200,147,148 F,0,19202,19286,0,1 S,0,19202,20536,0.5,0.2 P,0,19202,20536,A F,0,19286,20536,1,0 M,0,20640,,329.487,63.33781 C,0,20640,,192,172,165 F,0,20640,20724,0,1 S,0,20640,21974,0.5,0.2 P,0,20640,21974,A F,0,20724,21974,1,0 M,0,21994,,332.834,361.9513 C,0,21994,,200,147,148 F,0,21994,22078,0,1 S,0,21994,23328,0.5,0.2 P,0,21994,23328,A F,0,22078,23328,1,0 M,0,23547,,238.6238,216.5157 C,0,23547,,203,171,135 F,0,23547,23630,0,1 S,0,23547,24880,0.5,0.2 P,0,23547,24880,A F,0,23630,24880,1,0 M,0,25161,,353,195 C,0,25161,,192,172,165 F,0,25161,25244,0,1 S,0,25161,26494,0.5,0.2 P,0,25161,26494,A F,0,25244,26494,1,0 M,0,26744,,387.0796,161.4681 C,0,26744,,203,171,135 F,0,26744,26827,0,1 S,0,26744,28077,0.5,0.2 P,0,26744,28077,A F,0,26827,28077,1,0 M,0,28161,,115.2063,193.7756 C,0,28161,,200,147,148 F,0,28161,28244,0,1 S,0,28161,29494,0.5,0.2 P,0,28161,29494,A F,0,28244,29494,1,0
Sprite,Background,Centre,"sb\pt\flare.png",0,0 M,0,14661,,365.2216,184.8825 C,0,14661,,200,147,148 F,0,14661,14744,0,1 S,0,14661,15994,0.5,0.2 P,0,14661,15994,A F,0,14744,15994,1,0 M,0,16233,,223.2679,309.9051 C,0,16233,,192,172,165 F,0,16233,16317,0,1 S,0,16233,17567,0.5,0.2 P,0,16233,17567,A F,0,16317,17567,1,0 M,0,17661,,144,374 C,0,17661,,203,171,135 F,0,17661,17744,0,1 S,0,17661,18994,0.3,0.2 P,0,17661,18994,A F,0,17744,18994,1,0 M,0,19213,,421.4698,383.8496 C,0,19213,,200,147,148 F,0,19213,19296,0,1 S,0,19213,20546,0.5,0.2 P,0,19213,20546,A F,0,19296,20546,1,0 M,0,20651,,322.0306,63.87996 C,0,20651,,192,172,165 F,0,20651,20734,0,1 S,0,20651,21984,0.5,0.2 P,0,20651,21984,A F,0,20734,21984,1,0 M,0,22005,,333.9539,355.5789 C,0,22005,,200,147,148 F,0,22005,22088,0,1 S,0,22005,23338,0.5,0.2 P,0,22005,23338,A F,0,22088,23338,1,0 M,0,23557,,240.37,209.295 C,0,23557,,203,171,135 F,0,23557,23640,0,1 S,0,23557,24890,0.5,0.2 P,0,23557,24890,A F,0,23640,24890,1,0 M,0,25171,,359.9739,197.7149 C,0,25171,,192,172,165 F,0,25171,25254,0,1 S,0,25171,26504,0.5,0.2 P,0,25171,26504,A F,0,25254,26504,1,0 M,0,26754,,383.6451,168.1192 C,0,26754,,203,171,135 F,0,26754,26838,0,1 S,0,26754,28088,0.5,0.2 P,0,26754,28088,A F,0,26838,28088,1,0 M,0,28171,,117.6193,186.6824 C,0,28171,,200,147,148 F,0,28171,28255,0,1 S,0,28171,29505,0.5,0.2 P,0,28171,29505,A F,0,28255,29505,1,0
Sprite,Background,Centre,"sb\pt\flare.png",0,0 M,0,14672,,366.8937,192.1648 C,0,14672,,200,147,148 F,0,14672,14755,0,1 S,0,14672,16005,0.5,0.2 P,0,14672,16005,A F,0,14755,16005,1,0 M,0,16328,,137,406 C,0,16328,,192,172,165 F,0,16328,16411,0,1 S,0,16328,17661,0.3,0.2 P,0,16328,17661,A F,0,16411,17661,1,0 M,0,17671,,138.1175,369.3629 C,0,17671,,203,171,135 F,0,17671,17754,0,1 S,0,17671,19004,0.5,0.2 P,0,17671,19004,A F,0,17754,19004,1,0 M,0,19223,,415.1932,379.7777 C,0,19223,,200,147,148 F,0,19223,19306,0,1 S,0,19223,20556,0.5,0.2 P,0,19223,20556,A F,0,19306,20556,1,0 M,0,20661,,314.6322,64.97475 C,0,20661,,192,172,165 F,0,20661,20745,0,1 S,0,20661,21995,0.5,0.2 P,0,20661,21995,A F,0,20745,21995,1,0 M,0,22015,,334.6008,349.1295 C,0,22015,,200,147,148 F,0,22015,22098,0,1 S,0,22015,23348,0.5,0.2 P,0,22015,23348,A F,0,22098,23348,1,0 M,0,23567,,241.1118,201.8919 C,0,23567,,203,171,135 F,0,23567,23651,0,1 S,0,23567,24901,0.5,0.2 P,0,23567,24901,A F,0,23651,24901,1,0 M,0,25181,,367.0252,200.1073 C,0,25181,,192,172,165 F,0,25181,25265,0,1 S,0,25181,26515,0.5,0.2 P,0,25181,26515,A F,0,25265,26515,1,0 M,0,26765,,380.7268,175.0166 C,0,26765,,203,171,135 F,0,26765,26848,0,1 S,0,26765,28098,0.5,0.2 P,0,26765,28098,A F,0,26848,28098,1,0 M,0,28182,,119.6033,179.4545 C,0,28182,,200,147,148 F,0,28182,28265,0,1 S,0,28182,29515,0.5,0.2 P,0,28182,29515,A F,0,28265,29515,1,0
Sprite,Background,Centre,"sb\pt\flare.png",0,0 M,0,14682,,369.1599,199.2878 C,0,14682,,200,147,148 F,0,14682,14765,0,1 S,0,14682,16015,0.5,0.2 P,0,14682,16015,A F,0,14765,16015,1,0 M,0,16328,,137,406 C,0,16328,,192,172,165 F,0,16328,16411,0,1 S,0,16328,17661,0.5,0.2 P,0,16328,17661,A F,0,16411,17661,1,0 M,0,17681,,132.0981,364.9425 C,0,17681,,203,171,135 F,0,17681,17765,0,1 S,0,17681,19015,0.5,0.2 P,0,17681,19015,A F,0,17765,19015,1,0 M,0,19233,,408.6425,376.1563 C,0,19233,,200,147,148 F,0,19233,19317,0,1 S,0,19233,20567,0.5,0.2 P,0,19233,20567,A F,0,19317,20567,1,0 M,0,20672,,307.332,66.61679 C,0,20672,,192,172,165 F,0,20672,20755,0,1 S,0,20672,22005,0.5,0.2 P,0,20672,22005,A F,0,20755,22005,1,0 M,0,22025,,334.7687,342.6338 C,0,22025,,200,147,148 F,0,22025,22109,0,1 S,0,22025,23359,0.5,0.2 P,0,22025,23359,A F,0,22109,23359,1,0 M,0,23578,,240.8317,194.4439 C,0,23578,,203,171,135 F,0,23578,23661,0,1 S,0,23578,24911,0.5,0.2 P,0,23578,24911,A F,0,23661,24911,1,0 M,0,25275,,430.399,187.2341 C,0,25275,,192,172,165 F,0,25275,25358,0,1 S,0,25275,26608,0.5,0.2 P,0,25275,26608,A F,0,25358,26608,1,0 M,0,26775,,378.3423,182.1207 C,0,26775,,203,171,135 F,0,26775,26858,0,1 S,0,26775,28108,0.5,0.2 P,0,26775,28108,A F,0,26858,28108,1,0 M,0,28192,,121.1506,172.1175 C,0,28192,,200,147,148 F,0,28192,28275,0,1 S,0,28192,29525,0.5,0.2 P,0,28192,29525,A F,0,28275,29525,1,0
Sprite,Background,Centre,"sb\pt\flare.png",0,0 M,0,14692,,372.0055,206.2036 C,0,14692,,200,147,148 F,0,14692,14776,0,1 S,0,14692,16026,0.5,0.2 P,0,14692,16026,A F,0,14776,16026,1,0 M,0,16338,,131.199,401.2729 C,0,16338,,192,172,165 F,0,16338,16421,0,1 S,0,16338,17671,0.5,0.2 P,0,16338,17671,A F,0,16421,17671,1,0 M,0,17692,,125.7397,361.0242 C,0,17692,,203,171,135 F,0,17692,17775,0,1 S,0,17692,19025,0.5,0.2 P,0,17692,19025,A F,0,17775,19025,1,0 M,0,19244,,401.8495,373.0037 C,0,19244,,200,147,148 F,0,19244,19327,0,1 S,0,19244,20577,0.5,0.2 P,0,19244,20577,A F,0,19327,20577,1,0 M,0,20682,,300.17,68.79776 C,0,20682,,192,172,165 F,0,20682,20765,0,1 S,0,20682,22015,0.5,0.2 P,0,20682,22015,A F,0,20765,22015,1,0 M,0,22036,,333.9149,336.2011 C,0,22036,,200,147,148 F,0,22036,22119,0,1 S,0,22036,23369,0.5,0.2 P,0,22036,23369,A F,0,22119,23369,1,0 M,0,23588,,239.5305,187.0898 C,0,23588,,203,171,135 F,0,23588,23672,0,1 S,0,23588,24922,0.5,0.2 P,0,23588,24922,A F,0,23672,24922,1,0 M,0,25286,,435.987,182.2595 C,0,25286,,192,172,165 F,0,25286,25369,0,1 S,0,25286,26619,0.5,0.2 P,0,25286,26619,A F,0,25369,26619,1,0 M,0,26786,,376.5061,189.3906 C,0,26786,,203,171,135 F,0,26786,26869,0,1 S,0,26786,28119,0.5,0.2 P,0,26786,28119,A F,0,26869,28119,1,0 M,0,28203,,121.9519,164.666 C,0,28203,,200,147,148 F,0,28203,28286,0,1 S,0,28203,29536,0.5,0.2 P,0,28203,29536,A F,0,28286,29536,1,0
Sprite,Background,Centre,"sb\pt\flare.png",0,0 M,0,14703,,375.4122,212.8656 C,0,14703,,200,147,148 F,0,14703,14786,0,1 S,0,14703,16036,0.5,0.2 P,0,14703,16036,A F,0,14786,16036,1,0 M,0,16348,,125.6177,396.3476 C,0,16348,,192,172,165 F,0,16348,16432,0,1 S,0,16348,17682,0.5,0.2 P,0,16348,17682,A F,0,16432,17682,1,0 M,0,17702,,119.0838,357.6336 C,0,17702,,203,171,135 F,0,17702,17786,0,1 S,0,17702,19036,0.5,0.2 P,0,17702,19036,A F,0,17786,19036,1,0 M,0,19254,,394.8473,370.3359 C,0,19254,,200,147,148 F,0,19254,19338,0,1 S,0,19254,20588,0.5,0.2 P,0,19254,20588,A F,0,19338,20588,1,0 M,0,20692,,293.1852,71.50652 C,0,20692,,192,172,165 F,0,20692,20776,0,1 S,0,20692,22026,0.5,0.2 P,0,20692,22026,A F,0,20776,22026,1,0 M,0,22046,,332.9592,329.8081 C,0,22046,,200,147,148 F,0,22046,22130,0,1 S,0,22046,23380,0.5,0.2 P,0,22046,23380,A F,0,22130,23380,1,0 M,0,23599,,237.2278,179.9677 C,0,23599,,203,171,135 F,0,23599,23682,0,1 S,0,23599,24932,0.5,0.2 P,0,23599,24932,A F,0,23682,24932,1,0 M,0,25296,,441.0245,176.7193 C,0,25296,,192,172,165 F,0,25296,25379,0,1 S,0,25296,26629,0.5,0.2 P,0,25296,26629,A F,0,25379,26629,1,0 M,0,26796,,375.6167,196.8289 C,0,26796,,203,171,135 F,0,26796,26879,0,1 S,0,26796,28129,0.5,0.2 P,0,26796,28129,A F,0,26879,28129,1,0 M,0,28213,,122.5602,157.2093 C,0,28213,,200,147,148 F,0,28213,28296,0,1 S,0,28213,29546,0.5,0.2 P,0,28213,29546,A F,0,28296,29546,1,0
Sprite,Background,Centre,"sb\pt\flare.png",0,0 M,0,14713,,379.3577,219.2288 C,0,14713,,200,147,148 F,0,14713,14797,0,1 S,0,14713,16047,0.5,0.2 P,0,14713,16047,A F,0,14797,16047,1,0 M,0,16359,,120.5749,390.8691 C,0,16359,,192,172,165 F,0,16359,16442,0,1 S,0,16359,17692,0.5,0.2 P,0,16359,17692,A F,0,16442,17692,1,0 M,0,17713,,112.1738,354.7932 C,0,17713,,203,171,135 F,0,17713,17796,0,1 S,0,17713,19046,0.5,0.2 P,0,17713,19046,A F,0,17796,19046,1,0 M,0,19265,,387.6697,368.1666 C,0,19265,,200,147,148 F,0,19265,19348,0,1 S,0,19265,20598,0.5,0.2 P,0,19265,20598,A F,0,19348,20598,1,0 M,0,20703,,286.4162,74.72907 C,0,20703,,192,172,165 F,0,20703,20786,0,1 S,0,20703,22036,0.5,0.2 P,0,20703,22036,A F,0,20786,22036,1,0 M,0,22057,,331.5321,323.4955 C,0,22057,,200,147,148 F,0,22057,22140,0,1 S,0,22057,23390,0.5,0.2 P,0,22057,23390,A F,0,22140,23390,1,0 M,0,23609,,233.3866,173.5602 C,0,23609,,203,171,135 F,0,23609,23692,0,1 S,0,23609,24942,0.5,0.2 P,0,23609,24942,A F,0,23692,24942,1,0 M,0,25306,,445.4547,170.6736 C,0,25306,,192,172,165 F,0,25306,25390,0,1 S,0,25306,26640,0.5,0.2 P,0,25306,26640,A F,0,25390,26640,1,0 M,0,26806,,374.9667,204.2711 C,0,26806,,203,171,135 F,0,26806,26890,0,1 S,0,26806,28140,0.5,0.2 P,0,26806,28140,A F,0,26890,28140,1,0 M,0,28223,,122.7202,149.729 C,0,28223,,200,147,148 F,0,28223,28307,0,1 S,0,28223,29557,0.5,0.2 P,0,28223,29557,A F,0,28307,29557,1,0
Sprite,Background,Centre,"sb\pt\flare.png",0,0 M,0,14724,,383.8164,225.2501 C,0,14724,,200,147,148 F,0,14724,14807,0,1 S,0,14724,16057,0.5,0.2 P,0,14724,16057,A F,0,14807,16057,1,0 M,0,16369,,116.1245,384.8949 C,0,16369,,192,172,165 F,0,16369,16452,0,1 S,0,16369,17702,0.5,0.2 P,0,16369,17702,A F,0,16452,17702,1,0 M,0,17723,,105.0549,352.5219 C,0,17723,,203,171,135 F,0,17723,17806,0,1 S,0,17723,19056,0.5,0.2 P,0,17723,19056,A F,0,17806,19056,1,0 M,0,19275,,380.2888,366.8803 C,0,19275,,200,147,148 F,0,19275,19358,0,1 S,0,19275,20608,0.5,0.2 P,0,19275,20608,A F,0,19358,20608,1,0 M,0,20713,,280.1107,78.77382 C,0,20713,,192,172,165 F,0,20713,20797,0,1 S,0,20713,22047,0.5,0.2 P,0,20713,22047,A F,0,20797,22047,1,0 M,0,22067,,329.6383,317.2936 C,0,22067,,200,147,148 F,0,22067,22150,0,1 S,0,22067,23400,0.5,0.2 P,0,22067,23400,A F,0,22150,23400,1,0 M,0,23620,,229.1871,167.4661 C,0,23620,,203,171,135 F,0,23620,23703,0,1 S,0,23620,24953,0.5,0.2 P,0,23620,24953,A F,0,23703,24953,1,0 M,0,25317,,448.7791,163.9688 C,0,25317,,192,172,165 F,0,25317,25400,0,1 S,0,25317,26650,0.5,0.2 P,0,25317,26650,A F,0,25400,26650,1,0 M,0,26817,,374.8864,211.7421 C,0,26817,,203,171,135 F,0,26817,26900,0,1 S,0,26817,28150,0.5,0.2 P,0,26817,28150,A F,0,26900,28150,1,0 M,0,28234,,122.4313,142.2517 C,0,28234,,200,147,148 F,0,28234,28317,0,1 S,0,28234,29567,0.5,0.2 P,0,28234,29567,A F,0,28317,29567,1,0
Sprite,Background,Centre,"sb\pt\flare.png",0,0 M,0,14734,,388.7592,230.8884 C,0,14734,,200,147,148 F,0,14734,14817,0,1 S,0,14734,16067,0.5,0.2 P,0,14734,16067,A F,0,14817,16067,1,0 M,0,16380,,112.3145,378.4879 C,0,16380,,192,172,165 F,0,16380,16463,0,1 S,0,16380,17713,0.5,0.2 P,0,16380,17713,A F,0,16463,17713,1,0 M,0,17733,,97.77351,350.8345 C,0,17733,,203,171,135 F,0,17733,17817,0,1 S,0,17733,19067,0.5,0.2 P,0,17733,19067,A F,0,17817,19067,1,0 M,0,19286,,372.8923,365.8079 C,0,19286,,200,147,148 F,0,19286,19369,0,1 S,0,19286,20619,0.5,0.2 P,0,19286,20619,A F,0,19369,20619,1,0 M,0,20724,,273.9534,83.00473 C,0,20724,,192,172,165 F,0,20724,20807,0,1 S,0,20724,22057,0.5,0.2 P,0,20724,22057,A F,0,20807,22057,1,0 M,0,22161,,307,236 C,0,22161,,192,172,165 F,0,22161,22244,0,1 S,0,22161,23494,0.3,0.2 P,0,22161,23494,A F,0,22244,23494,1,0 M,0,23630,,224.1914,162.0021 C,0,23630,,203,171,135 F,0,23630,23713,0,1 S,0,23630,24963,0.5,0.2 P,0,23630,24963,A F,0,23713,24963,1,0 M,0,25327,,451.7675,157.149 C,0,25327,,192,172,165 F,0,25327,25411,0,1 S,0,25327,26661,0.5,0.2 P,0,25327,26661,A F,0,25411,26661,1,0 M,0,27005,,444.3328,265.7135 C,0,27005,,203,171,135 F,0,27005,27088,0,1 S,0,27005,28338,0.5,0.2 P,0,27005,28338,A F,0,27088,28338,1,0 M,0,28369,,196.5797,112.4288 C,0,28369,,200,147,148 F,0,28369,28453,0,1 S,0,28369,29703,0.5,0.2 P,0,28369,29703,A F,0,28453,29703,1,0
Sprite,Background,Centre,"sb\pt\flare.png",0,0 M,0,14828,,506,234 C,0,14828,,200,147,148 F,0,14828,14911,0,1 S,0,14828,16161,0.3,0.2 P,0,14828,16161,A F,0,14911,16161,1,0 M,0,16390,,109.1862,371.7153 C,0,16390,,192,172,165 F,0,16390,16473,0,1 S,0,16390,17723,0.5,0.2 P,0,16390,17723,A F,0,16473,17723,1,0 M,0,17828,,213,424 C,0,17828,,203,171,135 F,0,17828,17911,0,1 S,0,17828,19161,0.3,0.2 P,0,17828,19161,A F,0,17911,19161,1,0 M,0,19296,,365.4377,365.2587 C,0,19296,,200,147,148 F,0,19296,19379,0,1 S,0,19296,20629,0.5,0.2 P,0,19296,20629,A F,0,19379,20629,1,0 M,0,20734,,268.1266,87.68172 C,0,20734,,192,172,165 F,0,20734,20817,0,1 S,0,20734,22067,0.5,0.2 P,0,20734,22067,A F,0,20817,22067,1,0 M,0,22161,,307,236 C,0,22161,,192,172,165 F,0,22161,22244,0,1 S,0,22161,23494,0.5,0.2 P,0,22161,23494,A F,0,22244,23494,1,0 M,0,23640,,218.4916,157.2704 C,0,23640,,203,171,135 F,0,23640,23724,0,1 S,0,23640,24974,0.5,0.2 P,0,23640,24974,A F,0,23724,24974,1,0 M,0,25338,,454.0219,150.0517 C,0,25338,,192,172,165 F,0,25338,25421,0,1 S,0,25338,26671,0.5,0.2 P,0,25338,26671,A F,0,25421,26671,1,0 M,0,27026,,450.3408,279.4179 C,0,27026,,203,171,135 F,0,27026,27109,0,1 S,0,27026,28359,0.5,0.2 P,0,27026,28359,A F,0,27109,28359,1,0 M,0,28380,,196.3164,119.8857 C,0,28380,,200,147,148 F,0,28380,28463,0,1 S,0,28380,29713,0.5,0.2 P,0,28380,29713,A F,0,28463,29713,1,0
Sprite,Background,Centre,"sb\pt\flare.png",0,0 M,0,14828,,506,234 C,0,14828,,200,147,148 F,0,14828,14911,0,1 S,0,14828,16161,0.5,0.2 P,0,14828,16161,A F,0,14911,16161,1,0 M,0,16400,,106.7743,364.6484 C,0,16400,,192,172,165 F,0,16400,16484,0,1 S,0,16400,17734,0.5,0.2 P,0,16400,17734,A F,0,16484,17734,1,0 M,0,17828,,213,424 C,0,17828,,203,171,135 F,0,17828,17911,0,1 S,0,17828,19161,0.5,0.2 P,0,17828,19161,A F,0,17911,19161,1,0 M,0,19306,,357.9614,365.2357 C,0,19306,,200,147,148 F,0,19306,19390,0,1 S,0,19306,20640,0.5,0.2 P,0,19306,20640,A F,0,19390,20640,1,0 M,0,20828,,199,149 C,0,20828,,203,171,135 F,0,20828,20911,0,1 S,0,20828,22161,0.3,0.2 P,0,20828,22161,A F,0,20911,22161,1,0 M,0,22171,,305.7826,228.6007 C,0,22171,,192,172,165 F,0,22171,22254,0,1 S,0,22171,23504,0.5,0.2 P,0,22171,23504,A F,0,22254,23504,1,0 M,0,23651,,212.1924,153.3602 C,0,23651,,203,171,135 F,0,23651,23734,0,1 S,0,23651,24984,0.5,0.2 P,0,23651,24984,A F,0,23734,24984,1,0 M,0,25348,,455.5172,142.7552 C,0,25348,,192,172,165 F,0,25348,25431,0,1 S,0,25348,26681,0.5,0.2 P,0,25348,26681,A F,0,25431,26681,1,0 M,0,27036,,452.7751,286.497 C,0,27036,,203,171,135 F,0,27036,27120,0,1 S,0,27036,28370,0.5,0.2 P,0,27036,28370,A F,0,27120,28370,1,0 M,0,28390,,196.8656,127.3447 C,0,28390,,200,147,148 F,0,28390,28473,0,1 S,0,28390,29723,0.5,0.2 P,0,28390,29723,A F,0,28473,29723,1,0
Sprite,Background,Centre,"sb\pt\flare.png",0,0 M,0,14838,,499.4453,230.3738 C,0,14838,,200,147,148 F,0,14838,14921,0,1 S,0,14838,16171,0.5,0.2 P,0,14838,16171,A F,0,14921,16171,1,0 M,0,16495,,162,244 C,0,16495,,192,172,165 F,0,16495,16578,0,1 S,0,16495,17828,0.3,0.2 P,0,16495,17828,A F,0,16578,17828,1,0 M,0,17838,,219.3566,427.9783 C,0,17838,,203,171,135 F,0,17838,17921,0,1 S,0,17838,19171,0.5,0.2 P,0,17838,19171,A F,0,17921,19171,1,0 M,0,19317,,350.5,365.7393 C,0,19317,,200,147,148 F,0,19317,19400,0,1 S,0,19317,20650,0.5,0.2 P,0,19317,20650,A F,0,19400,20650,1,0 M,0,20828,,199,149 C,0,20828,,203,171,135 F,0,20828,20911,0,1 S,0,20828,22161,0.5,0.2 P,0,20828,22161,A F,0,20911,22161,1,0 M,0,22181,,305.0559,221.1376 C,0,22181,,192,172,165 F,0,22181,22265,0,1 S,0,22181,23515,0.5,0.2 P,0,22181,23515,A F,0,22265,23515,1,0 M,0,23661,,205.4097,150.3459 C,0,23661,,203,171,135 F,0,23661,23745,0,1 S,0,23661,24995,0.5,0.2 P,0,23661,24995,A F,0,23745,24995,1,0 M,0,25358,,456.2366,135.3399 C,0,25358,,192,172,165 F,0,25358,25442,0,1 S,0,25358,26692,0.5,0.2 P,0,25358,26692,A F,0,25442,26692,1,0 M,0,27047,,454.8196,293.7 C,0,27047,,203,171,135 F,0,27047,27130,0,1 S,0,27047,28380,0.5,0.2 P,0,27047,28380,A F,0,27130,28380,1,0 M,0,28400,,198.2254,134.7208 C,0,28400,,200,147,148 F,0,28400,28484,0,1 S,0,28400,29734,0.5,0.2 P,0,28400,29734,A F,0,28484,29734,1,0
Sprite,Background,Centre,"sb\pt\flare.png",0,0 M,0,14848,,492.8155,226.9329 C,0,14848,,200,147,148 F,0,14848,14932,0,1 S,0,14848,16182,0.5,0.2 P,0,14848,16182,A F,0,14932,16182,1,0 M,0,16495,,162,244 C,0,16495,,192,172,165 F,0,16495,16578,0,1 S,0,16495,17828,0.5,0.2 P,0,16495,17828,A F,0,16578,17828,1,0 M,0,17848,,225.9368,431.5746 C,0,17848,,203,171,135 F,0,17848,17932,0,1 S,0,17848,19182,0.5,0.2 P,0,17848,19182,A F,0,17932,19182,1,0 M,0,19327,,343.0899,366.7674 C,0,19327,,200,147,148 F,0,19327,19411,0,1 S,0,19327,20661,0.5,0.2 P,0,19327,20661,A F,0,19411,20661,1,0 M,0,20838,,192.5803,148.069 C,0,20838,,203,171,135 F,0,20838,20921,0,1 S,0,20838,22171,0.5,0.2 P,0,20838,22171,A F,0,20921,22171,1,0 M,0,22192,,304.8877,213.6415 C,0,22192,,192,172,165 F,0,22192,22275,0,1 S,0,22192,23525,0.5,0.2 P,0,22192,23525,A F,0,22275,23525,1,0 M,0,23672,,198.2684,148.2861 C,0,23672,,203,171,135 F,0,23672,23755,0,1 S,0,23672,25005,0.5,0.2 P,0,23672,25005,A F,0,23755,25005,1,0 M,0,25369,,456.1716,127.8875 C,0,25369,,192,172,165 F,0,25369,25452,0,1 S,0,25369,26702,0.5,0.2 P,0,25369,26702,A F,0,25452,26702,1,0 M,0,27057,,456.4681,301.0057 C,0,27057,,203,171,135 F,0,27057,27140,0,1 S,0,27057,28390,0.5,0.2 P,0,27057,28390,A F,0,27140,28390,1,0 M,0,28495,,267,192 C,0,28495,,200,147,148 F,0,28495,28578,0,1 S,0,28495,29828,0.3,0.2 P,0,28495,29828,A F,0,28578,29828,1,0
Sprite,Background,Centre,"sb\pt\flare.png",0,0 M,0,14859,,485.9457,223.9961 C,0,14859,,200,147,148 F,0,14859,14942,0,1 S,0,14859,16192,0.5,0.2 P,0,14859,16192,A F,0,14942,16192,1,0 M,0,16505,,156.4338,248.9918 C,0,16505,,192,172,165 F,0,16505,16588,0,1 S,0,16505,17838,0.5,0.2 P,0,16505,17838,A F,0,16588,17838,1,0 M,0,17859,,232.7279,434.7544 C,0,17859,,203,171,135 F,0,17859,17942,0,1 S,0,17859,19192,0.5,0.2 P,0,17859,19192,A F,0,17942,19192,1,0 M,0,19338,,335.7675,368.3155 C,0,19338,,200,147,148 F,0,19338,19421,0,1 S,0,19338,20671,0.5,0.2 P,0,19338,20671,A F,0,19421,20671,1,0 M,0,20848,,186.1754,147.246 C,0,20848,,203,171,135 F,0,20848,20932,0,1 S,0,20848,22182,0.5,0.2 P,0,20848,22182,A F,0,20932,22182,1,0 M,0,22202,,305.343,206.1578 C,0,22202,,192,172,165 F,0,22202,22286,0,1 S,0,22202,23536,0.5,0.2 P,0,22202,23536,A F,0,22286,23536,1,0 M,0,23682,,190.9005,147.2224 C,0,23682,,203,171,135 F,0,23682,23765,0,1 S,0,23682,25015,0.5,0.2 P,0,23682,25015,A F,0,23765,25015,1,0 M,0,25379,,455.3224,120.4803 C,0,25379,,192,172,165 F,0,25379,25463,0,1 S,0,25379,26713,0.5,0.2 P,0,25379,26713,A F,0,25463,26713,1,0 M,0,27067,,457.7154,308.3926 C,0,27067,,203,171,135 F,0,27067,27151,0,1 S,0,27067,28401,0.5,0.2 P,0,27067,28401,A F,0,27151,28401,1,0 M,0,28495,,267,192 C,0,28495,,200,147,148 F,0,28495,28578,0,1 S,0,28495,29828,0.5,0.2 P,0,28495,29828,A F,0,28578,29828,1,0
Sprite,Background,Centre,"sb\pt\flare.png",0,0 M,0,14869,,478.8731,221.5798 C,0,14869,,200,147,148 F,0,14869,14952,0,1 S,0,14869,16202,0.5,0.2 P,0,14869,16202,A F,0,14952,16202,1,0 M,0,16515,,150.6895,253.6923 C,0,16515,,192,172,165 F,0,16515,16599,0,1 S,0,16515,17849,0.5,0.2 P,0,16515,17849,A F,0,16599,17849,1,0 M,0,17869,,239.7102,437.4886 C,0,17869,,203,171,135 F,0,17869,17953,0,1 S,0,17869,19203,0.5,0.2 P,0,17869,19203,A F,0,17953,19203,1,0 M,0,19348,,328.5688,370.3765 C,0,19348,,200,147,148 F,0,19348,19431,0,1 S,0,19348,20681,0.5,0.2 P,0,19348,20681,A F,0,19431,20681,1,0 M,0,20859,,179.7153,146.9651 C,0,20859,,203,171,135 F,0,20859,20942,0,1 S,0,20859,22192,0.5,0.2 P,0,20859,22192,A F,0,20942,22192,1,0 M,0,22213,,306.4815,198.7477 C,0,22213,,192,172,165 F,0,22213,22296,0,1 S,0,22213,23546,0.5,0.2 P,0,22213,23546,A F,0,22296,23546,1,0 M,0,23692,,183.4425,147.1784 C,0,23692,,203,171,135 F,0,23692,23776,0,1 S,0,23692,25026,0.5,0.2 P,0,23692,25026,A F,0,23776,25026,1,0 M,0,25390,,453.6975,113.2001 C,0,25390,,192,172,165 F,0,25390,25473,0,1 S,0,25390,26723,0.5,0.2 P,0,25390,26723,A F,0,25473,26723,1,0 M,0,27161,,477,417 C,0,27161,,203,171,135 F,0,27161,27244,0,1 S,0,27161,28494,0.3,0.2 P,0,27161,28494,A F,0,27244,28494,1,0 M,0,28505,,274.4561,191.2087 C,0,28505,,200,147,148 F,0,28505,28588,0,1 S,0,28505,29838,0.5,0.2 P,0,28505,29838,A F,0,28588,29838,1,0
Sprite,Background,Centre,"sb\pt\flare.png",0,0 M,0,14880,,471.6365,219.6977 C,0,14880,,200,147,148 F,0,14880,14963,0,1 S,0,14880,16213,0.5,0.2 P,0,14880,16213,A F,0,14963,16213,1,0 M,0,16526,,144.4158,257.6651 C,0,16526,,192,172,165 F,0,16526,16609,0,1 S,0,16526,17859,0.5,0.2 P,0,16526,17859,A F,0,16609,17859,1,0 M,0,17880,,246.8584,439.754 C,0,17880,,203,171,135 F,0,17880,17963,0,1 S,0,17880,19213,0.5,0.2 P,0,17880,19213,A F,0,17963,19213,1,0 M,0,19358,,321.5291,372.9409 C,0,19358,,200,147,148 F,0,19358,19442,0,1 S,0,19358,20692,0.5,0.2 P,0,19358,20692,A F,0,19442,20692,1,0 M,0,20869,,173.2415,147.2306 C,0,20869,,203,171,135 F,0,20869,20953,0,1 S,0,20869,22203,0.5,0.2 P,0,20869,22203,A F,0,20953,22203,1,0 M,0,22223,,308.3514,191.488 C,0,22223,,192,172,165 F,0,22223,22306,0,1 S,0,22223,23556,0.5,0.2 P,0,22223,23556,A F,0,22306,23556,1,0 M,0,23703,,176.0335,148.1595 C,0,23703,,203,171,135 F,0,23703,23786,0,1 S,0,23703,25036,0.5,0.2 P,0,23703,25036,A F,0,23786,25036,1,0 M,0,25400,,451.314,106.1274 C,0,25400,,192,172,165 F,0,25400,25483,0,1 S,0,25400,26733,0.5,0.2 P,0,25400,26733,A F,0,25483,26733,1,0 M,0,27161,,477,417 C,0,27161,,203,171,135 F,0,27161,27244,0,1 S,0,27161,28494,0.5,0.2 P,0,27161,28494,A F,0,27244,28494,1,0 M,0,28526,,289.0346,187.7616 C,0,28526,,200,147,148 F,0,28526,28609,0,1 S,0,28526,29859,0.5,0.2 P,0,28526,29859,A F,0,28609,29859,1,0
Sprite,Background,Centre,"sb\pt\flare.png",0,0 M,0,14890,,464.2752,218.3608 C,0,14890,,200,147,148 F,0,14890,14973,0,1 S,0,14890,16223,0.5,0.2 P,0,14890,16223,A F,0,14973,16223,1,0 M,0,16536,,137.7026,260.8518 C,0,16536,,192,172,165 F,0,16536,16620,0,1 S,0,16536,17870,0.5,0.2 P,0,16536,17870,A F,0,16620,17870,1,0 M,0,17890,,254.1425,441.5342 C,0,17890,,203,171,135 F,0,17890,17973,0,1 S,0,17890,19223,0.5,0.2 P,0,17890,19223,A F,0,17973,19223,1,0 M,0,19369,,314.6831,375.9968 C,0,19369,,200,147,148 F,0,19369,19452,0,1 S,0,19369,20702,0.5,0.2 P,0,19369,20702,A F,0,19452,20702,1,0 M,0,20880,,166.7962,148.0441 C,0,20880,,203,171,135 F,0,20880,20963,0,1 S,0,20880,22213,0.5,0.2 P,0,20880,22213,A F,0,20963,22213,1,0 M,0,22233,,310.967,184.4628 C,0,22233,,192,172,165 F,0,22233,22317,0,1 S,0,22233,23567,0.5,0.2 P,0,22233,23567,A F,0,22317,23567,1,0 M,0,23713,,168.8123,150.1522 C,0,23713,,203,171,135 F,0,23713,23797,0,1 S,0,23713,25047,0.5,0.2 P,0,23713,25047,A F,0,23797,25047,1,0 M,0,25495,,382,57 C,0,25495,,192,172,165 F,0,25495,25578,0,1 S,0,25495,26828,0.5,0.2 P,0,25495,26828,A F,0,25578,26828,1,0 M,0,27171,,472.1038,411.3257 C,0,27171,,203,171,135 F,0,27171,27254,0,1 S,0,27171,28504,0.5,0.2 P,0,27171,28504,A F,0,27254,28504,1,0 M,0,28536,,296.0294,185.0632 C,0,28536,,200,147,148 F,0,28536,28620,0,1 S,0,28536,29870,0.5,0.2 P,0,28536,29870,A F,0,28620,29870,1,0
Sprite,Background,Centre,"sb\pt\flare.png",0,0 M,0,14900,,456.8293,217.5771 C,0,14900,,200,147,148 F,0,14900,14984,0,1 S,0,14900,16234,0.5,0.2 P,0,14900,16234,A F,0,14984,16234,1,0 M,0,16547,,130.6464,263.2047 C,0,16547,,192,172,165 F,0,16547,16630,0,1 S,0,16547,17880,0.5,0.2 P,0,16547,17880,A F,0,16630,17880,1,0 M,0,17900,,261.5297,442.8216 C,0,17900,,203,171,135 F,0,17900,17984,0,1 S,0,17900,19234,0.5,0.2 P,0,17900,19234,A F,0,17984,19234,1,0 M,0,19379,,308.2529,379.842 C,0,19379,,200,147,148 F,0,19379,19463,0,1 S,0,19379,20713,0.5,0.2 P,0,19379,20713,A F,0,19463,20713,1,0 M,0,20890,,160.5932,149.942 C,0,20890,,203,171,135 F,0,20890,20973,0,1 S,0,20890,22223,0.5,0.2 P,0,20890,22223,A F,0,20973,22223,1,0 M,0,22244,,314.3154,177.7558 C,0,22244,,192,172,165 F,0,22244,22327,0,1 S,0,22244,23577,0.5,0.2 P,0,22244,23577,A F,0,22327,23577,1,0 M,0,23724,,162.2625,153.7454 C,0,23724,,203,171,135 F,0,23724,23807,0,1 S,0,23724,25057,0.5,0.2 P,0,23724,25057,A F,0,23807,25057,1,0 M,0,25505,,374.5305,57.63808 C,0,25505,,192,172,165 F,0,25505,25588,0,1 S,0,25505,26838,0.5,0.2 P,0,25505,26838,A F,0,25588,26838,1,0 M,0,27192,,461.7607,400.5183 C,0,27192,,203,171,135 F,0,27192,27275,0,1 S,0,27192,28525,0.5,0.2 P,0,27192,28525,A F,0,27275,28525,1,0 M,0,28547,,302.7389,181.7179 C,0,28547,,200,147,148 F,0,28547,28630,0,1 S,0,28547,29880,0.5,0.2 P,0,28547,29880,A F,0,28630,29880,1,0
Sprite,Background,Centre,"sb\pt\flare.png",0,0 M,0,14911,,449.3397,217.352 C,0,14911,,200,147,148 F,0,14911,14994,0,1 S,0,14911,16244,0.5,0.2 P,0,14911,16244,A F,0,14994,16244,1,0 M,0,16557,,123.3486,264.6877 C,0,16557,,192,172,165 F,0,16557,16640,0,1 S,0,16557,17890,0.5,0.2 P,0,16557,17890,A F,0,16640,17890,1,0 M,0,17911,,268.986,443.6172 C,0,17911,,203,171,135 F,0,17911,17994,0,1 S,0,17911,19244,0.5,0.2 P,0,17911,19244,A F,0,17994,19244,1,0 M,0,19390,,301.9583,383.871 C,0,19390,,200,147,148 F,0,19390,19473,0,1 S,0,19390,20723,0.5,0.2 P,0,19390,20723,A F,0,19473,20723,1,0 M,0,20900,,154.4651,151.9733 C,0,20900,,203,171,135 F,0,20900,20984,0,1 S,0,20900,22234,0.5,0.2 P,0,20900,22234,A F,0,20984,22234,1,0 M,0,22254,,318.3495,171.4373 C,0,22254,,192,172,165 F,0,22254,22338,0,1 S,0,22254,23588,0.5,0.2 P,0,22254,23588,A F,0,22338,23588,1,0 M,0,23734,,155.9908,157.6759 C,0,23734,,203,171,135 F,0,23734,23817,0,1 S,0,23734,25067,0.5,0.2 P,0,23734,25067,A F,0,23817,25067,1,0 M,0,25526,,359.6642,59.44547 C,0,25526,,192,172,165 F,0,25526,25609,0,1 S,0,25526,26859,0.5,0.2 P,0,25526,26859,A F,0,25609,26859,1,0 M,0,27202,,456.1341,395.5834 C,0,27202,,203,171,135 F,0,27202,27286,0,1 S,0,27202,28536,0.5,0.2 P,0,27202,28536,A F,0,27286,28536,1,0 M,0,28557,,309.1064,177.7602 C,0,28557,,200,147,148 F,0,28557,28640,0,1 S,0,28557,29890,0.5,0.2 P,0,28557,29890,A F,0,28640,29890,1,0
Sprite,Background,Centre,"sb\pt\flare.png",0,0 M,0,14921,,441.8816,218.052 C,0,14921,,200,147,148 F,0,14921,15005,0,1 S,0,14921,16255,0.5,0.2 P,0,14921,16255,A F,0,15005,16255,1,0 M,0,16567,,115.9144,265.2767 C,0,16567,,192,172,165 F,0,16567,16651,0,1 S,0,16567,17901,0.5,0.2 P,0,16567,17901,A F,0,16651,17901,1,0 M,0,17921,,276.4781,443.9307 C,0,17921,,203,171,135 F,0,17921,18005,0,1 S,0,17921,19255,0.5,0.2 P,0,17921,19255,A F,0,18005,19255,1,0 M,0,19400,,295.9622,388.3337 C,0,19400,,200,147,148 F,0,19400,19483,0,1 S,0,19400,20733,0.5,0.2 P,0,19400,20733,A F,0,19483,20733,1,0 M,0,20911,,148.523,154.5166 C,0,20911,,203,171,135 F,0,20911,20994,0,1 S,0,20911,22244,0.5,0.2 P,0,20911,22244,A F,0,20994,22244,1,0 M,0,22265,,322.9983,165.5557 C,0,22265,,192,172,165 F,0,22265,22348,0,1 S,0,22265,23598,0.5,0.2 P,0,22265,23598,A F,0,22348,23598,1,0 M,0,23828,,104,229 C,0,23828,,203,171,135 F,0,23828,23911,0,1 S,0,23828,25161,0.3,0.2 P,0,23828,25161,A F,0,23911,25161,1,0 M,0,25536,,352.3022,60.8316 C,0,25536,,192,172,165 F,0,25536,25620,0,1 S,0,25536,26870,0.5,0.2 P,0,25536,26870,A F,0,25620,26870,1,0 M,0,27213,,450.2287,390.9835 C,0,27213,,203,171,135 F,0,27213,27296,0,1 S,0,27213,28546,0.5,0.2 P,0,27213,28546,A F,0,27296,28546,1,0 M,0,28567,,315.0896,173.242 C,0,28567,,200,147,148 F,0,28567,28651,0,1 S,0,28567,29901,0.5,0.2 P,0,28567,29901,A F,0,28651,29901,1,0
Sprite,Background,Centre,"sb\pt\flare.png",0,0 M,0,14932,,434.4763,219.0226 C,0,14932,,200,147,148 F,0,14932,15015,0,1 S,0,14932,16265,0.5,0.2 P,0,14932,16265,A F,0,15015,16265,1,0 M,0,16578,,108.4514,264.9601 C,0,16578,,192,172,165 F,0,16578,16661,0,1 S,0,16578,17911,0.5,0.2 P,0,16578,17911,A F,0,16661,17911,1,0 M,0,17932,,283.9753,443.779 C,0,17932,,203,171,135 F,0,17932,18015,0,1 S,0,17932,19265,0.5,0.2 P,0,17932,19265,A F,0,18015,19265,1,0 M,0,19495,,204,421 C,0,19495,,192,172,165 F,0,19495,19578,0,1 S,0,19495,20828,0.3,0.2 P,0,19495,20828,A F,0,19578,20828,1,0 M,0,20921,,142.8061,157.5573 C,0,20921,,203,171,135 F,0,20921,21005,0,1 S,0,20921,22255,0.5,0.2 P,0,20921,22255,A F,0,21005,22255,1,0 M,0,22275,,328.1754,160.1328 C,0,22275,,192,172,165 F,0,22275,22358,0,1 S,0,22275,23608,0.5,0.2 P,0,22275,23608,A F,0,22358,23608,1,0 M,0,23828,,104,229 C,0,23828,,203,171,135 F,0,23828,23911,0,1 S,0,23828,25161,0.5,0.2 P,0,23828,25161,A F,0,23911,25161,1,0 M,0,25547,,345.0056,62.53638 C,0,25547,,192,172,165 F,0,25547,25630,0,1 S,0,25547,26880,0.5,0.2 P,0,25547,26880,A F,0,25630,26880,1,0 M,0,27223,,444.0643,386.7341 C,0,27223,,203,171,135 F,0,27223,27306,0,1 S,0,27223,28556,0.5,0.2 P,0,27223,28556,A F,0,27306,28556,1,0 M,0,28578,,320.6621,168.2257 C,0,28578,,200,147,148 F,0,28578,28661,0,1 S,0,28578,29911,0.5,0.2 P,0,28578,29911,A F,0,28661,29911,1,0
Sprite,Background,Centre,"sb\pt\flare.png",0,0 M,0,14942,,427.1631,220.5437 C,0,14942,,200,147,148 F,0,14942,15025,0,1 S,0,14942,16275,0.5,0.2 P,0,14942,16275,A F,0,15025,16275,1,0 M,0,16588,,101.068,263.739 C,0,16588,,192,172,165 F,0,16588,16672,0,1 S,0,16588,17922,0.5,0.2 P,0,16588,17922,A F,0,16672,17922,1,0 M,0,17942,,291.4504,443.1826 C,0,17942,,203,171,135 F,0,17942,18025,0,1 S,0,17942,19275,0.5,0.2 P,0,17942,19275,A F,0,18025,19275,1,0 M,0,19495,,204,421 C,0,19495,,192,172,165 F,0,19495,19578,0,1 S,0,19495,20828,0.5,0.2 P,0,19495,20828,A F,0,19578,20828,1,0 M,0,20932,,137.3527,161.0786 C,0,20932,,203,171,135 F,0,20932,21015,0,1 S,0,20932,22265,0.5,0.2 P,0,20932,22265,A F,0,21015,22265,1,0 M,0,22286,,333.794,155.1679 C,0,22286,,192,172,165 F,0,22286,22369,0,1 S,0,22286,23619,0.5,0.2 P,0,22286,23619,A F,0,22369,23619,1,0 M,0,23838,,110.09,233.3686 C,0,23838,,203,171,135 F,0,23838,23921,0,1 S,0,23838,25171,0.5,0.2 P,0,23838,25171,A F,0,23921,25171,1,0 M,0,25557,,337.7878,64.55688 C,0,25557,,192,172,165 F,0,25557,25640,0,1 S,0,25557,26890,0.5,0.2 P,0,25557,26890,A F,0,25640,26890,1,0 M,0,27233,,437.6613,382.8497 C,0,27233,,203,171,135 F,0,27233,27317,0,1 S,0,27233,28567,0.5,0.2 P,0,27233,28567,A F,0,27317,28567,1,0 M,0,28599,,330.5618,156.9744 C,0,28599,,200,147,148 F,0,28599,28682,0,1 S,0,28599,29932,0.5,0.2 P,0,28599,29932,A F,0,28682,29932,1,0
Sprite,Background,Centre,"sb\pt\flare.png",0,0 M,0,14952,,419.9824,222.6072 C,0,14952,,200,147,148 F,0,14952,15036,0,1 S,0,14952,16286,0.5,0.2 P,0,14952,16286,A F,0,15036,16286,1,0 M,0,16599,,94.07713,261.088 C,0,16599,,192,172,165 F,0,16599,16682,0,1 S,0,16599,17932,0.5,0.2 P,0,16599,17932,A F,0,16682,17932,1,0 M,0,17953,,298.8811,442.1721 C,0,17953,,203,171,135 F,0,17953,18036,0,1 S,0,17953,19286,0.5,0.2 P,0,17953,19286,A F,0,18036,19286,1,0 M,0,19505,,196.7068,419.2534 C,0,19505,,192,172,165 F,0,19505,19588,0,1 S,0,19505,20838,0.5,0.2 P,0,19505,20838,A F,0,19588,20838,1,0 M,0,20942,,132.553,165.4423 C,0,20942,,203,171,135 F,0,20942,21025,0,1 S,0,20942,22275,0.5,0.2 P,0,20942,22275,A F,0,21025,22275,1,0 M,0,22296,,340.4867,158.2 C,0,22296,,192,172,165 F,0,22296,22379,0,1 S,0,22296,23629,0.5,0.2 P,0,22296,23629,A F,0,22379,23629,1,0 M,0,23932,,152.2391,284.9083 C,0,23932,,203,171,135 F,0,23932,24015,0,1 S,0,23932,25265,0.5,0.2 P,0,23932,25265,A F,0,24015,25265,1,0 M,0,25567,,330.662,66.88966 C,0,25567,,192,172,165 F,0,25567,25651,0,1 S,0,25567,26901,0.5,0.2 P,0,25567,26901,A F,0,25651,26901,1,0 M,0,27244,,431.041,379.3434 C,0,27244,,203,171,135 F,0,27244,27327,0,1 S,0,27244,28577,0.5,0.2 P,0,27244,28577,A F,0,27327,28577,1,0 M,0,28609,,334.9109,150.8657 C,0,28609,,200,147,148 F,0,28609,28692,0,1 S,0,28609,29942,0.5,0.2 P,0,28609,29942,A F,0,28692,29942,1,0
Sprite,Background,Centre,"sb\pt\flare.png",0,0 M,0,14963,,412.9732,225.2023 C,0,14963,,200,147,148 F,0,14963,15046,0,1 S,0,14963,16296,0.5,0.2 P,0,14963,16296,A F,0,15046,16296,1,0 M,0,16609,,87.30769,258.0482 C,0,16609,,192,172,165 F,0,16609,16692,0,1 S,0,16609,17942,0.5,0.2 P,0,16609,17942,A F,0,16692,17942,1,0 M,0,17963,,306.2484,440.7721 C,0,17963,,203,171,135 F,0,17963,18046,0,1 S,0,17963,19296,0.5,0.2 P,0,17963,19296,A F,0,18046,19296,1,0 M,0,19515,,189.3463,417.8172 C,0,19515,,192,172,165 F,0,19515,19599,0,1 S,0,19515,20849,0.5,0.2 P,0,19515,20849,A F,0,19599,20849,1,0 M,0,20953,,127.91,169.9262 C,0,20953,,203,171,135 F,0,20953,21036,0,1 S,0,20953,22286,0.5,0.2 P,0,20953,22286,A F,0,21036,22286,1,0 M,0,22306,,346.9732,161.9616 C,0,22306,,192,172,165 F,0,22306,22390,0,1 S,0,22306,23640,0.5,0.2 P,0,22306,23640,A F,0,22390,23640,1,0 M,0,23942,,155.0747,291.8425 C,0,23942,,203,171,135 F,0,23942,24025,0,1 S,0,23942,25275,0.5,0.2 P,0,23942,25275,A F,0,24025,25275,1,0 M,0,25661,,251,141 C,0,25661,,192,172,165 F,0,25661,25744,0,1 S,0,25661,26994,0.3,0.2 P,0,25661,26994,A F,0,25744,26994,1,0 M,0,27265,,417.237,373.5124 C,0,27265,,203,171,135 F,0,27265,27348,0,1 S,0,27265,28598,0.5,0.2 P,0,27265,28598,A F,0,27348,28598,1,0 M,0,28620,,338.9034,147.4825 C,0,28620,,200,147,148 F,0,28620,28703,0,1 S,0,28620,29953,0.5,0.2 P,0,28620,29953,A F,0,28703,29953,1,0
Sprite,Background,Centre,"sb\pt\flare.png",0,0 M,0,14973,,406.1744,228.3152 C,0,14973,,200,147,148 F,0,14973,15057,0,1 S,0,14973,16307,0.5,0.2 P,0,14973,16307,A F,0,15057,16307,1,0 M,0,16620,,80.95413,254.2107 C,0,16620,,192,172,165 F,0,16620,16703,0,1 S,0,16620,17953,0.5,0.2 P,0,16620,17953,A F,0,16703,17953,1,0 M,0,17973,,313.5388,439.0142 C,0,17973,,203,171,135 F,0,17973,18057,0,1 S,0,17973,19307,0.5,0.2 P,0,17973,19307,A F,0,18057,19307,1,0 M,0,19526,,181.9314,416.6941 C,0,19526,,192,172,165 F,0,19526,19609,0,1 S,0,19526,20859,0.5,0.2 P,0,19526,20859,A F,0,19609,20859,1,0 M,0,20963,,123.6569,174.79 C,0,20963,,203,171,135 F,0,20963,21046,0,1 S,0,20963,22296,0.5,0.2 P,0,20963,22296,A F,0,21046,22296,1,0 M,0,22317,,353.1662,166.1889 C,0,22317,,192,172,165 F,0,22317,22400,0,1 S,0,22317,23650,0.5,0.2 P,0,22317,23650,A F,0,22400,23650,1,0 M,0,23953,,157.4938,298.9345 C,0,23953,,203,171,135 F,0,23953,24036,0,1 S,0,23953,25286,0.5,0.2 P,0,23953,25286,A F,0,24036,25286,1,0 M,0,25661,,251,141 C,0,25661,,192,172,165 F,0,25661,25744,0,1 S,0,25661,26994,0.5,0.2 P,0,25661,26994,A F,0,25744,26994,1,0 M,0,27275,,410.0231,371.4801 C,0,27275,,203,171,135 F,0,27275,27358,0,1 S,0,27275,28608,0.5,0.2 P,0,27275,28608,A F,0,27358,28608,1,0 M,0,28630,,343.0456,153.7334 C,0,28630,,200,147,148 F,0,28630,28713,0,1 S,0,28630,29963,0.5,0.2 P,0,28630,29963,A F,0,28713,29963,1,0
Sprite,Background,Centre,"sb\pt\flare.png",0,0 M,0,14984,,399.6232,231.9295 C,0,14984,,200,147,148 F,0,14984,15067,0,1 S,0,14984,16317,0.5,0.2 P,0,14984,16317,A F,0,15067,16317,1,0 M,0,16630,,75.10873,249.6305 C,0,16630,,192,172,165 F,0,16630,16713,0,1 S,0,16630,17963,0.5,0.2 P,0,16630,17963,A F,0,16713,17963,1,0 M,0,17984,,320.7413,436.9252 C,0,17984,,203,171,135 F,0,17984,18067,0,1 S,0,17984,19317,0.5,0.2 P,0,17984,19317,A F,0,18067,19317,1,0 M,0,19536,,174.4758,415.8846 C,0,19536,,192,172,165 F,0,19536,19620,0,1 S,0,19536,20870,0.5,0.2 P,0,19536,20870,A F,0,19620,20870,1,0 M,0,20973,,119.8226,180.0036 C,0,20973,,203,171,135 F,0,20973,21057,0,1 S,0,20973,22307,0.5,0.2 P,0,20973,22307,A F,0,21057,22307,1,0 M,0,22327,,359.0129,170.8831 C,0,22327,,192,172,165 F,0,22327,22411,0,1 S,0,22327,23661,0.5,0.2 P,0,22327,23661,A F,0,22411,23661,1,0 M,0,23963,,159.4874,306.1597 C,0,23963,,203,171,135 F,0,23963,24046,0,1 S,0,23963,25296,0.5,0.2 P,0,23963,25296,A F,0,24046,25296,1,0 M,0,25671,,243.7737,142.9833 C,0,25671,,192,172,165 F,0,25671,25754,0,1 S,0,25671,27004,0.5,0.2 P,0,25671,27004,A F,0,25754,27004,1,0 M,0,27286,,402.7687,369.6478 C,0,27286,,203,171,135 F,0,27286,27369,0,1 S,0,27286,28619,0.5,0.2 P,0,27286,28619,A F,0,27369,28619,1,0 M,0,28640,,347.5826,159.7036 C,0,28640,,200,147,148 F,0,28640,28724,0,1 S,0,28640,29974,0.5,0.2 P,0,28640,29974,A F,0,28724,29974,1,0
Sprite,Background,Centre,"sb\pt\flare.png",0,0 M,0,15161,,386,432 C,0,15161,,200,147,148 F,0,15161,15244,0,1 S,0,15161,16494,0.3,0.2 P,0,15161,16494,A F,0,15244,16494,1,0 M,0,16640,,69.85677,244.3726 C,0,16640,,192,172,165 F,0,16640,16724,0,1 S,0,16640,17974,0.5,0.2 P,0,16640,17974,A F,0,16724,17974,1,0 M,0,17994,,327.8504,434.5372 C,0,17994,,203,171,135 F,0,17994,18078,0,1 S,0,17994,19328,0.5,0.2 P,0,17994,19328,A F,0,18078,19328,1,0 M,0,19547,,166.9931,415.3834 C,0,19547,,192,172,165 F,0,19547,19630,0,1 S,0,19547,20880,0.5,0.2 P,0,19547,20880,A F,0,19630,20880,1,0 M,0,20984,,116.4341,185.5349 C,0,20984,,203,171,135 F,0,20984,21067,0,1 S,0,20984,22317,0.5,0.2 P,0,20984,22317,A F,0,21067,22317,1,0 M,0,22338,,364.4633,176.032 C,0,22338,,192,172,165 F,0,22338,22421,0,1 S,0,22338,23671,0.5,0.2 P,0,22338,23671,A F,0,22421,23671,1,0 M,0,23973,,161.0485,313.4927 C,0,23973,,203,171,135 F,0,23973,24057,0,1 S,0,23973,25307,0.5,0.2 P,0,23973,25307,A F,0,24057,25307,1,0 M,0,25692,,229.1518,146.0957 C,0,25692,,192,172,165 F,0,25692,25775,0,1 S,0,25692,27025,0.5,0.2 P,0,25692,27025,A F,0,25775,27025,1,0 M,0,27296,,395.4196,368.2407 C,0,27296,,203,171,135 F,0,27296,27379,0,1 S,0,27296,28629,0.5,0.2 P,0,27296,28629,A F,0,27379,28629,1,0 M,0,28651,,352.5164,165.3502 C,0,28651,,200,147,148 F,0,28651,28734,0,1 S,0,28651,29984,0.5,0.2 P,0,28651,29984,A F,0,28734,29984,1,0
Sprite,Background,Centre,"sb\pt\flare.png",0,0 M,0,15161,,386,432 C,0,15161,,200,147,148 F,0,15161,15244,0,1 S,0,15161,16494,0.5,0.2 P,0,15161,16494,A F,0,15244,16494,1,0 M,0,16651,,65.27546,238.5121 C,0,16651,,192,172,165 F,0,16651,16734,0,1 S,0,16651,17984,0.5,0.2 P,0,16651,17984,A F,0,16734,17984,1,0 M,0,18005,,334.8604,431.872 C,0,18005,,203,171,135 F,0,18005,18088,0,1 S,0,18005,19338,0.5,0.2 P,0,18005,19338,A F,0,18088,19338,1,0 M,0,19557,,159.4963,415.1859 C,0,19557,,192,172,165 F,0,19557,19640,0,1 S,0,19557,20890,0.5,0.2 P,0,19557,20890,A F,0,19640,20890,1,0 M,0,21078,,112,199 C,0,21078,,203,171,135 F,0,21078,21161,0,1 S,0,21078,22411,0.3,0.2 P,0,21078,22411,A F,0,21161,22411,1,0 M,0,22495,,435,301 C,0,22495,,192,172,165 F,0,22495,22578,0,1 S,0,22495,23828,0.3,0.2 P,0,22495,23828,A F,0,22578,23828,1,0 M,0,23984,,161.9125,320.9376 C,0,23984,,203,171,135 F,0,23984,24067,0,1 S,0,23984,25317,0.5,0.2 P,0,23984,25317,A F,0,24067,25317,1,0 M,0,25702,,221.7186,146.932 C,0,25702,,192,172,165 F,0,25702,25786,0,1 S,0,25702,27036,0.5,0.2 P,0,25702,27036,A F,0,25786,27036,1,0 M,0,27306,,388.0003,367.2635 C,0,27306,,203,171,135 F,0,27306,27390,0,1 S,0,27306,28640,0.5,0.2 P,0,27306,28640,A F,0,27390,28640,1,0 M,0,28661,,357.8422,170.6285 C,0,28661,,200,147,148 F,0,28661,28745,0,1 S,0,28661,29995,0.5,0.2 P,0,28661,29995,A F,0,28745,29995,1,0
Sprite,Background,Centre,"sb\pt\flare.png",0,0 M,0,15171,,392.5705,435.583 C,0,15171,,200,147,148 F,0,15171,15254,0,1 S,0,15171,16504,0.5,0.2 P,0,15171,16504,A F,0,15254,16504,1,0 M,0,16661,,61.43284,232.1324 C,0,16661,,192,172,165 F,0,16661,16745,0,1 S,0,16661,17995,0.5,0.2 P,0,16661,17995,A F,0,16745,17995,1,0 M,0,18015,,332.0241,429.5301 C,0,18015,,203,171,135 F,0,18015,18098,0,1 S,0,18015,19348,0.5,0.2 P,0,18015,19348,A F,0,18098,19348,1,0 M,0,19567,,151.9975,415.2872 C,0,19567,,192,172,165 F,0,19567,19651,0,1 S,0,19567,20901,0.5,0.2 P,0,19567,20901,A F,0,19651,20901,1,0 M,0,21161,,111,207 C,0,21161,,203,171,135 F,0,21161,21244,0,1 S,0,21161,22494,0.3,0.2 P,0,21161,22494,A F,0,21244,22494,1,0 M,0,22495,,435,301 C,0,22495,,192,172,165 F,0,22495,22578,0,1 S,0,22495,23828,0.5,0.2 P,0,22495,23828,A F,0,22578,23828,1,0 M,0,24161,,162,347 C,0,24161,,203,171,135 F,0,24161,24244,0,1 S,0,24161,25494,0.3,0.2 P,0,24161,25494,A F,0,24244,25494,1,0 M,0,25713,,214.2451,147.2827 C,0,25713,,192,172,165 F,0,25713,25796,0,1 S,0,25713,27046,0.5,0.2 P,0,25713,27046,A F,0,25796,27046,1,0 M,0,27317,,380.5356,366.7197 C,0,27317,,203,171,135 F,0,27317,27400,0,1 S,0,27317,28650,0.5,0.2 P,0,27317,28650,A F,0,27400,28650,1,0 M,0,28682,,369.5953,179.9257 C,0,28682,,200,147,148 F,0,28682,28765,0,1 S,0,28682,30015,0.5,0.2 P,0,28682,30015,A F,0,28765,30015,1,0
Sprite,Background,Centre,"sb\pt\flare.png",0,0 M,0,15181,,399.2532,438.8682 C,0,15181,,200,147,148 F,0,15181,15265,0,1 S,0,15181,16515,0.5,0.2 P,0,15181,16515,A F,0,15265,16515,1,0 M,0,16672,,58.38685,225.3245 C,0,16672,,192,172,165 F,0,16672,16755,0,1 S,0,16672,18005,0.5,0.2 P,0,16672,18005,A F,0,16755,18005,1,0 M,0,18025,,325.0464,426.7893 C,0,18025,,203,171,135 F,0,18025,18109,0,1 S,0,18025,19359,0.5,0.2 P,0,18025,19359,A F,0,18109,19359,1,0 M,0,19578,,144.5081,415.6768 C,0,19578,,192,172,165 F,0,19578,19661,0,1 S,0,19578,20911,0.5,0.2 P,0,19578,20911,A F,0,19661,20911,1,0 M,0,21161,,111,207 C,0,21161,,203,171,135 F,0,21161,21244,0,1 S,0,21161,22494,0.5,0.2 P,0,21161,22494,A F,0,21244,22494,1,0 M,0,22588,,392.6397,253.7911 C,0,22588,,192,172,165 F,0,22588,22672,0,1 S,0,22588,23922,0.5,0.2 P,0,22588,23922,A F,0,22672,23922,1,0 M,0,24161,,162,347 C,0,24161,,203,171,135 F,0,24161,24244,0,1 S,0,24161,25494,0.5,0.2 P,0,24161,25494,A F,0,24244,25494,1,0 M,0,25723,,206.7629,147.1462 C,0,25723,,192,172,165 F,0,25723,25806,0,1 S,0,25723,27056,0.5,0.2 P,0,25723,27056,A F,0,25806,27056,1,0 M,0,27327,,373.0505,366.6112 C,0,27327,,203,171,135 F,0,27327,27411,0,1 S,0,27327,28661,0.5,0.2 P,0,27327,28661,A F,0,27411,28661,1,0 M,0,28692,,375.9623,183.8863 C,0,28692,,200,147,148 F,0,28692,28776,0,1 S,0,28692,30026,0.5,0.2 P,0,28692,30026,A F,0,28776,30026,1,0
Sprite,Background,Centre,"sb\pt\flare.png",0,0 M,0,15192,,406.2418,441.4436 C,0,15192,,200,147,148 F,0,15192,15275,0,1 S,0,15192,16525,0.5,0.2 P,0,15192,16525,A F,0,15275,16525,1,0 M,0,16682,,56.18452,218.1858 C,0,16682,,192,172,165 F,0,16682,16765,0,1 S,0,16682,18015,0.5,0.2 P,0,16682,18015,A F,0,16765,18015,1,0 M,0,18036,,318.3792,423.3613 C,0,18036,,203,171,135 F,0,18036,18119,0,1 S,0,18036,19369,0.5,0.2 P,0,18036,19369,A F,0,18119,19369,1,0 M,0,19588,,137.0383,416.3448 C,0,19588,,192,172,165 F,0,19588,19672,0,1 S,0,19588,20922,0.5,0.2 P,0,19588,20922,A F,0,19672,20922,1,0 M,0,21254,,144.5841,254.4614 C,0,21254,,203,171,135 F,0,21254,21338,0,1 S,0,21254,22588,0.5,0.2 P,0,21254,22588,A F,0,21338,22588,1,0 M,0,22599,,392.0245,246.3339 C,0,22599,,192,172,165 F,0,22599,22682,0,1 S,0,22599,23932,0.5,0.2 P,0,22599,23932,A F,0,22682,23932,1,0 M,0,24171,,168.9508,344.2056 C,0,24171,,203,171,135 F,0,24171,24254,0,1 S,0,24171,25504,0.5,0.2 P,0,24171,25504,A F,0,24254,25504,1,0 M,0,25733,,199.3032,146.5227 C,0,25733,,192,172,165 F,0,25733,25817,0,1 S,0,25733,27067,0.5,0.2 P,0,25733,27067,A F,0,25817,27067,1,0 M,0,27348,,358.1191,367.7011 C,0,27348,,203,171,135 F,0,27348,27431,0,1 S,0,27348,28681,0.5,0.2 P,0,27348,28681,A F,0,27431,28681,1,0 M,0,28703,,382.6047,187.3651 C,0,28703,,200,147,148 F,0,28703,28786,0,1 S,0,28703,30036,0.5,0.2 P,0,28703,30036,A F,0,28786,30036,1,0
Sprite,Background,Centre,"sb\pt\flare.png",0,0 M,0,15202,,413.4615,443.2815 C,0,15202,,200,147,148 F,0,15202,15285,0,1 S,0,15202,16535,0.5,0.2 P,0,15202,16535,A F,0,15285,16535,1,0 M,0,16692,,54.86126,210.819 C,0,16692,,192,172,165 F,0,16692,16776,0,1 S,0,16692,18026,0.5,0.2 P,0,16692,18026,A F,0,16776,18026,1,0 M,0,18046,,312.0717,419.3086 C,0,18046,,203,171,135 F,0,18046,18130,0,1 S,0,18046,19380,0.5,0.2 P,0,18046,19380,A F,0,18130,19380,1,0 M,0,19599,,129.5976,417.2822 C,0,19599,,192,172,165 F,0,19599,19682,0,1 S,0,19599,20932,0.5,0.2 P,0,19599,20932,A F,0,19682,20932,1,0 M,0,21265,,147.0203,260.4844 C,0,21265,,203,171,135 F,0,21265,21348,0,1 S,0,21265,22598,0.5,0.2 P,0,21265,22598,A F,0,21348,22598,1,0 M,0,22609,,392.9993,238.9245 C,0,22609,,192,172,165 F,0,22609,22692,0,1 S,0,22609,23942,0.5,0.2 P,0,22609,23942,A F,0,22692,23942,1,0 M,0,24192,,183.1135,339.4616 C,0,24192,,203,171,135 F,0,24192,24275,0,1 S,0,24192,25525,0.5,0.2 P,0,24192,25525,A F,0,24275,25525,1,0 M,0,25828,,85,124 C,0,25828,,192,172,165 F,0,25828,25911,0,1 S,0,25828,27161,0.3,0.2 P,0,25828,27161,A F,0,25911,27161,1,0 M,0,27358,,350.7228,368.8965 C,0,27358,,203,171,135 F,0,27358,27442,0,1 S,0,27358,28692,0.5,0.2 P,0,27358,28692,A F,0,27442,28692,1,0 M,0,28713,,389.4781,190.3622 C,0,28713,,200,147,148 F,0,28713,28797,0,1 S,0,28713,30047,0.5,0.2 P,0,28713,30047,A F,0,28797,30047,1,0
Sprite,Background,Centre,"sb\pt\flare.png",0,0 M,0,15213,,420.8356,444.3615 C,0,15213,,200,147,148 F,0,15213,15296,0,1 S,0,15213,16546,0.5,0.2 P,0,15213,16546,A F,0,15296,16546,1,0 M,0,16703,,55.02467,203.3441 C,0,16703,,192,172,165 F,0,16703,16786,0,1 S,0,16703,18036,0.5,0.2 P,0,16703,18036,A F,0,16786,18036,1,0 M,0,18057,,306.1504,414.7094 C,0,18057,,203,171,135 F,0,18057,18140,0,1 S,0,18057,19390,0.5,0.2 P,0,18057,19390,A F,0,18140,19390,1,0 M,0,19609,,122.1937,418.4767 C,0,19609,,192,172,165 F,0,19609,19692,0,1 S,0,19609,20942,0.5,0.2 P,0,19609,20942,A F,0,19692,20942,1,0 M,0,21275,,149.3547,266.5394 C,0,21275,,203,171,135 F,0,21275,21358,0,1 S,0,21275,22608,0.5,0.2 P,0,21275,22608,A F,0,21358,22608,1,0 M,0,22620,,394.4391,231.6561 C,0,22620,,192,172,165 F,0,22620,22703,0,1 S,0,22620,23953,0.5,0.2 P,0,22620,23953,A F,0,22703,23953,1,0 M,0,24202,,190.4149,337.8515 C,0,24202,,203,171,135 F,0,24202,24286,0,1 S,0,24202,25536,0.5,0.2 P,0,24202,25536,A F,0,24286,25536,1,0 M,0,25828,,85,124 C,0,25828,,192,172,165 F,0,25828,25911,0,1 S,0,25828,27161,0.5,0.2 P,0,25828,27161,A F,0,25911,27161,1,0 M,0,27369,,343.406,370.5209 C,0,27369,,203,171,135 F,0,27369,27452,0,1 S,0,27369,28702,0.5,0.2 P,0,27369,28702,A F,0,27452,28702,1,0 M,0,28724,,396.5395,192.8852 C,0,28724,,200,147,148 F,0,28724,28807,0,1 S,0,28724,30057,0.5,0.2 P,0,28724,30057,A F,0,28807,30057,1,0
Sprite,Background,Centre,"sb\pt\flare.png",0,0 M,0,15223,,428.2852,444.6715 C,0,15223,,200,147,148 F,0,15223,15306,0,1 S,0,15223,16556,0.5,0.2 P,0,15223,16556,A F,0,15306,16556,1,0 M,0,16713,,55.62073,195.9474 C,0,16713,,192,172,165 F,0,16713,16797,0,1 S,0,16713,18047,0.5,0.2 P,0,16713,18047,A F,0,16797,18047,1,0 M,0,18067,,300.6233,409.6426 C,0,18067,,203,171,135 F,0,18067,18150,0,1 S,0,18067,19400,0.5,0.2 P,0,18067,19400,A F,0,18150,19400,1,0 M,0,19620,,114.8336,419.9166 C,0,19620,,192,172,165 F,0,19620,19703,0,1 S,0,19620,20953,0.5,0.2 P,0,19620,20953,A F,0,19703,20953,1,0 M,0,21286,,151.4516,272.6823 C,0,21286,,203,171,135 F,0,21286,21369,0,1 S,0,21286,22619,0.5,0.2 P,0,21286,22619,A F,0,21369,22619,1,0 M,0,22630,,396.8194,224.6374 C,0,22630,,192,172,165 F,0,22630,22713,0,1 S,0,22630,23963,0.5,0.2 P,0,22630,23963,A F,0,22713,23963,1,0 M,0,24213,,197.8161,336.7612 C,0,24213,,203,171,135 F,0,24213,24296,0,1 S,0,24213,25546,0.5,0.2 P,0,24213,25546,A F,0,24296,25546,1,0 M,0,25848,,80.70995,109.7113 C,0,25848,,192,172,165 F,0,25848,25932,0,1 S,0,25848,27182,0.5,0.2 P,0,25848,27182,A F,0,25932,27182,1,0 M,0,27379,,336.1931,372.5694 C,0,27379,,203,171,135 F,0,27379,27463,0,1 S,0,27379,28713,0.5,0.2 P,0,27379,28713,A F,0,27463,28713,1,0 M,0,28734,,403.7488,194.9486 C,0,28734,,200,147,148 F,0,28734,28817,0,1 S,0,28734,30067,0.5,0.2 P,0,28734,30067,A F,0,28817,30067,1,0
Sprite,Background,Centre,"sb\pt\flare.png",0,0 M,0,15233,,435.731,444.2073 C,0,15233,,200,147,148 F,0,15233,15317,0,1 S,0,15233,16567,0.5,0.2 P,0,15233,16567,A F,0,15317,16567,1,0 M,0,16724,,57.10774,188.6752 C,0,16724,,192,172,165 F,0,16724,16807,0,1 S,0,16724,18057,0.5,0.2 P,0,16724,18057,A F,0,16807,18057,1,0 M,0,18161,,298,323 C,0,18161,,200,147,148 F,0,18161,18244,0,1 S,0,18161,19494,0.3,0.2 P,0,18161,19494,A F,0,18244,19494,1,0 M,0,19630,,107.5233,421.5913 C,0,19630,,192,172,165 F,0,19630,19713,0,1 S,0,19630,20963,0.5,0.2 P,0,19630,20963,A F,0,19713,20963,1,0 M,0,21296,,153.3079,278.9048 C,0,21296,,203,171,135 F,0,21296,21379,0,1 S,0,21296,22629,0.5,0.2 P,0,21296,22629,A F,0,21379,22629,1,0 M,0,22640,,400.1003,217.9882 C,0,22640,,192,172,165 F,0,22640,22724,0,1 S,0,22640,23974,0.5,0.2 P,0,22640,23974,A F,0,22724,23974,1,0 M,0,24223,,205.2809,336.197 C,0,24223,,203,171,135 F,0,24223,24306,0,1 S,0,24223,25556,0.5,0.2 P,0,24223,25556,A F,0,24306,25556,1,0 M,0,25859,,80.65947,102.2235 C,0,25859,,192,172,165 F,0,25859,25942,0,1 S,0,25859,27192,0.5,0.2 P,0,25859,27192,A F,0,25942,27192,1,0 M,0,27390,,329.2181,375.3117 C,0,27390,,203,171,135 F,0,27390,27473,0,1 S,0,27390,28723,0.5,0.2 P,0,27390,28723,A F,0,27473,28723,1,0 M,0,28828,,516,197 C,0,28828,,192,172,165 F,0,28828,28911,0,1 S,0,28828,30161,0.3,0.2 P,0,28828,30161,A F,0,28911,30161,1,0
Sprite,Background,Centre,"sb\pt\flare.png",0,0 M,0,15244,,443.0933,442.973 C,0,15244,,200,147,148 F,0,15244,15327,0,1 S,0,15244,16577,0.5,0.2 P,0,15244,16577,A F,0,15327,16577,1,0 M,0,16734,,59.46497,181.6328 C,0,16734,,192,172,165 F,0,16734,16817,0,1 S,0,16734,18067,0.5,0.2 P,0,16734,18067,A F,0,16817,18067,1,0 M,0,18161,,298,323 C,0,18161,,200,147,148 F,0,18161,18244,0,1 S,0,18161,19494,0.5,0.2 P,0,18161,19494,A F,0,18244,19494,1,0 M,0,19640,,100.267,423.4867 C,0,19640,,192,172,165 F,0,19640,19724,0,1 S,0,19640,20974,0.5,0.2 P,0,19640,20974,A F,0,19724,20974,1,0 M,0,21306,,154.9207,285.1989 C,0,21306,,203,171,135 F,0,21306,21390,0,1 S,0,21306,22640,0.5,0.2 P,0,21306,22640,A F,0,21390,22640,1,0 M,0,22651,,404.2273,211.8222 C,0,22651,,192,172,165 F,0,22651,22734,0,1 S,0,22651,23984,0.5,0.2 P,0,22651,23984,A F,0,22734,23984,1,0 M,0,24233,,212.773,336.1624 C,0,24233,,203,171,135 F,0,24233,24317,0,1 S,0,24233,25567,0.5,0.2 P,0,24233,25567,A F,0,24317,25567,1,0 M,0,25869,,82.01437,94.85729 C,0,25869,,192,172,165 F,0,25869,25953,0,1 S,0,25869,27203,0.5,0.2 P,0,25869,27203,A F,0,25953,27203,1,0 M,0,27400,,322.3261,378.2245 C,0,27400,,203,171,135 F,0,27400,27483,0,1 S,0,27400,28733,0.5,0.2 P,0,27400,28733,A F,0,27483,28733,1,0 M,0,28828,,516,197 C,0,28828,,192,172,165 F,0,28828,28911,0,1 S,0,28828,30161,0.5,0.2 P,0,28828,30161,A F,0,28911,30161,1,0
Sprite,Background,Centre,"sb\pt\flare.png",0,0 M,0,15254,,450.2931,440.9805 C,0,15254,,200,147,148 F,0,15254,15338,0,1 S,0,15254,16588,0.5,0.2 P,0,15254,16588,A F,0,15338,16588,1,0 M,0,16828,,122,121 C,0,16828,,203,171,135 F,0,16828,16911,0,1 S,0,16828,18161,0.3,0.2 P,0,16828,18161,A F,0,16911,18161,1,0 M,0,18171,,295.8828,315.8206 C,0,18171,,200,147,148 F,0,18171,18254,0,1 S,0,18171,19504,0.5,0.2 P,0,18171,19504,A F,0,18254,19504,1,0 M,0,19651,,93.06918,425.593 C,0,19651,,192,172,165 F,0,19651,19734,0,1 S,0,19651,20984,0.5,0.2 P,0,19651,20984,A F,0,19734,20984,1,0 M,0,21317,,156.0456,291.5978 C,0,21317,,203,171,135 F,0,21317,21400,0,1 S,0,21317,22650,0.5,0.2 P,0,21317,22650,A F,0,21400,22650,1,0 M,0,22661,,409.1313,206.2454 C,0,22661,,192,172,165 F,0,22661,22745,0,1 S,0,22661,23995,0.5,0.2 P,0,22661,23995,A F,0,22745,23995,1,0 M,0,24328,,290,400 C,0,24328,,203,171,135 F,0,24328,24411,0,1 S,0,24328,25661,0.3,0.2 P,0,24328,25661,A F,0,24411,25661,1,0 M,0,25880,,84.56944,87.81364 C,0,25880,,192,172,165 F,0,25880,25963,0,1 S,0,25880,27213,0.5,0.2 P,0,25880,27213,A F,0,25963,27213,1,0 M,0,27495,,213,422 C,0,27495,,200,147,148 F,0,27495,27578,0,1 S,0,27495,28828,0.5,0.2 P,0,27495,28828,A F,0,27578,28828,1,0 M,0,28848,,509.7939,183.3595 C,0,28848,,192,172,165 F,0,28848,28932,0,1 S,0,28848,30182,0.5,0.2 P,0,28848,30182,A F,0,28932,30182,1,0
Sprite,Background,Centre,"sb\pt\flare.png",0,0 M,0,15265,,457.2531,438.2498 C,0,15265,,200,147,148 F,0,15265,15348,0,1 S,0,15265,16598,0.5,0.2 P,0,15265,16598,A F,0,15348,16598,1,0 M,0,16828,,122,121 C,0,16828,,203,171,135 F,0,16828,16911,0,1 S,0,16828,18161,0.5,0.2 P,0,16828,18161,A F,0,16911,18161,1,0 M,0,18181,,294.0387,308.6022 C,0,18181,,200,147,148 F,0,18181,18265,0,1 S,0,18181,19515,0.5,0.2 P,0,18181,19515,A F,0,18265,19515,1,0 M,0,19661,,85.93209,427.897 C,0,19661,,192,172,165 F,0,19661,19745,0,1 S,0,19661,20995,0.5,0.2 P,0,19661,20995,A F,0,19745,20995,1,0 M,0,21327,,157.0744,298.0052 C,0,21327,,203,171,135 F,0,21327,21411,0,1 S,0,21327,22661,0.5,0.2 P,0,21327,22661,A F,0,21411,22661,1,0 M,0,22682,,420.9306,197.2343 C,0,22682,,192,172,165 F,0,22682,22765,0,1 S,0,22682,24015,0.5,0.2 P,0,22682,24015,A F,0,22765,24015,1,0 M,0,24328,,290,400 C,0,24328,,203,171,135 F,0,24328,24411,0,1 S,0,24328,25661,0.5,0.2 P,0,24328,25661,A F,0,24411,25661,1,0 M,0,25890,,88.06331,81.18256 C,0,25890,,192,172,165 F,0,25890,25973,0,1 S,0,25890,27223,0.5,0.2 P,0,25890,27223,A F,0,25973,27223,1,0 M,0,27505,,218.6327,417.0777 C,0,27505,,200,147,148 F,0,27505,27588,0,1 S,0,27505,28838,0.5,0.2 P,0,27505,28838,A F,0,27588,28838,1,0 M,0,28859,,505.8523,176.9824 C,0,28859,,192,172,165 F,0,28859,28942,0,1 S,0,28859,30192,0.5,0.2 P,0,28859,30192,A F,0,28942,30192,1,0
Sprite,Background,Centre,"sb\pt\flare.png",0,0 M,0,15275,,463.8985,434.8089 C,0,15275,,200,147,148 F,0,15275,15358,0,1 S,0,15275,16608,0.5,0.2 P,0,15275,16608,A F,0,15358,16608,1,0 M,0,16838,,129.4979,120.8566 C,0,16838,,203,171,135 F,0,16838,16921,0,1 S,0,16838,18171,0.5,0.2 P,0,16838,18171,A F,0,16921,18171,1,0 M,0,18192,,292.9047,301.2366 C,0,18192,,200,147,148 F,0,18192,18275,0,1 S,0,18192,19525,0.5,0.2 P,0,18192,19525,A F,0,18275,19525,1,0 M,0,19672,,78.8587,430.3897 C,0,19672,,192,172,165 F,0,19672,19755,0,1 S,0,19672,21005,0.5,0.2 P,0,19672,21005,A F,0,19755,21005,1,0 M,0,21348,,158.379,310.9222 C,0,21348,,203,171,135 F,0,21348,21431,0,1 S,0,21348,22681,0.5,0.2 P,0,21348,22681,A F,0,21431,22681,1,0 M,0,22692,,427.6282,193.9583 C,0,22692,,192,172,165 F,0,22692,22776,0,1 S,0,22692,24026,0.5,0.2 P,0,22692,24026,A F,0,22776,24026,1,0 M,0,24348,,304.941,399.7125 C,0,24348,,203,171,135 F,0,24348,24432,0,1 S,0,24348,25682,0.5,0.2 P,0,24348,25682,A F,0,24432,25682,1,0 M,0,25900,,92.26334,74.97256 C,0,25900,,192,172,165 F,0,25900,25984,0,1 S,0,25900,27234,0.5,0.2 P,0,25900,27234,A F,0,25984,27234,1,0 M,0,27515,,223.9802,411.9121 C,0,27515,,200,147,148 F,0,27515,27599,0,1 S,0,27515,28849,0.5,0.2 P,0,27515,28849,A F,0,27599,28849,1,0 M,0,28869,,501.2595,171.0584 C,0,28869,,192,172,165 F,0,28869,28953,0,1 S,0,28869,30203,0.5,0.2 P,0,28869,30203,A F,0,28953,30203,1,0
Sprite,Background,Centre,"sb\pt\flare.png",0,0 M,0,15285,,470.1573,430.6931 C,0,15285,,200,147,148 F,0,15285,15369,0,1 S,0,15285,16619,0.5,0.2 P,0,15285,16619,A F,0,15369,16619,1,0 M,0,16848,,136.9942,121.0566 C,0,16848,,203,171,135 F,0,16848,16932,0,1 S,0,16848,18182,0.5,0.2 P,0,16848,18182,A F,0,16932,18182,1,0 M,0,18202,,292.4918,293.7924 C,0,18202,,200,147,148 F,0,18202,18286,0,1 S,0,18202,19536,0.5,0.2 P,0,18202,19536,A F,0,18286,19536,1,0 M,0,19682,,72.1309,432.9059 C,0,19682,,192,172,165 F,0,19682,19765,0,1 S,0,19682,21015,0.5,0.2 P,0,19682,21015,A F,0,19765,21015,1,0 M,0,21358,,158.6523,317.4143 C,0,21358,,203,171,135 F,0,21358,21442,0,1 S,0,21358,22692,0.5,0.2 P,0,21358,22692,A F,0,21442,22692,1,0 M,0,22703,,434.7101,191.5855 C,0,22703,,192,172,165 F,0,22703,22786,0,1 S,0,22703,24036,0.5,0.2 P,0,22703,24036,A F,0,22786,24036,1,0 M,0,24359,,312.3418,398.7741 C,0,24359,,203,171,135 F,0,24359,24442,0,1 S,0,24359,25692,0.5,0.2 P,0,24359,25692,A F,0,24442,25692,1,0 M,0,25921,,103.1172,83.34853 C,0,25921,,192,172,165 F,0,25921,26005,0,1 S,0,25921,27255,0.5,0.2 P,0,25921,27255,A F,0,26005,27255,1,0 M,0,27526,,228.6901,406.1578 C,0,27526,,200,147,148 F,0,27526,27609,0,1 S,0,27526,28859,0.5,0.2 P,0,27526,28859,A F,0,27609,28859,1,0 M,0,28880,,495.9725,165.7468 C,0,28880,,192,172,165 F,0,28880,28963,0,1 S,0,28880,30213,0.5,0.2 P,0,28880,30213,A F,0,28963,30213,1,0
Sprite,Background,Centre,"sb\pt\flare.png",0,0 M,0,15296,,475.6431,425.6025 C,0,15296,,200,147,148 F,0,15296,15379,0,1 S,0,15296,16629,0.5,0.2 P,0,15296,16629,A F,0,15379,16629,1,0 M,0,16859,,144.4644,121.7074 C,0,16859,,203,171,135 F,0,16859,16942,0,1 S,0,16859,18192,0.5,0.2 P,0,16859,18192,A F,0,16942,18192,1,0 M,0,18213,,292.8048,286.3391 C,0,18213,,200,147,148 F,0,18213,18296,0,1 S,0,18213,19546,0.5,0.2 P,0,18213,19546,A F,0,18296,19546,1,0 M,0,19692,,78.11449,428.3855 C,0,19692,,192,172,165 F,0,19692,19776,0,1 S,0,19692,21026,0.5,0.2 P,0,19692,21026,A F,0,19776,21026,1,0 M,0,21369,,158.4163,323.9071 C,0,21369,,203,171,135 F,0,21369,21452,0,1 S,0,21369,22702,0.5,0.2 P,0,21369,22702,A F,0,21452,22702,1,0 M,0,22713,,442.0567,190.1602 C,0,22713,,192,172,165 F,0,22713,22797,0,1 S,0,22713,24047,0.5,0.2 P,0,22713,24047,A F,0,22797,24047,1,0 M,0,24369,,319.6313,397.1768 C,0,24369,,203,171,135 F,0,24369,24453,0,1 S,0,24369,25703,0.5,0.2 P,0,24369,25703,A F,0,24453,25703,1,0 M,0,25932,,108.235,88.82964 C,0,25932,,192,172,165 F,0,25932,26015,0,1 S,0,25932,27265,0.5,0.2 P,0,25932,27265,A F,0,26015,27265,1,0 M,0,27536,,232.6983,399.8926 C,0,27536,,200,147,148 F,0,27536,27620,0,1 S,0,27536,28870,0.5,0.2 P,0,27536,28870,A F,0,27620,28870,1,0 M,0,28890,,489.9989,161.2231 C,0,28890,,192,172,165 F,0,28890,28973,0,1 S,0,28890,30223,0.5,0.2 P,0,28890,30223,A F,0,28973,30223,1,0
Sprite,Background,Centre,"sb\pt\flare.png",0,0 M,0,15306,,480.8362,420.2664 C,0,15306,,200,147,148 F,0,15306,15390,0,1 S,0,15306,16640,0.5,0.2 P,0,15306,16640,A F,0,15390,16640,1,0 M,0,16869,,151.8685,122.888 C,0,16869,,203,171,135 F,0,16869,16953,0,1 S,0,16869,18203,0.5,0.2 P,0,16869,18203,A F,0,16953,18203,1,0 M,0,18223,,293.8417,278.9462 C,0,18223,,200,147,148 F,0,18223,18306,0,1 S,0,18223,19556,0.5,0.2 P,0,18223,19556,A F,0,18306,19556,1,0 M,0,19703,,83.84779,423.5518 C,0,19703,,192,172,165 F,0,19703,19786,0,1 S,0,19703,21036,0.5,0.2 P,0,19703,21036,A F,0,19786,21036,1,0 M,0,21379,,158.0948,330.3888 C,0,21379,,203,171,135 F,0,21379,21463,0,1 S,0,21379,22713,0.5,0.2 P,0,21379,22713,A F,0,21463,22713,1,0 M,0,22724,,449.5281,190.328 C,0,22724,,192,172,165 F,0,22724,22807,0,1 S,0,22724,24057,0.5,0.2 P,0,22724,24057,A F,0,22807,24057,1,0 M,0,24380,,326.7516,394.9326 C,0,24380,,203,171,135 F,0,24380,24463,0,1 S,0,24380,25713,0.5,0.2 P,0,24380,25713,A F,0,24463,25713,1,0 M,0,25942,,113.0425,94.58475 C,0,25942,,192,172,165 F,0,25942,26025,0,1 S,0,25942,27275,0.5,0.2 P,0,25942,27275,A F,0,26025,27275,1,0 M,0,27547,,235.9501,393.201 C,0,27547,,200,147,148 F,0,27547,27630,0,1 S,0,27547,28880,0.5,0.2 P,0,27547,28880,A F,0,27630,28880,1,0 M,0,28900,,483.4161,157.6444 C,0,28900,,192,172,165 F,0,28900,28984,0,1 S,0,28900,30234,0.5,0.2 P,0,28900,30234,A F,0,28984,30234,1,0
Sprite,Background,Centre,"sb\pt\flare.png",0,0 M,0,15317,,485.4488,414.4203 C,0,15317,,200,147,148 F,0,15317,15400,0,1 S,0,15317,16650,0.5,0.2 P,0,15317,16650,A F,0,15400,16650,1,0 M,0,16880,,159.1337,124.7362 C,0,16880,,203,171,135 F,0,16880,16963,0,1 S,0,16880,18213,0.5,0.2 P,0,16880,18213,A F,0,16963,18213,1,0 M,0,18233,,295.5942,271.6829 C,0,18233,,200,147,148 F,0,18233,18317,0,1 S,0,18233,19567,0.5,0.2 P,0,18233,19567,A F,0,18317,19567,1,0 M,0,19713,,89.2996,418.4028 C,0,19713,,192,172,165 F,0,19713,19797,0,1 S,0,19713,21047,0.5,0.2 P,0,19713,21047,A F,0,19797,21047,1,0 M,0,21390,,157.5204,336.8547 C,0,21390,,203,171,135 F,0,21390,21473,0,1 S,0,21390,22723,0.5,0.2 P,0,21390,22723,A F,0,21473,22723,1,0 M,0,22734,,456.9102,190.966 C,0,22734,,192,172,165 F,0,22734,22817,0,1 S,0,22734,24067,0.5,0.2 P,0,22734,24067,A F,0,22817,24067,1,0 M,0,24390,,333.6462,392.0587 C,0,24390,,203,171,135 F,0,24390,24473,0,1 S,0,24390,25723,0.5,0.2 P,0,24390,25723,A F,0,24473,25723,1,0 M,0,25953,,117.5076,100.6094 C,0,25953,,192,172,165 F,0,25953,26036,0,1 S,0,25953,27286,0.5,0.2 P,0,25953,27286,A F,0,26036,27286,1,0 M,0,27557,,238.4008,386.1736 C,0,27557,,200,147,148 F,0,27557,27640,0,1 S,0,27557,28890,0.5,0.2 P,0,27557,28890,A F,0,27640,28890,1,0 M,0,28911,,476.3701,155.0953 C,0,28911,,192,172,165 F,0,28911,28994,0,1 S,0,28911,30244,0.5,0.2 P,0,28911,30244,A F,0,28994,30244,1,0
Sprite,Background,Centre,"sb\pt\flare.png",0,0 M,0,15327,,489.4315,408.1263 C,0,15327,,200,147,148 F,0,15327,15410,0,1 S,0,15327,16660,0.5,0.2 P,0,15327,16660,A F,0,15410,16660,1,0 M,0,16890,,166.1528,127.3657 C,0,16890,,203,171,135 F,0,16890,16973,0,1 S,0,16890,18223,0.5,0.2 P,0,16890,18223,A F,0,16973,18223,1,0 M,0,18244,,298.0474,264.6174 C,0,18244,,200,147,148 F,0,18244,18327,0,1 S,0,18244,19577,0.5,0.2 P,0,18244,19577,A F,0,18327,19577,1,0 M,0,19724,,94.43633,412.9396 C,0,19724,,192,172,165 F,0,19724,19807,0,1 S,0,19724,21057,0.5,0.2 P,0,19724,21057,A F,0,19807,21057,1,0 M,0,21400,,156.6938,343.2962 C,0,21400,,203,171,135 F,0,21400,21483,0,1 S,0,21400,22733,0.5,0.2 P,0,21400,22733,A F,0,21483,22733,1,0 M,0,22828,,552,226 C,0,22828,,192,172,165 F,0,22828,22911,0,1 S,0,22828,24161,0.3,0.2 P,0,22828,24161,A F,0,22911,24161,1,0 M,0,24400,,340.26,388.577 C,0,24400,,203,171,135 F,0,24400,24484,0,1 S,0,24400,25734,0.5,0.2 P,0,24400,25734,A F,0,24484,25734,1,0 M,0,25963,,121.5984,106.894 C,0,25963,,192,172,165 F,0,25963,26046,0,1 S,0,25963,27296,0.5,0.2 P,0,25963,27296,A F,0,26046,27296,1,0 M,0,27567,,240.0166,378.9054 C,0,27567,,200,147,148 F,0,27567,27651,0,1 S,0,27567,28901,0.5,0.2 P,0,27567,28901,A F,0,27651,28901,1,0 M,0,28921,,469.0325,153.5719 C,0,28921,,192,172,165 F,0,28921,29005,0,1 S,0,28921,30255,0.5,0.2 P,0,28921,30255,A F,0,29005,30255,1,0
Sprite,Background,Centre,"sb\pt\flare.png",0,0 M,0,15338,,492.7413,401.4517 C,0,15338,,200,147,148 F,0,15338,15421,0,1 S,0,15338,16671,0.5,0.2 P,0,15338,16671,A F,0,15421,16671,1,0 M,0,16900,,172.7788,130.867 C,0,16900,,203,171,135 F,0,16900,16984,0,1 S,0,16900,18234,0.5,0.2 P,0,16900,18234,A F,0,16984,18234,1,0 M,0,18254,,301.18,257.8165 C,0,18254,,200,147,148 F,0,18254,18338,0,1 S,0,18254,19588,0.5,0.2 P,0,18254,19588,A F,0,18338,19588,1,0 M,0,19734,,99.22798,407.1715 C,0,19734,,192,172,165 F,0,19734,19817,0,1 S,0,19734,21067,0.5,0.2 P,0,19734,21067,A F,0,19817,21067,1,0 M,0,21828,,261,427 C,0,21828,,200,147,148 F,0,21828,21911,0,1 S,0,21828,23161,0.3,0.2 P,0,21828,23161,A F,0,21911,23161,1,0 M,0,25973,,125.2952,113.418 C,0,25973,,192,172,165 F,0,25973,26057,0,1 S,0,25973,27307,0.5,0.2 P,0,25973,27307,A F,0,26057,27307,1,0 M,0,27578,,240.7747,371.4946 C,0,27578,,200,147,148 F,0,27578,27661,0,1 S,0,27578,28911,0.5,0.2 P,0,27578,28911,A F,0,27661,28911,1,0 M,0,28932,,461.74,153.3557 C,0,28932,,192,172,165 F,0,28932,29015,0,1 S,0,28932,30265,0.5,0.2 P,0,28932,30265,A F,0,29015,30265,1,0
Sprite,Background,Centre,"sb\pt\flare.png",0,0 M,0,15348,,495.3426,394.4673 C,0,15348,,200,147,148 F,0,15348,15431,0,1 S,0,15348,16681,0.5,0.2 P,0,15348,16681,A F,0,15431,16681,1,0 M,0,16911,,178.8855,135.211 C,0,16911,,203,171,135 F,0,16911,16994,0,1 S,0,16911,18244,0.5,0.2 P,0,16911,18244,A F,0,16994,18244,1,0 M,0,18265,,304.9645,251.3443 C,0,18265,,200,147,148 F,0,18265,18348,0,1 S,0,18265,19598,0.5,0.2 P,0,18265,19598,A F,0,18348,19598,1,0 M,0,19828,,147,338 C,0,19828,,192,172,165 F,0,19828,19911,0,1 S,0,19828,21161,0.5,0.2 P,0,19828,21161,A F,0,19911,21161,1,0 M,0,21828,,261,427 C,0,21828,,200,147,148 F,0,21828,21911,0,1 S,0,21828,23161,0.5,0.2 P,0,21828,23161,A F,0,21911,23161,1,0 M,0,25984,,128.5753,120.1612 C,0,25984,,192,172,165 F,0,25984,26067,0,1 S,0,25984,27317,0.5,0.2 P,0,25984,27317,A F,0,26067,27317,1,0 M,0,27588,,240.6639,364.0417 C,0,27588,,200,147,148 F,0,27588,27672,0,1 S,0,27588,28922,0.5,0.2 P,0,27588,28922,A F,0,27672,28922,1,0 M,0,28942,,457.5024,159.5419 C,0,28942,,192,172,165 F,0,28942,29025,0,1 S,0,28942,30275,0.5,0.2 P,0,28942,30275,A F,0,29025,30275,1,0
Sprite,Background,Centre,"sb\pt\flare.png",0,0 M,0,15358,,497.2067,387.2476 C,0,15358,,200,147,148 F,0,15358,15442,0,1 S,0,15358,16692,0.5,0.2 P,0,15358,16692,A F,0,15442,16692,1,0 M,0,16921,,184.4283,140.2576 C,0,16921,,203,171,135 F,0,16921,17005,0,1 S,0,16921,18255,0.5,0.2 P,0,16921,18255,A F,0,17005,18255,1,0 M,0,18275,,309.7717,245.607 C,0,18275,,200,147,148 F,0,18275,18358,0,1 S,0,18275,19608,0.5,0.2 P,0,18275,19608,A F,0,18358,19608,1,0 M,0,22348,,369.4739,181.6098 C,0,22348,,192,172,165 F,0,22348,22431,0,1 S,0,22348,23681,0.5,0.2 P,0,22348,23681,A F,0,22431,23681,1,0 M,0,26005,,133.8354,134.1979 C,0,26005,,192,172,165 F,0,26005,26088,0,1 S,0,26005,27338,0.5,0.2 P,0,26005,27338,A F,0,26088,27338,1,0 M,0,27599,,239.6844,356.6477 C,0,27599,,200,147,148 F,0,27599,27682,0,1 S,0,27599,28932,0.5,0.2 P,0,27599,28932,A F,0,27682,28932,1,0 M,0,28953,,453.7086,166.0095 C,0,28953,,192,172,165 F,0,28953,29036,0,1 S,0,28953,30286,0.5,0.2 P,0,28953,30286,A F,0,29036,30286,1,0
Sprite,Background,Centre,"sb\pt\flare.png",0,0 M,0,15369,,498.313,379.8694 C,0,15369,,200,147,148 F,0,15369,15452,0,1 S,0,15369,16702,0.5,0.2 P,0,15369,16702,A F,0,15452,16702,1,0 M,0,16932,,189.4911,145.7886 C,0,16932,,203,171,135 F,0,16932,17015,0,1 S,0,16932,18265,0.5,0.2 P,0,16932,18265,A F,0,17015,18265,1,0 M,0,18286,,314.772,240.0844 C,0,18286,,200,147,148 F,0,18286,18369,0,1 S,0,18286,19619,0.5,0.2 P,0,18286,19619,A F,0,18369,19619,1,0 M,0,22358,,374.0127,187.5779 C,0,22358,,192,172,165 F,0,22358,22442,0,1 S,0,22358,23692,0.5,0.2 P,0,22358,23692,A F,0,22442,23692,1,0 M,0,26015,,135.808,141.4325 C,0,26015,,192,172,165 F,0,26015,26098,0,1 S,0,26015,27348,0.5,0.2 P,0,26015,27348,A F,0,26098,27348,1,0 M,0,27609,,237.8483,349.4131 C,0,27609,,200,147,148 F,0,27609,27692,0,1 S,0,27609,28942,0.5,0.2 P,0,27609,28942,A F,0,27692,28942,1,0 M,0,28963,,450.416,172.7459 C,0,28963,,192,172,165 F,0,28963,29046,0,1 S,0,28963,30296,0.5,0.2 P,0,28963,30296,A F,0,29046,30296,1,0
Sprite,Background,Centre,"sb\pt\flare.png",0,0 M,0,15379,,498.6486,372.4114 C,0,15379,,200,147,148 F,0,15379,15463,0,1 S,0,15379,16713,0.5,0.2 P,0,15379,16713,A F,0,15463,16713,1,0 M,0,16942,,194.2746,151.5648 C,0,16942,,203,171,135 F,0,16942,17025,0,1 S,0,16942,18275,0.5,0.2 P,0,16942,18275,A F,0,17025,18275,1,0 M,0,18296,,320.2869,235.0725 C,0,18296,,200,147,148 F,0,18296,18379,0,1 S,0,18296,19629,0.5,0.2 P,0,18296,19629,A F,0,18379,19629,1,0 M,0,22369,,378.0577,193.8912 C,0,22369,,192,172,165 F,0,22369,22452,0,1 S,0,22369,23702,0.5,0.2 P,0,22369,23702,A F,0,22452,23702,1,0 M,0,26025,,137.3489,148.7714 C,0,26025,,192,172,165 F,0,26025,26109,0,1 S,0,26025,27359,0.5,0.2 P,0,26025,27359,A F,0,26109,27359,1,0 M,0,27620,,235.1792,342.4364 C,0,27620,,200,147,148 F,0,27620,27703,0,1 S,0,27620,28953,0.5,0.2 P,0,27620,28953,A F,0,27703,28953,1,0 M,0,28973,,447.6793,179.7263 C,0,28973,,192,172,165 F,0,28973,29057,0,1 S,0,28973,30307,0.5,0.2 P,0,28973,30307,A F,0,29057,30307,1,0
Sprite,Background,Centre,"sb\pt\flare.png",0,0 M,0,15390,,498.2088,364.9534 C,0,15390,,200,147,148 F,0,15390,15473,0,1 S,0,15390,16723,0.5,0.2 P,0,15390,16723,A F,0,15473,16723,1,0 M,0,16953,,199.0135,157.3778 C,0,16953,,203,171,135 F,0,16953,17036,0,1 S,0,16953,18286,0.5,0.2 P,0,16953,18286,A F,0,17036,18286,1,0 M,0,18306,,326.2653,230.6187 C,0,18306,,200,147,148 F,0,18306,18390,0,1 S,0,18306,19640,0.5,0.2 P,0,18306,19640,A F,0,18390,19640,1,0 M,0,22379,,381.6039,200.4978 C,0,22379,,192,172,165 F,0,22379,22463,0,1 S,0,22379,23713,0.5,0.2 P,0,22379,23713,A F,0,22463,23713,1,0 M,0,26036,,138.4659,156.1868 C,0,26036,,192,172,165 F,0,26036,26119,0,1 S,0,26036,27369,0.5,0.2 P,0,26036,27369,A F,0,26119,27369,1,0 M,0,27630,,231.7119,335.8129 C,0,27630,,200,147,148 F,0,27630,27713,0,1 S,0,27630,28963,0.5,0.2 P,0,27630,28963,A F,0,27713,28963,1,0 M,0,28984,,445.5433,186.9132 C,0,28984,,192,172,165 F,0,28984,29067,0,1 S,0,28984,30317,0.5,0.2 P,0,28984,30317,A F,0,29067,30317,1,0
Sprite,Background,Centre,"sb\pt\flare.png",0,0 M,0,15400,,496.9969,357.575 C,0,15400,,200,147,148 F,0,15400,15483,0,1 S,0,15400,16733,0.5,0.2 P,0,15400,16733,A F,0,15483,16733,1,0 M,0,16963,,203.9296,163.0408 C,0,16963,,203,171,135 F,0,16963,17046,0,1 S,0,16963,18296,0.5,0.2 P,0,16963,18296,A F,0,17046,18296,1,0 M,0,18317,,332.6519,226.765 C,0,18317,,200,147,148 F,0,18317,18400,0,1 S,0,18317,19650,0.5,0.2 P,0,18317,19650,A F,0,18400,19650,1,0 M,0,22390,,384.6605,207.3449 C,0,22390,,192,172,165 F,0,22390,22473,0,1 S,0,22390,23723,0.5,0.2 P,0,22390,23723,A F,0,22473,23723,1,0 M,0,26046,,139.1835,163.6514 C,0,26046,,192,172,165 F,0,26046,26130,0,1 S,0,26046,27380,0.5,0.2 P,0,26046,27380,A F,0,26130,27380,1,0 M,0,27640,,227.4919,329.6332 C,0,27640,,200,147,148 F,0,27640,27724,0,1 S,0,27640,28974,0.5,0.2 P,0,27640,28974,A F,0,27724,28974,1,0 M,0,28994,,444.0395,194.2583 C,0,28994,,192,172,165 F,0,28994,29078,0,1 S,0,28994,30328,0.5,0.2 P,0,28994,30328,A F,0,29078,30328,1,0
Sprite,Background,Centre,"sb\pt\flare.png",0,0 M,0,15410,,495.0246,350.3556 C,0,15410,,200,147,148 F,0,15410,15494,0,1 S,0,15410,16744,0.5,0.2 P,0,15410,16744,A F,0,15494,16744,1,0 M,0,16973,,209.1885,168.3853 C,0,16973,,203,171,135 F,0,16973,17057,0,1 S,0,16973,18307,0.5,0.2 P,0,16973,18307,A F,0,17057,18307,1,0 M,0,22400,,387.244,214.3844 C,0,22400,,192,172,165 F,0,22400,22483,0,1 S,0,22400,23733,0.5,0.2 P,0,22400,23733,A F,0,22483,23733,1,0 M,0,26057,,139.514,171.1433 C,0,26057,,192,172,165 F,0,26057,26140,0,1 S,0,26057,27390,0.5,0.2 P,0,26057,27390,A F,0,26140,27390,1,0 M,0,27651,,222.575,323.9822 C,0,27651,,200,147,148 F,0,27651,27734,0,1 S,0,27651,28984,0.5,0.2 P,0,27651,28984,A F,0,27734,28984,1,0 M,0,29005,,443.1809,201.7064 C,0,29005,,192,172,165 F,0,29005,29088,0,1 S,0,29005,30338,0.5,0.2 P,0,29005,30338,A F,0,29088,30338,1,0
Sprite,Background,Centre,"sb\pt\flare.png",0,0 M,0,15421,,492.3111,343.3726 C,0,15421,,200,147,148 F,0,15421,15504,0,1 S,0,15421,16754,0.5,0.2 P,0,15421,16754,A F,0,15504,16754,1,0 M,0,16984,,214.8765,173.2695 C,0,16984,,203,171,135 F,0,16984,17067,0,1 S,0,16984,18317,0.5,0.2 P,0,16984,18317,A F,0,17067,18317,1,0 M,0,22828,,552,226 C,0,22828,,192,172,165 F,0,22828,22911,0,1 S,0,22828,24161,0.5,0.2 P,0,22828,24161,A F,0,22911,24161,1,0 M,0,26067,,139.4837,178.6425 C,0,26067,,192,172,165 F,0,26067,26150,0,1 S,0,26067,27400,0.5,0.2 P,0,26067,27400,A F,0,26150,27400,1,0 M,0,28328,,205,84 C,0,28328,,200,147,148 F,0,28328,28411,0,1 S,0,28328,29661,0.3,0.2 P,0,28328,29661,A F,0,28411,29661,1,0
Sprite,Background,Centre,"sb\pt\flare.png",0,0 M,0,15431,,488.4768,336.9456 C,0,15431,,200,147,148 F,0,15431,15515,0,1 S,0,15431,16765,0.5,0.2 P,0,15431,16765,A F,0,15515,16765,1,0 M,0,17161,,358,184 C,0,17161,,203,171,135 F,0,17161,17244,0,1 S,0,17161,18494,0.5,0.2 P,0,17161,18494,A F,0,17244,18494,1,0 M,0,22848,,545.3936,212.5811 C,0,22848,,192,172,165 F,0,22848,22932,0,1 S,0,22848,24182,0.5,0.2 P,0,22848,24182,A F,0,22932,24182,1,0 M,0,28328,,205,84 C,0,28328,,200,147,148 F,0,28328,28411,0,1 S,0,28328,29661,0.5,0.2 P,0,28328,29661,A F,0,28411,29661,1,0
Sprite,Background,Centre,"sb\pt\flare.png",0,0 M,0,15442,,484.3472,330.7497 C,0,15442,,200,147,148 F,0,15442,15525,0,1 S,0,15442,16775,0.5,0.2 P,0,15442,16775,A F,0,15525,16775,1,0 M,0,17432,,309.1073,271.446 C,0,17432,,203,171,135 F,0,17432,17515,0,1 S,0,17432,18765,0.5,0.2 P,0,17432,18765,A F,0,17515,18765,1,0 M,0,22859,,542.7499,205.5954 C,0,22859,,192,172,165 F,0,22859,22942,0,1 S,0,22859,24192,0.5,0.2 P,0,22859,24192,A F,0,22942,24192,1,0 M,0,29015,,442.9622,209.2008 C,0,29015,,192,172,165 F,0,29015,29098,0,1 S,0,29015,30348,0.5,0.2 P,0,29015,30348,A F,0,29098,30348,1,0
Sprite,Background,Centre,"sb\pt\flare.png",0,0 M,0,15452,,479.5972,325.0144 C,0,15452,,200,147,148 F,0,15452,15535,0,1 S,0,15452,16785,0.5,0.2 P,0,15452,16785,A F,0,15535,16785,1,0 M,0,17442,,301.6139,271.435 C,0,17442,,203,171,135 F,0,17442,17525,0,1 S,0,17442,18775,0.5,0.2 P,0,17442,18775,A F,0,17525,18775,1,0 M,0,22869,,540.6694,198.4204 C,0,22869,,192,172,165 F,0,22869,22953,0,1 S,0,22869,24203,0.5,0.2 P,0,22869,24203,A F,0,22953,24203,1,0 M,0,29025,,443.3595,216.6881 C,0,29025,,192,172,165 F,0,29025,29109,0,1 S,0,29025,30359,0.5,0.2 P,0,29025,30359,A F,0,29109,30359,1,0
Sprite,Background,Centre,"sb\pt\flare.png",0,0 M,0,15463,,474.2774,319.8013 C,0,15463,,200,147,148 F,0,15463,15546,0,1 S,0,15463,16796,0.5,0.2 P,0,15463,16796,A F,0,15546,16796,1,0 M,0,17453,,294.1387,271.6375 C,0,17453,,203,171,135 F,0,17453,17536,0,1 S,0,17453,18786,0.5,0.2 P,0,17453,18786,A F,0,17536,18786,1,0 M,0,22880,,539.1656,191.101 C,0,22880,,192,172,165 F,0,22880,22963,0,1 S,0,22880,24213,0.5,0.2 P,0,22880,24213,A F,0,22963,24213,1,0 M,0,29036,,444.3351,224.1225 C,0,29036,,192,172,165 F,0,29036,29119,0,1 S,0,29036,30369,0.5,0.2 P,0,29036,30369,A F,0,29119,30369,1,0
Sprite,Background,Centre,"sb\pt\flare.png",0,0 M,0,15473,,468.4442,315.1662 C,0,15473,,200,147,148 F,0,15473,15556,0,1 S,0,15473,16806,0.5,0.2 P,0,15473,16806,A F,0,15556,16806,1,0 M,0,17463,,286.6918,272.324 C,0,17463,,203,171,135 F,0,17463,17546,0,1 S,0,17463,18796,0.5,0.2 P,0,17463,18796,A F,0,17546,18796,1,0 M,0,22890,,538.2482,183.683 C,0,22890,,192,172,165 F,0,22890,22973,0,1 S,0,22890,24223,0.5,0.2 P,0,22890,24223,A F,0,22973,24223,1,0 M,0,29046,,445.845,231.4673 C,0,29046,,192,172,165 F,0,29046,29130,0,1 S,0,29046,30380,0.5,0.2 P,0,29046,30380,A F,0,29130,30380,1,0
Sprite,Background,Centre,"sb\pt\flare.png",0,0 M,0,15483,,462.1596,311.1591 C,0,15483,,200,147,148 F,0,15483,15567,0,1 S,0,15483,16817,0.5,0.2 P,0,15483,16817,A F,0,15567,16817,1,0 M,0,17473,,279.304,273.4919 C,0,17473,,203,171,135 F,0,17473,17557,0,1 S,0,17473,18807,0.5,0.2 P,0,17473,18807,A F,0,17557,18807,1,0 M,0,22900,,537.9233,176.2131 C,0,22900,,192,172,165 F,0,22900,22984,0,1 S,0,22900,24234,0.5,0.2 P,0,22900,24234,A F,0,22984,24234,1,0 M,0,29057,,447.8367,238.6966 C,0,29057,,192,172,165 F,0,29057,29140,0,1 S,0,29057,30390,0.5,0.2 P,0,29057,30390,A F,0,29140,30390,1,0
Sprite,Background,Centre,"sb\pt\flare.png",0,0 M,0,17484,,272.0058,275.1364 C,0,17484,,203,171,135 F,0,17484,17567,0,1 S,0,17484,18817,0.5,0.2 P,0,17484,18817,A F,0,17567,18817,1,0 M,0,29067,,450.2602,245.793 C,0,29067,,192,172,165 F,0,29067,29150,0,1 S,0,29067,30400,0.5,0.2 P,0,29067,30400,A F,0,29150,30400,1,0
Sprite,Background,Centre,"sb\pt\flare.png",0,0 M,0,17661,,144,374 C,0,17661,,203,171,135 F,0,17661,17744,0,1 S,0,17661,18994,0.5,0.2 P,0,17661,18994,A F,0,17744,18994,1,0
Sprite,Background,Centre,"sb\pt\flare.png",0,0 M,0,70994,,124,125 C,0,70994,,203,171,135 F,0,70994,71077,0,1 S,0,70994,72327,0.3,0.2 P,0,70994,72327,A F,0,71077,72327,1,0 M,0,72337,,180.0568,375.7973 C,0,72337,,200,147,148 F,0,72337,72420,0,1 S,0,72337,73670,0.5,0.2 P,0,72337,73670,A F,0,72420,73670,1,0 M,0,73680,,522.2494,278.1281 C,0,73680,,192,172,165 F,0,73680,73764,0,1 S,0,73680,75014,0.5,0.2 P,0,73680,75014,A F,0,73764,75014,1,0 M,0,75014,,282.1568,70.58711 C,0,75014,,203,171,135 F,0,75014,75098,0,1 S,0,75014,76348,0.5,0.2 P,0,75014,76348,A F,0,75098,76348,1,0 M,0,76358,,344.6808,250.1126 C,0,76358,,192,172,165 F,0,76358,76441,0,1 S,0,76358,77691,0.5,0.2 P,0,76358,77691,A F,0,76441,77691,1,0 M,0,77701,,437.1967,324.9927 C,0,77701,,203,171,135 F,0,77701,77785,0,1 S,0,77701,79035,0.5,0.2 P,0,77701,79035,A F,0,77785,79035,1,0 M,0,79035,,146.6383,328.8493 C,0,79035,,192,172,165 F,0,79035,79119,0,1 S,0,79035,80369,0.5,0.2 P,0,79035,80369,A F,0,79119,80369,1,0 M,0,80410,,294,150 C,0,80410,,203,171,135 F,0,80410,80493,0,1 S,0,80410,81743,0.3,0.2 P,0,80410,81743,A F,0,80493,81743,1,0
Sprite,Background,Centre,"sb\pt\flare.png",0,0 M,0,70994,,124,125 C,0,70994,,203,171,135 F,0,70994,71077,0,1 S,0,70994,72327,0.5,0.2 P,0,70994,72327,A F,0,71077,72327,1,0 M,0,72347,,185.8248,370.3273 C,0,72347,,200,147,148 F,0,72347,72431,0,1 S,0,72347,73681,0.5,0.2 P,0,72347,73681,A F,0,72431,73681,1,0 M,0,73691,,520.5674,270.3864 C,0,73691,,192,172,165 F,0,73691,73774,0,1 S,0,73691,75024,0.5,0.2 P,0,73691,75024,A F,0,73774,75024,1,0 M,0,75025,,283.7357,78.30841 C,0,75025,,203,171,135 F,0,75025,75108,0,1 S,0,75025,76358,0.5,0.2 P,0,75025,76358,A F,0,75108,76358,1,0 M,0,76368,,352.044,253.2359 C,0,76368,,192,172,165 F,0,76368,76452,0,1 S,0,76368,77702,0.5,0.2 P,0,76368,77702,A F,0,76452,77702,1,0 M,0,77712,,437.1281,327.9911 C,0,77712,,203,171,135 F,0,77712,77795,0,1 S,0,77712,79045,0.5,0.2 P,0,77712,79045,A F,0,77795,79045,1,0 M,0,79046,,142.1596,334.8612 C,0,79046,,192,172,165 F,0,79046,79129,0,1 S,0,79046,80379,0.5,0.2 P,0,79046,80379,A F,0,79129,80379,1,0 M,0,80494,,298,168 C,0,80494,,203,171,135 F,0,80494,80577,0,1 S,0,80494,81827,0.3,0.2 P,0,80494,81827,A F,0,80577,81827,1,0
Sprite,Background,Centre,"sb\pt\flare.png",0,0 M,0,71004,,131.8658,123.5439 C,0,71004,,203,171,135 F,0,71004,71087,0,1 S,0,71004,72337,0.5,0.2 P,0,71004,72337,A F,0,71087,72337,1,0 M,0,72358,,190.9905,364.285 C,0,72358,,200,147,148 F,0,72358,72441,0,1 S,0,72358,73691,0.5,0.2 P,0,72358,73691,A F,0,72441,73691,1,0 M,0,73701,,517.8704,262.9373 C,0,73701,,192,172,165 F,0,73701,73785,0,1 S,0,73701,75035,0.5,0.2 P,0,73701,75035,A F,0,73785,75035,1,0 M,0,75035,,284.0638,86.18327 C,0,75035,,203,171,135 F,0,75035,75119,0,1 S,0,75035,76369,0.5,0.2 P,0,75035,76369,A F,0,75119,76369,1,0 M,0,76379,,359.6107,255.8273 C,0,76379,,192,172,165 F,0,76379,76462,0,1 S,0,76379,77712,0.5,0.2 P,0,76379,77712,A F,0,76462,77712,1,0 M,0,77722,,437.1553,330.9907 C,0,77722,,203,171,135 F,0,77722,77805,0,1 S,0,77722,79055,0.5,0.2 P,0,77722,79055,A F,0,77805,79055,1,0 M,0,79056,,138.3478,341.3156 C,0,79056,,192,172,165 F,0,79056,79139,0,1 S,0,79056,80389,0.5,0.2 P,0,79056,80389,A F,0,79139,80389,1,0 M,0,80577,,309,182 C,0,80577,,203,171,135 F,0,80577,80660,0,1 S,0,80577,81910,0.3,0.2 P,0,80577,81910,A F,0,80660,81910,1,0
Sprite,Background,Centre,"sb\pt\flare.png",0,0 M,0,71014,,139.7882,122.439 C,0,71014,,203,171,135 F,0,71014,71098,0,1 S,0,71014,72348,0.5,0.2 P,0,71014,72348,A F,0,71098,72348,1,0 M,0,72368,,195.4975,357.7364 C,0,72368,,200,147,148 F,0,72368,72452,0,1 S,0,72368,73702,0.5,0.2 P,0,72368,73702,A F,0,72452,73702,1,0 M,0,73712,,514.2062,255.9133 C,0,73712,,192,172,165 F,0,73712,73795,0,1 S,0,73712,75045,0.5,0.2 P,0,73712,75045,A F,0,73795,75045,1,0 M,0,75046,,283.1326,94.01061 C,0,75046,,203,171,135 F,0,75046,75129,0,1 S,0,75046,76379,0.5,0.2 P,0,75046,76379,A F,0,75129,76379,1,0 M,0,76389,,367.3505,257.8431 C,0,76389,,192,172,165 F,0,76389,76472,0,1 S,0,76389,77722,0.5,0.2 P,0,76389,77722,A F,0,76472,77722,1,0 M,0,77732,,436.972,333.9843 C,0,77732,,203,171,135 F,0,77732,77816,0,1 S,0,77732,79066,0.5,0.2 P,0,77732,79066,A F,0,77816,79066,1,0 M,0,79066,,132.0629,338.8271 C,0,79066,,192,172,165 F,0,79066,79150,0,1 S,0,79066,80400,0.5,0.2 P,0,79066,80400,A F,0,79150,80400,1,0 M,0,80660,,325,190 C,0,80660,,200,147,148 F,0,80660,80743,0,1 S,0,80660,81993,0.3,0.2 P,0,80660,81993,A F,0,80743,81993,1,0
Sprite,Background,Centre,"sb\pt\flare.png",0,0 M,0,71025,,147.7565,121.7431 C,0,71025,,203,171,135 F,0,71025,71108,0,1 S,0,71025,72358,0.5,0.2 P,0,71025,72358,A F,0,71108,72358,1,0 M,0,72379,,199.2965,350.7529 C,0,72379,,200,147,148 F,0,72379,72462,0,1 S,0,72379,73712,0.5,0.2 P,0,72379,73712,A F,0,72462,73712,1,0 M,0,73722,,509.64,249.4393 C,0,73722,,192,172,165 F,0,73722,73805,0,1 S,0,73722,75055,0.5,0.2 P,0,73722,75055,A F,0,73805,75055,1,0 M,0,75056,,280.9655,101.5905 C,0,75056,,203,171,135 F,0,75056,75139,0,1 S,0,75056,76389,0.5,0.2 P,0,75056,76389,A F,0,75139,76389,1,0 M,0,76399,,375.2221,259.2584 C,0,76399,,192,172,165 F,0,76399,76483,0,1 S,0,76399,77733,0.5,0.2 P,0,76399,77733,A F,0,76483,77733,1,0 M,0,77743,,436.7888,336.978 C,0,77743,,203,171,135 F,0,77743,77826,0,1 S,0,77743,79076,0.5,0.2 P,0,77743,79076,A F,0,77826,79076,1,0 M,0,79077,,125.6308,334.9718 C,0,79077,,192,172,165 F,0,79077,79160,0,1 S,0,79077,80410,0.5,0.2 P,0,79077,80410,A F,0,79160,80410,1,0 M,0,80660,,325,190 C,0,80660,,200,147,148 F,0,80660,80743,0,1 S,0,80660,81993,0.5,0.2 P,0,80660,81993,A F,0,80743,81993,1,0
Sprite,Background,Centre,"sb\pt\flare.png",0,0 M,0,71035,,155.7522,121.5327 C,0,71035,,203,171,135 F,0,71035,71119,0,1 S,0,71035,72369,0.5,0.2 P,0,71035,72369,A F,0,71119,72369,1,0 M,0,72389,,202.3461,343.4106 C,0,72389,,200,147,148 F,0,72389,72472,0,1 S,0,72389,73722,0.5,0.2 P,0,72389,73722,A F,0,72472,73722,1,0 M,0,73732,,504.253,243.6304 C,0,73732,,192,172,165 F,0,73732,73816,0,1 S,0,73732,75066,0.5,0.2 P,0,73732,75066,A F,0,73816,75066,1,0 M,0,75066,,277.6175,108.7292 C,0,75066,,203,171,135 F,0,75066,75150,0,1 S,0,75066,76400,0.5,0.2 P,0,75066,76400,A F,0,75150,76400,1,0 M,0,76410,,383.1799,260.0577 C,0,76410,,192,172,165 F,0,76410,76493,0,1 S,0,76410,77743,0.5,0.2 P,0,76410,77743,A F,0,76493,77743,1,0 M,0,77753,,436.6706,339.9738 C,0,77753,,203,171,135 F,0,77753,77837,0,1 S,0,77753,79087,0.5,0.2 P,0,77753,79087,A F,0,77837,79087,1,0 M,0,79087,,119.4286,330.757 C,0,79087,,192,172,165 F,0,79087,79171,0,1 S,0,79087,80421,0.5,0.2 P,0,79087,80421,A F,0,79171,80421,1,0 M,0,80670,,319.2225,194.7697 C,0,80670,,200,147,148 F,0,80670,80753,0,1 S,0,80670,82003,0.5,0.2 P,0,80670,82003,A F,0,80753,82003,1,0
Sprite,Background,Centre,"sb\pt\flare.png",0,0 M,0,71046,,163.7415,121.9051 C,0,71046,,203,171,135 F,0,71046,71129,0,1 S,0,71046,72379,0.5,0.2 P,0,71046,72379,A F,0,71129,72379,1,0 M,0,72399,,204.6128,335.7898 C,0,72399,,200,147,148 F,0,72399,72483,0,1 S,0,72399,73733,0.5,0.2 P,0,72399,73733,A F,0,72483,73733,1,0 M,0,73743,,498.1409,238.5899 C,0,73743,,192,172,165 F,0,73743,73826,0,1 S,0,73743,75076,0.5,0.2 P,0,73743,75076,A F,0,73826,75076,1,0 M,0,75077,,273.1737,115.2443 C,0,75077,,203,171,135 F,0,75077,75160,0,1 S,0,75077,76410,0.5,0.2 P,0,75077,76410,A F,0,75160,76410,1,0 M,0,76420,,391.1757,260.2376 C,0,76420,,192,172,165 F,0,76420,76504,0,1 S,0,76420,77754,0.5,0.2 P,0,76420,77754,A F,0,76504,77754,1,0 M,0,77764,,436.3728,342.9583 C,0,77764,,203,171,135 F,0,77764,77847,0,1 S,0,77764,79097,0.5,0.2 P,0,77764,79097,A F,0,77847,79097,1,0 M,0,79098,,113.5012,326.1642 C,0,79098,,192,172,165 F,0,79098,79181,0,1 S,0,79098,80431,0.5,0.2 P,0,79098,80431,A F,0,79181,80431,1,0 M,0,80680,,313.6002,199.6931 C,0,80680,,200,147,148 F,0,80680,80764,0,1 S,0,80680,82014,0.5,0.2 P,0,80680,82014,A F,0,80764,82014,1,0
Sprite,Background,Centre,"sb\pt\flare.png",0,0 M,0,71056,,171.6699,122.9509 C,0,71056,,203,171,135 F,0,71056,71139,0,1 S,0,71056,72389,0.5,0.2 P,0,71056,72389,A F,0,71139,72389,1,0 M,0,72410,,206.0718,327.9735 C,0,72410,,200,147,148 F,0,72410,72493,0,1 S,0,72410,73743,0.5,0.2 P,0,72410,73743,A F,0,72493,73743,1,0 M,0,73753,,491.4126,234.4074 C,0,73753,,192,172,165 F,0,73753,73837,0,1 S,0,73753,75087,0.5,0.2 P,0,73753,75087,A F,0,73837,75087,1,0 M,0,75087,,267.7472,120.9691 C,0,75087,,203,171,135 F,0,75087,75171,0,1 S,0,75087,76421,0.5,0.2 P,0,75087,76421,A F,0,75171,76421,1,0 M,0,76431,,399.1626,259.8143 C,0,76431,,192,172,165 F,0,76431,76514,0,1 S,0,76431,77764,0.5,0.2 P,0,76431,77764,A F,0,76514,77764,1,0 M,0,77774,,436.2236,345.9574 C,0,77774,,203,171,135 F,0,77774,77857,0,1 S,0,77774,79107,0.5,0.2 P,0,77774,79107,A F,0,77857,79107,1,0 M,0,79108,,107.9009,321.1783 C,0,79108,,192,172,165 F,0,79108,79191,0,1 S,0,79108,80441,0.5,0.2 P,0,79108,80441,A F,0,79191,80441,1,0 M,0,80691,,308.3505,205.0131 C,0,80691,,200,147,148 F,0,80691,80774,0,1 S,0,80691,82024,0.5,0.2 P,0,80691,82024,A F,0,80774,82024,1,0
Sprite,Background,Centre,"sb\pt\flare.png",0,0 M,0,71066,,179.4637,124.7383 C,0,71066,,203,171,135 F,0,71066,71150,0,1 S,0,71066,72400,0.5,0.2 P,0,71066,72400,A F,0,71150,72400,1,0 M,0,72420,,206.7072,320.047 C,0,72420,,200,147,148 F,0,72420,72504,0,1 S,0,72420,73754,0.5,0.2 P,0,72420,73754,A F,0,72504,73754,1,0 M,0,73764,,484.1876,231.1574 C,0,73764,,192,172,165 F,0,73764,73847,0,1 S,0,73764,75097,0.5,0.2 P,0,73764,75097,A F,0,73847,75097,1,0 M,0,75098,,261.4761,125.7569 C,0,75098,,203,171,135 F,0,75098,75181,0,1 S,0,75098,76431,0.5,0.2 P,0,75098,76431,A F,0,75181,76431,1,0 M,0,76441,,407.0976,258.8105 C,0,76441,,192,172,165 F,0,76441,76524,0,1 S,0,76441,77774,0.5,0.2 P,0,76441,77774,A F,0,76524,77774,1,0 M,0,77785,,435.8119,348.9283 C,0,77785,,203,171,135 F,0,77785,77868,0,1 S,0,77785,79118,0.5,0.2 P,0,77785,79118,A F,0,77868,79118,1,0 M,0,79119,,102.6834,315.7934 C,0,79119,,192,172,165 F,0,79119,79202,0,1 S,0,79119,80452,0.5,0.2 P,0,79119,80452,A F,0,79202,80452,1,0 M,0,80701,,303.501,210.7019 C,0,80701,,200,147,148 F,0,80701,80785,0,1 S,0,80701,82035,0.5,0.2 P,0,80701,82035,A F,0,80785,82035,1,0
Sprite,Background,Centre,"sb\pt\flare.png",0,0 M,0,71077,,187.0351,127.3093 C,0,71077,,203,171,135 F,0,71077,71160,0,1 S,0,71077,72410,0.5,0.2 P,0,71077,72410,A F,0,71160,72410,1,0 M,0,72431,,206.5117,312.0968 C,0,72431,,200,147,148 F,0,72431,72514,0,1 S,0,72431,73764,0.5,0.2 P,0,72431,73764,A F,0,72514,73764,1,0 M,0,73774,,476.5943,228.8976 C,0,73774,,192,172,165 F,0,73774,73857,0,1 S,0,73774,75107,0.5,0.2 P,0,73774,75107,A F,0,73857,75107,1,0 M,0,75108,,254.5202,129.485 C,0,75108,,203,171,135 F,0,75108,75191,0,1 S,0,75108,76441,0.5,0.2 P,0,75108,76441,A F,0,75191,76441,1,0 M,0,76452,,414.945,257.2638 C,0,76452,,192,172,165 F,0,76452,76535,0,1 S,0,76452,77785,0.5,0.2 P,0,76452,77785,A F,0,76535,77785,1,0 M,0,77795,,435.4001,351.8992 C,0,77795,,203,171,135 F,0,77795,77878,0,1 S,0,77795,79128,0.5,0.2 P,0,77795,79128,A F,0,77878,79128,1,0 M,0,79129,,97.90373,310.0166 C,0,79129,,192,172,165 F,0,79129,79212,0,1 S,0,79129,80462,0.5,0.2 P,0,79129,80462,A F,0,79212,80462,1,0 M,0,80712,,299.0774,216.7298 C,0,80712,,200,147,148 F,0,80712,80795,0,1 S,0,80712,82045,0.5,0.2 P,0,80712,82045,A F,0,80795,82045,1,0
Sprite,Background,Centre,"sb\pt\flare.png",0,0 M,0,71087,,194.3076,130.634 C,0,71087,,203,171,135 F,0,71087,71171,0,1 S,0,71087,72421,0.5,0.2 P,0,71087,72421,A F,0,71171,72421,1,0 M,0,72441,,205.4874,304.2097 C,0,72441,,200,147,148 F,0,72441,72524,0,1 S,0,72441,73774,0.5,0.2 P,0,72441,73774,A F,0,72524,73774,1,0 M,0,73785,,468.7679,227.6682 C,0,73785,,192,172,165 F,0,73785,73868,0,1 S,0,73785,75118,0.5,0.2 P,0,73785,75118,A F,0,73868,75118,1,0 M,0,75119,,247.0569,132.0575 C,0,75119,,203,171,135 F,0,75119,75202,0,1 S,0,75119,76452,0.5,0.2 P,0,75119,76452,A F,0,75202,76452,1,0 M,0,76462,,422.677,255.2156 C,0,76462,,192,172,165 F,0,76462,76545,0,1 S,0,76462,77795,0.5,0.2 P,0,76462,77795,A F,0,76545,77795,1,0 M,0,77805,,435.1248,354.8889 C,0,77805,,203,171,135 F,0,77805,77889,0,1 S,0,77805,79139,0.5,0.2 P,0,77805,79139,A F,0,77889,79139,1,0 M,0,79139,,93.61961,303.8635 C,0,79139,,192,172,165 F,0,79139,79223,0,1 S,0,79139,80473,0.5,0.2 P,0,79139,80473,A F,0,79223,80473,1,0 M,0,80722,,295.1031,223.0653 C,0,80722,,200,147,148 F,0,80722,80805,0,1 S,0,80722,82055,0.5,0.2 P,0,80722,82055,A F,0,80805,82055,1,0
Sprite,Background,Centre,"sb\pt\flare.png",0,0 M,0,71098,,201.2441,134.6147 C,0,71098,,203,171,135 F,0,71098,71181,0,1 S,0,71098,72431,0.5,0.2 P,0,71098,72431,A F,0,71181,72431,1,0 M,0,72452,,203.6453,296.4717 C,0,72452,,200,147,148 F,0,72452,72535,0,1 S,0,72452,73785,0.5,0.2 P,0,72452,73785,A F,0,72535,73785,1,0 M,0,73795,,460.8474,227.491 C,0,73795,,192,172,165 F,0,73795,73878,0,1 S,0,73795,75128,0.5,0.2 P,0,73795,75128,A F,0,73878,75128,1,0 M,0,75129,,239.2764,133.4079 C,0,75129,,203,171,135 F,0,75129,75212,0,1 S,0,75129,76462,0.5,0.2 P,0,75129,76462,A F,0,75212,76462,1,0 M,0,76472,,430.2722,252.7068 C,0,76472,,192,172,165 F,0,76472,76556,0,1 S,0,76472,77806,0.5,0.2 P,0,76472,77806,A F,0,76556,77806,1,0 M,0,77816,,434.6561,357.8519 C,0,77816,,203,171,135 F,0,77816,77899,0,1 S,0,77816,79149,0.5,0.2 P,0,77816,79149,A F,0,77899,79149,1,0 M,0,79150,,89.87144,297.3702 C,0,79150,,192,172,165 F,0,79150,79233,0,1 S,0,79150,80483,0.5,0.2 P,0,79150,80483,A F,0,79233,80483,1,0 M,0,80732,,291.5992,229.6753 C,0,80732,,200,147,148 F,0,80732,80816,0,1 S,0,80732,82066,0.5,0.2 P,0,80732,82066,A F,0,80816,82066,1,0
Sprite,Background,Centre,"sb\pt\flare.png",0,0 M,0,71108,,207.8822,139.0775 C,0,71108,,203,171,135 F,0,71108,71191,0,1 S,0,71108,72441,0.5,0.2 P,0,71108,72441,A F,0,71191,72441,1,0 M,0,72462,,201.0053,288.9675 C,0,72462,,200,147,148 F,0,72462,72545,0,1 S,0,72462,73795,0.5,0.2 P,0,72462,73795,A F,0,72545,73795,1,0 M,0,73805,,452.9738,228.3693 C,0,73805,,192,172,165 F,0,73805,73889,0,1 S,0,73805,75139,0.5,0.2 P,0,73805,75139,A F,0,73889,75139,1,0 M,0,75139,,231.3775,133.501 C,0,75139,,203,171,135 F,0,75139,75223,0,1 S,0,75139,76473,0.5,0.2 P,0,75139,76473,A F,0,75223,76473,1,0 M,0,76483,,437.7183,249.7845 C,0,76483,,192,172,165 F,0,76483,76566,0,1 S,0,76483,77816,0.5,0.2 P,0,76483,77816,A F,0,76566,77816,1,0 M,0,77910,,457,437 C,0,77910,,200,147,148 F,0,77910,77993,0,1 S,0,77910,79243,0.3,0.2 P,0,77910,79243,A F,0,77993,79243,1,0 M,0,79327,,100,158 C,0,79327,,192,172,165 F,0,79327,79410,0,1 S,0,79327,80660,0.3,0.2 P,0,79327,80660,A F,0,79410,80660,1,0 M,0,80743,,288.5845,236.5253 C,0,80743,,200,147,148 F,0,80743,80826,0,1 S,0,80743,82076,0.5,0.2 P,0,80743,82076,A F,0,80826,82076,1,0
Sprite,Background,Centre,"sb\pt\flare.png",0,0 M,0,71119,,214.3213,143.8244 C,0,71119,,203,171,135 F,0,71119,71202,0,1 S,0,71119,72452,0.5,0.2 P,0,71119,72452,A F,0,71202,72452,1,0 M,0,72472,,197.596,281.7789 C,0,72472,,200,147,148 F,0,72472,72556,0,1 S,0,72472,73806,0.5,0.2 P,0,72472,73806,A F,0,72556,73806,1,0 M,0,73816,,445.287,230.2874 C,0,73816,,192,172,165 F,0,73816,73899,0,1 S,0,73816,75149,0.5,0.2 P,0,73816,75149,A F,0,73899,75149,1,0 M,0,75150,,223.5618,132.3333 C,0,75150,,203,171,135 F,0,75150,75233,0,1 S,0,75150,76483,0.5,0.2 P,0,75150,76483,A F,0,75233,76483,1,0 M,0,76493,,445.0077,246.4903 C,0,76493,,192,172,165 F,0,76493,76577,0,1 S,0,76493,77827,0.5,0.2 P,0,76493,77827,A F,0,76577,77827,1,0 M,0,77910,,457,437 C,0,77910,,200,147,148 F,0,77910,77993,0,1 S,0,77910,79243,0.5,0.2 P,0,77910,79243,A F,0,77993,79243,1,0 M,0,79327,,100,158 C,0,79327,,192,172,165 F,0,79327,79410,0,1 S,0,79327,80660,0.5,0.2 P,0,79327,80660,A F,0,79410,80660,1,0 M,0,80753,,286.0753,243.5796 C,0,80753,,200,147,148 F,0,80753,80837,0,1 S,0,80753,82087,0.5,0.2 P,0,80753,82087,A F,0,80837,82087,1,0
Sprite,Background,Centre,"sb\pt\flare.png",0,0 M,0,71129,,220.706,148.6447 C,0,71129,,203,171,135 F,0,71129,71212,0,1 S,0,71129,72462,0.5,0.2 P,0,71129,72462,A F,0,71212,72462,1,0 M,0,72483,,193.4546,274.9845 C,0,72483,,200,147,148 F,0,72483,72566,0,1 S,0,72483,73816,0.5,0.2 P,0,72483,73816,A F,0,72566,73816,1,0 M,0,73826,,437.9237,233.2112 C,0,73826,,192,172,165 F,0,73826,73910,0,1 S,0,73826,75160,0.5,0.2 P,0,73826,75160,A F,0,73910,75160,1,0 M,0,75244,,205,122 C,0,75244,,203,171,135 F,0,75244,75327,0,1 S,0,75244,76577,0.3,0.2 P,0,75244,76577,A F,0,75327,76577,1,0 M,0,76660,,393,141 C,0,76660,,192,172,165 F,0,76660,76743,0,1 S,0,76660,77993,0.3,0.2 P,0,76660,77993,A F,0,76743,77993,1,0 M,0,77993,,410.4154,399.9847 C,0,77993,,200,147,148 F,0,77993,78076,0,1 S,0,77993,79326,0.5,0.2 P,0,77993,79326,A F,0,78076,79326,1,0 M,0,79337,,105.2955,152.7014 C,0,79337,,192,172,165 F,0,79337,79420,0,1 S,0,79337,80670,0.5,0.2 P,0,79337,80670,A F,0,79420,80670,1,0 M,0,80764,,284.0854,250.8013 C,0,80764,,200,147,148 F,0,80764,80847,0,1 S,0,80764,82097,0.5,0.2 P,0,80764,82097,A F,0,80847,82097,1,0
Sprite,Background,Centre,"sb\pt\flare.png",0,0 M,0,71139,,227.1974,153.3194 C,0,71139,,203,171,135 F,0,71139,71223,0,1 S,0,71139,72473,0.5,0.2 P,0,71139,72473,A F,0,71223,72473,1,0 M,0,72577,,177,261 C,0,72577,,200,147,148 F,0,72577,72660,0,1 S,0,72577,73910,0.3,0.2 P,0,72577,73910,A F,0,72660,73910,1,0 M,0,73994,,426,358 C,0,73994,,192,172,165 F,0,73994,74077,0,1 S,0,73994,75327,0.3,0.2 P,0,73994,75327,A F,0,74077,75327,1,0 M,0,75337,,197.8162,122.3814 C,0,75337,,203,171,135 F,0,75337,75420,0,1 S,0,75337,76670,0.5,0.2 P,0,75337,76670,A F,0,75420,76670,1,0 M,0,76680,,388.1444,125.9287 C,0,76680,,192,172,165 F,0,76680,76764,0,1 S,0,76680,78014,0.5,0.2 P,0,76680,78014,A F,0,76764,78014,1,0 M,0,78014,,396.1465,395.4389 C,0,78014,,200,147,148 F,0,78014,78097,0,1 S,0,78014,79347,0.5,0.2 P,0,78014,79347,A F,0,78097,79347,1,0 M,0,79347,,110.7231,147.5684 C,0,79347,,192,172,165 F,0,79347,79431,0,1 S,0,79347,80681,0.5,0.2 P,0,79347,80681,A F,0,79431,80681,1,0 M,0,80774,,282.6256,258.1526 C,0,80774,,200,147,148 F,0,80774,80857,0,1 S,0,80774,82107,0.5,0.2 P,0,80774,82107,A F,0,80857,82107,1,0
Sprite,Background,Centre,"sb\pt\flare.png",0,0 M,0,71150,,233.9353,157.6289 C,0,71150,,203,171,135 F,0,71150,71233,0,1 S,0,71150,72483,0.5,0.2 P,0,71150,72483,A F,0,71233,72483,1,0 M,0,72660,,164,256 C,0,72660,,200,147,148 F,0,72660,72743,0,1 S,0,72660,73993,0.3,0.2 P,0,72660,73993,A F,0,72743,73993,1,0 M,0,73994,,426,358 C,0,73994,,192,172,165 F,0,73994,74077,0,1 S,0,73994,75327,0.5,0.2 P,0,73994,75327,A F,0,74077,75327,1,0 M,0,75347,,202.4355,128.8926 C,0,75347,,203,171,135 F,0,75347,75431,0,1 S,0,75347,76681,0.5,0.2 P,0,75347,76681,A F,0,75431,76681,1,0 M,0,76691,,387.2246,118.101 C,0,76691,,192,172,165 F,0,76691,76774,0,1 S,0,76691,78024,0.5,0.2 P,0,76691,78024,A F,0,76774,78024,1,0 M,0,78024,,388.7452,394.2475 C,0,78024,,200,147,148 F,0,78024,78107,0,1 S,0,78024,79357,0.5,0.2 P,0,78024,79357,A F,0,78107,79357,1,0 M,0,79358,,116.5209,142.8554 C,0,79358,,192,172,165 F,0,79358,79441,0,1 S,0,79358,80691,0.5,0.2 P,0,79358,80691,A F,0,79441,80691,1,0 M,0,80785,,282.032,265.621 C,0,80785,,200,147,148 F,0,80785,80868,0,1 S,0,80785,82118,0.5,0.2 P,0,80785,82118,A F,0,80868,82118,1,0
Sprite,Background,Centre,"sb\pt\flare.png",0,0 M,0,71160,,241.0056,161.3652 C,0,71160,,203,171,135 F,0,71160,71244,0,1 S,0,71160,72494,0.5,0.2 P,0,71160,72494,A F,0,71244,72494,1,0 M,0,72660,,164,256 C,0,72660,,200,147,148 F,0,72660,72743,0,1 S,0,72660,73993,0.5,0.2 P,0,72660,73993,A F,0,72743,73993,1,0 M,0,74004,,418.0365,358.577 C,0,74004,,192,172,165 F,0,74004,74087,0,1 S,0,74004,75337,0.5,0.2 P,0,74004,75337,A F,0,74087,75337,1,0 M,0,75358,,206.65,135.6728 C,0,75358,,203,171,135 F,0,75358,75441,0,1 S,0,75358,76691,0.5,0.2 P,0,75358,76691,A F,0,75441,76691,1,0 M,0,76701,,387.5499,110.2252 C,0,76701,,192,172,165 F,0,76701,76785,0,1 S,0,76701,78035,0.5,0.2 P,0,76701,78035,A F,0,76785,78035,1,0 M,0,78035,,381.2633,393.7711 C,0,78035,,200,147,148 F,0,78035,78118,0,1 S,0,78035,79368,0.5,0.2 P,0,78035,79368,A F,0,78118,79368,1,0 M,0,79368,,122.657,138.5887 C,0,79368,,192,172,165 F,0,79368,79452,0,1 S,0,79368,80702,0.5,0.2 P,0,79368,80702,A F,0,79452,80702,1,0 M,0,80795,,281.7105,273.087 C,0,80795,,200,147,148 F,0,80795,80878,0,1 S,0,80795,82128,0.5,0.2 P,0,80795,82128,A F,0,80878,82128,1,0
Sprite,Background,Centre,"sb\pt\flare.png",0,0 M,0,71171,,248.4203,164.3578 C,0,71171,,203,171,135 F,0,71171,71254,0,1 S,0,71171,72504,0.5,0.2 P,0,71171,72504,A F,0,71254,72504,1,0 M,0,72670,,156.078,255.0029 C,0,72670,,200,147,148 F,0,72670,72753,0,1 S,0,72670,74003,0.5,0.2 P,0,72670,74003,A F,0,72753,74003,1,0 M,0,74014,,410.1423,359.5021 C,0,74014,,192,172,165 F,0,74014,74098,0,1 S,0,74014,75348,0.5,0.2 P,0,74014,75348,A F,0,74098,75348,1,0 M,0,75368,,210.4442,142.697 C,0,75368,,203,171,135 F,0,75368,75452,0,1 S,0,75368,76702,0.5,0.2 P,0,75368,76702,A F,0,75452,76702,1,0 M,0,76712,,389.1127,102.4977 C,0,76712,,192,172,165 F,0,76712,76795,0,1 S,0,76712,78045,0.5,0.2 P,0,76712,78045,A F,0,76795,78045,1,0 M,0,78045,,373.7674,393.937 C,0,78045,,200,147,148 F,0,78045,78128,0,1 S,0,78045,79378,0.5,0.2 P,0,78045,79378,A F,0,78128,79378,1,0 M,0,79379,,129.0977,134.7924 C,0,79379,,192,172,165 F,0,79379,79462,0,1 S,0,79379,80712,0.5,0.2 P,0,79379,80712,A F,0,79462,80712,1,0 M,0,80805,,281.9331,280.557 C,0,80805,,200,147,148 F,0,80805,80889,0,1 S,0,80805,82139,0.5,0.2 P,0,80805,82139,A F,0,80889,82139,1,0
Sprite,Background,Centre,"sb\pt\flare.png",0,0 M,0,71181,,256.1171,166.5229 C,0,71181,,203,171,135 F,0,71181,71264,0,1 S,0,71181,72514,0.5,0.2 P,0,71181,72514,A F,0,71264,72514,1,0 M,0,72680,,148.2524,253.6051 C,0,72680,,200,147,148 F,0,72680,72764,0,1 S,0,72680,74014,0.5,0.2 P,0,72680,74014,A F,0,72764,74014,1,0 M,0,74025,,402.3823,361.2246 C,0,74025,,192,172,165 F,0,74025,74108,0,1 S,0,74025,75358,0.5,0.2 P,0,74025,75358,A F,0,74108,75358,1,0 M,0,75379,,213.8039,149.939 C,0,75379,,203,171,135 F,0,75379,75462,0,1 S,0,75379,76712,0.5,0.2 P,0,75379,76712,A F,0,75462,76712,1,0 M,0,76722,,391.8745,95.11154 C,0,76722,,192,172,165 F,0,76722,76805,0,1 S,0,76722,78055,0.5,0.2 P,0,76722,78055,A F,0,76805,78055,1,0 M,0,78055,,366.3011,394.6336 C,0,78055,,200,147,148 F,0,78055,78139,0,1 S,0,78055,79389,0.5,0.2 P,0,78055,79389,A F,0,78139,79389,1,0 M,0,79389,,135.8075,131.4878 C,0,79389,,192,172,165 F,0,79389,79472,0,1 S,0,79389,80722,0.5,0.2 P,0,79389,80722,A F,0,79472,80722,1,0 M,0,80816,,282.6987,287.9918 C,0,80816,,200,147,148 F,0,80816,80899,0,1 S,0,80816,82149,0.5,0.2 P,0,80816,82149,A F,0,80899,82149,1,0
Sprite,Background,Centre,"sb\pt\flare.png",0,0 M,0,71191,,264.0012,167.8564 C,0,71191,,203,171,135 F,0,71191,71275,0,1 S,0,71191,72525,0.5,0.2 P,0,71191,72525,A F,0,71275,72525,1,0 M,0,72691,,140.619,251.3856 C,0,72691,,200,147,148 F,0,72691,72774,0,1 S,0,72691,74024,0.5,0.2 P,0,72691,74024,A F,0,72774,74024,1,0 M,0,74035,,394.8365,363.727 C,0,74035,,192,172,165 F,0,74035,74119,0,1 S,0,74035,75369,0.5,0.2 P,0,74035,75369,A F,0,74119,75369,1,0 M,0,75389,,216.7167,157.3721 C,0,75389,,203,171,135 F,0,75389,75472,0,1 S,0,75389,76722,0.5,0.2 P,0,75389,76722,A F,0,75472,76722,1,0 M,0,76732,,395.7668,88.25111 C,0,76732,,192,172,165 F,0,76732,76816,0,1 S,0,76732,78066,0.5,0.2 P,0,76732,78066,A F,0,76816,78066,1,0 M,0,78066,,358.8821,395.7284 C,0,78066,,200,147,148 F,0,78066,78149,0,1 S,0,78066,79399,0.5,0.2 P,0,78066,79399,A F,0,78149,79399,1,0 M,0,79399,,142.7497,128.6937 C,0,79399,,192,172,165 F,0,79399,79483,0,1 S,0,79399,80733,0.5,0.2 P,0,79399,80733,A F,0,79483,80733,1,0 M,0,80910,,336,356 C,0,80910,,200,147,148 F,0,80910,80993,0,1 S,0,80910,82243,0.3,0.2 P,0,80910,82243,A F,0,80993,82243,1,0
Sprite,Background,Centre,"sb\pt\flare.png",0,0 M,0,71202,,271.9774,168.4306 C,0,71202,,203,171,135 F,0,71202,71285,0,1 S,0,71202,72535,0.5,0.2 P,0,71202,72535,A F,0,71285,72535,1,0 M,0,72701,,133.2638,248.3696 C,0,72701,,200,147,148 F,0,72701,72785,0,1 S,0,72701,74035,0.5,0.2 P,0,72701,74035,A F,0,72785,74035,1,0 M,0,74046,,387.5828,366.9836 C,0,74046,,192,172,165 F,0,74046,74129,0,1 S,0,74046,75379,0.5,0.2 P,0,74046,75379,A F,0,74129,75379,1,0 M,0,75399,,219.1718,164.9687 C,0,75399,,203,171,135 F,0,75399,75483,0,1 S,0,75399,76733,0.5,0.2 P,0,75399,76733,A F,0,75483,76733,1,0 M,0,76743,,400.6933,82.08803 C,0,76743,,192,172,165 F,0,76743,76826,0,1 S,0,76743,78076,0.5,0.2 P,0,76743,78076,A F,0,76826,78076,1,0 M,0,78076,,351.5038,397.0724 C,0,78076,,200,147,148 F,0,78076,78160,0,1 S,0,78076,79410,0.5,0.2 P,0,78076,79410,A F,0,78160,79410,1,0 M,0,79410,,149.8861,126.4263 C,0,79410,,192,172,165 F,0,79410,79493,0,1 S,0,79410,80743,0.5,0.2 P,0,79410,80743,A F,0,79493,80743,1,0 M,0,80910,,336,356 C,0,80910,,200,147,148 F,0,80910,80993,0,1 S,0,80910,82243,0.5,0.2 P,0,80910,82243,A F,0,80993,82243,1,0
Sprite,Background,Centre,"sb\pt\flare.png",0,0 M,0,71212,,279.9748,168.3391 C,0,71212,,203,171,135 F,0,71212,71296,0,1 S,0,71212,72546,0.5,0.2 P,0,71212,72546,A F,0,71296,72546,1,0 M,0,72712,,126.2697,244.5909 C,0,72712,,200,147,148 F,0,72712,72795,0,1 S,0,72712,74045,0.5,0.2 P,0,72712,74045,A F,0,72795,74045,1,0 M,0,74056,,380.696,370.9612 C,0,74056,,192,172,165 F,0,74056,74139,0,1 S,0,74056,75389,0.5,0.2 P,0,74056,75389,A F,0,74139,75389,1,0 M,0,75494,,220,255 C,0,75494,,203,171,135 F,0,75494,75577,0,1 S,0,75494,76827,0.3,0.2 P,0,75494,76827,A F,0,75577,76827,1,0 M,0,76837,,465.7124,75.27519 C,0,76837,,192,172,165 F,0,76837,76920,0,1 S,0,76837,78170,0.5,0.2 P,0,76837,78170,A F,0,76920,78170,1,0 M,0,78170,,284.9334,398.3002 C,0,78170,,200,147,148 F,0,78170,78253,0,1 S,0,78170,79503,0.5,0.2 P,0,78170,79503,A F,0,78253,79503,1,0 M,0,79577,,217,137 C,0,79577,,192,172,165 F,0,79577,79660,0,1 S,0,79577,80910,0.3,0.2 P,0,79577,80910,A F,0,79660,80910,1,0 M,0,80920,,343.0648,358.4948 C,0,80920,,200,147,148 F,0,80920,81003,0,1 S,0,80920,82253,0.5,0.2 P,0,80920,82253,A F,0,81003,82253,1,0
Sprite,Background,Centre,"sb\pt\flare.png",0,0 M,0,71223,,287.9463,167.6838 C,0,71223,,203,171,135 F,0,71223,71306,0,1 S,0,71223,72556,0.5,0.2 P,0,71223,72556,A F,0,71306,72556,1,0 M,0,72722,,119.7154,240.092 C,0,72722,,200,147,148 F,0,72722,72805,0,1 S,0,72722,74055,0.5,0.2 P,0,72722,74055,A F,0,72805,74055,1,0 M,0,74066,,374.2473,375.6193 C,0,74066,,192,172,165 F,0,74066,74150,0,1 S,0,74066,75400,0.5,0.2 P,0,74066,75400,A F,0,74150,75400,1,0 M,0,75494,,220,255 C,0,75494,,203,171,135 F,0,75494,75577,0,1 S,0,75494,76827,0.5,0.2 P,0,75494,76827,A F,0,75577,76827,1,0 M,0,76847,,471.848,80.30402 C,0,76847,,192,172,165 F,0,76847,76930,0,1 S,0,76847,78180,0.5,0.2 P,0,76847,78180,A F,0,76930,78180,1,0 M,0,78180,,277.9481,395.5761 C,0,78180,,200,147,148 F,0,78180,78264,0,1 S,0,78180,79514,0.5,0.2 P,0,78180,79514,A F,0,78264,79514,1,0 M,0,79660,,224,146 C,0,79660,,192,172,165 F,0,79660,79743,0,1 S,0,79660,80993,0.3,0.2 P,0,79660,80993,A F,0,79743,80993,1,0 M,0,80993,,394.641,363.4102 C,0,80993,,200,147,148 F,0,80993,81076,0,1 S,0,80993,82326,0.5,0.2 P,0,80993,82326,A F,0,81076,82326,1,0
Sprite,Background,Centre,"sb\pt\flare.png",0,0 M,0,71233,,295.8665,166.5649 C,0,71233,,203,171,135 F,0,71233,71316,0,1 S,0,71233,72566,0.5,0.2 P,0,71233,72566,A F,0,71316,72566,1,0 M,0,72732,,113.6748,234.9238 C,0,72732,,200,147,148 F,0,72732,72816,0,1 S,0,72732,74066,0.5,0.2 P,0,72732,74066,A F,0,72816,74066,1,0 M,0,74160,,310,431 C,0,74160,,192,172,165 F,0,74160,74243,0,1 S,0,74160,75493,0.3,0.2 P,0,74160,75493,A F,0,74243,75493,1,0 M,0,75504,,215.1838,261.3814 C,0,75504,,203,171,135 F,0,75504,75587,0,1 S,0,75504,76837,0.5,0.2 P,0,75504,76837,A F,0,75587,76837,1,0 M,0,76857,,477.1179,86.24205 C,0,76857,,192,172,165 F,0,76857,76941,0,1 S,0,76857,78191,0.5,0.2 P,0,76857,78191,A F,0,76941,78191,1,0 M,0,78191,,271.2143,392.2787 C,0,78191,,200,147,148 F,0,78191,78274,0,1 S,0,78191,79524,0.5,0.2 P,0,78191,79524,A F,0,78274,79524,1,0 M,0,79660,,224,146 C,0,79660,,192,172,165 F,0,79660,79743,0,1 S,0,79660,80993,0.5,0.2 P,0,79660,80993,A F,0,79743,80993,1,0 M,0,81003,,401.9895,361.9836 C,0,81003,,200,147,148 F,0,81003,81087,0,1 S,0,81003,82337,0.5,0.2 P,0,81003,82337,A F,0,81087,82337,1,0
Sprite,Background,Centre,"sb\pt\flare.png",0,0 M,0,71327,,354,109 C,0,71327,,203,171,135 F,0,71327,71410,0,1 S,0,71327,72660,0.3,0.2 P,0,71327,72660,A F,0,71410,72660,1,0 M,0,72743,,108.216,229.1442 C,0,72743,,200,147,148 F,0,72743,72826,0,1 S,0,72743,74076,0.5,0.2 P,0,72743,74076,A F,0,72826,74076,1,0 M,0,74327,,218,313 C,0,74327,,192,172,165 F,0,74327,74410,0,1 S,0,74327,75660,0.3,0.2 P,0,74327,75660,A F,0,74410,75660,1,0 M,0,75670,,82.90297,272.7689 C,0,75670,,200,147,148 F,0,75670,75753,0,1 S,0,75670,77003,0.5,0.2 P,0,75670,77003,A F,0,75753,77003,1,0 M,0,77004,,535.7621,195.0495 C,0,77004,,192,172,165 F,0,77004,77087,0,1 S,0,77004,78337,0.5,0.2 P,0,77004,78337,A F,0,77087,78337,1,0 M,0,78410,,245,345 C,0,78410,,200,147,148 F,0,78410,78493,0,1 S,0,78410,79743,0.3,0.2 P,0,78410,79743,A F,0,78493,79743,1,0 M,0,79743,,271.5231,180.2119 C,0,79743,,192,172,165 F,0,79743,79826,0,1 S,0,79743,81076,0.5,0.2 P,0,79743,81076,A F,0,79826,81076,1,0 M,0,81160,,458,262 C,0,81160,,200,147,148 F,0,81160,81243,0,1 S,0,81160,82493,0.3,0.2 P,0,81160,82493,A F,0,81243,82493,1,0
Sprite,Background,Centre,"sb\pt\flare.png",0,0 M,0,71327,,354,109 C,0,71327,,203,171,135 F,0,71327,71410,0,1 S,0,71327,72660,0.5,0.2 P,0,71327,72660,A F,0,71410,72660,1,0 M,0,72753,,103.4005,222.8185 C,0,72753,,200,147,148 F,0,72753,72837,0,1 S,0,72753,74087,0.5,0.2 P,0,72753,74087,A F,0,72837,74087,1,0 M,0,74327,,218,313 C,0,74327,,192,172,165 F,0,74327,74410,0,1 S,0,74327,75660,0.5,0.2 P,0,74327,75660,A F,0,74410,75660,1,0 M,0,75680,,90.87238,272.1032 C,0,75680,,200,147,148 F,0,75680,75764,0,1 S,0,75680,77014,0.5,0.2 P,0,75680,77014,A F,0,75764,77014,1,0 M,0,77014,,539.3003,202.1895 C,0,77014,,192,172,165 F,0,77014,77098,0,1 S,0,77014,78348,0.5,0.2 P,0,77014,78348,A F,0,77098,78348,1,0 M,0,78494,,250,334 C,0,78494,,200,147,148 F,0,78494,78577,0,1 S,0,78494,79827,0.3,0.2 P,0,78494,79827,A F,0,78577,79827,1,0 M,0,79837,,336.0467,169.807 C,0,79837,,192,172,165 F,0,79837,79920,0,1 S,0,79837,81170,0.5,0.2 P,0,79837,81170,A F,0,79920,81170,1,0 M,0,81180,,445.6398,253.6219 C,0,81180,,200,147,148 F,0,81180,81264,0,1 S,0,81180,82514,0.5,0.2 P,0,81180,82514,A F,0,81264,82514,1,0
Sprite,Background,Centre,"sb\pt\flare.png",0,0 M,0,71337,,361.2288,105.5905 C,0,71337,,203,171,135 F,0,71337,71420,0,1 S,0,71337,72670,0.5,0.2 P,0,71337,72670,A F,0,71420,72670,1,0 M,0,72764,,99.28242,216.0178 C,0,72764,,200,147,148 F,0,72764,72847,0,1 S,0,72764,74097,0.5,0.2 P,0,72764,74097,A F,0,72847,74097,1,0 M,0,74337,,210.0039,313.1373 C,0,74337,,192,172,165 F,0,74337,74420,0,1 S,0,74337,75670,0.5,0.2 P,0,74337,75670,A F,0,74420,75670,1,0 M,0,75691,,98.86765,272.1976 C,0,75691,,200,147,148 F,0,75691,75774,0,1 S,0,75691,77024,0.5,0.2 P,0,75691,77024,A F,0,75774,77024,1,0 M,0,77025,,542.2852,209.5789 C,0,77025,,192,172,165 F,0,77025,77108,0,1 S,0,77025,78358,0.5,0.2 P,0,77025,78358,A F,0,77108,78358,1,0 M,0,78577,,256,324 C,0,78577,,200,147,148 F,0,78577,78660,0,1 S,0,78577,79910,0.3,0.2 P,0,78577,79910,A F,0,78660,79910,1,0 M,0,79994,,359,113 C,0,79994,,203,171,135 F,0,79994,80077,0,1 S,0,79994,81327,0.3,0.2 P,0,79994,81327,A F,0,80077,81327,1,0 M,0,81410,,497,100 C,0,81410,,192,172,165 F,0,81410,81493,0,1 S,0,81410,82743,0.3,0.2 P,0,81410,82743,A F,0,81493,82743,1,0
Sprite,Background,Centre,"sb\pt\flare.png",0,0 M,0,71347,,368.5556,102.4404 C,0,71347,,203,171,135 F,0,71347,71431,0,1 S,0,71347,72681,0.5,0.2 P,0,71347,72681,A F,0,71431,72681,1,0 M,0,72774,,95.90837,208.8188 C,0,72774,,200,147,148 F,0,72774,72857,0,1 S,0,72774,74107,0.5,0.2 P,0,72774,74107,A F,0,72857,74107,1,0 M,0,74347,,202.0521,313.9888 C,0,74347,,192,172,165 F,0,74347,74431,0,1 S,0,74347,75681,0.5,0.2 P,0,74347,75681,A F,0,74431,75681,1,0 M,0,75701,,106.7936,273.2377 C,0,75701,,200,147,148 F,0,75701,75785,0,1 S,0,75701,77035,0.5,0.2 P,0,75701,77035,A F,0,75785,77035,1,0 M,0,77035,,544.6995,217.1756 C,0,77035,,192,172,165 F,0,77035,77119,0,1 S,0,77035,78369,0.5,0.2 P,0,77035,78369,A F,0,77119,78369,1,0 M,0,78660,,262,317 C,0,78660,,200,147,148 F,0,78660,78743,0,1 S,0,78660,79993,0.3,0.2 P,0,78660,79993,A F,0,78743,79993,1,0 M,0,80077,,342,108 C,0,80077,,203,171,135 F,0,80077,80160,0,1 S,0,80077,81410,0.3,0.2 P,0,80077,81410,A F,0,80160,81410,1,0 M,0,81494,,497,100 C,0,81494,,192,172,165 F,0,81494,81577,0,1 S,0,81494,82827,0.3,0.2 P,0,81494,82827,A F,0,81577,82827,1,0
Sprite,Background,Centre,"sb\pt\flare.png",0,0 M,0,71358,,376.0932,99.8342 C,0,71358,,203,171,135 F,0,71358,71441,0,1 S,0,71358,72691,0.5,0.2 P,0,71358,72691,A F,0,71441,72691,1,0 M,0,72785,,93.31633,201.3025 C,0,72785,,200,147,148 F,0,72785,72868,0,1 S,0,72785,74118,0.5,0.2 P,0,72785,74118,A F,0,72868,74118,1,0 M,0,74358,,194.2055,315.5344 C,0,74358,,192,172,165 F,0,74358,74441,0,1 S,0,74358,75691,0.5,0.2 P,0,74358,75691,A F,0,74441,75691,1,0 M,0,75712,,114.4853,275.4064 C,0,75712,,200,147,148 F,0,75712,75795,0,1 S,0,75712,77045,0.5,0.2 P,0,75712,77045,A F,0,75795,77045,1,0 M,0,77046,,546.5288,224.9361 C,0,77046,,192,172,165 F,0,77046,77129,0,1 S,0,77046,78379,0.5,0.2 P,0,77046,78379,A F,0,77129,78379,1,0 M,0,78660,,262,317 C,0,78660,,200,147,148 F,0,78660,78743,0,1 S,0,78660,79993,0.5,0.2 P,0,78660,79993,A F,0,78743,79993,1,0 M,0,80160,,324,109 C,0,80160,,203,171,135 F,0,80160,80243,0,1 S,0,80160,81493,0.3,0.2 P,0,80160,81493,A F,0,80243,81493,1,0
Sprite,Background,Centre,"sb\pt\flare.png",0,0 M,0,71368,,383.8011,97.78583 C,0,71368,,203,171,135 F,0,71368,71452,0,1 S,0,71368,72702,0.5,0.2 P,0,71368,72702,A F,0,71452,72702,1,0 M,0,72795,,91.53553,193.5536 C,0,72795,,200,147,148 F,0,72795,72878,0,1 S,0,72795,74128,0.5,0.2 P,0,72795,74128,A F,0,72878,74128,1,0 M,0,74368,,186.5166,317.7351 C,0,74368,,192,172,165 F,0,74368,74452,0,1 S,0,74368,75702,0.5,0.2 P,0,74368,75702,A F,0,74452,75702,1,0 M,0,75722,,121.7604,278.7133 C,0,75722,,200,147,148 F,0,75722,75805,0,1 S,0,75722,77055,0.5,0.2 P,0,75722,77055,A F,0,75805,77055,1,0 M,0,77056,,547.7625,232.8157 C,0,77056,,192,172,165 F,0,77056,77139,0,1 S,0,77056,78389,0.5,0.2 P,0,77056,78389,A F,0,77139,78389,1,0 M,0,78670,,259.8449,312.4968 C,0,78670,,200,147,148 F,0,78670,78753,0,1 S,0,78670,80003,0.5,0.2 P,0,78670,80003,A F,0,78753,80003,1,0 M,0,80244,,309,118 C,0,80244,,203,171,135 F,0,80244,80327,0,1 S,0,80244,81577,0.3,0.2 P,0,80244,81577,A F,0,80327,81577,1,0
Sprite,Background,Centre,"sb\pt\flare.png",0,0 M,0,71379,,391.6383,96.30627 C,0,71379,,203,171,135 F,0,71379,71462,0,1 S,0,71379,72712,0.5,0.2 P,0,71379,72712,A F,0,71462,72712,1,0 M,0,72805,,90.5861,185.6593 C,0,72805,,200,147,148 F,0,72805,72889,0,1 S,0,72805,74139,0.5,0.2 P,0,72805,74139,A F,0,72889,74139,1,0 M,0,74379,,179.0258,320.5378 C,0,74379,,192,172,165 F,0,74379,74462,0,1 S,0,74379,75712,0.5,0.2 P,0,74379,75712,A F,0,74462,75712,1,0 M,0,75732,,128.5274,282.9706 C,0,75732,,200,147,148 F,0,75732,75816,0,1 S,0,75732,77066,0.5,0.2 P,0,75732,77066,A F,0,75816,77066,1,0 M,0,77066,,548.3928,240.7695 C,0,77066,,192,172,165 F,0,77066,77150,0,1 S,0,77066,78400,0.5,0.2 P,0,77066,78400,A F,0,77150,78400,1,0 M,0,78680,,257.9688,307.8661 C,0,78680,,200,147,148 F,0,78680,78764,0,1 S,0,78680,80014,0.5,0.2 P,0,78680,80014,A F,0,78764,80014,1,0 M,0,80327,,297,132 C,0,80327,,203,171,135 F,0,80327,80410,0,1 S,0,80327,81660,0.3,0.2 P,0,80327,81660,A F,0,80410,81660,1,0
Sprite,Background,Centre,"sb\pt\flare.png",0,0 M,0,71389,,399.5628,95.40347 C,0,71389,,203,171,135 F,0,71389,71472,0,1 S,0,71389,72722,0.5,0.2 P,0,71389,72722,A F,0,71472,72722,1,0 M,0,72816,,90.47878,177.7086 C,0,72816,,200,147,148 F,0,72816,72899,0,1 S,0,72816,74149,0.5,0.2 P,0,72816,74149,A F,0,72899,74149,1,0 M,0,74389,,171.7612,323.8841 C,0,74389,,192,172,165 F,0,74389,74472,0,1 S,0,74389,75722,0.5,0.2 P,0,74389,75722,A F,0,74472,75722,1,0 M,0,75743,,134.8836,287.8261 C,0,75743,,200,147,148 F,0,75743,75826,0,1 S,0,75743,77076,0.5,0.2 P,0,75743,77076,A F,0,75826,77076,1,0 M,0,77160,,537,325 C,0,77160,,192,172,165 F,0,77160,77243,0,1 S,0,77160,78493,0.3,0.2 P,0,77160,78493,A F,0,77243,78493,1,0 M,0,78691,,255.3926,303.5898 C,0,78691,,200,147,148 F,0,78691,78774,0,1 S,0,78691,80024,0.5,0.2 P,0,78691,80024,A F,0,78774,80024,1,0 M,0,80930,,350.1826,360.7762 C,0,80930,,200,147,148 F,0,80930,81014,0,1 S,0,80930,82264,0.5,0.2 P,0,80930,82264,A F,0,81014,82264,1,0
Sprite,Background,Centre,"sb\pt\flare.png",0,0 M,0,71399,,407.5323,95.08226 C,0,71399,,203,171,135 F,0,71399,71483,0,1 S,0,71399,72733,0.5,0.2 P,0,71399,72733,A F,0,71483,72733,1,0 M,0,72910,,97,158 C,0,72910,,200,147,148 F,0,72910,72993,0,1 S,0,72910,74243,0.3,0.2 P,0,72910,74243,A F,0,72993,74243,1,0 M,0,74399,,164.7375,327.7109 C,0,74399,,192,172,165 F,0,74399,74483,0,1 S,0,74399,75733,0.5,0.2 P,0,74399,75733,A F,0,74483,75733,1,0 M,0,75753,,141.0773,292.8894 C,0,75753,,200,147,148 F,0,75753,75837,0,1 S,0,75753,77087,0.5,0.2 P,0,75753,77087,A F,0,75837,77087,1,0 M,0,77327,,349,324 C,0,77327,,203,171,135 F,0,77327,77410,0,1 S,0,77327,78660,0.3,0.2 P,0,77327,78660,A F,0,77410,78660,1,0 M,0,78701,,252.9865,299.2239 C,0,78701,,200,147,148 F,0,78701,78785,0,1 S,0,78701,80035,0.5,0.2 P,0,78701,80035,A F,0,78785,80035,1,0 M,0,80941,,357.4463,362.542 C,0,80941,,200,147,148 F,0,80941,81024,0,1 S,0,80941,82274,0.5,0.2 P,0,80941,82274,A F,0,81024,82274,1,0
Sprite,Background,Centre,"sb\pt\flare.png",0,0 M,0,71410,,415.5041,95.34438 C,0,71410,,203,171,135 F,0,71410,71493,0,1 S,0,71410,72743,0.5,0.2 P,0,71410,72743,A F,0,71493,72743,1,0 M,0,72994,,105,147 C,0,72994,,200,147,148 F,0,72994,73077,0,1 S,0,72994,74327,0.3,0.2 P,0,72994,74327,A F,0,73077,74327,1,0 M,0,74410,,157.9609,331.9604 C,0,74410,,192,172,165 F,0,74410,74493,0,1 S,0,74410,75743,0.5,0.2 P,0,74410,75743,A F,0,74493,75743,1,0 M,0,75764,,147.3949,297.7957 C,0,75764,,200,147,148 F,0,75764,75847,0,1 S,0,75764,77097,0.5,0.2 P,0,75764,77097,A F,0,75847,77097,1,0 M,0,77410,,366,303 C,0,77410,,203,171,135 F,0,77410,77493,0,1 S,0,77410,78743,0.3,0.2 P,0,77410,78743,A F,0,77493,78743,1,0 M,0,78743,,240.4104,283.7982 C,0,78743,,200,147,148 F,0,78743,78826,0,1 S,0,78743,80076,0.5,0.2 P,0,78743,80076,A F,0,78826,80076,1,0 M,0,80951,,364.8187,363.7831 C,0,80951,,200,147,148 F,0,80951,81035,0,1 S,0,80951,82285,0.5,0.2 P,0,80951,82285,A F,0,81035,82285,1,0
Sprite,Background,Centre,"sb\pt\flare.png",0,0 M,0,71420,,423.4357,96.18846 C,0,71420,,203,171,135 F,0,71420,71504,0,1 S,0,71420,72754,0.5,0.2 P,0,71420,72754,A F,0,71504,72754,1,0 M,0,72994,,105,147 C,0,72994,,200,147,148 F,0,72994,73077,0,1 S,0,72994,74327,0.5,0.2 P,0,72994,74327,A F,0,73077,74327,1,0 M,0,74420,,151.429,336.5777 C,0,74420,,192,172,165 F,0,74420,74504,0,1 S,0,74420,75754,0.5,0.2 P,0,74420,75754,A F,0,74504,75754,1,0 M,0,75774,,154.0599,302.2142 C,0,75774,,200,147,148 F,0,75774,75857,0,1 S,0,75774,77107,0.5,0.2 P,0,75774,77107,A F,0,75857,77107,1,0 M,0,77494,,390,294 C,0,77494,,203,171,135 F,0,77494,77577,0,1 S,0,77494,78827,0.3,0.2 P,0,77494,78827,A F,0,77577,78827,1,0 M,0,78837,,259.8449,312.4968 C,0,78837,,200,147,148 F,0,78837,78920,0,1 S,0,78837,80170,0.5,0.2 P,0,78837,80170,A F,0,78920,80170,1,0 M,0,80962,,372.2624,364.4929 C,0,80962,,200,147,148 F,0,80962,81045,0,1 S,0,80962,82295,0.5,0.2 P,0,80962,82295,A F,0,81045,82295,1,0
Sprite,Background,Centre,"sb\pt\flare.png",0,0 M,0,71431,,431.2846,97.61005 C,0,71431,,203,171,135 F,0,71431,71514,0,1 S,0,71431,72764,0.5,0.2 P,0,71431,72764,A F,0,71514,72764,1,0 M,0,73004,,112.9872,147.1785 C,0,73004,,200,147,148 F,0,73004,73087,0,1 S,0,73004,74337,0.5,0.2 P,0,73004,74337,A F,0,73087,74337,1,0 M,0,74431,,147.2664,337.6124 C,0,74431,,192,172,165 F,0,74431,74514,0,1 S,0,74431,75764,0.5,0.2 P,0,74431,75764,A F,0,74514,75764,1,0 M,0,75785,,161.1628,305.8831 C,0,75785,,200,147,148 F,0,75785,75868,0,1 S,0,75785,77118,0.5,0.2 P,0,75785,77118,A F,0,75868,77118,1,0 M,0,77577,,416,298 C,0,77577,,203,171,135 F,0,77577,77660,0,1 S,0,77577,78910,0.3,0.2 P,0,77577,78910,A F,0,77660,78910,1,0 M,0,78994,,169,309 C,0,78994,,192,172,165 F,0,78994,79077,0,1 S,0,78994,80327,0.3,0.2 P,0,78994,80327,A F,0,79077,80327,1,0 M,0,80972,,379.7394,364.6677 C,0,80972,,200,147,148 F,0,80972,81055,0,1 S,0,80972,82305,0.5,0.2 P,0,80972,82305,A F,0,81055,82305,1,0
Sprite,Background,Centre,"sb\pt\flare.png",0,0 M,0,71441,,439.0089,99.60156 C,0,71441,,203,171,135 F,0,71441,71524,0,1 S,0,71441,72774,0.5,0.2 P,0,71441,72774,A F,0,71524,72774,1,0 M,0,73014,,120.9498,146.9983 C,0,73014,,200,147,148 F,0,73014,73098,0,1 S,0,73014,74348,0.5,0.2 P,0,73014,74348,A F,0,73098,74348,1,0 M,0,74441,,148.7705,329.7607 C,0,74441,,192,172,165 F,0,74441,74524,0,1 S,0,74441,75774,0.5,0.2 P,0,74441,75774,A F,0,74524,75774,1,0 M,0,75795,,168.6647,308.645 C,0,75795,,200,147,148 F,0,75795,75878,0,1 S,0,75795,77128,0.5,0.2 P,0,75795,77128,A F,0,75878,77128,1,0 M,0,77660,,437,313 C,0,77660,,203,171,135 F,0,77660,77743,0,1 S,0,77660,78993,0.3,0.2 P,0,77660,78993,A F,0,77743,78993,1,0 M,0,78994,,169,309 C,0,78994,,192,172,165 F,0,78994,79077,0,1 S,0,78994,80327,0.5,0.2 P,0,78994,80327,A F,0,79077,80327,1,0 M,0,80982,,387.2116,364.3063 C,0,80982,,200,147,148 F,0,80982,81066,0,1 S,0,80982,82316,0.5,0.2 P,0,80982,82316,A F,0,81066,82316,1,0
Sprite,Background,Centre,"sb\pt\flare.png",0,0 M,0,71452,,446.5673,102.1524 C,0,71452,,203,171,135 F,0,71452,71535,0,1 S,0,71452,72785,0.5,0.2 P,0,71452,72785,A F,0,71535,72785,1,0 M,0,73025,,128.864,146.1019 C,0,73025,,200,147,148 F,0,73025,73108,0,1 S,0,73025,74358,0.5,0.2 P,0,73025,74358,A F,0,73108,74358,1,0 M,0,74452,,151.3283,322.1883 C,0,74452,,192,172,165 F,0,74452,74535,0,1 S,0,74452,75785,0.5,0.2 P,0,74452,75785,A F,0,74535,75785,1,0 M,0,75805,,176.4421,310.499 C,0,75805,,200,147,148 F,0,75805,75889,0,1 S,0,75805,77139,0.5,0.2 P,0,75805,77139,A F,0,75889,77139,1,0 M,0,77660,,437,313 C,0,77660,,203,171,135 F,0,77660,77743,0,1 S,0,77660,78993,0.5,0.2 P,0,77660,78993,A F,0,77743,78993,1,0 M,0,79004,,162.9214,313.3916 C,0,79004,,192,172,165 F,0,79004,79087,0,1 S,0,79004,80337,0.5,0.2 P,0,79004,80337,A F,0,79087,80337,1,0 M,0,81014,,409.2197,360.0333 C,0,81014,,200,147,148 F,0,81014,81097,0,1 S,0,81014,82347,0.5,0.2 P,0,81014,82347,A F,0,81097,82347,1,0
Sprite,Background,Centre,"sb\pt\flare.png",0,0 M,0,71462,,453.9194,105.249 C,0,71462,,203,171,135 F,0,71462,71545,0,1 S,0,71462,72795,0.5,0.2 P,0,71462,72795,A F,0,71545,72795,1,0 M,0,73035,,136.6652,144.4966 C,0,73035,,200,147,148 F,0,73035,73119,0,1 S,0,73035,74369,0.5,0.2 P,0,73035,74369,A F,0,73119,74369,1,0 M,0,74462,,155.0109,315.0959 C,0,74462,,192,172,165 F,0,74462,74545,0,1 S,0,74462,75795,0.5,0.2 P,0,74462,75795,A F,0,74545,75795,1,0 M,0,75816,,184.3754,311.5016 C,0,75816,,200,147,148 F,0,75816,75899,0,1 S,0,75816,77149,0.5,0.2 P,0,75816,77149,A F,0,75899,77149,1,0 M,0,77670,,437.0463,315.9989 C,0,77670,,203,171,135 F,0,77670,77753,0,1 S,0,77670,79003,0.5,0.2 P,0,77670,79003,A F,0,77753,79003,1,0 M,0,79014,,157.1181,318.1405 C,0,79014,,192,172,165 F,0,79014,79098,0,1 S,0,79014,80348,0.5,0.2 P,0,79014,80348,A F,0,79098,80348,1,0 M,0,81024,,416.2946,357.5689 C,0,81024,,200,147,148 F,0,81024,81107,0,1 S,0,81024,82357,0.5,0.2 P,0,81024,82357,A F,0,81107,82357,1,0
Sprite,Background,Centre,"sb\pt\flare.png",0,0 M,0,71472,,461.0258,108.8749 C,0,71472,,203,171,135 F,0,71472,71556,0,1 S,0,71472,72806,0.5,0.2 P,0,71472,72806,A F,0,71556,72806,1,0 M,0,73046,,144.2903,142.1956 C,0,73046,,200,147,148 F,0,73046,73129,0,1 S,0,73046,74379,0.5,0.2 P,0,73046,74379,A F,0,73129,74379,1,0 M,0,74472,,159.7823,308.6857 C,0,74472,,192,172,165 F,0,74472,74556,0,1 S,0,74472,75806,0.5,0.2 P,0,74472,75806,A F,0,74556,75806,1,0 M,0,75994,,336,190 C,0,75994,,200,147,148 F,0,75994,76077,0,1 S,0,75994,77327,0.3,0.2 P,0,75994,77327,A F,0,76077,77327,1,0 M,0,77680,,437.0926,318.9978 C,0,77680,,203,171,135 F,0,77680,77764,0,1 S,0,77680,79014,0.5,0.2 P,0,77680,79014,A F,0,77764,79014,1,0 M,0,79025,,151.6606,323.2823 C,0,79025,,192,172,165 F,0,79025,79108,0,1 S,0,79025,80358,0.5,0.2 P,0,79025,80358,A F,0,79108,80358,1,0 M,0,81035,,423.1779,354.6023 C,0,81035,,200,147,148 F,0,81035,81118,0,1 S,0,81035,82368,0.5,0.2 P,0,81035,82368,A F,0,81118,82368,1,0
Sprite,Background,Centre,"sb\pt\flare.png",0,0 M,0,71483,,467.8486,113.0106 C,0,71483,,203,171,135 F,0,71483,71566,0,1 S,0,71483,72816,0.5,0.2 P,0,71483,72816,A F,0,71566,72816,1,0 M,0,73056,,151.6772,139.2173 C,0,73056,,200,147,148 F,0,73056,73139,0,1 S,0,73056,74389,0.5,0.2 P,0,73056,74389,A F,0,73139,74389,1,0 M,0,74483,,165.4981,303.0996 C,0,74483,,192,172,165 F,0,74483,74566,0,1 S,0,74483,75816,0.5,0.2 P,0,74483,75816,A F,0,74566,75816,1,0 M,0,76077,,331,202 C,0,76077,,200,147,148 F,0,76077,76160,0,1 S,0,76077,77410,0.3,0.2 P,0,76077,77410,A F,0,76160,77410,1,0 M,0,77691,,437.2652,321.9942 C,0,77691,,203,171,135 F,0,77691,77774,0,1 S,0,77691,79024,0.5,0.2 P,0,77691,79024,A F,0,77774,79024,1,0 M,0,79160,,86.69202,290.58 C,0,79160,,192,172,165 F,0,79160,79244,0,1 S,0,79160,80494,0.5,0.2 P,0,79160,80494,A F,0,79244,80494,1,0 M,0,81045,,429.6755,350.8717 C,0,81045,,200,147,148 F,0,81045,81128,0,1 S,0,81045,82378,0.5,0.2 P,0,81045,82378,A F,0,81128,82378,1,0
Sprite,Background,Centre,"sb\pt\flare.png",0,0 M,0,71577,,481,128 C,0,71577,,203,171,135 F,0,71577,71660,0,1 S,0,71577,72910,0.3,0.2 P,0,71577,72910,A F,0,71660,72910,1,0 M,0,73066,,158.7661,135.5862 C,0,73066,,200,147,148 F,0,73066,73150,0,1 S,0,73066,74400,0.5,0.2 P,0,73066,74400,A F,0,73150,74400,1,0 M,0,74660,,333,257 C,0,74660,,192,172,165 F,0,74660,74743,0,1 S,0,74660,75993,0.3,0.2 P,0,74660,75993,A F,0,74743,75993,1,0 M,0,76160,,327,214 C,0,76160,,200,147,148 F,0,76160,76243,0,1 S,0,76160,77493,0.3,0.2 P,0,76160,77493,A F,0,76243,77493,1,0 M,0,77920,,451.9876,431.4214 C,0,77920,,200,147,148 F,0,77920,78003,0,1 S,0,77920,79253,0.5,0.2 P,0,77920,79253,A F,0,78003,79253,1,0 M,0,79420,,157.1773,124.6989 C,0,79420,,192,172,165 F,0,79420,79504,0,1 S,0,79420,80754,0.5,0.2 P,0,79420,80754,A F,0,79504,80754,1,0 M,0,81055,,436.0204,346.9213 C,0,81055,,200,147,148 F,0,81055,81139,0,1 S,0,81055,82389,0.5,0.2 P,0,81055,82389,A F,0,81139,82389,1,0
Sprite,Background,Centre,"sb\pt\flare.png",0,0 M,0,71661,,487,139 C,0,71661,,203,171,135 F,0,71661,71744,0,1 S,0,71661,72994,0.3,0.2 P,0,71661,72994,A F,0,71744,72994,1,0 M,0,73160,,228,63 C,0,73160,,200,147,148 F,0,73160,73243,0,1 S,0,73160,74493,0.3,0.2 P,0,73160,74493,A F,0,73243,74493,1,0 M,0,74660,,333,257 C,0,74660,,192,172,165 F,0,74660,74743,0,1 S,0,74660,75993,0.5,0.2 P,0,74660,75993,A F,0,74743,75993,1,0 M,0,76244,,325,226 C,0,76244,,200,147,148 F,0,76244,76327,0,1 S,0,76244,77577,0.3,0.2 P,0,76244,77577,A F,0,76327,77577,1,0 M,0,77930,,446.7891,426.0161 C,0,77930,,200,147,148 F,0,77930,78014,0,1 S,0,77930,79264,0.5,0.2 P,0,77930,79264,A F,0,78014,79264,1,0 M,0,79431,,164.5832,123.5219 C,0,79431,,192,172,165 F,0,79431,79514,0,1 S,0,79431,80764,0.5,0.2 P,0,79431,80764,A F,0,79514,80764,1,0 M,0,81066,,442.0663,342.5262 C,0,81066,,200,147,148 F,0,81066,81149,0,1 S,0,81066,82399,0.5,0.2 P,0,81066,82399,A F,0,81149,82399,1,0
Sprite,Background,Centre,"sb\pt\flare.png",0,0 M,0,71661,,487,139 C,0,71661,,203,171,135 F,0,71661,71744,0,1 S,0,71661,72994,0.5,0.2 P,0,71661,72994,A F,0,71744,72994,1,0 M,0,73327,,333,164 C,0,73327,,200,147,148 F,0,73327,73410,0,1 S,0,73327,74660,0.3,0.2 P,0,73327,74660,A F,0,73410,74660,1,0 M,0,74670,,340.9961,257.1373 C,0,74670,,192,172,165 F,0,74670,74753,0,1 S,0,74670,76003,0.5,0.2 P,0,74670,76003,A F,0,74753,76003,1,0 M,0,76327,,324,238 C,0,76327,,192,172,165 F,0,76327,76410,0,1 S,0,76327,77660,0.3,0.2 P,0,76327,77660,A F,0,76410,77660,1,0 M,0,77941,,441.3709,420.8312 C,0,77941,,200,147,148 F,0,77941,78024,0,1 S,0,77941,79274,0.5,0.2 P,0,77941,79274,A F,0,78024,79274,1,0 M,0,79441,,172.0715,123.3177 C,0,79441,,192,172,165 F,0,79441,79524,0,1 S,0,79441,80774,0.5,0.2 P,0,79441,80774,A F,0,79524,80774,1,0 M,0,81160,,458,262 C,0,81160,,200,147,148 F,0,81160,81243,0,1 S,0,81160,82493,0.5,0.2 P,0,81160,82493,A F,0,81243,82493,1,0
Sprite,Background,Centre,"sb\pt\flare.png",0,0 M,0,71671,,480.6078,143.7996 C,0,71671,,203,171,135 F,0,71671,71754,0,1 S,0,71671,73004,0.5,0.2 P,0,71671,73004,A F,0,71754,73004,1,0 M,0,73327,,333,164 C,0,73327,,200,147,148 F,0,73327,73410,0,1 S,0,73327,74660,0.5,0.2 P,0,73327,74660,A F,0,73410,74660,1,0 M,0,74680,,348.9479,257.9888 C,0,74680,,192,172,165 F,0,74680,74764,0,1 S,0,74680,76014,0.5,0.2 P,0,74680,76014,A F,0,74764,76014,1,0 M,0,76327,,324,238 C,0,76327,,192,172,165 F,0,76327,76410,0,1 S,0,76327,77660,0.5,0.2 P,0,76327,77660,A F,0,76410,77660,1,0 M,0,77951,,435.7255,415.8951 C,0,77951,,200,147,148 F,0,77951,78035,0,1 S,0,77951,79285,0.5,0.2 P,0,77951,79285,A F,0,78035,79285,1,0 M,0,79452,,179.5419,123.3297 C,0,79452,,192,172,165 F,0,79452,79535,0,1 S,0,79452,80785,0.5,0.2 P,0,79452,80785,A F,0,79535,80785,1,0 M,0,81170,,451.7469,257.8868 C,0,81170,,200,147,148 F,0,81170,81253,0,1 S,0,81170,82503,0.5,0.2 P,0,81170,82503,A F,0,81253,82503,1,0
Sprite,Background,Centre,"sb\pt\flare.png",0,0 M,0,71681,,474.3767,148.7826 C,0,71681,,203,171,135 F,0,71681,71765,0,1 S,0,71681,73015,0.5,0.2 P,0,71681,73015,A F,0,71765,73015,1,0 M,0,73337,,328.1026,170.3214 C,0,73337,,200,147,148 F,0,73337,73420,0,1 S,0,73337,74670,0.5,0.2 P,0,73337,74670,A F,0,73420,74670,1,0 M,0,74691,,356.7945,259.5344 C,0,74691,,192,172,165 F,0,74691,74774,0,1 S,0,74691,76024,0.5,0.2 P,0,74691,76024,A F,0,74774,76024,1,0 M,0,76337,,330.6487,242.4472 C,0,76337,,192,172,165 F,0,76337,76420,0,1 S,0,76337,77670,0.5,0.2 P,0,76337,77670,A F,0,76420,77670,1,0 M,0,77962,,429.8184,411.276 C,0,77962,,200,147,148 F,0,77962,78045,0,1 S,0,77962,79295,0.5,0.2 P,0,77962,79295,A F,0,78045,79295,1,0 M,0,79462,,186.9916,123.9013 C,0,79462,,192,172,165 F,0,79462,79545,0,1 S,0,79462,80795,0.5,0.2 P,0,79462,80795,A F,0,79545,80795,1,0 M,0,81191,,439.9494,248.807 C,0,81191,,200,147,148 F,0,81191,81274,0,1 S,0,81191,82524,0.5,0.2 P,0,81191,82524,A F,0,81274,82524,1,0
Sprite,Background,Centre,"sb\pt\flare.png",0,0 M,0,71692,,468.4928,154.1712 C,0,71692,,203,171,135 F,0,71692,71775,0,1 S,0,71692,73025,0.5,0.2 P,0,71692,73025,A F,0,71775,73025,1,0 M,0,73347,,323.3448,176.7385 C,0,73347,,200,147,148 F,0,73347,73431,0,1 S,0,73347,74681,0.5,0.2 P,0,73347,74681,A F,0,73431,74681,1,0 M,0,74701,,364.4834,261.7351 C,0,74701,,192,172,165 F,0,74701,74785,0,1 S,0,74701,76035,0.5,0.2 P,0,74701,76035,A F,0,74785,76035,1,0 M,0,76347,,337.5446,246.5001 C,0,76347,,192,172,165 F,0,76347,76431,0,1 S,0,76347,77681,0.5,0.2 P,0,76347,77681,A F,0,76431,77681,1,0 M,0,77972,,423.6382,407.0301 C,0,77972,,200,147,148 F,0,77972,78055,0,1 S,0,77972,79305,0.5,0.2 P,0,77972,79305,A F,0,78055,79305,1,0 M,0,79472,,194.3795,125.0296 C,0,79472,,192,172,165 F,0,79472,79556,0,1 S,0,79472,80806,0.5,0.2 P,0,79472,80806,A F,0,79556,80806,1,0 M,0,81201,,434.7236,243.4809 C,0,81201,,200,147,148 F,0,81201,81285,0,1 S,0,81201,82535,0.5,0.2 P,0,81201,82535,A F,0,81285,82535,1,0
Sprite,Background,Centre,"sb\pt\flare.png",0,0 M,0,71702,,462.9823,159.9416 C,0,71702,,203,171,135 F,0,71702,71786,0,1 S,0,71702,73036,0.5,0.2 P,0,71702,73036,A F,0,71786,73036,1,0 M,0,73358,,318.9011,183.3772 C,0,73358,,200,147,148 F,0,73358,73441,0,1 S,0,73358,74691,0.5,0.2 P,0,73358,74691,A F,0,73441,74691,1,0 M,0,74712,,371.9742,264.5378 C,0,74712,,192,172,165 F,0,74712,74795,0,1 S,0,74712,76045,0.5,0.2 P,0,74712,76045,A F,0,74795,76045,1,0 M,0,76504,,452.1365,242.8615 C,0,76504,,192,172,165 F,0,76504,76587,0,1 S,0,76504,77837,0.5,0.2 P,0,76504,77837,A F,0,76587,77837,1,0 M,0,77982,,417.1713,403.2359 C,0,77982,,200,147,148 F,0,77982,78066,0,1 S,0,77982,79316,0.5,0.2 P,0,77982,79316,A F,0,78066,79316,1,0 M,0,79483,,201.6645,126.7086 C,0,79483,,192,172,165 F,0,79483,79566,0,1 S,0,79483,80816,0.5,0.2 P,0,79483,80816,A F,0,79566,80816,1,0 M,0,81212,,430.0069,237.686 C,0,81212,,200,147,148 F,0,81212,81295,0,1 S,0,81212,82545,0.5,0.2 P,0,81212,82545,A F,0,81295,82545,1,0
Sprite,Background,Centre,"sb\pt\flare.png",0,0 M,0,71713,,457.87,166.0678 C,0,71713,,203,171,135 F,0,71713,71796,0,1 S,0,71713,73046,0.5,0.2 P,0,71713,73046,A F,0,71796,73046,1,0 M,0,73368,,314.782,190.2222 C,0,73368,,200,147,148 F,0,73368,73452,0,1 S,0,73368,74702,0.5,0.2 P,0,73368,74702,A F,0,73452,74702,1,0 M,0,74722,,379.2388,267.8841 C,0,74722,,192,172,165 F,0,74722,74805,0,1 S,0,74722,76055,0.5,0.2 P,0,74722,76055,A F,0,74805,76055,1,0 M,0,76514,,458.8866,238.9492 C,0,76514,,192,172,165 F,0,76514,76597,0,1 S,0,76514,77847,0.5,0.2 P,0,76514,77847,A F,0,76597,77847,1,0 M,0,78003,,403.3914,397.3645 C,0,78003,,200,147,148 F,0,78003,78087,0,1 S,0,78003,79337,0.5,0.2 P,0,78003,79337,A F,0,78087,79337,1,0 M,0,79670,,228.6794,151.8448 C,0,79670,,192,172,165 F,0,79670,79753,0,1 S,0,79670,81003,0.5,0.2 P,0,79670,81003,A F,0,79753,81003,1,0 M,0,81222,,425.8401,231.4686 C,0,81222,,200,147,148 F,0,81222,81305,0,1 S,0,81222,82555,0.5,0.2 P,0,81222,82555,A F,0,81305,82555,1,0
Sprite,Background,Centre,"sb\pt\flare.png",0,0 M,0,71723,,453.1787,172.5226 C,0,71723,,203,171,135 F,0,71723,71806,0,1 S,0,71723,73056,0.5,0.2 P,0,71723,73056,A F,0,71806,73056,1,0 M,0,73379,,310.9967,197.2576 C,0,73379,,200,147,148 F,0,73379,73462,0,1 S,0,73379,74712,0.5,0.2 P,0,73379,74712,A F,0,73462,74712,1,0 M,0,74732,,386.2625,271.7109 C,0,74732,,192,172,165 F,0,74732,74816,0,1 S,0,74732,76066,0.5,0.2 P,0,74732,76066,A F,0,74816,76066,1,0 M,0,76524,,451.718,235.4029 C,0,76524,,192,172,165 F,0,76524,76608,0,1 S,0,76524,77858,0.5,0.2 P,0,76524,77858,A F,0,76608,77858,1,0 M,0,78087,,344.1455,398.5235 C,0,78087,,200,147,148 F,0,78087,78170,0,1 S,0,78087,79420,0.5,0.2 P,0,78087,79420,A F,0,78170,79420,1,0 M,0,79680,,233.5465,157.4948 C,0,79680,,192,172,165 F,0,79680,79764,0,1 S,0,79680,81014,0.5,0.2 P,0,79680,81014,A F,0,79764,81014,1,0 M,0,81232,,422.2603,224.8783 C,0,81232,,200,147,148 F,0,81232,81316,0,1 S,0,81232,82566,0.5,0.2 P,0,81232,82566,A F,0,81316,82566,1,0
Sprite,Background,Centre,"sb\pt\flare.png",0,0 M,0,71733,,448.9294,179.277 C,0,71733,,203,171,135 F,0,71733,71817,0,1 S,0,71733,73067,0.5,0.2 P,0,71733,73067,A F,0,71817,73067,1,0 M,0,73389,,307.5542,204.4674 C,0,73389,,200,147,148 F,0,73389,73472,0,1 S,0,73389,74722,0.5,0.2 P,0,73389,74722,A F,0,73472,74722,1,0 M,0,74743,,393.0391,275.9604 C,0,74743,,192,172,165 F,0,74743,74826,0,1 S,0,74743,76076,0.5,0.2 P,0,74743,76076,A F,0,74826,76076,1,0 M,0,76535,,444.8514,231.3019 C,0,76535,,192,172,165 F,0,76535,76618,0,1 S,0,76535,77868,0.5,0.2 P,0,76535,77868,A F,0,76618,77868,1,0 M,0,78097,,336.7803,399.9386 C,0,78097,,200,147,148 F,0,78097,78180,0,1 S,0,78097,79430,0.5,0.2 P,0,78097,79430,A F,0,78180,79430,1,0 M,0,79691,,238.9108,162.6771 C,0,79691,,192,172,165 F,0,79691,79774,0,1 S,0,79691,81024,0.5,0.2 P,0,79691,81024,A F,0,79774,81024,1,0 M,0,81327,,497,100 C,0,81327,,192,172,165 F,0,81327,81410,0,1 S,0,81327,82660,0.3,0.2 P,0,81327,82660,A F,0,81410,82660,1,0
Sprite,Background,Centre,"sb\pt\flare.png",0,0 M,0,71744,,445.1413,186.301 C,0,71744,,203,171,135 F,0,71744,71827,0,1 S,0,71744,73077,0.5,0.2 P,0,71744,73077,A F,0,71827,73077,1,0 M,0,73399,,304.4625,211.8348 C,0,73399,,200,147,148 F,0,73399,73483,0,1 S,0,73399,74733,0.5,0.2 P,0,73399,74733,A F,0,73483,74733,1,0 M,0,74753,,399.571,280.5777 C,0,74753,,192,172,165 F,0,74753,74837,0,1 S,0,74753,76087,0.5,0.2 P,0,74753,76087,A F,0,74837,76087,1,0 M,0,76545,,438.3191,226.6869 C,0,76545,,192,172,165 F,0,76545,76629,0,1 S,0,76545,77879,0.5,0.2 P,0,76545,77879,A F,0,76629,77879,1,0 M,0,78107,,329.3839,401.1788 C,0,78107,,200,147,148 F,0,78107,78191,0,1 S,0,78107,79441,0.5,0.2 P,0,78107,79441,A F,0,78191,79441,1,0 M,0,79701,,244.7281,167.3485 C,0,79701,,192,172,165 F,0,79701,79785,0,1 S,0,79701,81035,0.5,0.2 P,0,79701,81035,A F,0,79785,81035,1,0
Sprite,Background,Centre,"sb\pt\flare.png",0,0 M,0,71754,,441.8312,193.5632 C,0,71754,,203,171,135 F,0,71754,71838,0,1 S,0,71754,73088,0.5,0.2 P,0,71754,73088,A F,0,71838,73088,1,0 M,0,73410,,301.7285,219.3428 C,0,73410,,200,147,148 F,0,73410,73493,0,1 S,0,73410,74743,0.5,0.2 P,0,73410,74743,A F,0,73493,74743,1,0 M,0,74764,,403.7247,281.6135 C,0,74764,,192,172,165 F,0,74764,74847,0,1 S,0,74764,76097,0.5,0.2 P,0,74764,76097,A F,0,74847,76097,1,0 M,0,76556,,432.1423,221.6056 C,0,76556,,192,172,165 F,0,76556,76639,0,1 S,0,76556,77889,0.5,0.2 P,0,76556,77889,A F,0,76639,77889,1,0 M,0,78118,,321.9421,402.1038 C,0,78118,,200,147,148 F,0,78118,78201,0,1 S,0,78118,79451,0.5,0.2 P,0,78118,79451,A F,0,78201,79451,1,0 M,0,79712,,250.9507,171.4701 C,0,79712,,192,172,165 F,0,79712,79795,0,1 S,0,79712,81045,0.5,0.2 P,0,79712,81045,A F,0,79795,81045,1,0
Sprite,Background,Centre,"sb\pt\flare.png",0,0 M,0,71765,,439.0142,201.0311 C,0,71765,,203,171,135 F,0,71765,71848,0,1 S,0,71765,73098,0.5,0.2 P,0,71765,73098,A F,0,71848,73098,1,0 M,0,73420,,299.3589,226.9743 C,0,73420,,200,147,148 F,0,73420,73504,0,1 S,0,73420,74754,0.5,0.2 P,0,73420,74754,A F,0,73504,74754,1,0 M,0,74774,,402.0622,273.7964 C,0,74774,,192,172,165 F,0,74774,74857,0,1 S,0,74774,76107,0.5,0.2 P,0,74774,76107,A F,0,74857,76107,1,0 M,0,76566,,426.3304,216.1103 C,0,76566,,192,172,165 F,0,76566,76649,0,1 S,0,76566,77899,0.5,0.2 P,0,76566,77899,A F,0,76649,77899,1,0 M,0,78128,,314.4593,402.5868 C,0,78128,,200,147,148 F,0,78128,78212,0,1 S,0,78128,79462,0.5,0.2 P,0,78128,79462,A F,0,78212,79462,1,0 M,0,79722,,257.5272,175.007 C,0,79722,,192,172,165 F,0,79722,79805,0,1 S,0,79722,81055,0.5,0.2 P,0,79722,81055,A F,0,79805,81055,1,0
Sprite,Background,Centre,"sb\pt\flare.png",0,0 M,0,71775,,436.7027,208.6714 C,0,71775,,203,171,135 F,0,71775,71858,0,1 S,0,71775,73108,0.5,0.2 P,0,71775,73108,A F,0,71858,73108,1,0 M,0,73431,,297.359,234.7114 C,0,73431,,200,147,148 F,0,73431,73514,0,1 S,0,73431,74764,0.5,0.2 P,0,73431,74764,A F,0,73514,74764,1,0 M,0,74785,,399.1531,266.3549 C,0,74785,,192,172,165 F,0,74785,74868,0,1 S,0,74785,76118,0.5,0.2 P,0,74785,76118,A F,0,74868,76118,1,0 M,0,76660,,393,141 C,0,76660,,192,172,165 F,0,76660,76743,0,1 S,0,76660,77993,0.5,0.2 P,0,76660,77993,A F,0,76743,77993,1,0 M,0,78139,,306.962,402.5082 C,0,78139,,200,147,148 F,0,78139,78222,0,1 S,0,78139,79472,0.5,0.2 P,0,78139,79472,A F,0,78222,79472,1,0 M,0,79732,,264.4035,177.9293 C,0,79732,,192,172,165 F,0,79732,79816,0,1 S,0,79732,81066,0.5,0.2 P,0,79732,81066,A F,0,79816,81066,1,0
Sprite,Background,Centre,"sb\pt\flare.png",0,0 M,0,71786,,434.9073,216.45 C,0,71786,,203,171,135 F,0,71786,71869,0,1 S,0,71786,73119,0.5,0.2 P,0,71786,73119,A F,0,71869,73119,1,0 M,0,73441,,295.7336,242.5365 C,0,73441,,200,147,148 F,0,73441,73524,0,1 S,0,73441,74774,0.5,0.2 P,0,73441,74774,A F,0,73524,74774,1,0 M,0,74795,,394.9843,259.5395 C,0,74795,,192,172,165 F,0,74795,74878,0,1 S,0,74795,76128,0.5,0.2 P,0,74795,76128,A F,0,74878,76128,1,0 M,0,76670,,390.2862,133.5129 C,0,76670,,192,172,165 F,0,76670,76753,0,1 S,0,76670,78003,0.5,0.2 P,0,76670,78003,A F,0,76753,78003,1,0 M,0,78149,,299.4997,401.7873 C,0,78149,,200,147,148 F,0,78149,78232,0,1 S,0,78149,79482,0.5,0.2 P,0,78149,79482,A F,0,78232,79482,1,0 M,0,79753,,278.8273,181.8347 C,0,79753,,192,172,165 F,0,79753,79837,0,1 S,0,79753,81087,0.5,0.2 P,0,79753,81087,A F,0,79837,81087,1,0
Sprite,Background,Centre,"sb\pt\flare.png",0,0 M,0,71796,,433.6362,224.3321 C,0,71796,,203,171,135 F,0,71796,71879,0,1 S,0,71796,73129,0.5,0.2 P,0,71796,73129,A F,0,71879,73129,1,0 M,0,73452,,294.4864,250.4315 C,0,73452,,200,147,148 F,0,73452,73535,0,1 S,0,73452,74785,0.5,0.2 P,0,73452,74785,A F,0,73535,74785,1,0 M,0,74805,,389.7015,253.5446 C,0,74805,,192,172,165 F,0,74805,74889,0,1 S,0,74805,76139,0.5,0.2 P,0,74805,76139,A F,0,74889,76139,1,0 M,0,76753,,406.5317,76.77661 C,0,76753,,192,172,165 F,0,76753,76837,0,1 S,0,76753,78087,0.5,0.2 P,0,76753,78087,A F,0,76837,78087,1,0 M,0,78160,,292.1357,400.382 C,0,78160,,200,147,148 F,0,78160,78243,0,1 S,0,78160,79493,0.5,0.2 P,0,78160,79493,A F,0,78243,79493,1,0 M,0,79764,,286.2556,182.7833 C,0,79764,,192,172,165 F,0,79764,79847,0,1 S,0,79764,81097,0.5,0.2 P,0,79764,81097,A F,0,79847,81097,1,0
Sprite,Background,Centre,"sb\pt\flare.png",0,0 M,0,71806,,432.8951,232.2824 C,0,71806,,203,171,135 F,0,71806,71890,0,1 S,0,71806,73140,0.5,0.2 P,0,71806,73140,A F,0,71890,73140,1,0 M,0,73462,,293.6205,258.3782 C,0,73462,,200,147,148 F,0,73462,73545,0,1 S,0,73462,74795,0.5,0.2 P,0,73462,74795,A F,0,73545,74795,1,0 M,0,74816,,383.5432,248.4499 C,0,74816,,192,172,165 F,0,74816,74899,0,1 S,0,74816,76149,0.5,0.2 P,0,74816,76149,A F,0,74899,76149,1,0 M,0,76764,,413.1369,72.45013 C,0,76764,,192,172,165 F,0,76764,76847,0,1 S,0,76764,78097,0.5,0.2 P,0,76764,78097,A F,0,76847,78097,1,0 M,0,78201,,264.7417,388.4937 C,0,78201,,200,147,148 F,0,78201,78285,0,1 S,0,78201,79535,0.5,0.2 P,0,78201,79535,A F,0,78285,79535,1,0 M,0,79774,,293.7468,183.0483 C,0,79774,,192,172,165 F,0,79774,79857,0,1 S,0,79774,81107,0.5,0.2 P,0,79774,81107,A F,0,79857,81107,1,0
Sprite,Background,Centre,"sb\pt\flare.png",0,0 M,0,71817,,432.6875,240.2656 C,0,71817,,203,171,135 F,0,71817,71900,0,1 S,0,71817,73150,0.5,0.2 P,0,71817,73150,A F,0,71900,73150,1,0 M,0,73472,,293.1379,266.3582 C,0,73472,,200,147,148 F,0,73472,73556,0,1 S,0,73472,74806,0.5,0.2 P,0,73472,74806,A F,0,73556,74806,1,0 M,0,74994,,276,56 C,0,74994,,203,171,135 F,0,74994,75077,0,1 S,0,74994,76327,0.3,0.2 P,0,74994,76327,A F,0,75077,76327,1,0 M,0,76774,,420.3446,69.21748 C,0,76774,,192,172,165 F,0,76774,76857,0,1 S,0,76774,78107,0.5,0.2 P,0,76774,78107,A F,0,76857,78107,1,0 M,0,78212,,258.53,384.2935 C,0,78212,,200,147,148 F,0,78212,78295,0,1 S,0,78212,79545,0.5,0.2 P,0,78212,79545,A F,0,78295,79545,1,0 M,0,79785,,301.182,182.1685 C,0,79785,,192,172,165 F,0,79785,79868,0,1 S,0,79785,81118,0.5,0.2 P,0,79785,81118,A F,0,79868,81118,1,0
Sprite,Background,Centre,"sb\pt\flare.png",0,0 M,0,71994,,442,404 C,0,71994,,203,171,135 F,0,71994,72077,0,1 S,0,71994,73327,0.3,0.2 P,0,71994,73327,A F,0,72077,73327,1,0 M,0,73483,,293.0397,274.3531 C,0,73483,,200,147,148 F,0,73483,73566,0,1 S,0,73483,74816,0.5,0.2 P,0,73483,74816,A F,0,73566,74816,1,0 M,0,74994,,276,56 C,0,74994,,203,171,135 F,0,74994,75077,0,1 S,0,74994,76327,0.5,0.2 P,0,74994,76327,A F,0,75077,76327,1,0 M,0,76785,,427.9754,67.1604 C,0,76785,,192,172,165 F,0,76785,76868,0,1 S,0,76785,78118,0.5,0.2 P,0,76785,78118,A F,0,76868,78118,1,0 M,0,78222,,252.566,379.7476 C,0,78222,,200,147,148 F,0,78222,78305,0,1 S,0,78222,79555,0.5,0.2 P,0,78222,79555,A F,0,78305,79555,1,0 M,0,79795,,308.5466,180.9985 C,0,79795,,192,172,165 F,0,79795,79878,0,1 S,0,79795,81128,0.5,0.2 P,0,79795,81128,A F,0,79878,81128,1,0
Sprite,Background,Centre,"sb\pt\flare.png",0,0 M,0,71994,,442,404 C,0,71994,,203,171,135 F,0,71994,72077,0,1 S,0,71994,73327,0.5,0.2 P,0,71994,73327,A F,0,72077,73327,1,0 M,0,73660,,523,294 C,0,73660,,192,172,165 F,0,73660,73743,0,1 S,0,73660,74993,0.3,0.2 P,0,73660,74993,A F,0,73743,74993,1,0 M,0,75004,,279.3677,63.21653 C,0,75004,,203,171,135 F,0,75004,75087,0,1 S,0,75004,76337,0.5,0.2 P,0,75004,76337,A F,0,75087,76337,1,0 M,0,76795,,435.8391,66.33151 C,0,76795,,192,172,165 F,0,76795,76878,0,1 S,0,76795,78128,0.5,0.2 P,0,76795,78128,A F,0,76878,78128,1,0 M,0,78232,,246.8405,374.9042 C,0,78232,,200,147,148 F,0,78232,78316,0,1 S,0,78232,79566,0.5,0.2 P,0,78232,79566,A F,0,78316,79566,1,0 M,0,79805,,315.7744,179.1598 C,0,79805,,192,172,165 F,0,79805,79889,0,1 S,0,79805,81139,0.5,0.2 P,0,79805,81139,A F,0,79889,81139,1,0
Sprite,Background,Centre,"sb\pt\flare.png",0,0 M,0,72004,,434.0036,403.7613 C,0,72004,,203,171,135 F,0,72004,72087,0,1 S,0,72004,73337,0.5,0.2 P,0,72004,73337,A F,0,72087,73337,1,0 M,0,73660,,523,294 C,0,73660,,192,172,165 F,0,73660,73743,0,1 S,0,73660,74993,0.5,0.2 P,0,73660,74993,A F,0,73743,74993,1,0 M,0,75327,,193,116 C,0,75327,,203,171,135 F,0,75327,75410,0,1 S,0,75327,76660,0.3,0.2 P,0,75327,76660,A F,0,75410,76660,1,0 M,0,76805,,443.7397,66.75291 C,0,76805,,192,172,165 F,0,76805,76889,0,1 S,0,76805,78139,0.5,0.2 P,0,76805,78139,A F,0,76889,78139,1,0 M,0,78327,,242,357 C,0,78327,,200,147,148 F,0,78327,78410,0,1 S,0,78327,79660,0.3,0.2 P,0,78327,79660,A F,0,78410,79660,1,0 M,0,79816,,322.8057,176.6673 C,0,79816,,192,172,165 F,0,79816,79899,0,1 S,0,79816,81149,0.5,0.2 P,0,79816,81149,A F,0,79899,81149,1,0
Sprite,Background,Centre,"sb\pt\flare.png",0,0 M,0,72014,,426.0071,403.5226 C,0,72014,,203,171,135 F,0,72014,72098,0,1 S,0,72014,73348,0.5,0.2 P,0,72014,73348,A F,0,72098,73348,1,0 M,0,73670,,522.8864,286.0247 C,0,73670,,192,172,165 F,0,73670,73753,0,1 S,0,73670,75003,0.5,0.2 P,0,73670,75003,A F,0,73753,75003,1,0 M,0,75327,,193,116 C,0,75327,,203,171,135 F,0,75327,75410,0,1 S,0,75327,76660,0.5,0.2 P,0,75327,76660,A F,0,75410,76660,1,0 M,0,76816,,451.4798,68.4156 C,0,76816,,192,172,165 F,0,76816,76899,0,1 S,0,76816,78149,0.5,0.2 P,0,76816,78149,A F,0,76899,78149,1,0 M,0,78712,,250.0129,295.2137 C,0,78712,,200,147,148 F,0,78712,78795,0,1 S,0,78712,80045,0.5,0.2 P,0,78712,80045,A F,0,78795,80045,1,0
Sprite,Background,Centre,"sb\pt\flare.png",0,0 M,0,72025,,418.0107,403.2839 C,0,72025,,203,171,135 F,0,72025,72108,0,1 S,0,72025,73358,0.5,0.2 P,0,72025,73358,A F,0,72108,73358,1,0 M,0,73837,,431.0149,237.0887 C,0,73837,,192,172,165 F,0,73837,73920,0,1 S,0,73837,75170,0.5,0.2 P,0,73837,75170,A F,0,73920,75170,1,0 M,0,75514,,210.5645,267.8926 C,0,75514,,203,171,135 F,0,75514,75598,0,1 S,0,75514,76848,0.5,0.2 P,0,75514,76848,A F,0,75598,76848,1,0 M,0,76868,,481.3889,92.94233 C,0,76868,,192,172,165 F,0,76868,76951,0,1 S,0,76868,78201,0.5,0.2 P,0,76868,78201,A F,0,76951,78201,1,0 M,0,78722,,247.1111,291.171 C,0,78722,,200,147,148 F,0,78722,78805,0,1 S,0,78722,80055,0.5,0.2 P,0,78722,80055,A F,0,78805,80055,1,0
Sprite,Background,Centre,"sb\pt\flare.png",0,0 M,0,72035,,410.0143,403.0452 C,0,72035,,203,171,135 F,0,72035,72119,0,1 S,0,72035,73369,0.5,0.2 P,0,72035,73369,A F,0,72119,73369,1,0 M,0,73847,,424.6835,241.851 C,0,73847,,192,172,165 F,0,73847,73930,0,1 S,0,73847,75180,0.5,0.2 P,0,73847,75180,A F,0,73930,75180,1,0 M,0,75525,,206.35,274.6729 C,0,75525,,203,171,135 F,0,75525,75608,0,1 S,0,75525,76858,0.5,0.2 P,0,75525,76858,A F,0,75608,76858,1,0 M,0,76878,,484.5526,100.2386 C,0,76878,,192,172,165 F,0,76878,76962,0,1 S,0,76878,78212,0.5,0.2 P,0,76878,78212,A F,0,76962,78212,1,0 M,0,78732,,243.7673,287.4638 C,0,78732,,200,147,148 F,0,78732,78816,0,1 S,0,78732,80066,0.5,0.2 P,0,78732,80066,A F,0,78816,80066,1,0
Sprite,Background,Centre,"sb\pt\flare.png",0,0 M,0,72046,,402.0178,402.8065 C,0,72046,,203,171,135 F,0,72046,72129,0,1 S,0,72046,73379,0.5,0.2 P,0,72046,73379,A F,0,72129,73379,1,0 M,0,73857,,419.0419,247.4135 C,0,73857,,192,172,165 F,0,73857,73941,0,1 S,0,73857,75191,0.5,0.2 P,0,73857,75191,A F,0,73941,75191,1,0 M,0,75535,,202.5558,281.697 C,0,75535,,203,171,135 F,0,75535,75619,0,1 S,0,75535,76869,0.5,0.2 P,0,75535,76869,A F,0,75619,76869,1,0 M,0,76889,,486.5276,107.9495 C,0,76889,,192,172,165 F,0,76889,76972,0,1 S,0,76889,78222,0.5,0.2 P,0,76889,78222,A F,0,76972,78222,1,0 M,0,78753,,243.7673,287.4638 C,0,78753,,200,147,148 F,0,78753,78837,0,1 S,0,78753,80087,0.5,0.2 P,0,78753,80087,A F,0,78837,80087,1,0
Sprite,Background,Centre,"sb\pt\flare.png",0,0 M,0,72056,,394.0214,402.5678 C,0,72056,,203,171,135 F,0,72056,72139,0,1 S,0,72056,73389,0.5,0.2 P,0,72056,73389,A F,0,72139,73389,1,0 M,0,73868,,414.1906,253.6771 C,0,73868,,192,172,165 F,0,73868,73951,0,1 S,0,73868,75201,0.5,0.2 P,0,73868,75201,A F,0,73951,75201,1,0 M,0,75546,,199.1961,288.939 C,0,75546,,203,171,135 F,0,75546,75629,0,1 S,0,75546,76879,0.5,0.2 P,0,75546,76879,A F,0,75629,76879,1,0 M,0,76899,,487.2624,115.8829 C,0,76899,,192,172,165 F,0,76899,76982,0,1 S,0,76899,78232,0.5,0.2 P,0,76899,78232,A F,0,76982,78232,1,0 M,0,78764,,247.1111,291.171 C,0,78764,,200,147,148 F,0,78764,78847,0,1 S,0,78764,80097,0.5,0.2 P,0,78764,80097,A F,0,78847,80097,1,0
Sprite,Background,Centre,"sb\pt\flare.png",0,0 M,0,72066,,386.0249,402.3291 C,0,72066,,203,171,135 F,0,72066,72150,0,1 S,0,72066,73400,0.5,0.2 P,0,72066,73400,A F,0,72150,73400,1,0 M,0,73878,,410.2158,260.5306 C,0,73878,,192,172,165 F,0,73878,73962,0,1 S,0,73878,75212,0.5,0.2 P,0,73878,75212,A F,0,73962,75212,1,0 M,0,75556,,196.2833,296.3721 C,0,75556,,203,171,135 F,0,75556,75639,0,1 S,0,75556,76889,0.5,0.2 P,0,75556,76889,A F,0,75639,76889,1,0 M,0,76994,,532,188 C,0,76994,,192,172,165 F,0,76994,77077,0,1 S,0,76994,78327,0.3,0.2 P,0,76994,78327,A F,0,77077,78327,1,0 M,0,78774,,250.0129,295.2137 C,0,78774,,200,147,148 F,0,78774,78857,0,1 S,0,78774,80107,0.5,0.2 P,0,78774,80107,A F,0,78857,80107,1,0
Sprite,Background,Centre,"sb\pt\flare.png",0,0 M,0,72077,,378.0285,402.0904 C,0,72077,,203,171,135 F,0,72077,72160,0,1 S,0,72077,73410,0.5,0.2 P,0,72077,73410,A F,0,72160,73410,1,0 M,0,73889,,407.1882,267.8521 C,0,73889,,192,172,165 F,0,73889,73972,0,1 S,0,73889,75222,0.5,0.2 P,0,73889,75222,A F,0,73972,75222,1,0 M,0,75566,,193.8282,303.9687 C,0,75566,,203,171,135 F,0,75566,75650,0,1 S,0,75566,76900,0.5,0.2 P,0,75566,76900,A F,0,75650,76900,1,0 M,0,76994,,532,188 C,0,76994,,192,172,165 F,0,76994,77077,0,1 S,0,76994,78327,0.5,0.2 P,0,76994,78327,A F,0,77077,78327,1,0 M,0,78785,,252.9865,299.2239 C,0,78785,,200,147,148 F,0,78785,78868,0,1 S,0,78785,80118,0.5,0.2 P,0,78785,80118,A F,0,78868,80118,1,0
Sprite,Background,Centre,"sb\pt\flare.png",0,0 M,0,72087,,370.7758,404.619 C,0,72087,,203,171,135 F,0,72087,72171,0,1 S,0,72087,73421,0.5,0.2 P,0,72087,73421,A F,0,72171,73421,1,0 M,0,73899,,405.1617,275.5113 C,0,73899,,192,172,165 F,0,73899,73982,0,1 S,0,73899,75232,0.5,0.2 P,0,73899,75232,A F,0,73982,75232,1,0 M,0,75660,,75,274 C,0,75660,,200,147,148 F,0,75660,75743,0,1 S,0,75660,76993,0.3,0.2 P,0,75660,76993,A F,0,75743,76993,1,0 M,0,78795,,255.3926,303.5898 C,0,78795,,200,147,148 F,0,78795,78878,0,1 S,0,78795,80128,0.5,0.2 P,0,78795,80128,A F,0,78878,80128,1,0
Sprite,Background,Centre,"sb\pt\flare.png",0,0 M,0,72098,,363.9766,408.8345 C,0,72098,,203,171,135 F,0,72098,72181,0,1 S,0,72098,73431,0.5,0.2 P,0,72098,73431,A F,0,72181,73431,1,0 M,0,75660,,75,274 C,0,75660,,200,147,148 F,0,75660,75743,0,1 S,0,75660,76993,0.5,0.2 P,0,75660,76993,A F,0,75743,76993,1,0 M,0,78805,,257.9688,307.8661 C,0,78805,,200,147,148 F,0,78805,78889,0,1 S,0,78805,80139,0.5,0.2 P,0,78805,80139,A F,0,78889,80139,1,0
Sprite,Background,Centre,"sb\pt\flare.png",0,0 M,0,72108,,357.1774,413.05 C,0,72108,,203,171,135 F,0,72108,72191,0,1 S,0,72108,73441,0.5,0.2 P,0,72108,73441,A F,0,72191,73441,1,0 M,0,76826,,458.8657,71.27965 C,0,76826,,192,172,165 F,0,76826,76910,0,1 S,0,76826,78160,0.5,0.2 P,0,76826,78160,A F,0,76910,78160,1,0 M,0,78816,,259.8449,312.4968 C,0,78816,,200,147,148 F,0,78816,78899,0,1 S,0,78816,80149,0.5,0.2 P,0,78816,80149,A F,0,78899,80149,1,0
Sprite,Background,Centre,"sb\pt\flare.png",0,0 M,0,72119,,350.3782,417.2655 C,0,72119,,203,171,135 F,0,72119,72202,0,1 S,0,72119,73452,0.5,0.2 P,0,72119,73452,A F,0,72202,73452,1,0 M,0,78826,,262,317 C,0,78826,,200,147,148 F,0,78826,78910,0,1 S,0,78826,80160,0.5,0.2 P,0,78826,80160,A F,0,78910,80160,1,0
Sprite,Background,Centre,"sb\pt\flare.png",0,0 M,0,72129,,343.579,421.481 C,0,72129,,203,171,135 F,0,72129,72212,0,1 S,0,72129,73462,0.5,0.2 P,0,72129,73462,A F,0,72212,73462,1,0 M,0,78847,,257.9688,307.8661 C,0,78847,,200,147,148 F,0,78847,78930,0,1 S,0,78847,80180,0.5,0.2 P,0,78847,80180,A F,0,78930,80180,1,0
Sprite,Background,Centre,"sb\pt\flare.png",0,0 M,0,72139,,336.7798,425.6966 C,0,72139,,203,171,135 F,0,72139,72223,0,1 S,0,72139,73473,0.5,0.2 P,0,72139,73473,A F,0,72223,73473,1,0 M,0,78857,,255.3926,303.5898 C,0,78857,,200,147,148 F,0,78857,78941,0,1 S,0,78857,80191,0.5,0.2 P,0,78857,80191,A F,0,78941,80191,1,0
Sprite,Background,Centre,"sb\pt\flare.png",0,0 M,0,72150,,329.9805,429.9121 C,0,72150,,203,171,135 F,0,72150,72233,0,1 S,0,72150,73483,0.5,0.2 P,0,72150,73483,A F,0,72233,73483,1,0 M,0,78868,,252.9865,299.2239 C,0,78868,,200,147,148 F,0,78868,78951,0,1 S,0,78868,80201,0.5,0.2 P,0,78868,80201,A F,0,78951,80201,1,0
Sprite,Background,Centre,"sb\pt\flare.png",0,0 M,0,72160,,322.8607,432.9503 C,0,72160,,203,171,135 F,0,72160,72244,0,1 S,0,72160,73494,0.5,0.2 P,0,72160,73494,A F,0,72244,73494,1,0 M,0,78878,,250.0129,295.2137 C,0,78878,,200,147,148 F,0,78878,78962,0,1 S,0,78878,80212,0.5,0.2 P,0,78878,80212,A F,0,78962,80212,1,0
Sprite,Background,Centre,"sb\pt\flare.png",0,0 M,0,72171,,314.8629,432.7643 C,0,72171,,203,171,135 F,0,72171,72254,0,1 S,0,72171,73504,0.5,0.2 P,0,72171,73504,A F,0,72254,73504,1,0 M,0,78889,,247.1111,291.171 C,0,78889,,200,147,148 F,0,78889,78972,0,1 S,0,78889,80222,0.5,0.2 P,0,78889,80222,A F,0,78972,80222,1,0
Sprite,Background,Centre,"sb\pt\flare.png",0,0 M,0,72181,,306.865,432.5782 C,0,72181,,203,171,135 F,0,72181,72264,0,1 S,0,72181,73514,0.5,0.2 P,0,72181,73514,A F,0,72264,73514,1,0 M,0,78899,,243.7673,287.4638 C,0,78899,,200,147,148 F,0,78899,78982,0,1 S,0,78899,80232,0.5,0.2 P,0,78899,80232,A F,0,78982,80232,1,0
Sprite,Background,Centre,"sb\pt\flare.png",0,0 M,0,72191,,298.8672,432.3923 C,0,72191,,203,171,135 F,0,72191,72275,0,1 S,0,72191,73525,0.5,0.2 P,0,72191,73525,A F,0,72275,73525,1,0 M,0,79171,,84.10224,283.5438 C,0,79171,,192,172,165 F,0,79171,79254,0,1 S,0,79171,80504,0.5,0.2 P,0,79171,80504,A F,0,79254,80504,1,0
Sprite,Background,Centre,"sb\pt\flare.png",0,0 M,0,72202,,290.8694,432.2063 C,0,72202,,203,171,135 F,0,72202,72285,0,1 S,0,72202,73535,0.5,0.2 P,0,72202,73535,A F,0,72285,73535,1,0 M,0,79181,,82.0938,276.32 C,0,79181,,192,172,165 F,0,79181,79264,0,1 S,0,79181,80514,0.5,0.2 P,0,79181,80514,A F,0,79264,80514,1,0
Sprite,Background,Centre,"sb\pt\flare.png",0,0 M,0,72212,,282.8715,432.0203 C,0,72212,,203,171,135 F,0,72212,72296,0,1 S,0,72212,73546,0.5,0.2 P,0,72212,73546,A F,0,72296,73546,1,0 M,0,79191,,80.64724,268.9627 C,0,79191,,192,172,165 F,0,79191,79275,0,1 S,0,79191,80525,0.5,0.2 P,0,79191,80525,A F,0,79275,80525,1,0
Sprite,Background,Centre,"sb\pt\flare.png",0,0 M,0,72223,,274.8737,431.8343 C,0,72223,,203,171,135 F,0,72223,72306,0,1 S,0,72223,73556,0.5,0.2 P,0,72223,73556,A F,0,72306,73556,1,0 M,0,79202,,79.73914,261.5194 C,0,79202,,192,172,165 F,0,79202,79285,0,1 S,0,79202,80535,0.5,0.2 P,0,79202,80535,A F,0,79285,80535,1,0
Sprite,Background,Centre,"sb\pt\flare.png",0,0 M,0,72233,,266.8759,431.6483 C,0,72233,,203,171,135 F,0,72233,72316,0,1 S,0,72233,73566,0.5,0.2 P,0,72233,73566,A F,0,72316,73566,1,0 M,0,79212,,79.33295,254.0318 C,0,79212,,192,172,165 F,0,79212,79296,0,1 S,0,79212,80546,0.5,0.2 P,0,79212,80546,A F,0,79296,80546,1,0
Sprite,Background,Centre,"sb\pt\flare.png",0,0 M,0,72327,,174,381 C,0,72327,,200,147,148 F,0,72327,72410,0,1 S,0,72327,73660,0.3,0.2 P,0,72327,73660,A F,0,72410,73660,1,0 M,0,79223,,79.37999,246.5331 C,0,79223,,192,172,165 F,0,79223,79306,0,1 S,0,79223,80556,0.5,0.2 P,0,79223,80556,A F,0,79306,80556,1,0
Sprite,Background,Centre,"sb\pt\flare.png",0,0 M,0,72327,,174,381 C,0,72327,,200,147,148 F,0,72327,72410,0,1 S,0,72327,73660,0.5,0.2 P,0,72327,73660,A F,0,72410,73660,1,0 M,0,79233,,79.84634,239.0485 C,0,79233,,192,172,165 F,0,79233,79316,0,1 S,0,79233,80566,0.5,0.2 P,0,79233,80566,A F,0,79316,80566,1,0
Sprite,Background,Centre,"sb\pt\flare.png",0,0 M,0,79826,,329.5819,173.5413 C,0,79826,,192,172,165 F,0,79826,79910,0,1 S,0,79826,81160,0.5,0.2 P,0,79826,81160,A F,0,79910,81160,1,0
Sprite,Background,Centre,"sb\pt\flare.png",0,0 M,0,79847,,342.1462,165.4949 C,0,79847,,192,172,165 F,0,79847,79930,0,1 S,0,79847,81180,0.5,0.2 P,0,79847,81180,A F,0,79930,81180,1,0
Sprite,Background,Centre,"sb\pt\flare.png",0,0 M,0,79857,,347.8293,160.6398 C,0,79857,,192,172,165 F,0,79857,79941,0,1 S,0,79857,81191,0.5,0.2 P,0,79857,81191,A F,0,79941,81191,1,0
Sprite,Background,Centre,"sb\pt\flare.png",0,0 M,0,79868,,353.0482,155.2814 C,0,79868,,192,172,165 F,0,79868,79951,0,1 S,0,79868,81201,0.5,0.2 P,0,79868,81201,A F,0,79951,81201,1,0
Sprite,Background,Centre,"sb\pt\flare.png",0,0 M,0,79878,,357.7588,149.4631 C,0,79878,,192,172,165 F,0,79878,79962,0,1 S,0,79878,81212,0.5,0.2 P,0,79878,81212,A F,0,79962,81212,1,0
Sprite,Background,Centre,"sb\pt\flare.png",0,0 M,0,79889,,361.921,143.2325 C,0,79889,,192,172,165 F,0,79889,79972,0,1 S,0,79889,81222,0.5,0.2 P,0,79889,81222,A F,0,79972,81222,1,0
Sprite,Background,Centre,"sb\pt\flare.png",0,0 M,0,79899,,365.107,136.4571 C,0,79899,,192,172,165 F,0,79899,79982,0,1 S,0,79899,81232,0.5,0.2 P,0,79899,81232,A F,0,79982,81232,1,0
Sprite,Background,Centre,"sb\pt\r.png",0,0 M,0,54576,,262,230 C,0,54576,,255,255,255 F,0,54576,55242,1,0 S,1,54576,55242,0,0.35 P,0,54576,55242,A P,0,54576,56158,A M,0,55492,,199,356 C,0,55492,,255,255,255 F,0,55492,56158,1,0 S,1,55492,56158,0,0.35 P,0,55492,56158,A
Sprite,Background,Centre,"sb\pt\r.png",0,0 M,0,54826,,292,93 C,0,54826,,255,255,255 F,0,54826,55492,1,0 S,1,54826,55492,0,0.35 P,0,54826,55492,A P,0,54826,56408,A M,0,55742,,342,285 C,0,55742,,255,255,255 F,0,55742,56408,1,0 S,1,55742,56408,0,0.35 P,0,55742,56408,A
Sprite,Background,Centre,"sb\pt\r.png",0,0 M,0,54992,,157,112 C,0,54992,,255,255,255 F,0,54992,55658,1,0 S,1,54992,55658,0,0.35 P,0,54992,55658,A P,0,54992,56658,A M,0,55992,,336,367 C,0,55992,,255,255,255 F,0,55992,56658,1,0 S,1,55992,56658,0,0.35 P,0,55992,56658,A
Sprite,Background,Centre,"sb\pt\r.png",0,0 M,0,55242,,138,229 C,0,55242,,255,255,255 F,0,55242,55908,1,0 S,1,55242,55908,0,0.35 P,0,55242,55908,A P,0,55242,55908,A
Sprite,Background,Centre,"sb\pt\r.png",0,0 M,0,88354,,286,165 C,0,88354,,255,255,255 F,0,88354,89020,1,0 S,1,88354,89020,0,0.35 P,0,88354,89020,A P,0,88354,89992,A M,0,89326,,372,240 C,0,89326,,255,255,255 F,0,89326,89992,1,0 S,1,89326,89992,0,0.35 P,0,89326,89992,A
Sprite,Background,Centre,"sb\pt\r.png",0,0 M,0,88576,,321,253 C,0,88576,,255,255,255 F,0,88576,89242,1,0 S,1,88576,89242,0,0.35 P,0,88576,89242,A P,0,88576,90242,A M,0,89576,,337,147 C,0,89576,,255,255,255 F,0,89576,90242,1,0 S,1,89576,90242,0,0.35 P,0,89576,90242,A
Sprite,Background,Centre,"sb\pt\r.png",0,0 M,0,88827,,379,178 C,0,88827,,255,255,255 F,0,88827,89493,1,0 S,1,88827,89493,0,0.35 P,0,88827,89493,A P,0,88827,90492,A M,0,89826,,278,221 C,0,89826,,255,255,255 F,0,89826,90492,1,0 S,1,89826,90492,0,0.35 P,0,89826,90492,A
Sprite,Background,Centre,"sb\pt\r.png",0,0 M,0,88993,,286,165 C,0,88993,,255,255,255 F,0,88993,89659,1,0 S,1,88993,89659,0,0.35 P,0,88993,89659,A P,0,88993,89659,A
Sprite,Background,TopCentre,"sb\pt\p.png",320,0 C,0,24828,,0,0,0 V,19,24828,25328,864,240,864,0 F,0,24828,25378,1
Sprite,Background,BottomCentre,"sb\pt\p.png",320,480 C,0,24828,,0,0,0 F,0,24828,25328,1 V,19,24828,25328,864,240,864,0
Sprite,Background,TopCentre,"sb\pt\p.png",320,0 C,0,76327,,0,0,0 V,19,76327,76827,864,240,864,0 F,0,76327,76877,1
Sprite,Background,BottomCentre,"sb\pt\p.png",320,480 C,0,76327,,0,0,0 F,0,76327,76827,1 V,19,76327,76827,864,240,864,0
Sprite,Background,Centre,"sb\pt\f.png",0,0 L,14384,1 F,1,0,1800,0,0.2156863 M,15,0,9003,-419.1488,470.2336,-149.1488,470.2337 F,2,7202,9003,0.2156863,0 S,0,14384,,1.1 R,0,14384,,6.283185 P,0,14384,23387,A
Sprite,Background,Centre,"sb\pt\f.png",0,0 L,14609,1 F,1,0,1800,0,0.2156863 M,15,0,9003,361.9038,303.8331,631.9038,303.8332 F,2,7202,9003,0.2156863,0 S,0,14609,,1.1 R,0,14609,,6.283185 P,0,14609,23612,A
Sprite,Background,Centre,"sb\pt\f.png",0,0 L,15059,1 F,1,0,1800,0,0.2156863 M,15,0,9003,-448.5182,194.1898,-178.5182,194.1898 F,2,7202,9003,0.2156863,0 S,0,15059,,1.1 R,0,15059,,6.283185 P,0,15059,24062,A
Sprite,Background,Centre,"sb\pt\f.png",0,0 L,15509,1 F,1,0,1800,0,0.2156863 M,15,0,9003,-278.211,197.4443,-8.211029,197.4443 F,2,7202,9003,0.2156863,0 S,0,15509,,1.1 R,0,15509,,6.283185 P,0,15509,24512,A
Sprite,Background,Centre,"sb\pt\f.png",0,0 L,15734,1 F,1,0,1800,0,0.2156863 M,15,0,9003,380.3951,-50.27203,650.3951,-50.27199 F,2,7202,9003,0.2156863,0 S,0,15734,,1.1 R,0,15734,,6.283185 P,0,15734,24737,A
Sprite,Background,Centre,"sb\pt\f.png",0,0 L,15959,1 F,1,0,1800,0,0.2156863 M,15,0,9003,-259.5434,48.10681,10.4566,48.10686 F,2,7202,9003,0.2156863,0 S,0,15959,,1.1 R,0,15959,,6.283185 P,0,15959,24962,A
Sprite,Background,Centre,"sb\pt\f.png",0,0 L,16184,1 F,1,0,1800,0,0.2156863 M,15,0,9003,-305.9731,53.28436,-35.97311,53.28441 F,2,7202,9003,0.2156863,0 S,0,16184,,1.1 R,0,16184,,6.283185 P,0,16184,25187,A
Sprite,Background,Centre,"sb\pt\f.png",0,0 L,16634,1 F,1,0,1800,0,0.2156863 M,15,0,9003,559.6865,553.8747,829.6865,553.8748 F,2,7202,9003,0.2156863,0 S,0,16634,,1.1 R,0,16634,,6.283185 P,0,16634,25637,A
Sprite,Background,Centre,"sb\pt\f.png",0,0 L,17084,1 F,1,0,1800,0,0.2156863 M,15,0,9003,468.3853,449.8127,738.3853,449.8127 F,2,7202,9003,0.2156863,0 S,0,17084,,1.1 R,0,17084,,6.283185 P,0,17084,26087,A
Sprite,Background,Centre,"sb\pt\f.png",0,0 L,17535,1 F,1,0,1800,0,0.2156863 M,15,0,9003,48.94096,153.7301,318.941,153.7301 F,2,7202,9003,0.2156863,0 S,0,17535,,1.1 R,0,17535,,6.283185 P,0,17535,26538,A
Sprite,Background,Centre,"sb\pt\f.png",0,0 L,17985,1 F,1,0,1800,0,0.2156863 M,15,0,9003,-202.9645,-17.71442,67.03549,-17.71437 F,2,7202,9003,0.2156863,0 S,0,17985,,1.1 R,0,17985,,6.283185 P,0,17985,26988,A
Sprite,Background,Centre,"sb\pt\f.png",0,0 L,18660,1 F,1,0,1800,0,0.2156863 M,15,0,9003,-344.5898,335.8549,-74.58975,335.855 F,2,7202,9003,0.2156863,0 S,0,18660,,1.1 R,0,18660,,6.283185 P,0,18660,27663,A
Sprite,Background,Centre,"sb\pt\f.png",0,0 L,18885,1 F,1,0,1800,0,0.2156863 M,15,0,9003,107.2966,457.4129,377.2966,457.4129 F,2,7202,9003,0.2156863,0 S,0,18885,,1.1 R,0,18885,,6.283185 P,0,18885,27888,A
Sprite,Background,Centre,"sb\pt\f.png",0,0 L,19560,1 F,1,0,1800,0,0.2156863 M,15,0,9003,-471.28,45.45099,-201.28,45.45103 F,2,7202,9003,0.2156863,0 S,0,19560,,1.1 R,0,19560,,6.283185 P,0,19560,28563,A
Sprite,Background,Centre,"sb\pt\f.png",0,0 L,20461,1 F,1,0,1800,0,0.2156863 M,15,0,9003,-340.6375,118.4995,-70.63745,118.4996 F,2,7202,9003,0.2156863,0 S,0,20461,,1.1 R,0,20461,,6.283185 P,0,20461,29464,A
Sprite,Background,Centre,"sb\pt\f.png",0,0 L,20686,1 F,1,0,1800,0,0.2156863 M,15,0,9003,179.0396,-63.94427,449.0396,-63.94423 F,2,7202,9003,0.2156863,0 S,0,20686,,1.1 R,0,20686,,6.283185 P,0,20686,29689,A
Sprite,Background,Centre,"sb\pt\f.png",0,0 L,20911,1 F,1,0,1800,0,0.2156863 M,15,0,9003,321.476,433.8226,591.4761,433.8226 F,2,7202,9003,0.2156863,0 S,0,20911,,1.1 R,0,20911,,6.283185 P,0,20911,29914,A
Sprite,Background,Centre,"sb\pt\f.png",0,0 L,21136,1 F,1,0,1800,0,0.2156863 M,15,0,9003,-318.8516,205.2762,-48.85156,205.2762 F,2,7202,9003,0.2156863,0 S,0,21136,,1.1 R,0,21136,,6.283185 P,0,21136,30139,A
Sprite,Background,Centre,"sb\pt\f.png",0,0 L,21361,1 F,1,0,1800,0,0.2156863 M,15,0,9003,81.98593,259.1598,351.9859,259.1599 F,2,7202,9003,0.2156863,0 S,0,21361,,1.1 R,0,21361,,6.283185 P,0,21361,30364,A
Sprite,Background,Centre,"sb\pt\f.png",0,0 L,22036,1 F,1,0,1800,0,0.2156863 M,15,0,9003,105.9773,510.634,375.9773,510.6341 F,2,7202,9003,0.2156863,0 S,0,22036,,1.1 R,0,22036,,6.283185 P,0,22036,31039,A
Sprite,Background,Centre,"sb\pt\f.png",0,0 L,22261,1 F,1,0,1800,0,0.2156863 M,15,0,9003,-186.5001,379.0845,83.49988,379.0845 F,2,7202,9003,0.2156863,0 S,0,22261,,1.1 R,0,22261,,6.283185 P,0,22261,31264,A
Sprite,Background,Centre,"sb\pt\f.png",0,0 L,22936,1 F,1,0,1800,0,0.2156863 M,15,0,9003,-423.8055,438.582,-153.8055,438.5821 F,2,7202,9003,0.2156863,0 S,0,22936,,1.1 R,0,22936,,6.283185 P,0,22936,31939,A
Sprite,Background,Centre,"sb\pt\f1.png",0,0 L,14159,1 F,1,0,2200,0,0.4117647 M,15,0,11003,740.1903,87.67245,503.9765,218.4511 F,2,8802,11003,0.4117647,0 S,0,14159,,0.8 R,0,14159,,3.857686 C,0,14159,,0,0,0
Sprite,Background,Centre,"sb\pt\f1.png",0,0 L,14709,1 F,1,0,2200,0,0.4117647 M,15,0,11003,696.2205,161.0006,482.5943,326.1183 F,2,8802,11003,0.4117647,0 S,0,14709,,0.8 R,0,14709,,3.705309 C,0,14709,,0,0,0
Sprite,Background,Centre,"sb\pt\f1.png",0,0 L,15259,1 F,1,0,2200,0,0.4117647 M,15,0,11003,884.3623,-22.35046,736.4089,203.5031 F,2,8802,11003,0.4117647,0 S,0,15259,,0.8 R,0,15259,,3.372469 C,0,15259,,0,0,0
Sprite,Background,Centre,"sb\pt\f1.png",0,0 L,15809,1 F,1,0,2200,0,0.4117647 M,15,0,11003,290.3751,49.84317,115.4022,255.4751 F,2,8802,11003,0.4117647,0 S,0,15809,,0.8 R,0,15809,,3.497545 C,0,15809,,0,0,0
Sprite,Background,Centre,"sb\pt\f1.png",0,0 L,16359,1 F,1,0,2200,0,0.4117647 M,15,0,11003,406.3681,61.17411,284.4915,302.1017 F,2,8802,11003,0.4117647,0 S,0,16359,,0.8 R,0,16359,,3.260855 C,0,16359,,0,0,0
Sprite,Background,Centre,"sb\pt\f1.png",0,0 L,16909,1 F,1,0,2200,0,0.4117647 M,15,0,11003,132.1083,89.06591,-64.67921,273.9298 F,2,8802,11003,0.4117647,0 S,0,16909,,0.8 R,0,16909,,3.609157 C,0,16909,,0,0,0
Sprite,Background,Centre,"sb\pt\f1.png",0,0 L,17459,1 F,1,0,2200,0,0.4117647 M,15,0,11003,773.4272,289.7862,622.0056,513.3293 F,2,8802,11003,0.4117647,0 S,0,17459,,0.8 R,0,17459,,3.387903 C,0,17459,,0,0,0
Sprite,Background,Centre,"sb\pt\f1.png",0,0 L,18010,1 F,1,0,2200,0,0.4117647 M,15,0,11003,632.1287,21.23146,419.4263,187.5375 F,2,8802,11003,0.4117647,0 S,0,18010,,0.8 R,0,18010,,3.699734 C,0,18010,,0,0,0
Sprite,Background,Centre,"sb\pt\f1.png",0,0 L,18560,1 F,1,0,2200,0,0.4117647 M,15,0,11003,227.1728,-161.7771,17.02467,7.745117 F,2,8802,11003,0.4117647,0 S,0,18560,,0.8 R,0,18560,,3.684522 C,0,18560,,0,0,0
Sprite,Background,Centre,"sb\pt\f1.png",0,0 L,19110,1 F,1,0,2200,0,0.4117647 M,15,0,11003,349.4479,9.452888,252.372,261.3979 F,2,8802,11003,0.4117647,0 S,0,19110,,0.8 R,0,19110,,3.160302 C,0,19110,,0,0,0
Sprite,Background,Centre,"sb\pt\f1.png",0,0 L,19660,1 F,1,0,2200,0,0.4117647 M,15,0,11003,344.9561,-46.8113,91.51921,46.30028 F,2,8802,11003,0.4117647,0 S,0,19660,,0.8 R,0,19660,,4.011236 C,0,19660,,0,0,0
Sprite,Background,Centre,"sb\pt\f1.png",0,0 L,20210,1 F,1,0,2200,0,0.4117647 M,15,0,11003,408.4917,37.85629,290.8901,280.8992 F,2,8802,11003,0.4117647,0 S,0,20210,,0.8 R,0,20210,,3.243189 C,0,20210,,0,0,0
Sprite,Background,Centre,"sb\pt\f1.png",0,0 L,20760,1 F,1,0,2200,0,0.4117647 M,15,0,11003,665.6178,-171.9216,462.5918,6.068375 F,2,8802,11003,0.4117647,0 S,0,20760,,0.8 R,0,20760,,3.643539 C,0,20760,,0,0,0
Sprite,Background,Centre,"sb\pt\f1.png",0,0 L,21310,1 F,1,0,2200,0,0.4117647 M,15,0,11003,108.101,39.55778,39.7571,300.7648 F,2,8802,11003,0.4117647,0 S,0,21310,,0.8 R,0,21310,,3.048437 C,0,21310,,0,0,0
Sprite,Background,Centre,"sb\pt\f1.png",0,0 L,21861,1 F,1,0,2200,0,0.4117647 M,15,0,11003,342.6552,67.1517,111.6601,206.9417 F,2,8802,11003,0.4117647,0 S,0,21861,,0.8 R,0,21861,,3.819115 C,0,21861,,0,0,0
Sprite,Background,Centre,"sb\pt\f1.png",0,0 L,22411,1 F,1,0,2200,0,0.4117647 M,15,0,11003,310.3214,-156.8226,125.5909,40.09013 F,2,8802,11003,0.4117647,0 S,0,22411,,0.8 R,0,22411,,3.546015 C,0,22411,,0,0,0
Sprite,Background,Centre,"sb\pt\f1.png",0,0 L,23511,1 F,1,0,2200,0,0.4117647 M,15,0,11003,750.8899,187.5488,581.0303,397.4243 F,2,8802,11003,0.4117647,0 S,0,23511,,0.8 R,0,23511,,3.472934 C,0,23511,,0,0,0
Sprite,Background,Centre,"sb\pt\f1.png",0,0 L,24061,1 F,1,0,2200,0,0.4117647 M,15,0,11003,522.5046,184.7085,413.4852,431.7202 F,2,8802,11003,0.4117647,0 S,0,24061,,0.8 R,0,24061,,3.208167 C,0,24061,,0,0,0
Sprite,Background,Centre,"sb\pt\f1.png",0,0 L,24611,1 F,1,0,2200,0,0.4117647 M,15,0,11003,656.0412,297.1523,493.3076,512.6002 F,2,8802,11003,0.4117647,0 S,0,24611,,0.8 R,0,24611,,3.439429 C,0,24611,,0,0,0
Sprite,Background,Centre,"sb\pt\dot.png",0,0 L,14159,7 F,1,0,445,0,1 M,0,0,2229,616.9882,517.2327,620.2911,487.4151 F,2,1783,2229,1,0 S,0,14159,,0.2 R,0,14159,,4.82271 C,0,14159,,243,243,243 P,0,14159,29762,A
Sprite,Background,Centre,"sb\pt\dot.png",0,0 L,14203,7 F,1,0,445,0,1 M,0,0,2229,382.2935,477.4826,383.9004,447.5257 F,2,1783,2229,1,0 S,0,14203,,0.2 R,0,14203,,4.765977 C,0,14203,,250,250,250 P,0,14203,29806,A
Sprite,Background,Centre,"sb\pt\dot.png",0,0 L,14225,7 F,1,0,445,0,1 M,0,0,2229,-39.23801,258.9495,-41.07817,229.006 F,2,1783,2229,1,0 S,0,14225,,0.2 R,0,14225,,4.651011 C,0,14225,,251,251,251 P,0,14225,29828,A
Sprite,Background,Centre,"sb\pt\dot.png",0,0 L,14248,7 F,1,0,445,0,1 M,0,0,2229,677.0982,169.1397,674.5375,139.2492 F,2,1783,2229,1,0 S,0,14248,,0.2 R,0,14248,,4.626929 C,0,14248,,241,241,241 P,0,14248,29851,A
Sprite,Background,Centre,"sb\pt\dot.png",0,0 L,14292,7 F,1,0,445,0,1 M,0,0,2229,395.1681,144.1656,393.623,114.2054 F,2,1783,2229,1,0 S,0,14292,,0.2 R,0,14292,,4.660861 C,0,14292,,45,45,45 P,0,14292,29895,A
Sprite,Background,Centre,"sb\pt\dot.png",0,0 L,14315,7 F,1,0,445,0,1 M,0,0,2229,260.1775,323.979,256.9886,294.149 F,2,1783,2229,1,0 S,0,14315,,0.2 R,0,14315,,4.605893 C,0,14315,,185,185,185 P,0,14315,29918,A
Sprite,Background,Centre,"sb\pt\dot.png",0,0 L,14359,7 F,1,0,445,0,1 M,0,0,2229,357.202,308.9064,358.3799,278.9295 F,2,1783,2229,1,0 S,0,14359,,0.2 R,0,14359,,4.75166 C,0,14359,,195,195,195 P,0,14359,29962,A
Sprite,Background,Centre,"sb\pt\dot.png",0,0 L,14404,7 F,1,0,445,0,1 M,0,0,2229,611.3539,199.1123,615.4475,169.3929 F,2,1783,2229,1,0 S,0,14404,,0.2 R,0,14404,,4.849271 C,0,14404,,119,119,119 P,0,14404,30007,A
Sprite,Background,Centre,"sb\pt\dot.png",0,0 L,14448,7 F,1,0,445,0,1 M,0,0,2229,576.0254,261.569,577.4681,231.6037 F,2,1783,2229,1,0 S,0,14448,,0.2 R,0,14448,,4.760499 C,0,14448,,161,161,161 P,0,14448,30051,A
Sprite,Background,Centre,"sb\pt\dot.png",0,0 L,14560,7 F,1,0,445,0,1 M,0,0,2229,303.4683,327.6519,307.0186,297.8627 F,2,1783,2229,1,0 S,0,14560,,0.2 R,0,14560,,4.831011 C,0,14560,,177,177,177 P,0,14560,30163,A
Sprite,Background,Centre,"sb\pt\dot.png",0,0 L,14671,7 F,1,0,445,0,1 M,0,0,2229,208.6158,389.1068,209.9123,359.1348 F,2,1783,2229,1,0 S,0,14671,,0.2 R,0,14671,,4.755617 C,0,14671,,227,227,227 P,0,14671,30274,A
Sprite,Background,Centre,"sb\pt\dot.png",0,0 L,14693,7 F,1,0,445,0,1 M,0,0,2229,147.3896,436.208,142.2007,406.6601 F,2,1783,2229,1,0 S,0,14693,,0.2 R,0,14693,,4.538553 C,0,14693,,198,198,198 P,0,14693,30296,A
Sprite,Background,Centre,"sb\pt\dot.png",0,0 L,14738,7 F,1,0,445,0,1 M,0,0,2229,398.9694,143.0095,402.4138,113.2079 F,2,1783,2229,1,0 S,0,14738,,0.2 R,0,14738,,4.827454 C,0,14738,,173,173,173 P,0,14738,30341,A
Sprite,Background,Centre,"sb\pt\dot.png",0,0 L,14872,7 F,1,0,445,0,1 M,0,0,2229,368.5284,150.1865,364.3657,120.4767 F,2,1783,2229,1,0 S,0,14872,,0.2 R,0,14872,,4.573184 C,0,14872,,114,114,114 P,0,14872,30475,A
Sprite,Background,Centre,"sb\pt\dot.png",0,0 L,14894,7 F,1,0,445,0,1 M,0,0,2229,548.8079,202.1164,550.9234,172.1911 F,2,1783,2229,1,0 S,0,14894,,0.2 R,0,14894,,4.782966 C,0,14894,,76,76,76 P,0,14894,30497,A
Sprite,Background,Centre,"sb\pt\dot.png",0,0 L,14916,7 F,1,0,445,0,1 M,0,0,2229,25.6033,342.7271,30.7448,313.171 F,2,1783,2229,1,0 S,0,14916,,0.2 R,0,14916,,4.884623 C,0,14916,,142,142,142 P,0,14916,30519,A
Sprite,Background,Centre,"sb\pt\dot.png",0,0 L,15006,7 F,1,0,445,0,1 M,0,0,2229,475.2103,166.7246,479.9195,137.0965 F,2,1783,2229,1,0 S,0,15006,,0.2 R,0,15006,,4.870014 C,0,15006,,247,247,247 P,0,15006,30609,A
Sprite,Background,Centre,"sb\pt\dot.png",0,0 L,15028,7 F,1,0,445,0,1 M,0,0,2229,591.0749,115.3286,590.7283,85.33055 F,2,1783,2229,1,0 S,0,15028,,0.2 R,0,15028,,4.700835 C,0,15028,,124,124,124 P,0,15028,30631,A
Sprite,Background,Centre,"sb\pt\dot.png",0,0 L,15050,7 F,1,0,445,0,1 M,0,0,2229,69.10844,395.3705,68.25774,365.3825 F,2,1783,2229,1,0 S,0,15050,,0.2 R,0,15050,,4.684029 C,0,15050,,165,165,165 P,0,15050,30653,A
Sprite,Background,Centre,"sb\pt\dot.png",0,0 L,15072,7 F,1,0,445,0,1 M,0,0,2229,126.3993,162.3827,130.9061,132.7232 F,2,1783,2229,1,0 S,0,15072,,0.2 R,0,15072,,4.863184 C,0,15072,,108,108,108 P,0,15072,30675,A
Sprite,Background,Centre,"sb\pt\dot.png",0,0 L,15095,7 F,1,0,445,0,1 M,0,0,2229,201.1766,225.3768,200.8281,195.3789 F,2,1783,2229,1,0 S,0,15095,,0.2 R,0,15095,,4.700772 C,0,15095,,100,100,100 P,0,15095,30698,A
Sprite,Background,Centre,"sb\pt\dot.png",0,0 L,15117,7 F,1,0,445,0,1 M,0,0,2229,611.0334,292.8428,614.8148,263.0821 F,2,1783,2229,1,0 S,0,15117,,0.2 R,0,15117,,4.838772 C,0,15117,,99,99,99 P,0,15117,30720,A
Sprite,Background,Centre,"sb\pt\dot.png",0,0 L,15139,7 F,1,0,445,0,1 M,0,0,2229,45.36557,485.2087,42.10499,455.3864 F,2,1783,2229,1,0 S,0,15139,,0.2 R,0,15139,,4.603488 C,0,15139,,200,200,200 P,0,15139,30742,A
Sprite,Background,Centre,"sb\pt\dot.png",0,0 L,15162,7 F,1,0,445,0,1 M,0,0,2229,-67.89722,237.6056,-69.36028,207.6413 F,2,1783,2229,1,0 S,0,15162,,0.2 R,0,15162,,4.663601 C,0,15162,,214,214,214 P,0,15162,30765,A
Sprite,Background,Centre,"sb\pt\dot.png",0,0 L,15206,7 F,1,0,445,0,1 M,0,0,2229,84.03545,204.7205,87.34005,174.9031 F,2,1783,2229,1,0 S,0,15206,,0.2 R,0,15206,,4.822766 C,0,15206,,99,99,99 P,0,15206,30809,A
Sprite,Background,Centre,"sb\pt\dot.png",0,0 L,15340,7 F,1,0,445,0,1 M,0,0,2229,-78.4119,281.931,-81.29459,252.0698 F,2,1783,2229,1,0 S,0,15340,,0.2 R,0,15340,,4.616151 C,0,15340,,148,148,148 P,0,15340,30943,A
Sprite,Background,Centre,"sb\pt\dot.png",0,0 L,15362,7 F,1,0,445,0,1 M,0,0,2229,389.9515,47.55713,392.6163,17.67572 F,2,1783,2229,1,0 S,0,15362,,0.2 R,0,15362,,4.801334 C,0,15362,,139,139,139 P,0,15362,30965,A
Sprite,Background,Centre,"sb\pt\dot.png",0,0 L,15407,7 F,1,0,445,0,1 M,0,0,2229,262.6373,46.60974,259.8005,16.74417 F,2,1783,2229,1,0 S,0,15407,,0.2 R,0,15407,,4.617685 C,0,15407,,105,105,105 P,0,15407,31010,A
Sprite,Background,Centre,"sb\pt\dot.png",0,0 L,15451,7 F,1,0,445,0,1 M,0,0,2229,78.33485,286.4999,81.41102,256.658 F,2,1783,2229,1,0 S,0,15451,,0.2 R,0,15451,,4.815108 C,0,15451,,134,134,134 P,0,15451,31054,A
Sprite,Background,Centre,"sb\pt\dot.png",0,0 L,15540,7 F,1,0,445,0,1 M,0,0,2229,369.434,201.9066,371.5261,171.9796 F,2,1783,2229,1,0 S,0,15540,,0.2 R,0,15540,,4.782181 C,0,15540,,154,154,154 P,0,15540,31143,A
Sprite,Background,Centre,"sb\pt\dot.png",0,0 L,15563,7 F,1,0,445,0,1 M,0,0,2229,-102.2552,358.5025,-103.0598,328.5133 F,2,1783,2229,1,0 S,0,15563,,0.2 R,0,15563,,4.685566 C,0,15563,,132,132,132 P,0,15563,31166,A
Sprite,Background,Centre,"sb\pt\dot.png",0,0 L,15585,7 F,1,0,445,0,1 M,0,0,2229,466.4077,144.6033,469.0378,114.7188 F,2,1783,2229,1,0 S,0,15585,,0.2 R,0,15585,,4.800172 C,0,15585,,244,244,244 P,0,15585,31188,A
Sprite,Background,Centre,"sb\pt\dot.png",0,0 L,15607,7 F,1,0,445,0,1 M,0,0,2229,-92.11966,237.8064,-96.79137,208.1724 F,2,1783,2229,1,0 S,0,15607,,0.2 R,0,15607,,4.556029 C,0,15607,,110,110,110 P,0,15607,31210,A
Sprite,Background,Centre,"sb\pt\dot.png",0,0 L,15630,7 F,1,0,445,0,1 M,0,0,2229,632.2847,412.1964,631.552,382.2054 F,2,1783,2229,1,0 S,0,15630,,0.2 R,0,15630,,4.687965 C,0,15630,,56,56,56 P,0,15630,31233,A
Sprite,Background,Centre,"sb\pt\dot.png",0,0 L,15652,7 F,1,0,445,0,1 M,0,0,2229,151.0372,274.1585,156.2368,244.6125 F,2,1783,2229,1,0 S,0,15652,,0.2 R,0,15652,,4.886588 C,0,15652,,143,143,143 P,0,15652,31255,A
Sprite,Background,Centre,"sb\pt\dot.png",0,0 L,15674,7 F,1,0,445,0,1 M,0,0,2229,246.346,352.2392,251.4798,322.6817 F,2,1783,2229,1,0 S,0,15674,,0.2 R,0,15674,,4.88436 C,0,15674,,78,78,78 P,0,15674,31277,A
Sprite,Background,Centre,"sb\pt\dot.png",0,0 L,15697,7 F,1,0,445,0,1 M,0,0,2229,617.0705,209.4412,615.369,179.4895 F,2,1783,2229,1,0 S,0,15697,,0.2 R,0,15697,,4.655642 C,0,15697,,243,243,243 P,0,15697,31300,A
Sprite,Background,Centre,"sb\pt\dot.png",0,0 L,15719,7 F,1,0,445,0,1 M,0,0,2229,115.401,455.4831,115.5077,425.4833 F,2,1783,2229,1,0 S,0,15719,,0.2 R,0,15719,,4.715949 C,0,15719,,158,158,158 P,0,15719,31322,A
Sprite,Background,Centre,"sb\pt\dot.png",0,0 L,15741,7 F,1,0,445,0,1 M,0,0,2229,25.34131,441.023,23.15244,411.103 F,2,1783,2229,1,0 S,0,15741,,0.2 R,0,15741,,4.639362 C,0,15741,,212,212,212 P,0,15741,31344,A
Sprite,Background,Centre,"sb\pt\dot.png",0,0 L,15763,7 F,1,0,445,0,1 M,0,0,2229,279.256,177.3377,279.6312,147.34 F,2,1783,2229,1,0 S,0,15763,,0.2 R,0,15763,,4.724897 C,0,15763,,108,108,108 P,0,15763,31366,A
Sprite,Background,Centre,"sb\pt\dot.png",0,0 L,15808,7 F,1,0,445,0,1 M,0,0,2229,68.56358,124.3118,65.81104,94.43837 F,2,1783,2229,1,0 S,0,15808,,0.2 R,0,15808,,4.620508 C,0,15808,,165,165,165 P,0,15808,31411,A
Sprite,Background,Centre,"sb\pt\dot.png",0,0 L,15853,7 F,1,0,445,0,1 M,0,0,2229,218.0322,416.5276,214.7172,386.7114 F,2,1783,2229,1,0 S,0,15853,,0.2 R,0,15853,,4.601663 C,0,15853,,241,241,241 P,0,15853,31456,A
Sprite,Background,Centre,"sb\pt\dot.png",0,0 L,15875,7 F,1,0,445,0,1 M,0,0,2229,188.071,287.6365,189.2175,257.6584 F,2,1783,2229,1,0 S,0,15875,,0.2 R,0,15875,,4.750614 C,0,15875,,215,215,215 P,0,15875,31478,A
Sprite,Background,Centre,"sb\pt\dot.png",0,0 L,15897,7 F,1,0,445,0,1 M,0,0,2229,413.3007,438.2453,413.7842,408.2492 F,2,1783,2229,1,0 S,0,15897,,0.2 R,0,15897,,4.728508 C,0,15897,,128,128,128 P,0,15897,31500,A
Sprite,Background,Centre,"sb\pt\dot.png",0,0 L,15919,7 F,1,0,445,0,1 M,0,0,2229,514.9704,500.9245,510.535,471.2542 F,2,1783,2229,1,0 S,0,15919,,0.2 R,0,15919,,4.563998 C,0,15919,,114,114,114 P,0,15919,31522,A
Sprite,Background,Centre,"sb\pt\dot.png",0,0 L,15942,7 F,1,0,445,0,1 M,0,0,2229,-17.44751,349.9213,-16.24722,319.9453 F,2,1783,2229,1,0 S,0,15942,,0.2 R,0,15942,,4.752409 C,0,15942,,248,248,248 P,0,15942,31545,A
Sprite,Background,Centre,"sb\pt\dot.png",0,0 L,15964,7 F,1,0,445,0,1 M,0,0,2229,673.2483,297.9999,678.3795,268.442 F,2,1783,2229,1,0 S,0,15964,,0.2 R,0,15964,,4.884273 C,0,15964,,195,195,195 P,0,15964,31567,A
Sprite,Background,Centre,"sb\pt\dot.png",0,0 L,15986,7 F,1,0,445,0,1 M,0,0,2229,238.2137,396.7104,239.6987,366.7472 F,2,1783,2229,1,0 S,0,15986,,0.2 R,0,15986,,4.761909 C,0,15986,,242,242,242 P,0,15986,31589,A
Sprite,Background,Centre,"sb\pt\dot.png",0,0 L,16031,7 F,1,0,445,0,1 M,0,0,2229,429.0119,407.5196,425.5497,377.72 F,2,1783,2229,1,0 S,0,16031,,0.2 R,0,16031,,4.596724 C,0,16031,,209,209,209 P,0,16031,31634,A
Sprite,Background,Centre,"sb\pt\dot.png",0,0 L,16120,7 F,1,0,445,0,1 M,0,0,2229,267.9719,151.2452,264.4464,121.4531 F,2,1783,2229,1,0 S,0,16120,,0.2 R,0,16120,,4.594599 C,0,16120,,190,190,190 P,0,16120,31723,A
Sprite,Background,Centre,"sb\pt\dot.png",0,0 L,16142,7 F,1,0,445,0,1 M,0,0,2229,191.5322,507.8168,196.3237,478.2019 F,2,1783,2229,1,0 S,0,16142,,0.2 R,0,16142,,4.872794 C,0,16142,,92,92,92 P,0,16142,31745,A
Sprite,Background,Centre,"sb\pt\dot.png",0,0 L,16165,7 F,1,0,445,0,1 M,0,0,2229,711.3886,218.683,707.7869,188.9 F,2,1783,2229,1,0 S,0,16165,,0.2 R,0,16165,,4.59204 C,0,16165,,132,132,132 P,0,16165,31768,A
Sprite,Background,Centre,"sb\pt\dot.png",0,0 L,16187,7 F,1,0,445,0,1 M,0,0,2229,606.9185,242.6343,611.4703,212.9816 F,2,1783,2229,1,0 S,0,16187,,0.2 R,0,16187,,4.864707 C,0,16187,,124,124,124 P,0,16187,31790,A
Sprite,Background,Centre,"sb\pt\dot.png",0,0 L,16231,7 F,1,0,445,0,1 M,0,0,2229,33.42902,166.1313,31.56736,136.1892 F,2,1783,2229,1,0 S,0,16231,,0.2 R,0,16231,,4.650294 C,0,16231,,121,121,121 P,0,16231,31834,A
Sprite,Background,Centre,"sb\pt\dot.png",0,0 L,16254,7 F,1,0,445,0,1 M,0,0,2229,195.3624,140.5761,194.5884,110.5861 F,2,1783,2229,1,0 S,0,16254,,0.2 R,0,16254,,4.686589 C,0,16254,,91,91,91 P,0,16254,31857,A
Sprite,Background,Centre,"sb\pt\dot.png",0,0 L,16321,7 F,1,0,445,0,1 M,0,0,2229,64.93614,163.9234,69.59902,134.288 F,2,1783,2229,1,0 S,0,16321,,0.2 R,0,16321,,4.868451 C,0,16321,,245,245,245 P,0,16321,31924,A
Sprite,Background,Centre,"sb\pt\dot.png",0,0 L,16365,7 F,1,0,445,0,1 M,0,0,2229,-3.14505,422.8508,-4.816623,392.8974 F,2,1783,2229,1,0 S,0,16365,,0.2 R,0,16365,,4.656641 C,0,16365,,192,192,192 P,0,16365,31968,A
Sprite,Background,Centre,"sb\pt\f.png",0,0 L,70994,1 F,1,0,866,0,0.2156863 M,15,0,4333,-306.2782,205.3602,-36.2782,205.3602 F,2,3466,4333,0.2156863,0 S,0,70994,,1.1 R,0,70994,,6.283185 P,0,70994,75327,A
Sprite,Background,Centre,"sb\pt\f.png",0,0 L,71102,1 F,1,0,866,0,0.2156863 M,15,0,4333,1.375824,297.8804,271.3758,297.8804 F,2,3466,4333,0.2156863,0 S,0,71102,,1.1 R,0,71102,,6.283185 P,0,71102,75435,A
Sprite,Background,Centre,"sb\pt\f.png",0,0 L,71535,1 F,1,0,866,0,0.2156863 M,15,0,4333,179.2726,107.2335,449.2726,107.2335 F,2,3466,4333,0.2156863,0 S,0,71535,,1.1 R,0,71535,,6.283185 P,0,71535,75868,A
Sprite,Background,Centre,"sb\pt\f.png",0,0 L,71752,1 F,1,0,866,0,0.2156863 M,15,0,4333,-352.3223,252.9679,-82.32233,252.968 F,2,3466,4333,0.2156863,0 S,0,71752,,1.1 R,0,71752,,6.283185 P,0,71752,76085,A
Sprite,Background,Centre,"sb\pt\f.png",0,0 L,71860,1 F,1,0,866,0,0.2156863 M,15,0,4333,349.4953,301.3102,619.4952,301.3102 F,2,3466,4333,0.2156863,0 S,0,71860,,1.1 R,0,71860,,6.283185 P,0,71860,76193,A
Sprite,Background,Centre,"sb\pt\f.png",0,0 L,71968,1 F,1,0,866,0,0.2156863 M,15,0,4333,638.7924,460.361,908.7924,460.3611 F,2,3466,4333,0.2156863,0 S,0,71968,,1.1 R,0,71968,,6.283185 P,0,71968,76301,A
Sprite,Background,Centre,"sb\pt\f.png",0,0 L,72293,1 F,1,0,866,0,0.2156863 M,15,0,4333,343.0882,288.0677,613.0881,288.0678 F,2,3466,4333,0.2156863,0 S,0,72293,,1.1 R,0,72293,,6.283185 P,0,72293,76626,A
Sprite,Background,Centre,"sb\pt\f.png",0,0 L,72402,1 F,1,0,866,0,0.2156863 M,15,0,4333,-144.5209,330.5498,125.4791,330.5498 F,2,3466,4333,0.2156863,0 S,0,72402,,1.1 R,0,72402,,6.283185 P,0,72402,76735,A
Sprite,Background,Centre,"sb\pt\f.png",0,0 L,72510,1 F,1,0,866,0,0.2156863 M,15,0,4333,501.6011,256.2928,771.6011,256.2929 F,2,3466,4333,0.2156863,0 S,0,72510,,1.1 R,0,72510,,6.283185 P,0,72510,76843,A
Sprite,Background,Centre,"sb\pt\f.png",0,0 L,72618,1 F,1,0,866,0,0.2156863 M,15,0,4333,-61.37661,503.6922,208.6234,503.6923 F,2,3466,4333,0.2156863,0 S,0,72618,,1.1 R,0,72618,,6.283185 P,0,72618,76951,A
Sprite,Background,Centre,"sb\pt\f.png",0,0 L,72835,1 F,1,0,866,0,0.2156863 M,15,0,4333,577.7728,181.2839,847.7728,181.2839 F,2,3466,4333,0.2156863,0 S,0,72835,,1.1 R,0,72835,,6.283185 P,0,72835,77168,A
Sprite,Background,Centre,"sb\pt\f.png",0,0 L,73160,1 F,1,0,866,0,0.2156863 M,15,0,4333,-329.0049,551.6733,-59.00494,551.6733 F,2,3466,4333,0.2156863,0 S,0,73160,,1.1 R,0,73160,,6.283185 P,0,73160,77493,A
Sprite,Background,Centre,"sb\pt\f.png",0,0 L,73702,1 F,1,0,866,0,0.2156863 M,15,0,4333,-68.85141,-82.98669,201.1486,-82.98665 F,2,3466,4333,0.2156863,0 S,0,73702,,1.1 R,0,73702,,6.283185 P,0,73702,78035,A
Sprite,Background,Centre,"sb\pt\f.png",0,0 L,74027,1 F,1,0,866,0,0.2156863 M,15,0,4333,-212.2117,189.8799,57.78831,189.8799 F,2,3466,4333,0.2156863,0 S,0,74027,,1.1 R,0,74027,,6.283185 P,0,74027,78360,A
Sprite,Background,Centre,"sb\pt\f.png",0,0 L,74460,1 F,1,0,866,0,0.2156863 M,15,0,4333,-398.1221,2.971924,-128.1221,2.971971 F,2,3466,4333,0.2156863,0 S,0,74460,,1.1 R,0,74460,,6.283185 P,0,74460,78793,A
Sprite,Background,Centre,"sb\pt\f.png",0,0 L,74568,1 F,1,0,866,0,0.2156863 M,15,0,4333,71.00681,114.3252,341.0068,114.3252 F,2,3466,4333,0.2156863,0 S,0,74568,,1.1 R,0,74568,,6.283185 P,0,74568,78901,A
Sprite,Background,Centre,"sb\pt\f.png",0,0 L,74785,1 F,1,0,866,0,0.2156863 M,15,0,4333,439.1324,548.7919,709.1324,548.792 F,2,3466,4333,0.2156863,0 S,0,74785,,1.1 R,0,74785,,6.283185 P,0,74785,79118,A
Sprite,Background,Centre,"sb\pt\f1.png",0,0 L,70994,1 F,1,0,1266,0,0.4117647 M,15,0,6333,529.0992,-32.2001,313.0593,129.7467 F,2,5066,6333,0.4117647,0 S,0,70994,,0.8 R,0,70994,,3.720068 C,0,70994,,0,0,0
Sprite,Background,Centre,"sb\pt\f1.png",0,0 L,71310,1 F,1,0,1266,0,0.4117647 M,15,0,6333,780.2328,178.0961,592.4401,372.0907 F,2,5066,6333,0.4117647,0 S,0,71310,,0.8 R,0,71310,,3.561682 C,0,71310,,0,0,0
Sprite,Background,Centre,"sb\pt\f1.png",0,0 L,71627,1 F,1,0,1266,0,0.4117647 M,15,0,6333,360.1857,71.58105,279.9342,329.3788 F,2,5066,6333,0.4117647,0 S,0,71627,,0.8 R,0,71627,,3.094315 C,0,71627,,0,0,0
Sprite,Background,Centre,"sb\pt\f1.png",0,0 L,71943,1 F,1,0,1266,0,0.4117647 M,15,0,6333,388.1634,99.36855,337.3892,364.5515 F,2,5066,6333,0.4117647,0 S,0,71943,,0.8 R,0,71943,,2.981706 C,0,71943,,0,0,0
Sprite,Background,Centre,"sb\pt\f1.png",0,0 L,72260,1 F,1,0,1266,0,0.4117647 M,15,0,6333,612.9413,315.4294,396.9652,477.4612 F,2,5066,6333,0.4117647,0 S,0,72260,,0.8 R,0,72260,,3.719675 C,0,72260,,0,0,0
Sprite,Background,Centre,"sb\pt\f1.png",0,0 L,72577,1 F,1,0,1266,0,0.4117647 M,15,0,6333,609.7498,228.6672,395.6262,393.1394 F,2,5066,6333,0.4117647,0 S,0,72577,,0.8 R,0,72577,,3.708327 C,0,72577,,0,0,0
Sprite,Background,Centre,"sb\pt\f1.png",0,0 L,72893,1 F,1,0,1266,0,0.4117647 M,15,0,6333,784.5726,263.251,546.4072,390.4406 F,2,5066,6333,0.4117647,0 S,0,72893,,0.8 R,0,72893,,3.872817 C,0,72893,,0,0,0
Sprite,Background,Centre,"sb\pt\f1.png",0,0 L,73210,1 F,1,0,1266,0,0.4117647 M,15,0,6333,749.761,-155.2348,593.1177,64.6808 F,2,5066,6333,0.4117647,0 S,0,73210,,0.8 R,0,73210,,3.411453 C,0,73210,,0,0,0
Sprite,Background,Centre,"sb\pt\f1.png",0,0 L,73527,1 F,1,0,1266,0,0.4117647 M,15,0,6333,569.5227,53.51791,509.8926,316.8509 F,2,5066,6333,0.4117647,0 S,0,73527,,0.8 R,0,73527,,3.015215 C,0,73527,,0,0,0
Sprite,Background,Centre,"sb\pt\f1.png",0,0 L,73843,1 F,1,0,1266,0,0.4117647 M,15,0,6333,515.2255,-7.433273,437.1104,251.0199 F,2,5066,6333,0.4117647,0 S,0,73843,,0.8 R,0,73843,,3.086038 C,0,73843,,0,0,0
Sprite,Background,Centre,"sb\pt\f1.png",0,0 L,74160,1 F,1,0,1266,0,0.4117647 M,15,0,6333,499.2921,271.2125,394.1104,519.8825 F,2,5066,6333,0.4117647,0 S,0,74160,,0.8 R,0,74160,,3.192683 C,0,74160,,0,0,0
Sprite,Background,Centre,"sb\pt\f1.png",0,0 L,74477,1 F,1,0,1266,0,0.4117647 M,15,0,6333,471.6483,100.2608,339.872,335.9195 F,2,5066,6333,0.4117647,0 S,0,74477,,0.8 R,0,74477,,3.302393 C,0,74477,,0,0,0
Sprite,Background,Centre,"sb\pt\f1.png",0,0 L,74793,1 F,1,0,1266,0,0.4117647 M,15,0,6333,330.2822,31.0006,263.2588,292.5496 F,2,5066,6333,0.4117647,0 S,0,74793,,0.8 R,0,74793,,3.043385 C,0,74793,,0,0,0
Sprite,Background,Centre,"sb\pt\f1.png",0,0 L,75110,1 F,1,0,1266,0,0.4117647 M,15,0,6333,350.2372,311.3781,222.8387,549.4319 F,2,5066,6333,0.4117647,0 S,0,75110,,0.8 R,0,75110,,3.283911 C,0,75110,,0,0,0
Sprite,Background,Centre,"sb\pt\f1.png",0,0 L,75427,1 F,1,0,1266,0,0.4117647 M,15,0,6333,385.6138,61.98748,206.2239,263.7776 F,2,5066,6333,0.4117647,0 S,0,75427,,0.8 R,0,75427,,3.519227 C,0,75427,,0,0,0
Sprite,Background,Centre,"sb\pt\f1.png",0,0 L,75743,1 F,1,0,1266,0,0.4117647 M,15,0,6333,462.5633,276.2846,221.3636,397.6219 F,2,5066,6333,0.4117647,0 S,0,75743,,0.8 R,0,75743,,3.897233 C,0,75743,,0,0,0
Sprite,Background,Centre,"sb\pt\f1.png",0,0 L,76060,1 F,1,0,1266,0,0.4117647 M,15,0,6333,654.9525,127.1438,418.1163,256.7917 F,2,5066,6333,0.4117647,0 S,0,76060,,0.8 R,0,76060,,3.862466 C,0,76060,,0,0,0
Sprite,Background,Centre,"sb\pt\f1.png",0,0 L,76377,1 F,1,0,1266,0,0.4117647 M,15,0,6333,720.2756,168.7711,493.7936,315.7606 F,2,5066,6333,0.4117647,0 S,0,76377,,0.8 R,0,76377,,3.787643 C,0,76377,,0,0,0
Sprite,Background,Centre,"sb\pt\f1.png",0,0 L,76693,1 F,1,0,1266,0,0.4117647 M,15,0,6333,732.1675,382.9813,593.5322,614.6713 F,2,5066,6333,0.4117647,0 S,0,76693,,0.8 R,0,76693,,3.331744 C,0,76693,,0,0,0
Sprite,Background,Centre,"sb\pt\f1.png",0,0 L,77010,1 F,1,0,1266,0,0.4117647 M,15,0,6333,462.9705,208.3399,285.8987,412.1672 F,2,5066,6333,0.4117647,0 S,0,77010,,0.8 R,0,77010,,3.507797 C,0,77010,,0,0,0
Sprite,Background,Centre,"sb\pt\dot.png",0,0 L,70994,5 F,1,0,437,0,1 M,0,0,2186,-86.85049,423.8224,-91.30145,394.1544 F,2,1749,2186,1,0 S,0,70994,,0.2 R,0,70994,,4.563474 C,0,70994,,165,165,165 P,0,70994,81927,A
Sprite,Background,Centre,"sb\pt\dot.png",0,0 L,71015,5 F,1,0,437,0,1 M,0,0,2186,576.458,136.1817,579.36,106.3224 F,2,1749,2186,1,0 S,0,71015,,0.2 R,0,71015,,4.809276 C,0,71015,,159,159,159 P,0,71015,81948,A
Sprite,Background,Centre,"sb\pt\dot.png",0,0 L,71037,5 F,1,0,437,0,1 M,0,0,2186,268.3356,440.4133,269.7485,410.4466 F,2,1749,2186,1,0 S,0,71037,,0.2 R,0,71037,,4.759503 C,0,71037,,109,109,109 P,0,71037,81970,A
Sprite,Background,Centre,"sb\pt\dot.png",0,0 L,71059,5 F,1,0,437,0,1 M,0,0,2186,55.71771,370.7961,57.30788,340.8382 F,2,1749,2186,1,0 S,0,71059,,0.2 R,0,71059,,4.765419 C,0,71059,,184,184,184 P,0,71059,81992,A
Sprite,Background,Centre,"sb\pt\dot.png",0,0 L,71081,5 F,1,0,437,0,1 M,0,0,2186,361.6266,293.9641,364.0371,264.0611 F,2,1749,2186,1,0 S,0,71081,,0.2 R,0,71081,,4.792826 C,0,71081,,102,102,102 P,0,71081,82014,A
Sprite,Background,Centre,"sb\pt\dot.png",0,0 L,71168,5 F,1,0,437,0,1 M,0,0,2186,495.1552,105.2647,492.3234,75.39869 F,2,1749,2186,1,0 S,0,71168,,0.2 R,0,71168,,4.617855 C,0,71168,,231,231,231 P,0,71168,82101,A
Sprite,Background,Centre,"sb\pt\dot.png",0,0 L,71190,5 F,1,0,437,0,1 M,0,0,2186,169.3193,182.9741,169.026,152.9755 F,2,1749,2186,1,0 S,0,71190,,0.2 R,0,71190,,4.702613 C,0,71190,,197,197,197 P,0,71190,82123,A
Sprite,Background,Centre,"sb\pt\dot.png",0,0 L,71212,5 F,1,0,437,0,1 M,0,0,2186,-88.32367,318.6339,-89.09853,288.6439 F,2,1749,2186,1,0 S,0,71212,,0.2 R,0,71212,,4.686557 C,0,71212,,173,173,173 P,0,71212,82145,A
Sprite,Background,Centre,"sb\pt\dot.png",0,0 L,71234,5 F,1,0,437,0,1 M,0,0,2186,10.3891,300.6186,12.44342,270.689 F,2,1749,2186,1,0 S,0,71234,,0.2 R,0,71234,,4.78092 C,0,71234,,169,169,169 P,0,71234,82167,A
Sprite,Background,Centre,"sb\pt\dot.png",0,0 L,71256,5 F,1,0,437,0,1 M,0,0,2186,286.1039,192.3537,280.912,162.8064 F,2,1749,2186,1,0 S,0,71256,,0.2 R,0,71256,,4.538449 C,0,71256,,221,221,221 P,0,71256,82189,A
Sprite,Background,Centre,"sb\pt\dot.png",0,0 L,71300,5 F,1,0,437,0,1 M,0,0,2186,50.45551,442.0668,49.68593,412.0766 F,2,1749,2186,1,0 S,0,71300,,0.2 R,0,71300,,4.686734 C,0,71300,,245,245,245 P,0,71300,82233,A
Sprite,Background,Centre,"sb\pt\dot.png",0,0 L,71387,5 F,1,0,437,0,1 M,0,0,2186,267.8604,352.9106,266.0328,322.9664 F,2,1749,2186,1,0 S,0,71387,,0.2 R,0,71387,,4.651433 C,0,71387,,217,217,217 P,0,71387,82320,A
Sprite,Background,Centre,"sb\pt\dot.png",0,0 L,71431,5 F,1,0,437,0,1 M,0,0,2186,76.40953,415.4076,80.09059,385.6343 F,2,1749,2186,1,0 S,0,71431,,0.2 R,0,71431,,4.835401 C,0,71431,,223,223,223 P,0,71431,82364,A
Sprite,Background,Centre,"sb\pt\dot.png",0,0 L,71475,5 F,1,0,437,0,1 M,0,0,2186,368.2838,45.58865,370.3691,15.66121 F,2,1749,2186,1,0 S,0,71475,,0.2 R,0,71475,,4.781954 C,0,71475,,248,248,248 P,0,71475,82408,A
Sprite,Background,Centre,"sb\pt\dot.png",0,0 L,71518,5 F,1,0,437,0,1 M,0,0,2186,550.7902,316.2634,552.5991,286.318 F,2,1749,2186,1,0 S,0,71518,,0.2 R,0,71518,,4.772722 C,0,71518,,165,165,165 P,0,71518,82451,A
Sprite,Background,Centre,"sb\pt\dot.png",0,0 L,71540,5 F,1,0,437,0,1 M,0,0,2186,228.0817,32.43466,224.6942,2.626532 F,2,1749,2186,1,0 S,0,71540,,0.2 R,0,71540,,4.59923 C,0,71540,,172,172,172 P,0,71540,82473,A
Sprite,Background,Centre,"sb\pt\dot.png",0,0 L,71562,5 F,1,0,437,0,1 M,0,0,2186,113.7554,68.43677,117.5439,38.67694 F,2,1749,2186,1,0 S,0,71562,,0.2 R,0,71562,,4.839011 C,0,71562,,146,146,146 P,0,71562,82495,A
Sprite,Background,Centre,"sb\pt\dot.png",0,0 L,71584,5 F,1,0,437,0,1 M,0,0,2186,223.237,162.8558,226.8985,133.0801 F,2,1749,2186,1,0 S,0,71584,,0.2 R,0,71584,,4.834743 C,0,71584,,89,89,89 P,0,71584,82517,A
Sprite,Background,Centre,"sb\pt\dot.png",0,0 L,71606,5 F,1,0,437,0,1 M,0,0,2186,56.76312,477.3112,54.18253,447.4224 F,2,1749,2186,1,0 S,0,71606,,0.2 R,0,71606,,4.626263 C,0,71606,,215,215,215 P,0,71606,82539,A
Sprite,Background,Centre,"sb\pt\dot.png",0,0 L,71649,5 F,1,0,437,0,1 M,0,0,2186,198.0723,462.6375,196.6413,432.6717 F,2,1749,2186,1,0 S,0,71649,,0.2 R,0,71649,,4.66467 C,0,71649,,231,231,231 P,0,71649,82582,A
Sprite,Background,Centre,"sb\pt\dot.png",0,0 L,71693,5 F,1,0,437,0,1 M,0,0,2186,-36.65939,219.9089,-37.48298,189.9202 F,2,1749,2186,1,0 S,0,71693,,0.2 R,0,71693,,4.684933 C,0,71693,,129,129,129 P,0,71693,82626,A
Sprite,Background,Centre,"sb\pt\dot.png",0,0 L,71715,5 F,1,0,437,0,1 M,0,0,2186,190.8727,220.2224,189.8979,190.2382 F,2,1749,2186,1,0 S,0,71715,,0.2 R,0,71715,,4.679889 C,0,71715,,220,220,220 P,0,71715,82648,A
Sprite,Background,Centre,"sb\pt\dot.png",0,0 L,71759,5 F,1,0,437,0,1 M,0,0,2186,703.1826,471.3806,698.9993,441.6737 F,2,1749,2186,1,0 S,0,71759,,0.2 R,0,71759,,4.572493 C,0,71759,,113,113,113 P,0,71759,82692,A
Sprite,Background,Centre,"sb\pt\dot.png",0,0 L,71781,5 F,1,0,437,0,1 M,0,0,2186,214.4852,123.154,210.2506,93.45438 F,2,1749,2186,1,0 S,0,71781,,0.2 R,0,71781,,4.570764 C,0,71781,,158,158,158 P,0,71781,82714,A
Sprite,Background,Centre,"sb\pt\dot.png",0,0 L,71803,5 F,1,0,437,0,1 M,0,0,2186,693.0206,379.886,697.6624,350.2473 F,2,1749,2186,1,0 S,0,71803,,0.2 R,0,71803,,4.867739 C,0,71803,,109,109,109 P,0,71803,82736,A
Sprite,Background,Centre,"sb\pt\dot.png",0,0 L,71846,5 F,1,0,437,0,1 M,0,0,2186,301.6881,49.10248,305.3733,19.32968 F,2,1749,2186,1,0 S,0,71846,,0.2 R,0,71846,,4.835539 C,0,71846,,208,208,208 P,0,71846,82779,A
Sprite,Background,Centre,"sb\pt\dot.png",0,0 L,71890,5 F,1,0,437,0,1 M,0,0,2186,530.8859,66.39417,534.5042,36.61317 F,2,1749,2186,1,0 S,0,71890,,0.2 R,0,71890,,4.833295 C,0,71890,,243,243,243 P,0,71890,82823,A
Sprite,Background,Centre,"sb\pt\dot.png",0,0 L,71934,5 F,1,0,437,0,1 M,0,0,2186,10.10226,428.7356,7.634406,398.8372 F,2,1749,2186,1,0 S,0,71934,,0.2 R,0,71934,,4.630034 C,0,71934,,226,226,226 P,0,71934,82867,A
Sprite,Background,Centre,"sb\pt\dot.png",0,0 L,72043,5 F,1,0,437,0,1 M,0,0,2186,342.3198,164.1784,343.7106,134.2106 F,2,1749,2186,1,0 S,0,72043,,0.2 R,0,72043,,4.758765 C,0,72043,,235,235,235 P,0,72043,82976,A
Sprite,Background,Centre,"sb\pt\dot.png",0,0 L,72065,5 F,1,0,437,0,1 M,0,0,2186,712.621,495.1358,711.6885,465.1503 F,2,1749,2186,1,0 S,0,72065,,0.2 R,0,72065,,4.681301 C,0,72065,,237,237,237 P,0,72065,82998,A
Sprite,Background,Centre,"sb\pt\dot.png",0,0 L,72087,5 F,1,0,437,0,1 M,0,0,2186,198.9825,273.9137,199.0156,243.9137 F,2,1749,2186,1,0 S,0,72087,,0.2 R,0,72087,,4.713491 C,0,72087,,231,231,231 P,0,72087,83020,A
Sprite,Background,Centre,"sb\pt\dot.png",0,0 L,72109,5 F,1,0,437,0,1 M,0,0,2186,672.0455,518.3609,668.1528,488.6145 F,2,1749,2186,1,0 S,0,72109,,0.2 R,0,72109,,4.582263 C,0,72109,,214,214,214 P,0,72109,83042,A
Sprite,Background,Centre,"sb\pt\dot.png",0,0 L,72131,5 F,1,0,437,0,1 M,0,0,2186,563.6082,423.9285,561.8079,393.9825 F,2,1749,2186,1,0 S,0,72131,,0.2 R,0,72131,,4.652343 C,0,72131,,158,158,158 P,0,72131,83064,A
Sprite,Background,Centre,"sb\pt\dot.png",0,0 L,72152,5 F,1,0,437,0,1 M,0,0,2186,280.6903,357.4568,285.5497,327.8529 F,2,1749,2186,1,0 S,0,72152,,0.2 R,0,72152,,4.875088 C,0,72152,,129,129,129 P,0,72152,83085,A
Sprite,Background,Centre,"sb\pt\dot.png",0,0 L,72174,5 F,1,0,437,0,1 M,0,0,2186,454.8897,80.05487,454.8318,50.05492 F,2,1749,2186,1,0 S,0,72174,,0.2 R,0,72174,,4.710459 C,0,72174,,155,155,155 P,0,72174,83107,A
Sprite,Background,Centre,"sb\pt\dot.png",0,0 L,72196,5 F,1,0,437,0,1 M,0,0,2186,112.4497,47.91205,114.4717,17.98026 F,2,1749,2186,1,0 S,0,72196,,0.2 R,0,72196,,4.77984 C,0,72196,,150,150,150 P,0,72196,83129,A
Sprite,Background,Centre,"sb\pt\dot.png",0,0 L,72218,5 F,1,0,437,0,1 M,0,0,2186,-27.81787,246.7527,-27.83002,216.7527 F,2,1749,2186,1,0 S,0,72218,,0.2 R,0,72218,,4.711984 C,0,72218,,128,128,128 P,0,72218,83151,A
Sprite,Background,Centre,"sb\pt\dot.png",0,0 L,72262,5 F,1,0,437,0,1 M,0,0,2186,179.433,350.2842,183.4028,320.548 F,2,1749,2186,1,0 S,0,72262,,0.2 R,0,72262,,4.845105 C,0,72262,,128,128,128 P,0,72262,83195,A
Sprite,Background,Centre,"sb\pt\dot.png",0,0 L,72284,5 F,1,0,437,0,1 M,0,0,2186,-46.93118,332.1176,-47.0358,302.1177 F,2,1749,2186,1,0 S,0,72284,,0.2 R,0,72284,,4.708902 C,0,72284,,222,222,222 P,0,72284,83217,A
Sprite,Background,Centre,"sb\pt\dot.png",0,0 L,72327,5 F,1,0,437,0,1 M,0,0,2186,211.2961,114.7967,215.8139,85.13885 F,2,1749,2186,1,0 S,0,72327,,0.2 R,0,72327,,4.863557 C,0,72327,,241,241,241 P,0,72327,83260,A
Sprite,Background,Centre,"sb\pt\dot.png",0,0 L,72349,5 F,1,0,437,0,1 M,0,0,2186,326.9497,157.6147,323.5472,127.8082 F,2,1749,2186,1,0 S,0,72349,,0.2 R,0,72349,,4.598728 C,0,72349,,125,125,125 P,0,72349,83282,A
Sprite,Background,Centre,"sb\pt\dot.png",0,0 L,72371,5 F,1,0,437,0,1 M,0,0,2186,520.3286,208.1415,518.7862,178.1812 F,2,1749,2186,1,0 S,0,72371,,0.2 R,0,72371,,4.660954 C,0,72371,,147,147,147 P,0,72371,83304,A
Sprite,Background,Centre,"sb\pt\dot.png",0,0 L,72393,5 F,1,0,437,0,1 M,0,0,2186,379.8666,57.06485,381.2758,27.09797 F,2,1749,2186,1,0 S,0,72393,,0.2 R,0,72393,,4.75938 C,0,72393,,222,222,222 P,0,72393,83326,A
Sprite,Background,Centre,"sb\pt\dot.png",0,0 L,72415,5 F,1,0,437,0,1 M,0,0,2186,503.0096,264.2045,504.2866,234.2317 F,2,1749,2186,1,0 S,0,72415,,0.2 R,0,72415,,4.75497 C,0,72415,,239,239,239 P,0,72415,83348,A
Sprite,Background,Centre,"sb\pt\dot.png",0,0 L,72459,5 F,1,0,437,0,1 M,0,0,2186,176.3931,146.7109,173.8062,116.8226 F,2,1749,2186,1,0 S,0,72459,,0.2 R,0,72459,,4.626053 C,0,72459,,160,160,160 P,0,72459,83392,A
Sprite,Background,Centre,"sb\pt\dot.png",0,0 L,72502,5 F,1,0,437,0,1 M,0,0,2186,22.29938,349.4503,20.84789,319.4854 F,2,1749,2186,1,0 S,0,72502,,0.2 R,0,72502,,4.663987 C,0,72502,,173,173,173 P,0,72502,83435,A
Sprite,Background,Centre,"sb\pt\dot.png",0,0 L,72633,5 F,1,0,437,0,1 M,0,0,2186,643.8724,496.6595,640.4421,466.8562 F,2,1749,2186,1,0 S,0,72633,,0.2 R,0,72633,,4.597795 C,0,72633,,224,224,224 P,0,72633,83566,A
Sprite,Background,Centre,"sb\pt\dot.png",0,0 L,72677,5 F,1,0,437,0,1 M,0,0,2186,350.1289,204.0886,345.4973,174.4483 F,2,1749,2186,1,0 S,0,72677,,0.2 R,0,72677,,4.557382 C,0,72677,,113,113,113 P,0,72677,83610,A
Sprite,Background,Centre,"sb\pt\dot.png",0,0 L,72743,5 F,1,0,437,0,1 M,0,0,2186,529.6415,77.30096,529.4653,47.30148 F,2,1749,2186,1,0 S,0,72743,,0.2 R,0,72743,,4.706515 C,0,72743,,175,175,175 P,0,72743,83676,A
Sprite,Background,Centre,"sb\pt\dot.png",0,0 L,72787,5 F,1,0,437,0,1 M,0,0,2186,558.0663,430.8854,554.3339,401.1185 F,2,1749,2186,1,0 S,0,72787,,0.2 R,0,72787,,4.587653 C,0,72787,,67,67,67 P,0,72787,83720,A
Sprite,Background,Centre,"sb\pt\dot.png",0,0 L,72852,5 F,1,0,437,0,1 M,0,0,2186,28.50677,479.0137,28.99283,449.0176 F,2,1749,2186,1,0 S,0,72852,,0.2 R,0,72852,,4.728591 C,0,72852,,127,127,127 P,0,72852,83785,A
Sprite,Background,Centre,"sb\pt\dot.png",0,0 L,72874,5 F,1,0,437,0,1 M,0,0,2186,224.1076,214.8035,220.6604,185.0022 F,2,1749,2186,1,0 S,0,72874,,0.2 R,0,72874,,4.597229 C,0,72874,,183,183,183 P,0,72874,83807,A
Sprite,Background,Centre,"sb\pt\dot.png",0,0 L,72918,5 F,1,0,437,0,1 M,0,0,2186,239.62,433.9557,236.9627,404.0737 F,2,1749,2186,1,0 S,0,72918,,0.2 R,0,72918,,4.623695 C,0,72918,,177,177,177 P,0,72918,83851,A
Sprite,Background,Centre,"sb\pt\dot.png",0,0 L,72940,5 F,1,0,437,0,1 M,0,0,2186,711.4148,502.1778,707.8188,472.3941 F,2,1749,2186,1,0 S,0,72940,,0.2 R,0,72940,,4.592234 C,0,72940,,140,140,140 P,0,72940,83873,A
Sprite,Background,Centre,"sb\pt\dot.png",0,0 L,72961,5 F,1,0,437,0,1 M,0,0,2186,43.63269,442.4081,44.93763,412.4365 F,2,1749,2186,1,0 S,0,72961,,0.2 R,0,72961,,4.755901 C,0,72961,,86,86,86 P,0,72961,83894,A
Sprite,Background,Centre,"sb\pt\dot.png",0,0 L,73027,5 F,1,0,437,0,1 M,0,0,2186,7.335449,120.4358,5.033604,90.5242 F,2,1749,2186,1,0 S,0,73027,,0.2 R,0,73027,,4.635585 C,0,73027,,149,149,149 P,0,73027,83960,A
Sprite,Background,Centre,"sb\pt\dot.png",0,0 L,73049,5 F,1,0,437,0,1 M,0,0,2186,323.2317,288.3494,319.895,258.5356 F,2,1749,2186,1,0 S,0,73049,,0.2 R,0,73049,,4.600935 C,0,73049,,169,169,169 P,0,73049,83982,A
Sprite,Background,Centre,"sb\pt\dot.png",0,0 L,73136,5 F,1,0,437,0,1 M,0,0,2186,27.17197,205.5984,24.55771,175.7125 F,2,1749,2186,1,0 S,0,73136,,0.2 R,0,73136,,4.625136 C,0,73136,,124,124,124 P,0,73136,84069,A
Sprite,Background,Centre,"sb\pt\dot.png",0,0 L,73158,5 F,1,0,437,0,1 M,0,0,2186,-91.16168,425.0448,-94.73742,395.2587 F,2,1749,2186,1,0 S,0,73158,,0.2 R,0,73158,,4.592914 C,0,73158,,213,213,213 P,0,73158,84091,A
Sprite,Background,Centre,"sb\pt\dot.png",0,0 S,0,7381,,0.1530035 MX,16,7381,9186,161,151 MY,0,7381,14601,485,-5 MX,15,9186,10991,151,161 MX,16,10991,12796,161,171 MX,15,12796,14601,171,161 F,0,13159,13659,1,0
Sprite,Background,Centre,"sb\pt\dot.png",0,0 S,0,8479,,0.2951241 MX,16,8479,10172,0,-10 MY,0,8479,15254,485,-5 MX,15,10172,11866,-10,0 MX,16,11866,13560,0,10 F,0,13159,13659,1,0 MX,15,13560,15254,10,0
Sprite,Background,Centre,"sb\pt\dot.png",0,0 S,0,7155,,0.2887608 MX,16,7155,9157,591,601 MY,0,7155,15165,485,-5 MX,15,9157,11160,601,591 MX,16,11160,13162,591,581 F,0,13159,13659,1,0 MX,15,13162,15165,581,591
Sprite,Background,Centre,"sb\pt\dot.png",0,0 S,0,5886,,0.2257129 MX,16,5886,8147,100,90 MY,0,5886,14933,485,-5 MX,15,8147,10409,90,100 MX,16,10409,12671,100,110 MX,15,12671,14933,110,100 F,0,13159,13659,1,0
Sprite,Background,Centre,"sb\pt\dot.png",0,0 S,0,6145,,0.1910962 MX,16,6145,7895,456,466 MY,0,6145,13147,485,-5 MX,15,7895,9646,466,456 MX,16,9646,11396,456,446 MX,15,11396,13147,446,456 S,0,13147,,0.2907847 MX,16,13147,14898,36,26 MY,0,13147,20150,485,-5 F,0,13159,13659,1,0 MX,15,14898,16648,26,36 MX,16,16648,18399,36,46 MX,15,18399,20150,46,36
Sprite,Background,Centre,"sb\pt\dot.png",0,0 S,0,6751,,0.07233592 MX,16,6751,9476,429,419 MY,0,6751,17653,485,-5 MX,15,9476,12202,419,429 MX,16,12202,14927,429,439 F,0,13159,13659,1,0 MX,15,14927,17653,439,429
Sprite,Background,Centre,"sb\pt\dot.png",0,0 S,0,9808,,0.1225821 MX,16,9808,11381,501,511 MY,0,9808,16103,485,-5 MX,15,11381,12955,511,501 MX,16,12955,14529,501,491 F,0,13159,13659,1,0 MX,15,14529,16103,491,501
Sprite,Background,Centre,"sb\pt\dot.png",0,0 S,0,9695,,0.1778063 MX,16,9695,12750,468,478 MY,0,9695,21917,485,-5 MX,15,12750,15806,478,468 F,0,13159,13659,1,0 MX,16,15806,18861,468,458 MX,15,18861,21917,458,468
Sprite,Background,Centre,"sb\pt\dot.png",0,0 S,0,9509,,0.2033159 MX,16,9509,12036,494,504 MY,0,9509,19619,485,-5 MX,15,12036,14564,504,494 F,0,13159,13659,1,0 MX,16,14564,17091,494,484 MX,15,17091,19619,484,494
Sprite,Background,Centre,"sb\pt\dot.png",0,0 S,0,10174,,0.2865399 MX,16,10174,11659,736,746 MY,0,10174,16114,485,-5 MX,15,11659,13144,746,736 MX,16,13144,14629,736,726 F,0,13159,13659,1,0 MX,15,14629,16114,726,736
Sprite,Background,Centre,"sb\pt\dot.png",0,0 S,0,9955,,0.08243719 MX,16,9955,12266,-70,-80 MY,0,9955,19202,485,-5 MX,15,12266,14578,-80,-70 F,0,13159,13659,1,0 MX,16,14578,16890,-70,-60 MX,15,16890,19202,-60,-70
Sprite,Background,Centre,"sb\pt\dot.png",0,0 S,0,8463,,0.2858538 MX,16,8463,10123,677,667 MY,0,8463,15105,485,-5 MX,15,10123,11784,667,677 MX,16,11784,13444,677,687 F,0,13159,13659,1,0 MX,15,13444,15105,687,677
Sprite,Background,Centre,"sb\pt\dot.png",0,0 S,0,7647,,0.06516656 MX,16,7647,9556,671,661 MY,0,7647,15284,485,-5 MX,15,9556,11465,661,671 MX,16,11465,13375,671,681 F,0,13159,13659,1,0 MX,15,13375,15284,681,671
Sprite,Background,Centre,"sb\pt\dot.png",0,0 S,0,7078,,0.172552 MX,16,7078,8779,49,39 MY,0,7078,13885,485,-5 MX,15,8779,10481,39,49 MX,16,10481,12183,49,59 MX,15,12183,13885,59,49 F,0,13159,13659,1,0
Sprite,Background,Centre,"sb\pt\dot.png",0,0 S,0,7993,,0.2816737 MX,16,7993,9273,163,153 MY,0,7993,13113,485,-5 MX,15,9273,10553,153,163 MX,16,10553,11833,163,173 MX,15,11833,13113,173,163 S,0,13113,,0.07468063 MX,16,13113,14393,353,363 MY,0,13113,18233,485,-5 F,0,13159,13659,1,0 MX,15,14393,15673,363,353 MX,16,15673,16953,353,343 MX,15,16953,18233,343,353
Sprite,Background,Centre,"sb\pt\dot.png",0,0 S,0,5903,,0.1567147 MX,16,5903,7326,-57,-67 MY,0,5903,11595,485,-5 MX,15,7326,8749,-67,-57 MX,16,8749,10172,-57,-47 MX,15,10172,11595,-47,-57 S,0,11595,,0.1151179 MX,16,11595,13018,242,252 MY,0,11595,17288,485,-5 MX,15,13018,14441,252,242 F,0,13159,13659,1,0 MX,16,14441,15864,242,232 MX,15,15864,17288,232,242
Sprite,Background,Centre,"sb\pt\dot.png",0,0 S,0,6473,,0.1930591 MX,16,6473,7864,520,510 MY,0,6473,12040,485,-5 MX,15,7864,9256,510,520 MX,16,9256,10648,520,530 MX,15,10648,12040,530,520 S,0,12040,,0.2534269 MX,16,12040,13432,-69,-79 MY,0,12040,17608,485,-5 F,0,13159,13659,1,0 MX,15,13432,14824,-79,-69 MX,16,14824,16216,-69,-59 MX,15,16216,17608,-59,-69
Sprite,Background,Centre,"sb\pt\dot.png",0,0 S,0,6462,,0.08057474 MX,16,6462,8432,550,540 MY,0,6462,14344,485,-5 MX,15,8432,10403,540,550 MX,16,10403,12373,550,560 MX,15,12373,14344,560,550 F,0,13159,13659,1,0
Sprite,Background,Centre,"sb\pt\dot.png",0,0 S,0,7562,,0.241431 MX,16,7562,9989,698,708 MY,0,7562,17272,485,-5 MX,15,9989,12417,708,698 MX,16,12417,14844,698,688 F,0,13159,13659,1,0 MX,15,14844,17272,688,698
Sprite,Background,Centre,"sb\pt\dot.png",0,0 S,0,8382,,0.2310025 MX,16,8382,11149,106,116 MY,0,8382,19452,485,-5 MX,15,11149,13917,116,106 F,0,13159,13659,1,0 MX,16,13917,16684,106,96 MX,15,16684,19452,96,106
Sprite,Background,Centre,"sb\pt\dot.png",0,0 S,0,58595,,0.1039118 MX,16,58595,61128,27,37 MY,0,58595,68730,485,-5 MX,15,61128,63662,37,27 MX,16,63662,66196,27,17 F,0,63994,64494,1,0 MX,15,66196,68730,17,27
Sprite,Background,Centre,"sb\pt\dot.png",0,0 S,0,60235,,0.08982898 MX,16,60235,62543,703,713 MY,0,60235,69470,485,-5 MX,15,62543,64852,713,703 F,0,63994,64494,1,0 MX,16,64852,67161,703,693 MX,15,67161,69470,693,703
Sprite,Background,Centre,"sb\pt\dot.png",0,0 S,0,59785,,0.1908904 MX,16,59785,61261,34,44 MY,0,59785,65692,485,-5 MX,15,61261,62738,44,34 MX,16,62738,64215,34,24 F,0,63994,64494,1,0 MX,15,64215,65692,24,34
Sprite,Background,Centre,"sb\pt\dot.png",0,0 S,0,60398,,0.2158345 MX,16,60398,62374,419,409 MY,0,60398,68305,485,-5 MX,15,62374,64351,409,419 F,0,63994,64494,1,0 MX,16,64351,66328,419,429 MX,15,66328,68305,429,419
Sprite,Background,Centre,"sb\pt\dot.png",0,0 S,0,58521,,0.2203432 MX,16,58521,61214,310,300 MY,0,58521,69293,485,-5 MX,15,61214,63907,300,310 MX,16,63907,66600,310,320 F,0,63994,64494,1,0 MX,15,66600,69293,320,310
Sprite,Background,Centre,"sb\pt\dot.png",0,0 S,0,58147,,0.2757476 MX,16,58147,59615,-31,-21 MY,0,58147,64019,485,-5 MX,15,59615,61083,-21,-31 MX,16,61083,62551,-31,-41 MX,15,62551,64019,-41,-31 F,0,63994,64494,1,0
Sprite,Background,Centre,"sb\pt\dot.png",0,0 S,0,57907,,0.1035551 MX,16,57907,60993,628,638 MY,0,57907,70254,485,-5 MX,15,60993,64080,638,628 F,0,63994,64494,1,0 MX,16,64080,67167,628,618 MX,15,67167,70254,618,628
Sprite,Background,Centre,"sb\pt\dot.png",0,0 S,0,56070,,0.281785 MX,16,56070,58063,14,4 MY,0,56070,64042,485,-5 MX,15,58063,60056,4,14 MX,16,60056,62049,14,24 MX,15,62049,64042,24,14 F,0,63994,64494,1,0
Sprite,Background,Centre,"sb\pt\dot.png",0,0 S,0,58635,,0.1305261 MX,16,58635,60701,121,131 MY,0,58635,66902,485,-5 MX,15,60701,62768,131,121 MX,16,62768,64835,121,111 F,0,63994,64494,1,0 MX,15,64835,66902,111,121
Sprite,Background,Centre,"sb\pt\dot.png",0,0 S,0,56954,,0.2619381 MX,16,56954,59071,315,325 MY,0,56954,65424,485,-5 MX,15,59071,61189,325,315 MX,16,61189,63306,315,305 MX,15,63306,65424,305,315 F,0,63994,64494,1,0
Sprite,Background,Centre,"sb\pt\dot.png",0,0 S,0,56440,,0.1016137 MX,16,56440,58050,524,514 MY,0,56440,62882,485,-5 MX,15,58050,59661,514,524 MX,16,59661,61271,524,534 MX,15,61271,62882,534,524 S,0,62882,,0.103795 MX,16,62882,64493,562,552 MY,0,62882,69325,485,-5 F,0,63994,64494,1,0 MX,15,64493,66103,552,562 MX,16,66103,67714,562,572 MX,15,67714,69325,572,562
Sprite,Background,Centre,"sb\pt\dot.png",0,0 S,0,57000,,0.1324281 MX,16,57000,59596,546,536 MY,0,57000,67387,485,-5 MX,15,59596,62193,536,546 MX,16,62193,64790,546,556 F,0,63994,64494,1,0 MX,15,64790,67387,556,546
Sprite,Background,Centre,"sb\pt\dot.png",0,0 S,0,58841,,0.2524827 MX,16,58841,61418,586,576 MY,0,58841,69151,485,-5 MX,15,61418,63996,576,586 F,0,63994,64494,1,0 MX,16,63996,66573,586,596 MX,15,66573,69151,596,586
Sprite,Background,Centre,"sb\pt\dot.png",0,0 S,0,57156,,0.1561849 MX,16,57156,59336,335,345 MY,0,57156,65878,485,-5 MX,15,59336,61517,345,335 MX,16,61517,63697,335,325 MX,15,63697,65878,325,335 F,0,63994,64494,1,0
Sprite,Background,Centre,"sb\pt\dot.png",0,0 S,0,58758,,0.1221439 MX,16,58758,60171,-19,-9 MY,0,58758,64410,485,-5 MX,15,60171,61584,-9,-19 MX,16,61584,62997,-19,-29 MX,15,62997,64410,-29,-19 F,0,63994,64494,1,0
Sprite,Background,Centre,"sb\pt\dot.png",0,0 S,0,59233,,0.2822963 MX,16,59233,61311,-106,-96 MY,0,59233,67548,485,-5 MX,15,61311,63390,-96,-106 MX,16,63390,65469,-106,-116 F,0,63994,64494,1,0 MX,15,65469,67548,-116,-106
Sprite,Background,Centre,"sb\pt\dot.png",0,0 S,0,59854,,0.1184196 MX,16,59854,62559,83,93 MY,0,59854,70674,485,-5 MX,15,62559,65264,93,83 F,0,63994,64494,1,0 MX,16,65264,67969,83,73 MX,15,67969,70674,73,83
Sprite,Background,Centre,"sb\pt\dot.png",0,0 S,0,56775,,0.2777188 MX,16,56775,58770,621,611 MY,0,56775,64755,485,-5 MX,15,58770,60765,611,621 MX,16,60765,62760,621,631 MX,15,62760,64755,631,621 F,0,63994,64494,1,0
Sprite,Background,Centre,"sb\pt\dot.png",0,0 S,0,58313,,0.2194886 MX,16,58313,59860,-33,-43 MY,0,58313,64503,485,-5 MX,15,59860,61408,-43,-33 MX,16,61408,62955,-33,-23 MX,15,62955,64503,-23,-33 F,0,63994,64494,1,0
Sprite,Background,Centre,"sb\pt\dot.png",0,0 S,0,58433,,0.1149461 MX,16,58433,60586,718,728 MY,0,58433,67045,485,-5 MX,15,60586,62739,728,718 MX,16,62739,64892,718,708 F,0,63994,64494,1,0 MX,15,64892,67045,708,718
Sprite,Background,Centre,"sb\bgblur.jpg",0,0 S,0,6161,,0.3703704 S,4,6161,6961,0.3703704,0.2777778 R,4,6161,6961,0.08726646,0 M,1,6161,9161,320,290,350,290 F,0,6161,12826,0.4 M,4,9161,9661,350,270,320,440 S,10,9161,9661,0.3703704,0.6481481 M,10,9661,10161,500,270,700,600 S,10,10161,10361,0.3703704,0.2777778 M,10,10161,10461,450,300,400,300 M,0,10461,14159,400,300,380,320 F,2,12826,13576,0.4,0 F,2,13659,13859,0,0.5 S,9,13925,14159,0.2777778,4 R,4,13925,14159,0,0.04363323 F,0,14159,,0 S,0,56993,,0.3703704 S,4,56993,57793,0.3703704,0.2777778 R,4,56993,57793,0.08726646,0 M,1,56993,59993,320,290,350,290 F,0,56993,63660,0.4 M,4,59993,60493,350,270,320,440 S,10,59993,60493,0.3703704,0.6481481 M,10,60493,60993,500,270,700,600 S,10,60994,61394,0.6481481,0.2962963 M,21,60994,64661,320,290,300,290 F,0,63660,64661,0.4,0 F,0,65827,68327,0,0.2 S,10,68161,68327,0.2962963,2
Sprite,Background,Centre,"sb\albedo.jpg",0,0 S,0,3162,,1.2 M,22,3162,3996,320,200,320,310 F,0,3162,6161,0.2 M,27,3996,4273,180,160,320,470 S,0,4273,,2 M,27,4273,4495,140,130,40,200 S,0,4475,,2.2 M,27,4495,4745,0,100,550,0 M,27,4745,5161,550,0,100,-600 M,22,5161,6160,320,670,320,750 F,0,6161,,0
Sprite,Background,Centre,"sb\albedo2.jpg",0,0 S,0,32828,,1.2 M,17,32828,36827,320,340,320,375 F,0,32828,40827,0.85 S,0,36827,,1.6 M,17,36827,40827,320,800,320,820
Sprite,Background,Centre,"sb\bg1.jpg",320,300 F,0,44827,48160,0.4 R,15,44827,50493,-0.3141593,0.1745329 S,15,44827,50826,0.3148148,0.2777778 F,0,48160,48993,0.4,0.3 F,0,48993,49826,0.3,0.2 F,0,49826,50493,0.2,0
Sprite,Background,Centre,"sb\albedonoblur.jpg",0,0 M,16,40827,44827,320,900,290,900 F,0,40827,44827,0.6 S,27,41827,42227,2.2,2.4 S,27,42827,43227,2.4,2.6 S,27,43827,44227,2.6,2.9
Sprite,Background,Centre,"sb\pt\p.png",124,125 F,0,70994,,1 R,0,70994,,0 C,0,70994,,203,171,135 V,1,70994,71394,35,1200,4,1200 P,0,70994,71394,A F,2,70995,71394,1,0
Sprite,Background,Centre,"sb\pt\p.png",354,109 F,0,71327,,1 R,0,71327,,0 C,0,71327,,203,171,135 V,1,71327,71727,35,1200,4,1200 P,0,71327,71727,A F,2,71328,71727,1,0
Sprite,Background,Centre,"sb\pt\p.png",481,128 F,0,71577,,1 R,0,71577,,0 C,0,71577,,203,171,135 V,1,71577,71977,35,1200,4,1200 P,0,71577,71977,A F,2,71578,71977,1,0
Sprite,Background,Centre,"sb\pt\p.png",487,139 F,0,71661,,1 R,0,71661,,0 C,0,71661,,203,171,135 V,1,71661,72061,35,1200,4,1200 P,0,71661,72061,A F,2,71662,72061,1,0
Sprite,Background,Centre,"sb\pt\p.png",442,404 F,0,71994,,1 R,0,71994,,0 C,0,71994,,203,171,135 V,1,71994,72394,35,1200,4,1200 P,0,71994,72394,A F,2,71995,72394,1,0
Sprite,Background,Centre,"sb\pt\p.png",174,381 F,0,72327,,1 R,0,72327,,0 C,0,72327,,200,147,148 V,1,72327,72727,35,1200,4,1200 P,0,72327,72727,A F,2,72328,72727,1,0
Sprite,Background,Centre,"sb\pt\p.png",177,261 F,0,72577,,1 R,0,72577,,0 C,0,72577,,200,147,148 V,1,72577,72977,35,1200,4,1200 P,0,72577,72977,A F,2,72578,72977,1,0
Sprite,Background,Centre,"sb\pt\p.png",164,256 F,0,72660,,1 R,0,72660,,0 C,0,72660,,200,147,148 V,1,72660,73060,35,1200,4,1200 P,0,72660,73060,A F,2,72661,73060,1,0
Sprite,Background,Centre,"sb\pt\p.png",97,158 F,0,72910,,1 R,0,72910,,0 C,0,72910,,200,147,148 V,1,72910,73310,35,1200,4,1200 P,0,72910,73310,A F,2,72911,73310,1,0
Sprite,Background,Centre,"sb\pt\p.png",105,147 F,0,72994,,1 R,0,72994,,0 C,0,72994,,200,147,148 V,1,72994,73394,35,1200,4,1200 P,0,72994,73394,A F,2,72995,73394,1,0
Sprite,Background,Centre,"sb\pt\p.png",228,63 F,0,73160,,1 R,0,73160,,0 C,0,73160,,200,147,148 V,1,73160,73560,35,1200,4,1200 P,0,73160,73560,A F,2,73161,73560,1,0
Sprite,Background,Centre,"sb\pt\p.png",333,164 F,0,73327,,1 R,0,73327,,0 C,0,73327,,200,147,148 V,1,73327,73727,35,1200,4,1200 P,0,73327,73727,A F,2,73328,73727,1,0
Sprite,Background,Centre,"sb\pt\p.png",523,294 F,0,73660,,1 R,0,73660,,0 C,0,73660,,192,172,165 V,1,73660,74060,35,1200,4,1200 P,0,73660,74060,A F,2,73661,74060,1,0
Sprite,Background,Centre,"sb\pt\p.png",426,358 F,0,73994,,1 R,0,73994,,0 C,0,73994,,192,172,165 V,1,73994,74394,35,1200,4,1200 P,0,73994,74394,A F,2,73995,74394,1,0
Sprite,Background,Centre,"sb\pt\p.png",310,431 F,0,74160,,1 R,0,74160,,0 C,0,74160,,192,172,165 V,1,74160,74560,35,1200,4,1200 P,0,74160,74560,A F,2,74161,74560,1,0
Sprite,Background,Centre,"sb\pt\p.png",218,313 F,0,74327,,1 R,0,74327,,0 C,0,74327,,192,172,165 V,1,74327,74727,35,1200,4,1200 P,0,74327,74727,A F,2,74328,74727,1,0
Sprite,Background,Centre,"sb\pt\p.png",333,257 F,0,74660,,1 R,0,74660,,0 C,0,74660,,192,172,165 V,1,74660,75060,35,1200,4,1200 P,0,74660,75060,A F,2,74661,75060,1,0
Sprite,Background,Centre,"sb\pt\p.png",276,56 F,0,74994,,1 R,0,74994,,0 C,0,74994,,203,171,135 V,1,74994,75394,35,1200,4,1200 P,0,74994,75394,A F,2,74995,75394,1,0
Sprite,Background,Centre,"sb\pt\p.png",205,122 F,0,75244,,1 R,0,75244,,0 C,0,75244,,203,171,135 V,1,75244,75644,35,1200,4,1200 P,0,75244,75644,A F,2,75245,75644,1,0
Sprite,Background,Centre,"sb\pt\p.png",193,116 F,0,75327,,1 R,0,75327,,0 C,0,75327,,203,171,135 V,1,75327,75727,35,1200,4,1200 P,0,75327,75727,A F,2,75328,75727,1,0
Sprite,Background,Centre,"sb\pt\p.png",220,255 F,0,75494,,1 R,0,75494,,0 C,0,75494,,203,171,135 V,1,75494,75894,35,1200,4,1200 P,0,75494,75894,A F,2,75495,75894,1,0
Sprite,Background,Centre,"sb\pt\p.png",75,274 F,0,75660,,1 R,0,75660,,0 C,0,75660,,200,147,148 V,1,75660,76060,35,1200,4,1200 P,0,75660,76060,A F,2,75661,76060,1,0
Sprite,Background,Centre,"sb\pt\p.png",336,190 F,0,75994,,1 R,0,75994,,0 C,0,75994,,200,147,148 V,1,75994,76394,35,1200,4,1200 P,0,75994,76394,A F,2,75995,76394,1,0
Sprite,Background,Centre,"sb\pt\p.png",331,202 F,0,76077,,1 R,0,76077,,0 C,0,76077,,200,147,148 V,1,76077,76477,35,1200,4,1200 P,0,76077,76477,A F,2,76078,76477,1,0
Sprite,Background,Centre,"sb\pt\p.png",327,214 F,0,76160,,1 R,0,76160,,0 C,0,76160,,200,147,148 V,1,76160,76560,35,1200,4,1200 P,0,76160,76560,A F,2,76161,76560,1,0
Sprite,Background,Centre,"sb\pt\p.png",325,226 F,0,76244,,1 R,0,76244,,0 C,0,76244,,200,147,148 V,1,76244,76644,35,1200,4,1200 P,0,76244,76644,A F,2,76245,76644,1,0
Sprite,Background,Centre,"sb\pt\p.png",324,238 F,0,76327,,1 R,0,76327,,0 C,0,76327,,192,172,165 V,1,76327,76727,35,1200,4,1200 P,0,76327,76727,A F,2,76328,76727,1,0
Sprite,Background,Centre,"sb\pt\p.png",393,141 F,0,76660,,1 R,0,76660,,0 C,0,76660,,192,172,165 V,1,76660,77060,35,1200,4,1200 P,0,76660,77060,A F,2,76661,77060,1,0
Sprite,Background,Centre,"sb\pt\p.png",532,188 F,0,76994,,1 R,0,76994,,0 C,0,76994,,192,172,165 V,1,76994,77394,35,1200,4,1200 P,0,76994,77394,A F,2,76995,77394,1,0
Sprite,Background,Centre,"sb\pt\p.png",537,325 F,0,77160,,1 R,0,77160,,0 C,0,77160,,192,172,165 V,1,77160,77560,35,1200,4,1200 P,0,77160,77560,A F,2,77161,77560,1,0
Sprite,Background,Centre,"sb\pt\p.png",349,324 F,0,77327,,1 R,0,77327,,0 C,0,77327,,203,171,135 V,1,77327,77727,35,1200,4,1200 P,0,77327,77727,A F,2,77328,77727,1,0
Sprite,Background,Centre,"sb\pt\p.png",366,303 F,0,77410,,1 R,0,77410,,0 C,0,77410,,203,171,135 V,1,77410,77810,35,1200,4,1200 P,0,77410,77810,A F,2,77411,77810,1,0
Sprite,Background,Centre,"sb\pt\p.png",390,294 F,0,77494,,1 R,0,77494,,0 C,0,77494,,203,171,135 V,1,77494,77894,35,1200,4,1200 P,0,77494,77894,A F,2,77495,77894,1,0
Sprite,Background,Centre,"sb\pt\p.png",416,298 F,0,77577,,1 R,0,77577,,0 C,0,77577,,203,171,135 V,1,77577,77977,35,1200,4,1200 P,0,77577,77977,A F,2,77578,77977,1,0
Sprite,Background,Centre,"sb\pt\p.png",437,313 F,0,77660,,1 R,0,77660,,0 C,0,77660,,203,171,135 V,1,77660,78060,35,1200,4,1200 P,0,77660,78060,A F,2,77661,78060,1,0
Sprite,Background,Centre,"sb\pt\p.png",457,437 F,0,77910,,1 R,0,77910,,0 C,0,77910,,200,147,148 V,1,77910,78310,35,1200,4,1200 P,0,77910,78310,A F,2,77911,78310,1,0
Sprite,Background,Centre,"sb\pt\p.png",242,357 F,0,78327,,1 R,0,78327,,0 C,0,78327,,200,147,148 V,1,78327,78727,35,1200,4,1200 P,0,78327,78727,A F,2,78328,78727,1,0
Sprite,Background,Centre,"sb\pt\p.png",245,345 F,0,78410,,1 R,0,78410,,0 C,0,78410,,200,147,148 V,1,78410,78810,35,1200,4,1200 P,0,78410,78810,A F,2,78411,78810,1,0
Sprite,Background,Centre,"sb\pt\p.png",250,334 F,0,78494,,1 R,0,78494,,0 C,0,78494,,200,147,148 V,1,78494,78894,35,1200,4,1200 P,0,78494,78894,A F,2,78495,78894,1,0
Sprite,Background,Centre,"sb\pt\p.png",256,324 F,0,78577,,1 R,0,78577,,0 C,0,78577,,200,147,148 V,1,78577,78977,35,1200,4,1200 P,0,78577,78977,A F,2,78578,78977,1,0
Sprite,Background,Centre,"sb\pt\p.png",262,317 F,0,78660,,1 R,0,78660,,0 C,0,78660,,200,147,148 V,1,78660,79060,35,1200,4,1200 P,0,78660,79060,A F,2,78661,79060,1,0
Sprite,Background,Centre,"sb\pt\p.png",169,309 F,0,78994,,1 R,0,78994,,0 C,0,78994,,192,172,165 V,1,78994,79394,35,1200,4,1200 P,0,78994,79394,A F,2,78995,79394,1,0
Sprite,Background,Centre,"sb\pt\p.png",100,158 F,0,79327,,1 R,0,79327,,0 C,0,79327,,192,172,165 V,1,79327,79727,35,1200,4,1200 P,0,79327,79727,A F,2,79328,79727,1,0
Sprite,Background,Centre,"sb\pt\p.png",217,137 F,0,79577,,1 R,0,79577,,0 C,0,79577,,192,172,165 V,1,79577,79977,35,1200,4,1200 P,0,79577,79977,A F,2,79578,79977,1,0
Sprite,Background,Centre,"sb\pt\p.png",224,146 F,0,79660,,1 R,0,79660,,0 C,0,79660,,192,172,165 V,1,79660,80060,35,1200,4,1200 P,0,79660,80060,A F,2,79661,80060,1,0
Sprite,Background,Centre,"sb\pt\p.png",359,113 F,0,79994,,1 R,0,79994,,0 C,0,79994,,203,171,135 V,1,79994,80394,35,1200,4,1200 P,0,79994,80394,A F,2,79995,80394,1,0
Sprite,Background,Centre,"sb\pt\p.png",342,108 F,0,80077,,1 R,0,80077,,0 C,0,80077,,203,171,135 V,1,80077,80477,35,1200,4,1200 P,0,80077,80477,A F,2,80078,80477,1,0
Sprite,Background,Centre,"sb\pt\p.png",324,109 F,0,80160,,1 R,0,80160,,0 C,0,80160,,203,171,135 V,1,80160,80560,35,1200,4,1200 P,0,80160,80560,A F,2,80161,80560,1,0
Sprite,Background,Centre,"sb\pt\p.png",309,118 F,0,80244,,1 R,0,80244,,0 C,0,80244,,203,171,135 V,1,80244,80644,35,1200,4,1200 P,0,80244,80644,A F,2,80245,80644,1,0
Sprite,Background,Centre,"sb\pt\p.png",297,132 F,0,80327,,1 R,0,80327,,0 C,0,80327,,203,171,135 V,1,80327,80727,35,1200,4,1200 P,0,80327,80727,A F,2,80328,80727,1,0
Sprite,Background,Centre,"sb\pt\p.png",294,150 F,0,80410,,1 R,0,80410,,0 C,0,80410,,203,171,135 V,1,80410,80810,35,1200,4,1200 P,0,80410,80810,A F,2,80411,80810,1,0
Sprite,Background,Centre,"sb\pt\p.png",298,168 F,0,80494,,1 R,0,80494,,0 C,0,80494,,203,171,135 V,1,80494,80894,35,1200,4,1200 P,0,80494,80894,A F,2,80495,80894,1,0
Sprite,Background,Centre,"sb\pt\p.png",309,182 F,0,80577,,1 R,0,80577,,0 C,0,80577,,203,171,135 V,1,80577,80977,35,1200,4,1200 P,0,80577,80977,A F,2,80578,80977,1,0
Sprite,Background,Centre,"sb\pt\p.png",325,190 F,0,80660,,1 R,0,80660,,0 C,0,80660,,200,147,148 V,1,80660,81060,35,1200,4,1200 P,0,80660,81060,A F,2,80661,81060,1,0
Sprite,Background,Centre,"sb\pt\p.png",336,356 F,0,80910,,1 R,0,80910,,0 C,0,80910,,200,147,148 V,1,80910,81310,35,1200,4,1200 P,0,80910,81310,A F,2,80911,81310,1,0
Sprite,Background,Centre,"sb\pt\p.png",458,262 F,0,81160,,1 R,0,81160,,0 C,0,81160,,200,147,148 V,1,81160,81560,35,1200,4,1200 P,0,81160,81560,A F,2,81161,81560,1,0
Sprite,Background,Centre,"sb\pt\p.png",497,100 F,0,81327,,1 R,0,81327,,0 C,0,81327,,192,172,165 V,1,81327,81727,35,1200,4,1200 P,0,81327,81727,A F,2,81328,81727,1,0
Sprite,Background,Centre,"sb\pt\p.png",497,100 F,0,81410,,1 R,0,81410,,0 C,0,81410,,192,172,165 V,1,81410,81810,35,1200,4,1200 P,0,81410,81810,A F,2,81411,81810,1,0
Sprite,Background,Centre,"sb\pt\p.png",497,100 F,0,81494,,1 R,0,81494,,0 C,0,81494,,192,172,165 V,1,81494,81894,35,1200,4,1200 P,0,81494,81894,A F,2,81495,81894,1,0
Sprite,Background,Centre,"sb\pt\p.png",497,100 F,0,81577,,1 R,0,81577,,0 C,0,81577,,192,172,165 V,1,81577,81977,35,1200,4,1200 P,0,81577,81977,A F,2,81578,81977,1,0
Sprite,Background,Centre,"sb\pt\p.png",497,100 F,0,81660,,1 R,0,81660,,0 C,0,81660,,192,172,165 V,1,81660,82060,35,1200,4,1200 P,0,81660,82060,A F,2,81661,82060,1,0
Sprite,Background,Centre,"sb\pt\p.png",347,115 F,0,81827,,1 R,0,81827,,0 C,0,81827,,192,172,165 V,1,81827,82227,35,1200,4,1200 P,0,81827,82227,A F,2,81828,82227,1,0
Sprite,Background,Centre,"sb\pt\p.png",264,56 F,0,81994,,1 R,0,81994,,0 C,0,81994,,203,171,135 V,1,81994,82394,35,1200,4,1200 P,0,81994,82394,A F,2,81995,82394,1,0
Sprite,Background,Centre,"sb\pt\p.png",254,68 F,0,82077,,1 R,0,82077,,0 C,0,82077,,203,171,135 V,1,82077,82477,35,1200,4,1200 P,0,82077,82477,A F,2,82078,82477,1,0
Sprite,Background,Centre,"sb\pt\p.png",247,82 F,0,82160,,1 R,0,82160,,0 C,0,82160,,203,171,135 V,1,82160,82560,35,1200,4,1200 P,0,82160,82560,A F,2,82161,82560,1,0
Sprite,Background,Centre,"sb\pt\p.png",241,97 F,0,82244,,1 R,0,82244,,0 C,0,82244,,203,171,135 V,1,82244,82644,35,1200,4,1200 P,0,82244,82644,A F,2,82245,82644,1,0
Sprite,Background,Centre,"sb\pt\p.png",320,240 V,0,0,,854,480 F,17,0,3162,1 F,0,3162,,0
Sprite,Background,Centre,"sb\pt\p.png",0,0 R,0,54576,,0.7107642 M,0,54576,55242,262,230 F,0,54576,55242,1,0 V,1,54576,55242,8,1500,0,1500 P,0,54576,55242,A P,0,54576,56158,A R,0,55492,,-0.9235241 M,0,55492,56158,199,356 F,0,55492,56158,1,0 V,1,55492,56158,8,1500,0,1500 P,0,55492,56158,A
Sprite,Background,Centre,"sb\pt\p.png",0,0 R,0,54826,,0.996907 M,0,54826,55492,292,93 F,0,54826,55492,1,0 V,1,54826,55492,8,1500,0,1500 P,0,54826,55492,A P,0,54826,56408,A R,0,55742,,0.184992 M,0,55742,56408,342,285 F,0,55742,56408,1,0 V,1,55742,56408,8,1500,0,1500 P,0,55742,56408,A
Sprite,Background,Centre,"sb\pt\p.png",0,0 R,0,54992,,0.8420181 M,0,54992,55658,157,112 F,0,54992,55658,1,0 V,1,54992,55658,8,1500,0,1500 P,0,54992,55658,A P,0,54992,56658,A R,0,55992,,1.275572 M,0,55992,56658,336,367 F,0,55992,56658,1,0 V,1,55992,56658,8,1500,0,1500 P,0,55992,56658,A
Sprite,Background,Centre,"sb\pt\p.png",0,0 R,0,55242,,0.1827188 M,0,55242,55908,138,229 F,0,55242,55908,1,0 V,1,55242,55908,8,1500,0,1500 P,0,55242,55908,A P,0,55242,55908,A
Sprite,Background,Centre,"sb\pt\p.png",0,0 R,0,88354,,-0.1816536 M,0,88354,89020,286,165 F,0,88354,89020,1,0 V,1,88354,89020,8,1500,0,1500 P,0,88354,89020,A P,0,88354,89992,A R,0,89326,,-0.1026839 M,0,89326,89992,372,240 F,0,89326,89992,1,0 V,1,89326,89992,8,1500,0,1500 P,0,89326,89992,A
Sprite,Background,Centre,"sb\pt\p.png",0,0 R,0,88576,,1.500267 M,0,88576,89242,321,253 F,0,88576,89242,1,0 V,1,88576,89242,8,1500,0,1500 P,0,88576,89242,A P,0,88576,90242,A R,0,89576,,0.4167608 M,0,89576,90242,337,147 F,0,89576,90242,1,0 V,1,89576,90242,8,1500,0,1500 P,0,89576,90242,A
Sprite,Background,Centre,"sb\pt\p.png",0,0 R,0,88827,,-0.7109284 M,0,88827,89493,379,178 F,0,88827,89493,1,0 V,1,88827,89493,8,1500,0,1500 P,0,88827,89493,A P,0,88827,90492,A R,0,89826,,-0.09578126 M,0,89826,90492,278,221 F,0,89826,90492,1,0 V,1,89826,90492,8,1500,0,1500 P,0,89826,90492,A
Sprite,Background,Centre,"sb\pt\p.png",0,0 R,0,88993,,-0.6537457 M,0,88993,89659,286,165 F,0,88993,89659,1,0 V,1,88993,89659,8,1500,0,1500 P,0,88993,89659,A P,0,88993,89659,A
Sprite,Background,Centre,"sb\pt\flare.png",0,0 M,0,81327,,497,100 C,0,81327,,192,172,165 F,15,81327,81993,1,0 S,15,81327,81993,0.6,0.3 P,0,81327,81993,A M,0,81994,,264,56 C,0,81994,,203,171,135 F,15,81994,82660,1,0 S,15,81994,82660,0.6,0.3 P,0,81994,82660,A
Sprite,Background,Centre,"sb\pt\flare.png",0,0 M,0,81410,,497,100 C,0,81410,,192,172,165 F,15,81410,82076,1,0 S,15,81410,82076,0.6,0.3 P,0,81410,82076,A M,0,82077,,254,68 C,0,82077,,203,171,135 F,15,82077,82743,1,0 S,15,82077,82743,0.6,0.3 P,0,82077,82743,A
Sprite,Background,Centre,"sb\pt\flare.png",0,0 M,0,81494,,497,100 C,0,81494,,192,172,165 F,15,81494,82160,1,0 S,15,81494,82160,0.6,0.3 P,0,81494,82160,A
Sprite,Background,Centre,"sb\pt\flare.png",0,0 M,0,81577,,497,100 C,0,81577,,192,172,165 F,15,81577,82243,1,0 S,15,81577,82243,0.6,0.3 P,0,81577,82243,A
Sprite,Background,Centre,"sb\pt\flare.png",0,0 M,0,81660,,497,100 F,0,81660,,1 S,0,81660,,0.6 C,0,81660,,192,172,165 M,0,81660,81701,497,100,523.7285,102.4753 P,0,81660,82410,A M,0,81701,81743,523.7285,102.4753,547.997,113.8811 F,15,81743,82410,1,0 S,15,81743,82410,0.6,0.3
Sprite,Background,Centre,"sb\pt\flare.png",0,0 M,0,81827,,347,115 F,0,81827,,1 S,0,81827,,0.6 C,0,81827,,192,172,165 M,0,81827,81868,347,115,373.7285,112.5247 P,0,81827,82577,A M,0,81868,81910,373.7285,112.5247,397.997,101.119 F,15,81910,82577,1,0 S,15,81910,82577,0.6,0.3
Sprite,Background,Centre,"sb\pt\flare.png",0,0 M,0,82160,,247,82 C,0,82160,,203,171,135 F,15,82160,82826,1,0 S,15,82160,82826,0.6,0.3 P,0,82160,82826,A
Sprite,Background,Centre,"sb\pt\p.png",181,150 F,0,13825,,1 R,0,13825,,0 C,0,13825,,203,171,135 V,1,13825,14225,35,1200,4,1200 P,0,13825,14225,A F,2,13826,14225,1,0
Sprite,Background,Centre,"sb\pt\p.png",285,67 F,0,14162,,1 R,0,14162,,0 C,0,14162,,200,147,148 V,1,14162,14562,35,1200,4,1200 P,0,14162,14562,A F,2,14163,14562,1,0
Sprite,Background,Centre,"sb\pt\p.png",407,89 F,0,14412,,1 R,0,14412,,0 C,0,14412,,200,147,148 V,1,14412,14812,35,1200,4,1200 P,0,14412,14812,A F,2,14413,14812,1,0
Sprite,Background,Centre,"sb\pt\p.png",416,86 F,0,14495,,1 R,0,14495,,0 C,0,14495,,200,147,148 V,1,14495,14895,35,1200,4,1200 P,0,14495,14895,A F,2,14496,14895,1,0
Sprite,Background,Centre,"sb\pt\p.png",506,234 F,0,14828,,1 R,0,14828,,0 C,0,14828,,200,147,148 V,1,14828,15228,35,1200,4,1200 P,0,14828,15228,A F,2,14829,15228,1,0
Sprite,Background,Centre,"sb\pt\p.png",386,432 F,0,15161,,1 R,0,15161,,0 C,0,15161,,200,147,148 V,1,15161,15561,35,1200,4,1200 P,0,15161,15561,A F,2,15162,15561,1,0
Sprite,Background,Centre,"sb\pt\p.png",311,359 F,0,15661,,1 R,0,15661,,0 C,0,15661,,192,172,165 V,1,15661,16061,35,1200,4,1200 P,0,15661,16061,A F,2,15662,16061,1,0
Sprite,Background,Centre,"sb\pt\p.png",259,205 F,0,15828,,1 R,0,15828,,0 C,0,15828,,192,172,165 V,1,15828,16228,35,1200,4,1200 P,0,15828,16228,A F,2,15829,16228,1,0
Sprite,Background,Centre,"sb\pt\p.png",286,310 F,0,16078,,1 R,0,16078,,0 C,0,16078,,192,172,165 V,1,16078,16478,35,1200,4,1200 P,0,16078,16478,A F,2,16079,16478,1,0
Sprite,Background,Centre,"sb\pt\p.png",275,316 F,0,16161,,1 R,0,16161,,0 C,0,16161,,192,172,165 V,1,16161,16561,35,1200,4,1200 P,0,16161,16561,A F,2,16162,16561,1,0
Sprite,Background,Centre,"sb\pt\p.png",137,406 F,0,16328,,1 R,0,16328,,0 C,0,16328,,192,172,165 V,1,16328,16728,35,1200,4,1200 P,0,16328,16728,A F,2,16329,16728,1,0
Sprite,Background,Centre,"sb\pt\p.png",162,244 F,0,16495,,1 R,0,16495,,0 C,0,16495,,192,172,165 V,1,16495,16895,35,1200,4,1200 P,0,16495,16895,A F,2,16496,16895,1,0
Sprite,Background,Centre,"sb\pt\p.png",122,121 F,0,16828,,1 R,0,16828,,0 C,0,16828,,203,171,135 V,1,16828,17228,35,1200,4,1200 P,0,16828,17228,A F,2,16829,17228,1,0
Sprite,Background,Centre,"sb\pt\p.png",358,184 F,0,17161,,1 R,0,17161,,0 C,0,17161,,203,171,135 V,1,17161,17561,35,1200,4,1200 P,0,17161,17561,A F,2,17162,17561,1,0
Sprite,Background,Centre,"sb\pt\p.png",377,300 F,0,17328,,1 R,0,17328,,0 C,0,17328,,203,171,135 V,1,17328,17728,35,1200,4,1200 P,0,17328,17728,A F,2,17329,17728,1,0
Sprite,Background,Centre,"sb\pt\p.png",144,374 F,0,17661,,1 R,0,17661,,0 C,0,17661,,203,171,135 V,1,17661,18061,35,1200,4,1200 P,0,17661,18061,A F,2,17662,18061,1,0
Sprite,Background,Centre,"sb\pt\p.png",213,424 F,0,17828,,1 R,0,17828,,0 C,0,17828,,203,171,135 V,1,17828,18228,35,1200,4,1200 P,0,17828,18228,A F,2,17829,18228,1,0
Sprite,Background,Centre,"sb\pt\p.png",298,323 F,0,18161,,1 R,0,18161,,0 C,0,18161,,200,147,148 V,1,18161,18561,35,1200,4,1200 P,0,18161,18561,A F,2,18162,18561,1,0
Sprite,Background,Centre,"sb\pt\p.png",348,226 F,0,18411,,1 R,0,18411,,0 C,0,18411,,200,147,148 V,1,18411,18811,35,1200,4,1200 P,0,18411,18811,A F,2,18412,18811,1,0
Sprite,Background,Centre,"sb\pt\p.png",357,227 F,0,18495,,1 R,0,18495,,0 C,0,18495,,200,147,148 V,1,18495,18895,35,1200,4,1200 P,0,18495,18895,A F,2,18496,18895,1,0
Sprite,Background,Centre,"sb\pt\p.png",504,153 F,0,18661,,1 R,0,18661,,0 C,0,18661,,200,147,148 V,1,18661,19061,35,1200,4,1200 P,0,18661,19061,A F,2,18662,19061,1,0
Sprite,Background,Centre,"sb\pt\p.png",540,272 F,0,18828,,1 R,0,18828,,0 C,0,18828,,200,147,148 V,1,18828,19228,35,1200,4,1200 P,0,18828,19228,A F,2,18829,19228,1,0
Sprite,Background,Centre,"sb\pt\p.png",570,419 F,0,18995,,1 R,0,18995,,0 C,0,18995,,200,147,148 V,1,18995,19395,35,1200,4,1200 P,0,18995,19395,A F,2,18996,19395,1,0
Sprite,Background,Centre,"sb\pt\p.png",448,410 F,0,19161,,1 R,0,19161,,0 C,0,19161,,200,147,148 V,1,19161,19561,35,1200,4,1200 P,0,19161,19561,A F,2,19162,19561,1,0
Sprite,Background,Centre,"sb\pt\p.png",204,421 F,0,19495,,1 R,0,19495,,0 C,0,19495,,192,172,165 V,1,19495,19895,35,1200,4,1200 P,0,19495,19895,A F,2,19496,19895,1,0
Sprite,Background,Centre,"sb\pt\p.png",147,338 F,0,19828,,1 R,0,19828,,0 C,0,19828,,192,172,165 V,1,19828,20228,35,1200,4,1200 P,0,19828,20228,A F,2,19829,20228,1,0
Sprite,Background,Centre,"sb\pt\p.png",113,191 F,0,19995,,1 R,0,19995,,0 C,0,19995,,192,172,165 V,1,19995,20395,35,1200,4,1200 P,0,19995,20395,A F,2,19996,20395,1,0
Sprite,Background,Centre,"sb\pt\p.png",256,272 F,0,20161,,1 R,0,20161,,0 C,0,20161,,192,172,165 V,1,20161,20561,35,1200,4,1200 P,0,20161,20561,A F,2,20162,20561,1,0
Sprite,Background,Centre,"sb\pt\p.png",402,273 F,0,20328,,1 R,0,20328,,0 C,0,20328,,192,172,165 V,1,20328,20728,35,1200,4,1200 P,0,20328,20728,A F,2,20329,20728,1,0
Sprite,Background,Centre,"sb\pt\p.png",418,110 F,0,20495,,1 R,0,20495,,0 C,0,20495,,192,172,165 V,1,20495,20895,35,1200,4,1200 P,0,20495,20895,A F,2,20496,20895,1,0
Sprite,Background,Centre,"sb\pt\p.png",199,149 F,0,20828,,1 R,0,20828,,0 C,0,20828,,203,171,135 V,1,20828,21228,35,1200,4,1200 P,0,20828,21228,A F,2,20829,21228,1,0
Sprite,Background,Centre,"sb\pt\p.png",112,199 F,0,21078,,1 R,0,21078,,0 C,0,21078,,203,171,135 V,1,21078,21478,35,1200,4,1200 P,0,21078,21478,A F,2,21079,21478,1,0
Sprite,Background,Centre,"sb\pt\p.png",111,207 F,0,21161,,1 R,0,21161,,0 C,0,21161,,203,171,135 V,1,21161,21561,35,1200,4,1200 P,0,21161,21561,A F,2,21162,21561,1,0
Sprite,Background,Centre,"sb\pt\p.png",108,405 F,0,21495,,1 R,0,21495,,0 C,0,21495,,203,171,135 V,1,21495,21895,35,1200,4,1200 P,0,21495,21895,A F,2,21496,21895,1,0
Sprite,Background,Centre,"sb\pt\p.png",246,323 F,0,21661,,1 R,0,21661,,0 C,0,21661,,200,147,148 V,1,21661,22061,35,1200,4,1200 P,0,21661,22061,A F,2,21662,22061,1,0
Sprite,Background,Centre,"sb\pt\p.png",261,427 F,0,21828,,1 R,0,21828,,0 C,0,21828,,200,147,148 V,1,21828,22228,35,1200,4,1200 P,0,21828,22228,A F,2,21829,22228,1,0
Sprite,Background,Centre,"sb\pt\p.png",307,236 F,0,22161,,1 R,0,22161,,0 C,0,22161,,192,172,165 V,1,22161,22561,35,1200,4,1200 P,0,22161,22561,A F,2,22162,22561,1,0
Sprite,Background,Centre,"sb\pt\p.png",435,301 F,0,22495,,1 R,0,22495,,0 C,0,22495,,192,172,165 V,1,22495,22895,35,1200,4,1200 P,0,22495,22895,A F,2,22496,22895,1,0
Sprite,Background,Centre,"sb\pt\p.png",552,226 F,0,22828,,1 R,0,22828,,0 C,0,22828,,192,172,165 V,1,22828,23228,35,1200,4,1200 P,0,22828,23228,A F,2,22829,23228,1,0
Sprite,Background,Centre,"sb\pt\p.png",564,77 F,0,22995,,1 R,0,22995,,0 C,0,22995,,192,172,165 V,1,22995,23395,35,1200,4,1200 P,0,22995,23395,A F,2,22996,23395,1,0
Sprite,Background,Centre,"sb\pt\p.png",468,108 F,0,23161,,1 R,0,23161,,0 C,0,23161,,192,172,165 V,1,23161,23561,35,1200,4,1200 P,0,23161,23561,A F,2,23162,23561,1,0
Sprite,Background,Centre,"sb\pt\p.png",217,246 F,0,23495,,1 R,0,23495,,0 C,0,23495,,203,171,135 V,1,23495,23895,35,1200,4,1200 P,0,23495,23895,A F,2,23496,23895,1,0
Sprite,Background,Centre,"sb\pt\p.png",104,229 F,0,23828,,1 R,0,23828,,0 C,0,23828,,203,171,135 V,1,23828,24228,35,1200,4,1200 P,0,23828,24228,A F,2,23829,24228,1,0
Sprite,Background,Centre,"sb\pt\p.png",162,338 F,0,24078,,1 R,0,24078,,0 C,0,24078,,203,171,135 V,1,24078,24478,35,1200,4,1200 P,0,24078,24478,A F,2,24079,24478,1,0
Sprite,Background,Centre,"sb\pt\p.png",162,347 F,0,24161,,1 R,0,24161,,0 C,0,24161,,203,171,135 V,1,24161,24561,35,1200,4,1200 P,0,24161,24561,A F,2,24162,24561,1,0
Sprite,Background,Centre,"sb\pt\p.png",290,400 F,0,24328,,1 R,0,24328,,0 C,0,24328,,203,171,135 V,1,24328,24728,35,1200,4,1200 P,0,24328,24728,A F,2,24329,24728,1,0
Sprite,Background,Centre,"sb\pt\p.png",401,316 F,0,24495,,1 R,0,24495,,0 C,0,24495,,200,147,148 V,1,24495,24895,35,1200,4,1200 P,0,24495,24895,A F,2,24496,24895,1,0
Sprite,Background,Centre,"sb\pt\p.png",408,309 F,0,24578,,1 R,0,24578,,0 C,0,24578,,200,147,148 V,1,24578,24978,35,1200,4,1200 P,0,24578,24978,A F,2,24579,24978,1,0
Sprite,Background,Centre,"sb\pt\p.png",414,302 F,0,24661,,1 R,0,24661,,0 C,0,24661,,200,147,148 V,1,24661,25061,35,1200,4,1200 P,0,24661,25061,A F,2,24662,25061,1,0
Sprite,Background,Centre,"sb\pt\p.png",420,294 F,0,24745,,1 R,0,24745,,0 C,0,24745,,200,147,148 V,1,24745,25145,35,1200,4,1200 P,0,24745,25145,A F,2,24746,25145,1,0
Sprite,Background,Centre,"sb\pt\p.png",425,286 F,0,24828,,1 R,0,24828,,0 C,0,24828,,192,172,165 V,1,24828,25228,35,1200,4,1200 P,0,24828,25228,A F,2,24829,25228,1,0
Sprite,Background,Centre,"sb\pt\p.png",348,203 F,0,25078,,1 R,0,25078,,0 C,0,25078,,192,172,165 V,1,25078,25478,35,1200,4,1200 P,0,25078,25478,A F,2,25079,25478,1,0
Sprite,Background,Centre,"sb\pt\p.png",353,195 F,0,25161,,1 R,0,25161,,0 C,0,25161,,192,172,165 V,1,25161,25561,35,1200,4,1200 P,0,25161,25561,A F,2,25162,25561,1,0
Sprite,Background,Centre,"sb\pt\p.png",382,57 F,0,25495,,1 R,0,25495,,0 C,0,25495,,192,172,165 V,1,25495,25895,35,1200,4,1200 P,0,25495,25895,A F,2,25496,25895,1,0
Sprite,Background,Centre,"sb\pt\p.png",251,141 F,0,25661,,1 R,0,25661,,0 C,0,25661,,192,172,165 V,1,25661,26061,35,1200,4,1200 P,0,25661,26061,A F,2,25662,26061,1,0
Sprite,Background,Centre,"sb\pt\p.png",85,124 F,0,25828,,1 R,0,25828,,0 C,0,25828,,192,172,165 V,1,25828,26228,35,1200,4,1200 P,0,25828,26228,A F,2,25829,26228,1,0
Sprite,Background,Centre,"sb\pt\p.png",109,259 F,0,26161,,1 R,0,26161,,0 C,0,26161,,203,171,135 V,1,26161,26561,35,1200,4,1200 P,0,26161,26561,A F,2,26162,26561,1,0
Sprite,Background,Centre,"sb\pt\p.png",255,378 F,0,26328,,1 R,0,26328,,0 C,0,26328,,203,171,135 V,1,26328,26728,35,1200,4,1200 P,0,26328,26728,A F,2,26329,26728,1,0
Sprite,Background,Centre,"sb\pt\p.png",308,261 F,0,26495,,1 R,0,26495,,0 C,0,26495,,203,171,135 V,1,26495,26895,35,1200,4,1200 P,0,26495,26895,A F,2,26496,26895,1,0
Sprite,Background,Centre,"sb\pt\p.png",430,121 F,0,26661,,1 R,0,26661,,0 C,0,26661,,203,171,135 V,1,26661,27061,35,1200,4,1200 P,0,26661,27061,A F,2,26662,27061,1,0
Sprite,Background,Centre,"sb\pt\p.png",441,259 F,0,26995,,1 R,0,26995,,0 C,0,26995,,203,171,135 V,1,26995,27395,35,1200,4,1200 P,0,26995,27395,A F,2,26996,27395,1,0
Sprite,Background,Centre,"sb\pt\p.png",477,417 F,0,27161,,1 R,0,27161,,0 C,0,27161,,203,171,135 V,1,27161,27561,35,1200,4,1200 P,0,27161,27561,A F,2,27162,27561,1,0
Sprite,Background,Centre,"sb\pt\p.png",213,422 F,0,27495,,1 R,0,27495,,0 C,0,27495,,200,147,148 V,1,27495,27895,35,1200,4,1200 P,0,27495,27895,A F,2,27496,27895,1,0
Sprite,Background,Centre,"sb\pt\p.png",208,314 F,0,27745,,1 R,0,27745,,0 C,0,27745,,200,147,148 V,1,27745,28145,35,1200,4,1200 P,0,27745,28145,A F,2,27746,28145,1,0
Sprite,Background,Centre,"sb\pt\p.png",199,310 F,0,27828,,1 R,0,27828,,0 C,0,27828,,200,147,148 V,1,27828,28228,35,1200,4,1200 P,0,27828,28228,A F,2,27829,28228,1,0
Sprite,Background,Centre,"sb\pt\p.png",82,243 F,0,28078,,1 R,0,28078,,0 C,0,28078,,200,147,148 V,1,28078,28478,35,1200,4,1200 P,0,28078,28478,A F,2,28079,28478,1,0
Sprite,Background,Centre,"sb\pt\p.png",205,84 F,0,28328,,1 R,0,28328,,0 C,0,28328,,200,147,148 V,1,28328,28728,35,1200,4,1200 P,0,28328,28728,A F,2,28329,28728,1,0
Sprite,Background,Centre,"sb\pt\p.png",267,192 F,0,28495,,1 R,0,28495,,0 C,0,28495,,200,147,148 V,1,28495,28895,35,1200,4,1200 P,0,28495,28895,A F,2,28496,28895,1,0
Sprite,Background,Centre,"sb\pt\p.png",516,197 F,0,28828,,1 R,0,28828,,0 C,0,28828,,192,172,165 V,1,28828,29228,35,1200,4,1200 P,0,28828,29228,A F,2,28829,29228,1,0
Sprite,Background,Centre,"sb\pt\p.png",458,261 F,0,29161,,1 R,0,29161,,0 C,0,29161,,192,172,165 V,1,29161,29561,35,1200,4,1200 P,0,29161,29561,A F,2,29162,29561,1,0
Sprite,Background,Centre,"sb\pt\p.png",463,269 F,0,29245,,1 R,0,29245,,0 C,0,29245,,192,172,165 V,1,29245,29645,35,1200,4,1200 P,0,29245,29645,A F,2,29246,29645,1,0
Sprite,Background,Centre,"sb\pt\p.png",468,277 F,0,29328,,1 R,0,29328,,0 C,0,29328,,192,172,165 V,1,29328,29728,35,1200,4,1200 P,0,29328,29728,A F,2,29329,29728,1,0
Sprite,Background,Centre,"sb\pt\p.png",473,285 F,0,29411,,1 R,0,29411,,0 C,0,29411,,192,172,165 V,1,29411,29811,35,1200,4,1200 P,0,29411,29811,A F,2,29412,29811,1,0
Sprite,Background,Centre,"sb\pt\p.png",478,293 F,0,29495,,1 R,0,29495,,0 C,0,29495,,192,172,165 V,1,29495,29895,35,1200,4,1200 P,0,29495,29895,A F,2,29496,29895,1,0
Sprite,Background,Centre,"sb\pt\p.png",380,440 F,0,29661,,1 R,0,29661,,0 C,0,29661,,192,172,165 V,1,29661,30061,35,1200,4,1200 P,0,29661,30061,A F,2,29662,30061,1,0
Sprite,Background,TopCentre,"sb\pt\p.png",320,0 C,0,24162,,0,0,0 V,19,24162,24328,854,0,854,80 V,19,24328,24495,854,80,854,160 V,19,24495,24662,854,160,854,240
Sprite,Background,BottomCentre,"sb\pt\p.png",320,480 C,0,24162,,0,0,0 V,19,24162,24328,854,0,854,80 V,19,24328,24495,854,80,854,160 V,19,24495,24662,854,160,854,240
Sprite,Background,TopCentre,"sb\pt\p.png",320,0 C,0,75661,,0,0,0 V,19,75661,75827,854,0,854,80 V,19,75827,75994,854,80,854,160 V,19,75994,76161,854,160,854,240
Sprite,Background,BottomCentre,"sb\pt\p.png",320,480 C,0,75661,,0,0,0 V,19,75661,75827,854,0,854,80 V,19,75827,75994,854,80,854,160 V,19,75994,76161,854,160,854,240
Sprite,Background,Centre,"sb\pt\p.png",329,316 F,0,64661,,1 R,0,64661,,0 C,0,64661,,192,172,165 V,1,64661,65061,35,1200,4,1200 P,0,64661,65061,A F,2,64662,65061,1,0
Sprite,Background,Centre,"sb\pt\p.png",315,389 F,0,64827,,1 R,0,64827,,0 C,0,64827,,203,171,135 V,1,64827,65227,35,1200,4,1200 P,0,64827,65227,A F,2,64828,65227,1,0
Sprite,Background,Centre,"sb\pt\p.png",320,405 F,0,64911,,1 R,0,64911,,0 C,0,64911,,203,171,135 V,1,64911,65311,35,1200,4,1200 P,0,64911,65311,A F,2,64912,65311,1,0
Sprite,Background,Centre,"sb\pt\p.png",78,236 F,0,65327,,1 R,0,65327,,0 C,0,65327,,200,147,148 V,1,65327,65727,35,1200,4,1200 P,0,65327,65727,A F,2,65328,65727,1,0
Sprite,Background,Centre,"sb\pt\p.png",78,236 F,0,65411,,1 R,0,65411,,0 C,0,65411,,200,147,148 V,1,65411,65811,35,1200,4,1200 P,0,65411,65811,A F,2,65412,65811,1,0
Sprite,Background,Centre,"sb\pt\p.png",78,236 F,0,65494,,1 R,0,65494,,0 C,0,65494,,200,147,148 V,1,65494,65894,35,1200,4,1200 P,0,65494,65894,A F,2,65495,65894,1,0
Sprite,Background,Centre,"sb\pt\p.png",78,236 F,0,65577,,1 R,0,65577,,0 C,0,65577,,200,147,148 V,1,65577,65977,35,1200,4,1200 P,0,65577,65977,A F,2,65578,65977,1,0
Sprite,Background,Centre,"sb\pt\p.png",78,236 F,0,65661,,1 R,0,65661,,0 C,0,65661,,192,172,165 V,1,65661,66061,35,1200,4,1200 P,0,65661,66061,A F,2,65662,66061,1,0
Sprite,Background,TopCentre,"sb\pt\p.png",320,160 C,0,7160,,0,0,0 V,22,7160,7800,25,0,25,136.1 V,22,12660,,20,136.1,20,0 F,2,12660,12760,1,0
Sprite,Background,Centre,"sb\txt\jp\5fd8.png",320,179.05 S,0,7160,,0.1 C,0,7160,,255,255,255 F,0,7160,7260,0,1 F,0,12660,12810,1,0
Sprite,Background,Centre,"sb\txt\jp\308c.png",320,198.2 S,0,7160,,0.1 C,0,7160,,255,255,255 F,0,7160,7260,0,1 F,0,12660,12810,1,0
Sprite,Background,Centre,"sb\txt\jp\3061.png",320,216.55 S,0,7160,,0.1 C,0,7160,,255,255,255 F,0,7160,7260,0,1 F,0,12660,12810,1,0
Sprite,Background,Centre,"sb\txt\jp\3083.png",320,237.2 S,0,7160,,0.1 C,0,7160,,255,255,255 F,0,7160,7260,0,1 F,0,12660,12810,1,0
Sprite,Background,Centre,"sb\txt\jp\3063.png",320,256.3 S,0,7160,,0.1 C,0,7160,,255,255,255 F,0,7160,7260,0,1 F,0,12660,12810,1,0
Sprite,Background,Centre,"sb\txt\jp\305f.png",320,272.7 S,0,7160,,0.1 C,0,7160,,255,255,255 F,0,7160,7260,0,1 F,0,12660,12810,1,0
Sprite,Background,TopCentre,"sb\pt\p.png",20,190 C,0,9161,,0,0,0 V,22,9161,9801,25,0,25,73.05 V,22,12660,,20,73.05,20,0 F,2,12660,12760,1,0
Sprite,Background,Centre,"sb\txt\jp\9774.png",20,209.5 F,0,9161,,1 S,0,9161,,0.1 C,0,9161,,255,255,255 F,0,9161,9261,0,1 F,0,12660,12810,1,0
Sprite,Background,Centre,"sb\txt\jp\7d10.png",20,228.2 F,0,9161,,1 S,0,9161,,0.1 C,0,9161,,255,255,255 F,0,9161,9261,0,1 F,0,12660,12810,1,0
Sprite,Background,Centre,"sb\txt\jp\306e.png",20,247.05 F,0,9161,,1 S,0,9161,,0.1 C,0,9161,,255,255,255 F,0,9161,9261,0,1 F,0,12660,12810,1,0
Sprite,Background,TopCentre,"sb\pt\p.png",620,190 C,0,10661,,0,0,0 V,22,10661,11301,25,0,25,73.05 V,22,12660,,20,73.05,20,0 F,2,12660,12760,1,0
Sprite,Background,Centre,"sb\txt\jp\7d50.png",620,209.3 F,0,10661,,1 S,0,10661,,0.1 C,0,10661,,255,255,255 F,0,10661,10761,0,1 F,0,12660,12810,1,0
Sprite,Background,Centre,"sb\txt\jp\3073.png",620,227.95 F,0,10661,,1 S,0,10661,,0.1 C,0,10661,,255,255,255 F,0,10661,10761,0,1 F,0,12660,12810,1,0
Sprite,Background,Centre,"sb\txt\jp\65b9.png",620,246.5 F,0,10661,,1 S,0,10661,,0.1 C,0,10661,,255,255,255 F,0,10661,10761,0,1 F,0,12660,12810,1,0
Sprite,Background,TopCentre,"sb\pt\p.png",20,160 C,0,36827,,0,0,0 V,22,36827,37467,25,0,25,136.1 V,22,40744,,20,136.1,20,0 F,2,40744,40844,1,0
Sprite,Background,Centre,"sb\txt\jp\30d4.png",20,178.55 S,0,36827,,0.1 C,0,36827,,255,255,255 F,0,36827,36927,0,1 F,0,40744,40894,1,0
Sprite,Background,Centre,"sb\txt\jp\30f3.png",20,198.3 S,0,36827,,0.1 C,0,36827,,255,255,255 F,0,36827,36927,0,1 F,0,40744,40894,1,0
Sprite,Background,Centre,"sb\txt\jp\30bb.png",20,216.45 S,0,36827,,0.1 C,0,36827,,255,255,255 F,0,36827,36927,0,1 F,0,40744,40894,1,0
Sprite,Background,Centre,"sb\txt\jp\30c3.png",20,238.3 S,0,36827,,0.1 C,0,36827,,255,255,255 F,0,36827,36927,0,1 F,0,40744,40894,1,0
Sprite,Background,Centre,"sb\txt\jp\30c8.png",20,254.25 S,0,36827,,0.1 C,0,36827,,255,255,255 F,0,36827,36927,0,1 F,0,40744,40894,1,0
Sprite,Background,Centre,"sb\txt\jp\3067.png",20,273.25 S,0,36827,,0.1 C,0,36827,,255,255,255 F,0,36827,36927,0,1 F,0,40744,40894,1,0
Sprite,Background,TopCentre,"sb\pt\p.png",400,210 C,0,39161,,0,0,0 V,22,39161,39801,25,0,25,126.75 V,22,40744,,20,126.75,20,0 F,2,40744,40844,1,0
Sprite,Background,Centre,"sb\txt\jp\6458.png",400,229.4 S,0,39161,,0.1 C,0,39161,,255,255,255 F,0,39161,39261,0,1 F,0,40744,40894,1,0
Sprite,Background,Centre,"sb\txt\jp\307f.png",400,248.65 S,0,39161,,0.1 C,0,39161,,255,255,255 F,0,39161,39261,0,1 F,0,40744,40894,1,0
Sprite,Background,Centre,"sb\txt\jp\4e0a.png",400,266.3 S,0,39161,,0.1 C,0,39161,,255,255,255 F,0,39161,39261,0,1 F,0,40744,40894,1,0
Sprite,Background,Centre,"sb\txt\jp\3052.png",400,285.15 S,0,39161,,0.1 C,0,39161,,255,255,255 F,0,39161,39261,0,1 F,0,40744,40894,1,0
Sprite,Background,Centre,"sb\txt\jp\3089.png",400,304.05 S,0,39161,,0.1 C,0,39161,,255,255,255 F,0,39161,39261,0,1 F,0,40744,40894,1,0
Sprite,Background,TopCentre,"sb\pt\p.png",20,130 C,0,44827,,0,0,0 V,22,44827,45467,55,0,55,142.71 V,22,50206,,20,142.71,20,0 F,2,50206,50306,1,0
Sprite,Background,Centre,"sb\txt\jp\624b.png",20,161.34 F,0,44827,,1 S,0,44827,,0.22 C,0,44827,,255,255,255 F,0,44827,44927,0,1 F,0,50206,50356,1,0
Sprite,Background,Centre,"sb\txt\jp\57a2.png",20,201.93 F,0,44827,,1 S,0,44827,,0.22 C,0,44827,,255,255,255 F,0,44827,44927,0,1 F,0,50206,50356,1,0
Sprite,Background,Centre,"sb\txt\jp\306e.png",20,243.51 F,0,44827,,1 S,0,44827,,0.22 C,0,44827,,255,255,255 F,0,44827,44927,0,1 F,0,50206,50356,1,0
Sprite,Background,TopCentre,"sb\pt\p.png",480,230 C,0,48160,,0,0,0 V,22,48160,48800,55,0,55,142.71 V,22,50206,,20,142.71,20,0 F,2,50206,50306,1,0
Sprite,Background,Centre,"sb\txt\jp\3064.png",480,262.33 F,0,48160,,1 S,0,48160,,0.22 C,0,48160,,255,255,255 F,0,48160,48260,0,1 F,0,50206,50356,1,0
Sprite,Background,Centre,"sb\txt\jp\3044.png",480,302.26 F,0,48160,,1 S,0,48160,,0.22 C,0,48160,,255,255,255 F,0,48160,48260,0,1 F,0,50206,50356,1,0
Sprite,Background,Centre,"sb\txt\jp\305f.png",480,342.52 F,0,48160,,1 S,0,48160,,0.22 C,0,48160,,255,255,255 F,0,48160,48260,0,1 F,0,50206,50356,1,0
Sprite,Background,TopCentre,"sb\pt\p.png",460,120 C,0,57992,,0,0,0 V,22,57992,58632,25,0,25,136.1 V,22,63992,,20,136.1,20,0 F,2,63992,64092,1,0
Sprite,Background,Centre,"sb\txt\jp\58ca.png",460,139.55 S,0,57992,,0.1 C,0,57992,,255,255,255 F,0,57992,58092,0,1 F,0,63992,64142,1,0
Sprite,Background,Centre,"sb\txt\jp\308c.png",460,158.2 S,0,57992,,0.1 C,0,57992,,255,255,255 F,0,57992,58092,0,1 F,0,63992,64142,1,0
Sprite,Background,Centre,"sb\txt\jp\3061.png",460,176.55 S,0,57992,,0.1 C,0,57992,,255,255,255 F,0,57992,58092,0,1 F,0,63992,64142,1,0
Sprite,Background,Centre,"sb\txt\jp\3083.png",460,197.2 S,0,57992,,0.1 C,0,57992,,255,255,255 F,0,57992,58092,0,1 F,0,63992,64142,1,0
Sprite,Background,Centre,"sb\txt\jp\3063.png",460,216.3 S,0,57992,,0.1 C,0,57992,,255,255,255 F,0,57992,58092,0,1 F,0,63992,64142,1,0
Sprite,Background,Centre,"sb\txt\jp\305f.png",460,232.7 S,0,57992,,0.1 C,0,57992,,255,255,255 F,0,57992,58092,0,1 F,0,63992,64142,1,0
Sprite,Background,TopCentre,"sb\pt\p.png",500,120 C,0,59993,,0,0,0 V,22,59993,60633,25,0,25,97.4 V,22,63992,,20,97.4,20,0 F,2,63992,64092,1,0
Sprite,Background,Centre,"sb\txt\jp\771f.png",500,139.2 S,0,59993,,0.1 C,0,59993,,255,255,255 F,0,59993,60093,0,1 F,0,63992,64142,1,0
Sprite,Background,Centre,"sb\txt\jp\5b9f.png",500,157.95 S,0,59993,,0.1 C,0,59993,,255,255,255 F,0,59993,60093,0,1 F,0,63992,64142,1,0
Sprite,Background,Centre,"sb\txt\jp\3055.png",500,176.5 S,0,59993,,0.1 C,0,59993,,255,255,255 F,0,59993,60093,0,1 F,0,63992,64142,1,0
Sprite,Background,Centre,"sb\txt\jp\3048.png",500,195.1 S,0,59993,,0.1 C,0,59993,,255,255,255 F,0,59993,60093,0,1 F,0,63992,64142,1,0
Sprite,Background,TopCentre,"sb\pt\p.png",540,120 C,0,61493,,0,0,0 V,22,61493,62133,25,0,25,169.8 V,22,63992,,20,169.8,20,0 F,2,63992,64092,1,0
Sprite,Background,Centre,"sb\txt\jp\5206.png",540,139.6 S,0,61493,,0.1 C,0,61493,,255,255,255 F,0,61493,61593,0,1 F,0,63992,64142,1,0
Sprite,Background,Centre,"sb\txt\jp\3051.png",540,158.2 S,0,61493,,0.1 C,0,61493,,255,255,255 F,0,61493,61593,0,1 F,0,63992,64142,1,0
Sprite,Background,Centre,"sb\txt\jp\5408.png",540,176.7 S,0,61493,,0.1 C,0,61493,,255,255,255 F,0,61493,61593,0,1 F,0,63992,64142,1,0
Sprite,Background,Centre,"sb\txt\jp\3048.png",540,195.1 S,0,61493,,0.1 C,0,61493,,255,255,255 F,0,61493,61593,0,1 F,0,63992,64142,1,0
Sprite,Background,Centre,"sb\txt\jp\306a.png",540,214 S,0,61493,,0.1 C,0,61493,,255,255,255 F,0,61493,61593,0,1 F,0,63992,64142,1,0
Sprite,Background,Centre,"sb\txt\jp\3044.png",540,233.1 S,0,61493,,0.1 C,0,61493,,255,255,255 F,0,61493,61593,0,1 F,0,63992,64142,1,0
Sprite,Background,Centre,"sb\txt\jp\306a.png",540,251.4 S,0,61493,,0.1 C,0,61493,,255,255,255 F,0,61493,61593,0,1 F,0,63992,64142,1,0
Sprite,Background,Centre,"sb\txt\jp\3089.png",540,270.15 S,0,61493,,0.1 C,0,61493,,255,255,255 F,0,61493,61593,0,1 F,0,63992,64142,1,0
Sprite,Background,Centre,"sb\txt\sp\logo.png",320,200 S,0,495,,0.4 F,1,495,695,0,1 F,0,695,1662,1 F,0,1662,1829,1,0
Sprite,Background,Centre,"sb\txt\sp\asura.png",320,270 S,0,495,,0.4 F,1,495,695,0,1 F,0,695,1662,1 F,0,1662,1829,1,0
Sprite,Background,Centre,"sb\txt\sp\beatmap.png",320,120 S,0,1829,,0.4 F,1,1829,2029,0,1 F,0,2029,3162,1
Sprite,Background,Centre,"sb\txt\sp\keevy.png",322,200 S,0,1829,,0.46 F,1,1829,2029,0,1 F,0,2029,3162,1
Sprite,Background,Centre,"sb\txt\sp\storyboard.png",320,280 S,0,1829,,0.28 F,1,1829,2029,0,1 F,0,2029,3162,1
Sprite,Background,Centre,"sb\txt\sp\Miyazu.png",320,350 S,0,1829,,0.36 F,1,1829,2029,0,1 F,0,2029,3162,1
Sprite,Background,Centre,"sb\v.png",320,240 S,0,0,,0,0.4444444 F,0,0,94406,1
Sprite,Background,Centre,"sb\pt\p.png",0,0 M,18,40027,40827,1270,240,320,240 R,0,40027,40827,0.2 V,0,40027,40827,900,700 C,0,40827,,0,0,0
Sprite,Background,Centre,"sb\pt\p.png",0,0 C,0,40827,,0,0,0 M,19,40827,41627,320,240,-630,240 R,0,40827,41627,0.2 V,0,40827,41627,900,700
Sprite,Background,Centre,"sb\pt\p.png",0,0 M,18,36027,36827,1270,240,320,240 R,0,36027,36827,0.2 V,0,36027,36827,900,700 C,0,36827,,0,0,0
Sprite,Background,Centre,"sb\pt\p.png",0,0 C,0,36827,,0,0,0 M,19,36827,37627,320,240,-630,240 R,0,36827,37627,0.2 V,0,36827,37627,900,700
Sprite,Background,Centre,"sb\pt\p.png",320,240 F,0,24578,,1 C,0,24578,,0,0,0 V,0,24578,,854,480 F,0,24828,,0 F,0,51493,,0.8 C,0,51493,,255,255,255 C,0,51993,,105,105,105 C,0,52493,,255,255,255 F,0,53493,,0 F,0,68327,70994,0.8 F,0,70994,,0 F,0,76077,,1 C,0,76077,,0,0,0 F,0,76327,,0
Sprite,Background,Centre,"sb\txt\jp\_000.png",320,240 F,0,6161,,0.88 F,0,6161,,0.1 S,0,6161,,0.4 F,0,6261,,0.32 F,0,6284,,0.1 F,0,6320,,0.45 F,0,6351,,0.1 F,0,6402,,0.59 F,0,6430,,0.1 F,0,6468,,0.74 F,0,6794,6994,0.88,0
Sprite,Background,Centre,"sb\txt\jp\4eca.png",0,0 M,16,12660,12910,320,171.4,320,157.4 F,0,12660,12910,0,1 S,16,12660,12910,0.48,0.4 M,16,13409,13659,320,157.4,320,143.4 F,0,13409,13659,1,0
Sprite,Background,Centre,"sb\txt\jp\671d.png",0,0 M,16,12724,12974,320,247.2,320,233.2 F,0,12724,12974,0,1 S,16,12724,12974,0.48,0.4 M,16,13409,13659,320,233.2,320,219.2 F,0,13409,13659,1,0
Sprite,Background,Centre,"sb\txt\jp\306f.png",0,0 M,16,12788,13038,320,322,320,308 F,0,12788,13038,0,1 S,16,12788,13038,0.48,0.4 M,16,13409,13659,320,308,320,294 F,0,13409,13659,1,0
Sprite,Background,Centre,"sb\txt\jp\8e0f.png",0,0 M,16,30162,30412,320,157.23,320,143.23 F,0,30162,30412,0,1 S,16,30162,30412,0.168,0.14 M,16,32578,32828,320,143.23,320,129.23 F,0,32578,32828,1,0
Sprite,Background,Centre,"sb\txt\jp\3093.png",0,0 M,16,30226,30476,320,183.06,320,169.06 F,0,30226,30476,0,1 S,16,30226,30476,0.168,0.14 M,16,32578,32828,320,169.06,320,155.06 F,0,32578,32828,1,0
Sprite,Background,Centre,"sb\txt\jp\3067.png",0,0 M,16,30290,30540,320,210.01,320,196.01 F,0,30290,30540,0,1 S,16,30290,30540,0.168,0.14 M,16,32578,32828,320,196.01,320,182.01 F,0,32578,32828,1,0
Sprite,Background,Centre,"sb\txt\jp\3057.png",0,0 M,16,30354,30604,320,235.77,320,221.77 F,0,30354,30604,0,1 S,16,30354,30604,0.168,0.14 M,16,32578,32828,320,221.77,320,207.77 F,0,32578,32828,1,0
Sprite,Background,Centre,"sb\txt\jp\307e.png",0,0 M,16,30418,30668,320,261.6,320,247.6 F,0,30418,30668,0,1 S,16,30418,30668,0.168,0.14 M,16,32578,32828,320,247.6,320,233.6 F,0,32578,32828,1,0
Sprite,Background,Centre,"sb\txt\jp\3063.png",0,0 M,16,30482,30732,320,291,320,277 F,0,30482,30732,0,1 S,16,30482,30732,0.168,0.14 M,16,32578,32828,320,277,320,263 F,0,32578,32828,1,0
Sprite,Background,Centre,"sb\txt\jp\305f.png",0,0 M,16,30546,30796,320,313.96,320,299.96 F,0,30546,30796,0,1 S,16,30546,30796,0.168,0.14 M,16,32578,32828,320,299.96,320,285.96 F,0,32578,32828,1,0
Sprite,Background,Centre,"sb\txt\jp\3057.png",0,0 M,16,30610,30860,320,340.49,320,326.49 F,0,30610,30860,0,1 S,16,30610,30860,0.168,0.14 M,16,32578,32828,320,326.49,320,312.49 F,0,32578,32828,1,0
Sprite,Background,Centre,"sb\txt\jp\8d70.png",0,0 M,16,14159,14409,40,130.4,40,116.4 F,0,14159,14409,0,1 S,16,14159,14409,0.48,0.4 M,16,16412,16662,40,116.4,40,102.4 F,0,16412,16662,1,0
Sprite,Background,Centre,"sb\txt\jp\308c.png",0,0 M,16,14223,14473,40,206.8,40,192.8 F,0,14223,14473,0,1 S,16,14223,14473,0.48,0.4 M,16,16412,16662,40,192.8,40,178.8 F,0,16412,16662,1,0
Sprite,Background,Centre,"sb\txt\jp\306a.png",0,0 M,16,14287,14537,40,280.4,40,266.4 F,0,14287,14537,0,1 S,16,14287,14537,0.48,0.4 M,16,16412,16662,40,266.4,40,252.4 F,0,16412,16662,1,0
Sprite,Background,Centre,"sb\txt\jp\3044.png",0,0 M,16,14351,14601,40,356.8,40,342.8 F,0,14351,14601,0,1 S,16,14351,14601,0.48,0.4 M,16,16412,16662,40,342.8,40,328.8 F,0,16412,16662,1,0
Sprite,Background,Centre,"sb\txt\jp\3082.png",0,0 M,16,15495,15745,600,125.392,600,111.392 F,0,15495,15745,0,1 S,16,15495,15745,0.3924,0.327 M,16,16412,16662,600,111.392,600,97.392 F,0,16412,16662,1,0
Sprite,Background,Centre,"sb\txt\jp\3046.png",0,0 M,16,15559,15809,600,186.3775,600,172.3775 F,0,15559,15809,0,1 S,16,15559,15809,0.3924,0.327 M,16,16412,16662,600,172.3775,600,158.3775 F,0,16412,16662,1,0
Sprite,Background,Centre,"sb\txt\jp\3044.png",0,0 M,16,15623,15873,600,247.69,600,233.69 F,0,15623,15873,0,1 S,16,15623,15873,0.3924,0.327 M,16,16412,16662,600,233.69,600,219.69 F,0,16412,16662,1,0
Sprite,Background,Centre,"sb\txt\jp\3044.png",0,0 M,16,15687,15937,600,308.839,600,294.839 F,0,15687,15937,0,1 S,16,15687,15937,0.3924,0.327 M,16,16412,16662,600,294.839,600,280.839 F,0,16412,16662,1,0
Sprite,Background,Centre,"sb\txt\jp\3084.png",0,0 M,16,15751,16001,600,368.68,600,354.68 F,0,15751,16001,0,1 S,16,15751,16001,0.3924,0.327 M,16,16412,16662,600,354.68,600,340.68 F,0,16412,16662,1,0
Sprite,Background,Centre,"sb\txt\jp\_001.png",120,100 F,0,16828,,0.88 F,0,16828,,0.1 S,0,16828,,0.4 F,0,16928,,0.32 F,0,16951,,0.1 F,0,16987,,0.45 F,0,17018,,0.1 F,0,17069,,0.59 F,0,17097,,0.1 F,0,17135,,0.74 F,0,19128,19328,0.88,0
Sprite,Background,Centre,"sb\txt\jp\_002.png",580,390 F,0,18162,,0.88 F,0,18162,,0.1 S,0,18162,,0.4 F,0,18262,,0.32 F,0,18285,,0.1 F,0,18321,,0.45 F,0,18352,,0.1 F,0,18403,,0.59 F,0,18431,,0.1 F,0,18469,,0.74 F,0,19128,19328,0.88,0
Sprite,Background,Centre,"sb\txt\jp\76d7.png",0,0 M,16,19495,19745,40,163.9205,40,149.9205 F,0,19495,19745,0,1 S,16,19495,19745,0.3924,0.327 M,16,23578,23828,40,149.9205,40,135.9205 F,0,23578,23828,1,0
Sprite,Background,Centre,"sb\txt\jp\307e.png",0,0 M,16,19559,19809,40,225.233,40,211.233 F,0,19559,19809,0,1 S,16,19559,19809,0.3924,0.327 M,16,23578,23828,40,211.233,40,197.233 F,0,23578,23828,1,0
Sprite,Background,Centre,"sb\txt\jp\308c.png",0,0 M,16,19623,19873,40,287.363,40,273.363 F,0,19623,19873,0,1 S,16,19623,19873,0.3924,0.327 M,16,23578,23828,40,273.363,40,259.363 F,0,23578,23828,1,0
Sprite,Background,Centre,"sb\txt\jp\3066.png",0,0 M,16,21162,21412,600,141.2575,600,127.2575 F,0,21162,21412,0,1 S,16,21162,21412,0.2124,0.177 M,16,23578,23828,600,127.2575,600,113.2575 F,0,23578,23828,1,0
Sprite,Background,Centre,"sb\txt\jp\3044.png",0,0 M,16,21226,21476,600,174.091,600,160.091 F,0,21226,21476,0,1 S,16,21226,21476,0.2124,0.177 M,16,23578,23828,600,160.091,600,146.091 F,0,23578,23828,1,0
Sprite,Background,Centre,"sb\txt\jp\304f.png",0,0 M,16,21290,21540,600,207.1015,600,193.1015 F,0,21290,21540,0,1 S,16,21290,21540,0.2124,0.177 M,16,23578,23828,600,193.1015,600,179.1015 F,0,23578,23828,1,0
Sprite,Background,Centre,"sb\txt\jp\3060.png",0,0 M,16,21354,21604,600,239.227,600,225.227 F,0,21354,21604,0,1 S,16,21354,21604,0.2124,0.177 M,16,23578,23828,600,225.227,600,211.227 F,0,23578,23828,1,0
Sprite,Background,Centre,"sb\txt\jp\308d.png",0,0 M,16,21418,21668,600,273.1225,600,259.1225 F,0,21418,21668,0,1 S,16,21418,21668,0.2124,0.177 M,16,23578,23828,600,259.1225,600,245.1225 F,0,23578,23828,1,0
Sprite,Background,Centre,"sb\txt\jp\3046.png",0,0 M,16,21482,21732,600,306.3985,600,292.3985 F,0,21482,21732,0,1 S,16,21482,21732,0.2124,0.177 M,16,23578,23828,600,292.3985,600,278.3985 F,0,23578,23828,1,0
Sprite,Background,Centre,"sb\txt\jp\_003.png",320,240 F,0,24828,,0.88 F,0,24828,,0.1 S,0,24828,,0.4 F,0,24928,,0.32 F,0,24951,,0.1 F,0,24987,,0.45 F,0,25018,,0.1 F,0,25069,,0.59 F,0,25097,,0.1 F,0,25135,,0.74 F,0,25961,26161,0.88,0
Sprite,Background,Centre,"sb\txt\jp\6b69.png",0,0 M,16,26328,26578,40,141.6,40,127.6 F,0,26328,26578,0,1 S,16,26328,26578,0.48,0.4 M,16,29912,30162,40,127.6,40,113.6 F,0,29912,30162,1,0
Sprite,Background,Centre,"sb\txt\jp\9053.png",0,0 M,16,26392,26642,40,214.8,40,200.8 F,0,26392,26642,0,1 S,16,26392,26642,0.48,0.4 M,16,29912,30162,40,200.8,40,186.8 F,0,29912,30162,1,0
Sprite,Background,Centre,"sb\txt\jp\306e.png",0,0 M,16,26456,26706,40,292.2,40,278.2 F,0,26456,26706,0,1 S,16,26456,26706,0.48,0.4 M,16,29912,30162,40,278.2,40,264.2 F,0,29912,30162,1,0
Sprite,Background,Centre,"sb\txt\jp\9ed2.png",0,0 M,16,27495,27745,600,134.9015,600,120.9015 F,0,27495,27745,0,1 S,16,27495,27745,0.3924,0.327 M,16,29912,30162,600,120.9015,600,106.9015 F,0,29912,30162,1,0
Sprite,Background,Centre,"sb\txt\jp\3092.png",0,0 M,16,27559,27809,600,195.7235,600,181.7235 F,0,27559,27809,0,1 S,16,27559,27809,0.3924,0.327 M,16,29912,30162,600,181.7235,600,167.7235 F,0,29912,30162,1,0
Sprite,Background,Centre,"sb\txt\jp\6628.png",0,0 M,16,27623,27873,600,256.5455,600,242.5455 F,0,27623,27873,0,1 S,16,27623,27873,0.3924,0.327 M,16,29912,30162,600,242.5455,600,228.5455 F,0,29912,30162,1,0
Sprite,Background,Centre,"sb\txt\jp\65e5.png",0,0 M,16,27687,27937,600,319.6565,600,305.6565 F,0,27687,27937,0,1 S,16,27687,27937,0.3924,0.327 M,16,29912,30162,600,305.6565,600,291.6565 F,0,29912,30162,1,0
Sprite,Background,Centre,"sb\txt\jp\3042.png",0,0 M,16,35827,36077,320,230.284,320,216.284 F,0,35827,36077,0,1 S,16,35827,36077,0.2124,0.177 M,16,36577,36827,320,216.284,320,202.284 F,0,36577,36827,1,0
Sprite,Background,Centre,"sb\txt\jp\3041.png",0,0 M,16,35891,36141,320,266.923,320,252.923 F,0,35891,36141,0,1 S,16,35891,36141,0.2124,0.177 M,16,36577,36827,320,252.923,320,238.923 F,0,36577,36827,1,0
Sprite,Background,Centre,"sb\txt\jp\308c.png",0,0 M,16,40827,41077,110,135.065,110,121.065 F,0,40827,41077,0,1 S,16,40827,41077,0.3924,0.327 M,16,44677,44927,110,121.065,110,107.065 F,0,44677,44927,1,0
Sprite,Background,Centre,"sb\txt\jp\3066.png",0,0 M,16,40891,41141,110,197.0315,110,183.0315 F,0,40891,41141,0,1 S,16,40891,41141,0.3924,0.327 M,16,44677,44927,110,183.0315,110,169.0315 F,0,44677,44927,1,0
Sprite,Background,Centre,"sb\txt\jp\306f.png",0,0 M,16,40955,41205,110,257.69,110,243.69 F,0,40955,41205,0,1 S,16,40955,41205,0.3924,0.327 M,16,44677,44927,110,243.69,110,229.69 F,0,44677,44927,1,0
Sprite,Background,Centre,"sb\txt\jp\72fc.png",0,0 M,16,41019,41269,110,318.3485,110,304.3485 F,0,41019,41269,0,1 S,16,41019,41269,0.3924,0.327 M,16,44677,44927,110,304.3485,110,290.3485 F,0,44677,44927,1,0
Sprite,Background,Centre,"sb\txt\jp\72fd.png",0,0 M,16,41083,41333,110,379.988,110,365.988 F,0,41083,41333,0,1 S,16,41083,41333,0.3924,0.327 M,16,44677,44927,110,365.988,110,351.988 F,0,44677,44927,1,0
Sprite,Background,Centre,"sb\txt\jp\826f.png",0,0 M,16,41827,42077,250,141.4,250,127.4 F,0,41827,42077,0,1 S,16,41827,42077,0.48,0.4 M,16,44677,44927,250,127.4,250,113.4 F,0,44677,44927,1,0
Sprite,Background,Centre,"sb\txt\jp\3044.png",0,0 M,16,41891,42141,250,217.2,250,203.2 F,0,41891,42141,0,1 S,16,41891,42141,0.48,0.4 M,16,44677,44927,250,203.2,250,189.2 F,0,44677,44927,1,0
Sprite,Background,Centre,"sb\txt\jp\4eba.png",0,0 M,16,41955,42205,250,292.6,250,278.6 F,0,41955,42205,0,1 S,16,41955,42205,0.48,0.4 M,16,44677,44927,250,278.6,250,264.6 F,0,44677,44927,1,0
Sprite,Background,Centre,"sb\txt\jp\3060.png",0,0 M,16,42019,42269,250,364.4,250,350.4 F,0,42019,42269,0,1 S,16,42019,42269,0.48,0.4 M,16,44677,44927,250,350.4,250,336.4 F,0,44677,44927,1,0
Sprite,Background,Centre,"sb\txt\jp\7d76.png",0,0 M,16,42827,43077,390,152.7475,390,138.7475 F,0,42827,43077,0,1 S,16,42827,43077,0.6324,0.527 M,16,44677,44927,390,138.7475,390,124.7475 F,0,44677,44927,1,0
Sprite,Background,Centre,"sb\txt\jp\5bfe.png",0,0 M,16,42891,43141,390,253.668,390,239.668 F,0,42891,43141,0,1 S,16,42891,43141,0.6324,0.527 M,16,44677,44927,390,239.668,390,225.668 F,0,44677,44927,1,0
Sprite,Background,Centre,"sb\txt\jp\767d.png",0,0 M,16,42955,43205,390,350.3725,390,336.3725 F,0,42955,43205,0,1 S,16,42955,43205,0.6324,0.527 M,16,44677,44927,390,336.3725,390,322.3725 F,0,44677,44927,1,0
Sprite,Background,Centre,"sb\txt\jp\5618.png",0,0 M,16,43827,44077,530,140.4,530,126.4 F,0,43827,44077,0,1 S,16,43827,44077,0.48,0.4 M,16,44677,44927,530,126.4,530,112.4 F,0,44677,44927,1,0
Sprite,Background,Centre,"sb\txt\jp\3070.png",0,0 M,16,43891,44141,530,214.6,530,200.6 F,0,43891,44141,0,1 S,16,43891,44141,0.48,0.4 M,16,44677,44927,530,200.6,530,186.6 F,0,44677,44927,1,0
Sprite,Background,Centre,"sb\txt\jp\304b.png",0,0 M,16,43955,44205,530,290.8,530,276.8 F,0,43955,44205,0,1 S,16,43955,44205,0.48,0.4 M,16,44677,44927,530,276.8,530,262.8 F,0,44677,44927,1,0
Sprite,Background,Centre,"sb\txt\jp\308a.png",0,0 M,16,44019,44269,530,366.4,530,352.4 F,0,44019,44269,0,1 S,16,44019,44269,0.48,0.4 M,16,44677,44927,530,352.4,530,338.4 F,0,44677,44927,1,0
Sprite,Background,Centre,"sb\txt\jp\_004.png",320,240 F,0,50493,,0.88 F,0,50493,,0.1 S,0,50493,,0.4 F,0,50593,,0.32 F,0,50616,,0.1 F,0,50652,,0.45 F,0,50683,,0.1 F,0,50734,,0.59 F,0,50762,,0.1 F,0,50800,,0.74 F,0,51293,51493,0.88,0
Sprite,Background,Centre,"sb\txt\jp\_005.png",320,240 F,0,51493,,0.88 S,0,51493,,0.4 F,0,51793,51993,0.88,0
Sprite,Background,Centre,"sb\txt\jp\_006.png",320,240 F,0,51993,,0.88 S,0,51993,,0.4 F,0,52293,52493,0.88,0
Sprite,Background,Centre,"sb\txt\jp\_007.png",320,240 F,0,52493,,0.88 S,0,52493,,0.4 F,0,53493,53393,0.88,0
Sprite,Background,Centre,"sb\txt\jp\_008.png",320,240 F,0,53493,,0.88 S,0,53493,,0.4 F,0,54576,54476,0.88,0
Sprite,Background,Centre,"sb\txt\jp\_000.png",320,240 F,0,56993,,0.88 F,0,56993,,0.1 S,0,56993,,0.4 F,0,57093,,0.32 F,0,57116,,0.1 F,0,57152,,0.45 F,0,57183,,0.1 F,0,57234,,0.59 F,0,57262,,0.1 F,0,57300,,0.74 F,0,57626,57826,0.88,0
Sprite,Background,Centre,"sb\txt\jp\3053.png",0,0 M,16,65661,65911,320,127.51,320,113.51 F,0,65661,65911,0,1 S,16,65661,65911,0.168,0.14 M,16,67911,68161,320,113.51,320,99.51 F,0,67911,68161,1,0
Sprite,Background,Centre,"sb\txt\jp\308c.png",0,0 M,16,65725,65975,320,153.48,320,139.48 F,0,65725,65975,0,1 S,16,65725,65975,0.168,0.14 M,16,67911,68161,320,139.48,320,125.48 F,0,67911,68161,1,0
Sprite,Background,Centre,"sb\txt\jp\3067.png",0,0 M,16,65789,66039,320,180.01,320,166.01 F,0,65789,66039,0,1 S,16,65789,66039,0.168,0.14 M,16,67911,68161,320,166.01,320,152.01 F,0,67911,68161,1,0
Sprite,Background,Centre,"sb\txt\jp\3044.png",0,0 M,16,65853,66103,320,205.98,320,191.98 F,0,65853,66103,0,1 S,16,65853,66103,0.168,0.14 M,16,67911,68161,320,191.98,320,177.98 F,0,67911,68161,1,0
Sprite,Background,Centre,"sb\txt\jp\3044.png",0,0 M,16,65917,66167,320,232.16,320,218.16 F,0,65917,66167,0,1 S,16,65917,66167,0.168,0.14 M,16,67911,68161,320,218.16,320,204.16 F,0,67911,68161,1,0
Sprite,Background,Centre,"sb\txt\jp\308f.png",0,0 M,16,65981,66231,320,257.71,320,243.71 F,0,65981,66231,0,1 S,16,65981,66231,0.168,0.14 M,16,67911,68161,320,243.71,320,229.71 F,0,67911,68161,1,0
Sprite,Background,Centre,"sb\txt\jp\3051.png",0,0 M,16,66045,66295,320,284.38,320,270.38 F,0,66045,66295,0,1 S,16,66045,66295,0.168,0.14 M,16,67911,68161,320,270.38,320,256.38 F,0,67911,68161,1,0
Sprite,Background,Centre,"sb\txt\jp\306a.png",0,0 M,16,66109,66359,320,310.14,320,296.14 F,0,66109,66359,0,1 S,16,66109,66359,0.168,0.14 M,16,67911,68161,320,296.14,320,282.14 F,0,67911,68161,1,0
Sprite,Background,Centre,"sb\txt\jp\3044.png",0,0 M,16,66173,66423,320,336.88,320,322.88 F,0,66173,66423,0,1 S,16,66173,66423,0.168,0.14 M,16,67911,68161,320,322.88,320,308.88 F,0,67911,68161,1,0
Sprite,Background,Centre,"sb\txt\jp\306a.png",0,0 M,16,66237,66487,320,362.5,320,348.5 F,0,66237,66487,0,1 S,16,66237,66487,0.168,0.14 M,16,67911,68161,320,348.5,320,334.5 F,0,67911,68161,1,0
Sprite,Background,Centre,"sb\txt\jp\_009.png",320,240 S,0,68327,,0.62 C,0,68327,,0,0,0 F,0,68327,68377,0,0.88 F,0,69611,69661,0.88,0
Sprite,Background,Centre,"sb\txt\jp\_009.png",320,100 S,0,68327,,0.62 C,0,68327,,0,0,0 F,0,68327,68377,0,0.88 F,0,69611,69661,0.88,0
Sprite,Background,Centre,"sb\txt\jp\_009.png",320,380 S,0,68327,,0.62 C,0,68327,,0,0,0 F,0,68327,68377,0,0.88 F,0,69611,69661,0.88,0
Sprite,Background,Centre,"sb\txt\jp\_00a.png",320,240 S,0,69661,,0.62 C,0,69661,,0,0,0 F,0,69661,69711,0,0.88 F,0,70944,70994,0.88,0
Sprite,Background,Centre,"sb\txt\jp\_00a.png",320,100 S,0,69661,,0.62 C,0,69661,,0,0,0 F,0,69661,69711,0,0.88 F,0,70944,70994,0.88,0
Sprite,Background,Centre,"sb\txt\jp\_00a.png",320,380 S,0,69661,,0.62 C,0,69661,,0,0,0 F,0,69661,69711,0,0.88 F,0,70944,70994,0.88,0
Sprite,Background,Centre,"sb\txt\jp\50d5.png",0,0 M,16,70994,71244,40,131,40,117 F,0,70994,71244,0,1 S,16,70994,71244,0.48,0.4 M,16,74744,74994,40,117,40,103 F,0,74744,74994,1,0
Sprite,Background,Centre,"sb\txt\jp\3092.png",0,0 M,16,71058,71308,40,206.2,40,192.2 F,0,71058,71308,0,1 S,16,71058,71308,0.48,0.4 M,16,74744,74994,40,192.2,40,178.2 F,0,74744,74994,1,0
Sprite,Background,Centre,"sb\txt\jp\7a81.png",0,0 M,16,71122,71372,40,281.4,40,267.4 F,0,71122,71372,0,1 S,16,71122,71372,0.48,0.4 M,16,74744,74994,40,267.4,40,253.4 F,0,74744,74994,1,0
Sprite,Background,Centre,"sb\txt\jp\304d.png",0,0 M,16,71186,71436,40,356.4,40,342.4 F,0,71186,71436,0,1 S,16,71186,71436,0.48,0.4 M,16,74744,74994,40,342.4,40,328.4 F,0,74744,74994,1,0
Sprite,Background,Centre,"sb\txt\jp\52d5.png",0,0 M,16,72994,73244,600,94.738,600,80.738 F,0,72994,73244,0,1 S,16,72994,73244,0.3924,0.327 M,16,74744,74994,600,80.738,600,66.738 F,0,74744,74994,1,0
Sprite,Background,Centre,"sb\txt\jp\304b.png",0,0 M,16,73058,73308,600,155.56,600,141.56 F,0,73058,73308,0,1 S,16,73058,73308,0.3924,0.327 M,16,74744,74994,600,141.56,600,127.56 F,0,74744,74994,1,0
Sprite,Background,Centre,"sb\txt\jp\3057.png",0,0 M,16,73122,73372,600,217.1995,600,203.1995 F,0,73122,73372,0,1 S,16,73122,73372,0.3924,0.327 M,16,74744,74994,600,203.1995,600,189.1995 F,0,74744,74994,1,0
Sprite,Background,Centre,"sb\txt\jp\3066.png",0,0 M,16,73186,73436,600,279.3295,600,265.3295 F,0,73186,73436,0,1 S,16,73186,73436,0.3924,0.327 M,16,74744,74994,600,265.3295,600,251.3295 F,0,74744,74994,1,0
Sprite,Background,Centre,"sb\txt\jp\304f.png",0,0 M,16,73250,73500,600,339.8245,600,325.8245 F,0,73250,73500,0,1 S,16,73250,73500,0.3924,0.327 M,16,74744,74994,600,325.8245,600,311.8245 F,0,74744,74994,1,0
Sprite,Background,Centre,"sb\txt\jp\308c.png",0,0 M,16,73314,73564,600,400.81,600,386.81 F,0,73314,73564,0,1 S,16,73314,73564,0.3924,0.327 M,16,74744,74994,600,386.81,600,372.81 F,0,74744,74994,1,0
Sprite,Background,Centre,"sb\txt\jp\_00b.png",320,240 F,0,76327,,0.88 F,0,76327,,0.1 S,0,76327,,0.4 F,0,76427,,0.32 F,0,76450,,0.1 F,0,76486,,0.45 F,0,76517,,0.1 F,0,76568,,0.59 F,0,76596,,0.1 F,0,76634,,0.74 F,0,77461,77661,0.88,0
Sprite,Background,Centre,"sb\txt\jp\_000.png",320,240 F,0,77827,,0.88 F,0,77827,,0.1 S,0,77827,,0.4 F,0,77927,,0.32 F,0,77950,,0.1 F,0,77986,,0.45 F,0,78017,,0.1 F,0,78068,,0.59 F,0,78096,,0.1 F,0,78134,,0.74 F,0,78794,78994,0.88,0
Sprite,Background,Centre,"sb\txt\jp\305d.png",0,0 M,16,78994,79244,320,115.6785,320,101.6785 F,0,78994,79244,0,1 S,16,78994,79244,0.2724,0.227 M,16,83743,83993,320,101.6785,320,87.6785 F,0,83743,83993,1,0
Sprite,Background,Centre,"sb\txt\jp\306e.png",0,0 M,16,79058,79308,320,158.3545,320,144.3545 F,0,79058,79308,0,1 S,16,79058,79308,0.2724,0.227 M,16,83743,83993,320,144.3545,320,130.3545 F,0,83743,83993,1,0
Sprite,Background,Centre,"sb\txt\jp\9759.png",0,0 M,16,79122,79372,320,200.463,320,186.463 F,0,79122,79372,0,1 S,16,79122,79372,0.2724,0.227 M,16,83743,83993,320,186.463,320,172.463 F,0,83743,83993,1,0
Sprite,Background,Centre,"sb\txt\jp\304b.png",0,0 M,16,79186,79436,320,242.458,320,228.458 F,0,79186,79436,0,1 S,16,79186,79436,0.2724,0.227 M,16,83743,83993,320,228.458,320,214.458 F,0,83743,83993,1,0
Sprite,Background,Centre,"sb\txt\jp\306a.png",0,0 M,16,79250,79500,320,284.68,320,270.68 F,0,79250,79500,0,1 S,16,79250,79500,0.2724,0.227 M,16,83743,83993,320,270.68,320,256.68 F,0,83743,83993,1,0
Sprite,Background,Centre,"sb\txt\jp\6012.png",0,0 M,16,79314,79564,320,327.4695,320,313.4695 F,0,79314,79564,0,1 S,16,79314,79564,0.2724,0.227 M,16,83743,83993,320,313.4695,320,299.4695 F,0,83743,83993,1,0
Sprite,Background,Centre,"sb\txt\jp\308a.png",0,0 M,16,79378,79628,320,370.259,320,356.259 F,0,79378,79628,0,1 S,16,79378,79628,0.2724,0.227 M,16,83743,83993,320,356.259,320,342.259 F,0,83743,83993,1,0
Sprite,Background,Centre,"sb\txt\jp\3092.png",0,0 M,16,79442,79692,320,412.3675,320,398.3675 F,0,79442,79692,0,1 S,16,79442,79692,0.2724,0.227 M,16,83743,83993,320,398.3675,320,384.3675 F,0,83743,83993,1,0
Sprite,Background,Centre,"sb\txt\jp\_00c.png",320,240 F,0,84327,,0.88 F,0,84327,,0.1 S,0,84327,,0.4 F,0,84427,,0.32 F,0,84450,,0.1 F,0,84486,,0.45 F,0,84517,,0.1 F,0,84568,,0.59 F,0,84596,,0.1 F,0,84634,,0.74 F,0,87973,88173,0.88,0
Animation,Background,Centre,"sb\noise\noise.jpg",320,240,4,120,LoopForever S,0,3162,,1 F,0,3162,6161,0.2 F,0,6161,,0 F,0,32828,54493,0.2 F,0,54493,,0 F,0,68327,70994,0.2
Sprite,Background,BottomCentre,"sb\pt\p.png",0,0 C,0,6161,,0,0,0 V,0,6161,,1000,100 M,19,6161,7161,320,0,320,80 F,0,6161,14159,1
Sprite,Background,TopCentre,"sb\pt\p.png",0,0 C,0,495,,0,0,0 V,0,6161,,1000,100 M,19,6161,7161,320,480,320,400 F,0,6161,14159,1
Sprite,Background,BottomCentre,"sb\pt\p.png",0,0 C,0,495,,0,0,0 V,0,495,,1000,100 M,19,495,1495,320,0,320,80 F,0,495,6161,1
Sprite,Background,TopCentre,"sb\pt\p.png",0,0 C,0,495,,0,0,0 V,0,495,,1000,100 M,19,495,1495,320,480,320,400 F,0,495,6161,1
Sprite,Background,BottomCentre,"sb\pt\p.png",0,0 C,0,23495,,0,0,0 V,0,23495,,1000,100 F,0,23495,23995,1 M,19,23495,24495,320,0,320,40
Sprite,Background,TopCentre,"sb\pt\p.png",0,0 C,0,23495,,0,0,0 V,0,23495,,1000,100 F,0,23495,23995,1 M,19,23495,24495,320,480,320,440
Sprite,Background,BottomCentre,"sb\pt\p.png",0,0 C,0,32828,,0,0,0 V,0,32828,,1000,100 M,19,32828,33828,320,0,320,80 F,0,32828,54493,1
Sprite,Background,TopCentre,"sb\pt\p.png",0,0 C,0,23495,,0,0,0 V,0,32828,,1000,100 M,19,32828,33828,320,480,320,400 F,0,32828,54493,1
Sprite,Background,BottomCentre,"sb\pt\p.png",0,0 C,0,56993,,0,0,0 V,0,56993,,1000,100 M,19,56993,57993,320,0,320,80 F,0,56993,64577,1
Sprite,Background,TopCentre,"sb\pt\p.png",0,0 C,0,495,,0,0,0 V,0,56993,,1000,100 M,19,56993,57993,320,480,320,400 F,0,56993,64577,1
Sprite,Background,BottomCentre,"sb\pt\p.png",0,0 F,0,74994,,1 C,0,74994,,0,0,0 V,0,74994,,1000,100 M,19,74994,75994,320,0,320,40
Sprite,Background,TopCentre,"sb\pt\p.png",0,0 F,0,74994,,1 C,0,74994,,0,0,0 V,0,74994,,1000,100 M,19,74994,75994,320,480,320,440
Sprite,Background,Centre,"sb\pt\p.png",-120,240 R,0,32495,,0 C,0,32495,,0,0,0 V,0,32495,32795,0,500,22,500 F,0,32827,33827,1,0
Sprite,Background,Centre,"sb\pt\p.png",-98,240 R,0,32495,,0 C,0,32495,,0,0,0 V,0,32495,32795,0,500,22,500 F,0,32827,33827,1,0
Sprite,Background,Centre,"sb\pt\p.png",-76,240 R,0,32495,,0 C,0,32495,,0,0,0 V,0,32495,32795,0,500,22,500 F,0,32827,33827,1,0
Sprite,Background,Centre,"sb\pt\p.png",-54,240 R,0,32495,,0 C,0,32495,,0,0,0 V,0,32495,32795,0,500,22,500 F,0,32827,33827,1,0
Sprite,Background,Centre,"sb\pt\p.png",-32,240 R,0,32495,,0 C,0,32495,,0,0,0 V,0,32495,32795,0,500,22,500 F,0,32827,33827,1,0
Sprite,Background,Centre,"sb\pt\p.png",-10,240 R,0,32495,,0 C,0,32495,,0,0,0 V,0,32495,32795,0,500,22,500 F,0,32827,33827,1,0
Sprite,Background,Centre,"sb\pt\p.png",12,240 R,0,32495,,0 C,0,32495,,0,0,0 V,0,32495,32795,0,500,22,500 F,0,32827,33827,1,0
Sprite,Background,Centre,"sb\pt\p.png",34,240 R,0,32495,,0 C,0,32495,,0,0,0 V,0,32495,32795,0,500,22,500 F,0,32827,33827,1,0
Sprite,Background,Centre,"sb\pt\p.png",56,240 R,0,32495,,0 C,0,32495,,0,0,0 V,0,32495,32795,0,500,22,500 F,0,32827,33827,1,0
Sprite,Background,Centre,"sb\pt\p.png",78,240 R,0,32495,,0 C,0,32495,,0,0,0 V,0,32495,32795,0,500,22,500 F,0,32827,33827,1,0
Sprite,Background,Centre,"sb\pt\p.png",100,240 R,0,32495,,0 C,0,32495,,0,0,0 V,0,32495,32795,0,500,22,500 F,0,32827,33827,1,0
Sprite,Background,Centre,"sb\pt\p.png",122,240 R,0,32495,,0 C,0,32495,,0,0,0 V,0,32495,32795,0,500,22,500 F,0,32827,33827,1,0
Sprite,Background,Centre,"sb\pt\p.png",144,240 R,0,32495,,0 C,0,32495,,0,0,0 V,0,32495,32795,0,500,22,500 F,0,32827,33827,1,0
Sprite,Background,Centre,"sb\pt\p.png",166,240 R,0,32495,,0 C,0,32495,,0,0,0 V,0,32495,32795,0,500,22,500 F,0,32827,33827,1,0
Sprite,Background,Centre,"sb\pt\p.png",188,240 R,0,32495,,0 C,0,32495,,0,0,0 V,0,32495,32795,0,500,22,500 F,0,32827,33827,1,0
Sprite,Background,Centre,"sb\pt\p.png",210,240 R,0,32495,,0 C,0,32495,,0,0,0 V,0,32495,32795,0,500,22,500 F,0,32827,33827,1,0
Sprite,Background,Centre,"sb\pt\p.png",232,240 R,0,32495,,0 C,0,32495,,0,0,0 V,0,32495,32795,0,500,22,500 F,0,32827,33827,1,0
Sprite,Background,Centre,"sb\pt\p.png",254,240 R,0,32495,,0 C,0,32495,,0,0,0 V,0,32495,32795,0,500,22,500 F,0,32827,33827,1,0
Sprite,Background,Centre,"sb\pt\p.png",276,240 R,0,32495,,0 C,0,32495,,0,0,0 V,0,32495,32795,0,500,22,500 F,0,32827,33827,1,0
Sprite,Background,Centre,"sb\pt\p.png",298,240 R,0,32495,,0 C,0,32495,,0,0,0 V,0,32495,32795,0,500,22,500 F,0,32827,33827,1,0
Sprite,Background,Centre,"sb\pt\p.png",320,240 R,0,32495,,0 C,0,32495,,0,0,0 V,0,32495,32795,0,500,22,500 F,0,32827,33827,1,0
Sprite,Background,Centre,"sb\pt\p.png",342,240 R,0,32495,,0 C,0,32495,,0,0,0 V,0,32495,32795,0,500,22,500 F,0,32827,33827,1,0
Sprite,Background,Centre,"sb\pt\p.png",364,240 R,0,32495,,0 C,0,32495,,0,0,0 V,0,32495,32795,0,500,22,500 F,0,32827,33827,1,0
Sprite,Background,Centre,"sb\pt\p.png",386,240 R,0,32495,,0 C,0,32495,,0,0,0 V,0,32495,32795,0,500,22,500 F,0,32827,33827,1,0
Sprite,Background,Centre,"sb\pt\p.png",408,240 R,0,32495,,0 C,0,32495,,0,0,0 V,0,32495,32795,0,500,22,500 F,0,32827,33827,1,0
Sprite,Background,Centre,"sb\pt\p.png",430,240 R,0,32495,,0 C,0,32495,,0,0,0 V,0,32495,32795,0,500,22,500 F,0,32827,33827,1,0
Sprite,Background,Centre,"sb\pt\p.png",452,240 R,0,32495,,0 C,0,32495,,0,0,0 V,0,32495,32795,0,500,22,500 F,0,32827,33827,1,0
Sprite,Background,Centre,"sb\pt\p.png",474,240 R,0,32495,,0 C,0,32495,,0,0,0 V,0,32495,32795,0,500,22,500 F,0,32827,33827,1,0
Sprite,Background,Centre,"sb\pt\p.png",496,240 R,0,32495,,0 C,0,32495,,0,0,0 V,0,32495,32795,0,500,22,500 F,0,32827,33827,1,0
Sprite,Background,Centre,"sb\pt\p.png",518,240 R,0,32495,,0 C,0,32495,,0,0,0 V,0,32495,32795,0,500,22,500 F,0,32827,33827,1,0
Sprite,Background,Centre,"sb\pt\p.png",540,240 R,0,32495,,0 C,0,32495,,0,0,0 V,0,32495,32795,0,500,22,500 F,0,32827,33827,1,0
Sprite,Background,Centre,"sb\pt\p.png",562,240 R,0,32495,,0 C,0,32495,,0,0,0 V,0,32495,32795,0,500,22,500 F,0,32827,33827,1,0
Sprite,Background,Centre,"sb\pt\p.png",584,240 R,0,32495,,0 C,0,32495,,0,0,0 V,0,32495,32795,0,500,22,500 F,0,32827,33827,1,0
Sprite,Background,Centre,"sb\pt\p.png",606,240 R,0,32495,,0 C,0,32495,,0,0,0 V,0,32495,32795,0,500,22,500 F,0,32827,33827,1,0
Sprite,Background,Centre,"sb\pt\p.png",628,240 R,0,32495,,0 C,0,32495,,0,0,0 V,0,32495,32795,0,500,22,500 F,0,32827,33827,1,0
Sprite,Background,Centre,"sb\pt\p.png",650,240 R,0,32495,,0 C,0,32495,,0,0,0 V,0,32495,32795,0,500,22,500 F,0,32827,33827,1,0
Sprite,Background,Centre,"sb\pt\p.png",672,240 R,0,32495,,0 C,0,32495,,0,0,0 V,0,32495,32795,0,500,22,500 F,0,32827,33827,1,0
Sprite,Background,Centre,"sb\pt\p.png",694,240 R,0,32495,,0 C,0,32495,,0,0,0 V,0,32495,32795,0,500,22,500 F,0,32827,33827,1,0
Sprite,Background,Centre,"sb\pt\p.png",716,240 R,0,32495,,0 C,0,32495,,0,0,0 V,0,32495,32795,0,500,22,500 F,0,32827,33827,1,0
Sprite,Background,Centre,"sb\pt\p.png",738,240 R,0,32495,,0 C,0,32495,,0,0,0 V,0,32495,32795,0,500,22,500 F,0,32827,33827,1,0
Sprite,Background,Centre,"sb\pt\p.png",760,240 R,0,32495,,0 C,0,32495,,0,0,0 V,0,32495,32795,0,500,22,500 F,0,32827,33827,1,0
Sprite,Background,Centre,"sb\pt\p.png",320,240 V,0,44827,,854,480 P,0,44827,45327,A F,0,44827,45427,1,0
Sprite,Background,Centre,"sb\pt\p.png",320,240 V,0,6161,,854,480 P,0,6161,6661,A F,0,6161,6761,1,0
Sprite,Background,Centre,"sb\pt\p.png",320,240 V,0,14159,,854,480 P,0,14159,14859,A F,0,14159,14959,1,0
Sprite,Background,Centre,"sb\pt\p.png",320,240 V,0,30161,,854,480 P,0,30161,31261,A F,0,30161,31361,1,0
Sprite,Background,Centre,"sb\pt\p.png",320,240 V,0,32828,,854,480 P,0,32828,33328,A F,0,32828,33428,1,0
Sprite,Background,Centre,"sb\pt\p.png",320,240 V,0,24828,,854,480 P,0,24828,25328,A F,0,24828,25428,1,0
Sprite,Background,Centre,"sb\pt\p.png",320,240 V,0,70994,,854,480 P,0,70994,71494,A F,0,70994,71594,1,0
Sprite,Background,Centre,"sb\pt\p.png",320,240 V,0,76327,,854,480 P,0,76327,76827,A F,0,76327,76927,1,0
Sprite,Background,Centre,"sb\pt\p.png",320,240 V,0,19495,,854,480 P,0,19495,19995,A F,0,19495,20095,1,0
Sprite,Background,Centre,"sb\pt\p.png",320,240 V,0,56993,,854,480 P,0,56993,57493,A F,0,56993,57593,1,0
Sprite,Background,Centre,"sb\pt\p.png",320,240 V,0,82327,,854,480 P,0,82327,82827,A F,0,82327,82927,1,0
Sprite,Background,Centre,"sb\pt\p.png",320,240 V,0,54493,,854,480 P,0,54493,54993,A F,0,54493,55093,1,0
Sprite,Background,Centre,"sb\pt\p.png",320,240 V,0,77911,,854,480 P,0,77911,78411,A F,0,77911,78511,1,0
Sprite,Background,Centre,"sb\pt\p.png",320,240 V,0,88353,,854,480 P,0,88353,88853,A F,0,88353,88953,1,0
Sprite,Background,Centre,"sb\pt\p.png",320,240 V,0,89825,,854,480 P,0,89825,90325,A F,0,89825,90425,1,0
Sprite,Background,Centre,"sb\pt\p.png",320,240 V,0,68327,,854,480 P,0,68327,68527,A F,0,68327,68627,1,0
//Storyboard Layer 1 (Fail)
//Storyboard Layer 2 (Pass)
//Storyboard Layer 3 (Foreground)
//Storyboard Layer 4 (Overlay)
//Storyboard Sound Samples

[TimingPoints]
496,333.333333333333,4,2,1,40,1,0
662,-90.9090909090909,4,2,1,40,0,0
912,-90.9090909090909,4,2,1,5,0,0
995,-90.9090909090909,4,2,1,40,0,0
2245,-90.9090909090909,4,2,1,5,0,0
2329,-90.9090909090909,4,2,1,40,0,0
3162,-90.9090909090909,4,2,1,50,0,0
3829,-80,4,2,1,50,0,0
3995,-66.6666666666667,4,2,1,70,0,0
4495,333.333333333333,5,2,1,70,1,0
4495,-66.6666666666667,5,2,1,70,0,0
4994,-74.0740740740741,5,2,1,70,0,0
5161,-66.6666666666667,5,2,1,70,0,0
5494,-74.0740740740741,5,2,1,70,0,0
5911,-74.0740740740741,5,2,1,75,0,0
6161,333.333333333333,3,2,1,75,1,0
6161,-66.6666666666667,3,2,1,75,0,0
6827,-71.4285714285714,3,2,1,75,0,0
8577,-71.4285714285714,3,2,1,5,0,0
8660,-71.4285714285714,3,2,1,75,0,0
8910,-71.4285714285714,3,2,1,5,0,0
8994,-71.4285714285714,3,2,1,75,0,0
9410,-71.4285714285714,3,2,1,5,0,0
9494,-71.4285714285714,3,2,1,75,0,0
9577,-71.4285714285714,3,2,1,5,0,0
9660,-71.4285714285714,3,2,1,75,0,0
9910,-71.4285714285714,3,2,1,5,0,0
9994,-71.4285714285714,3,2,1,75,0,0
10410,-71.4285714285714,3,2,1,5,0,0
10494,-71.4285714285714,3,2,1,75,0,0
10577,-71.4285714285714,3,2,1,5,0,0
10660,-71.4285714285714,3,2,1,75,0,0
10994,333.333333333333,3,2,1,75,1,0
10994,-71.4285714285714,3,2,1,75,0,0
11244,-71.4285714285714,3,2,1,5,0,0
11327,-71.4285714285714,3,2,1,75,0,0
11410,-71.4285714285714,3,2,1,5,0,0
11494,-71.4285714285714,3,2,1,75,0,0
11827,333.333333333333,3,2,1,75,1,0
11827,-66.6666666666667,3,2,1,75,0,0
12327,-71.4285714285714,3,2,1,75,0,0
12410,-71.4285714285714,3,2,1,5,0,0
12493,-71.4285714285714,3,2,1,75,0,0
12826,333.333333333333,4,2,1,75,1,0
12826,-71.4285714285714,4,2,1,75,0,0
13659,-71.4285714285714,4,2,1,75,0,0
13825,-100,4,2,1,75,0,0
14162,333.333333333333,4,2,1,85,1,1
14162,-66.6666666666667,4,2,1,85,0,1
16244,-66.6666666666667,4,2,1,5,0,1
16328,-66.6666666666667,4,2,1,85,0,1
16411,-66.6666666666667,4,2,1,5,0,1
16495,-66.6666666666667,4,2,1,85,0,1
17578,-66.6666666666667,4,2,1,5,0,1
17661,-66.6666666666667,4,2,1,85,0,1
18744,-66.6666666666667,4,2,1,5,0,1
18828,-66.6666666666667,4,2,1,85,0,1
19078,-66.6666666666667,4,2,1,5,0,1
19161,-66.6666666666667,4,2,1,85,0,1
19911,-66.6666666666667,4,2,1,5,0,1
19995,-66.6666666666667,4,2,1,85,0,1
20828,-76.9230769230769,4,2,1,85,0,1
22161,-66.6666666666667,4,2,1,85,0,1
23327,-66.6666666666667,4,2,1,5,0,1
23495,-66.6666666666667,4,2,1,85,0,1
26578,-66.6666666666667,4,2,1,5,0,1
26661,-66.6666666666667,4,2,1,85,0,1
27078,-66.6666666666667,4,2,1,5,0,1
27161,-66.6666666666667,4,2,1,85,0,1
28328,-66.6666666666667,4,2,1,85,0,1
28495,-66.6666666666667,4,2,1,85,0,1
29661,-83.3333333333333,4,2,1,85,0,0
30161,-83.3333333333333,4,2,1,70,0,0
30661,-83.3333333333333,4,2,1,50,0,0
32161,-83.3333333333333,4,2,1,60,0,0
32244,-83.3333333333333,4,2,1,5,0,0
32328,-83.3333333333333,4,2,1,60,0,0
32828,333.333333333333,3,2,1,70,1,0
32828,-71.4285714285714,3,2,1,70,0,0
33328,-35.7142857142857,3,2,1,70,0,0
33494,-71.4285714285714,3,2,1,70,0,0
33744,-71.4285714285714,3,2,1,5,0,0
33828,-71.4285714285714,3,2,1,70,0,0
35744,-71.4285714285714,3,2,1,5,0,0
35828,-71.4285714285714,3,2,1,70,0,0
36827,-71.4285714285714,3,2,1,75,0,0
40410,-71.4285714285714,3,2,1,5,0,0
40494,-71.4285714285714,3,2,1,75,0,0
40744,-71.4285714285714,3,2,1,5,0,0
40827,-71.4285714285714,3,2,1,75,0,0
44827,333.333333333333,5,2,1,65,1,0
44827,-71.4285714285714,5,2,1,65,0,0
44993,-71.4285714285714,5,2,1,5,0,0
45077,-71.4285714285714,5,2,1,65,0,0
51493,333.333333333333,3,2,1,75,1,0
51493,-71.4285714285714,3,2,1,75,0,0
54576,-66.6666666666667,3,2,1,85,0,0
54826,-100,3,2,1,85,0,0
54992,-66.6666666666667,3,2,1,85,0,0
55242,-100,3,2,1,85,0,0
55742,-66.6666666666667,3,2,1,85,0,0
56492,-66.6666666666667,3,2,1,40,0,0
56534,-100,3,2,1,40,0,0
56867,-100,3,2,1,5,0,0
56995,333.333333333333,3,2,1,75,1,0
56995,-66.6666666666667,3,2,1,75,0,0
57495,-71.4285714285714,3,2,1,75,0,0
60245,-71.4285714285714,3,2,1,5,0,0
60328,-71.4285714285714,3,2,1,75,0,0
60411,-71.4285714285714,3,2,1,5,0,0
60494,-71.4285714285714,3,2,1,75,0,0
60661,-71.4285714285714,3,2,1,75,0,0
60828,-71.4285714285714,3,2,1,75,0,0
60994,-66.6666666666667,3,2,1,75,0,0
61244,-66.6666666666667,3,2,1,5,0,0
61328,-71.4285714285714,3,2,1,75,0,0
61411,-71.4285714285714,3,2,1,5,0,0
61494,-71.4285714285714,3,2,1,75,0,0
61828,333.333333333333,3,2,1,75,1,0
61828,-66.6666666666667,3,2,1,75,0,0
62078,-66.6666666666667,3,2,1,5,0,0
62161,-71.4285714285714,3,2,1,75,0,0
62244,-71.4285714285714,3,2,1,5,0,0
62328,-71.4285714285714,3,2,1,75,0,0
62661,333.333333333333,3,2,1,75,1,0
62661,-66.6666666666667,3,2,1,75,0,0
62994,-71.4285714285714,3,2,1,75,0,0
63661,-66.6666666666667,3,2,1,75,0,0
63994,-71.4285714285714,3,2,1,75,0,0
64077,-71.4285714285714,3,2,1,5,0,0
64161,-71.4285714285714,3,2,1,75,0,0
64661,-71.4285714285714,3,2,1,65,0,0
64994,-71.4285714285714,3,2,1,55,0,0
65661,333.333333333333,4,2,1,45,1,0
65661,-250,4,2,1,45,0,0
68327,-250,4,2,1,75,0,0
68411,-66.6666666666667,4,2,1,75,0,0
68661,-66.6666666666667,4,2,1,75,0,0
70244,-66.6666666666667,4,2,1,75,0,0
70327,-66.6666666666667,4,2,1,75,0,0
70410,-66.6666666666667,4,2,1,5,0,0
70494,-66.6666666666667,4,2,1,75,0,0
70994,-62.5,4,2,1,85,0,1
74077,-62.5,4,2,1,5,0,1
74160,-62.5,4,2,1,85,0,1
74327,-62.5,4,2,1,85,0,1
74826,-62.5,4,2,1,5,0,1
74994,-62.5,4,2,1,85,0,1
77660,-166.666666666667,4,2,1,85,0,1
77826,-166.666666666667,4,2,1,5,0,1
77910,-66.6666666666667,4,2,1,85,0,1
78660,-100,4,2,1,85,0,1
78994,-66.6666666666667,4,2,1,85,0,1
81660,-74.0740740740741,4,2,1,85,0,1
82327,333.333333333333,3,2,1,65,1,0
82327,-66.6666666666667,3,2,1,65,0,0
82660,-76.9230769230769,3,2,1,65,0,0
84327,-76.9230769230769,3,2,1,75,0,0
86327,-66.6666666666667,3,2,1,75,0,0
86493,-66.6666666666667,3,2,1,5,0,0
86577,-76.9230769230769,3,2,1,75,0,0
86827,-66.6666666666667,3,2,1,75,0,0
87993,360.36036036036,3,2,1,70,1,0
88053,-76.9230769230769,3,2,1,75,0,0
88354,333.333333333333,3,2,1,70,1,0
88354,-66.6666666666667,3,2,1,75,0,0
88576,333.333333333333,3,2,1,70,1,0
88576,-66.6666666666667,3,2,1,70,0,0
88827,-33.3333333333333,3,2,1,75,0,0
88993,-120.481927710843,3,2,1,75,0,0
89243,-120.481927710843,3,2,1,5,0,0
89326,333.333333333333,3,2,1,70,1,0
89326,-66.6666666666667,3,2,1,75,0,0
89826,-200,3,2,1,75,0,0

[Colours]
Combo1 : 203,171,135
Combo2 : 200,147,148
Combo3 : 192,172,165

[HitObjects]
46,42,496,5,2,0:0:0:0:
46,42,662,2,0,P|38:65|35:103,1,43.9999973773957,2|0,0:0|0:0,0:0:0:0:
77,154,829,2,0,P|85:177|88:215,1,43.9999973773957,2|0,0:0|0:0,0:0:0:0:
56,271,995,2,0,P|48:291|44:313,1,43.9999973773957,2|0,0:0|0:0,0:0:0:0:
166,301,1162,6,0,P|142:276|133:240,1,43.9999973773957,2|0,0:0|0:0,0:0:0:0:
252,228,1329,2,0,P|218:236|182:226,1,43.9999973773957,2|0,0:0|0:0,0:0:0:0:
276,350,1495,6,0,P|252:325|243:289,1,43.9999973773957,2|0,0:0|0:0,0:0:0:0:
362,277,1662,2,0,P|328:285|292:275,1,43.9999973773957,2|0,0:0|0:0,0:0:0:0:
333,203,1829,5,2,0:0:0:0:
333,203,1995,2,0,P|325:169|335:133,1,43.9999973773957,2|0,0:0|0:0,0:0:0:0:
260,117,2162,2,0,P|285:93|321:83,1,43.9999973773957,2|0,0:0|0:0,0:0:0:0:
297,10,2329,2,0,P|330:19|356:46,1,43.9999973773957,2|0,0:0|0:0,0:0:0:0:
453,14,2495,6,0,L|400:26,1,43.9999973773957,2|0,0:0|0:0,0:0:0:0:
457,94,2662,2,0,L|404:106,1,43.9999973773957,2|0,0:0|0:0,0:0:0:0:
461,174,2829,2,0,L|311:207,1,131.999992132187,2|0,0:1|0:0,0:0:0:0:
254,216,3162,5,0,1:2:0:0:
254,216,3245,1,0,1:2:0:0:
211,351,3412,1,0,1:2:0:0:
185,258,3579,1,0,1:2:0:0:
181,248,3662,1,0,1:2:0:0:
176,239,3745,1,0,1:2:0:0:
172,229,3829,2,0,L|114:240,1,49.9999970197678,8|4,0:3|0:3,0:0:0:0:
54,304,3995,6,0,P|27:243|69:161,1,119.999992847443,12|0,0:1|1:2,0:0:0:0:
92,136,4245,2,0,B|137:119|181:137|181:137|160:122|155:110,1,119.999992847443,12|0,0:0|0:0,0:0:0:0:
153,38,4495,6,0,B|254:9|226:103|376:76,1,179.999989271164,4|0,1:2|0:0,0:0:0:0:
329,89,4828,1,8,0:0:0:0:
336,98,4911,1,0,0:0:0:0:
343,107,4994,2,0,P|322:135|317:163,1,53.9999967813492,8|8,0:0|0:0,0:0:0:0:
370,227,5161,6,0,P|321:194|265:299,1,179.999989271164,4|8,1:2|0:0,0:0:0:0:
283,340,5494,2,0,P|315:348|339:349,1,53.9999967813492,8|8,0:0|0:0,0:0:0:0:
417,358,5661,2,0,P|435:314|450:296,1,53.9999967813492,8|8,0:0|0:0,0:0:0:0:
512,251,5828,1,0,0:0:0:0:
486,138,5994,1,2,0:0:0:0:
486,138,6078,1,2,0:0:0:0:
486,138,6161,6,0,B|461:117|453:88|453:88|358:112|370:234,1,239.999985694885,4|10,1:1|0:0,0:0:0:0:
460,325,6660,1,2,1:2:0:0:
450,315,6744,1,8,0:0:0:0:
438,309,6827,2,0,P|392:315|366:330,1,55.99999666214,2|8,0:0|0:0,0:0:0:0:
314,367,6994,2,0,P|274:369|252:366,1,55.99999666214,2|0,0:0|0:0,0:0:0:0:
176,326,7160,6,0,P|228:279|170:190,1,167.99998998642,2|8,1:2|0:0,0:0:0:0:
115,210,7494,2,0,B|61:216|61:216|58:212|58:212|54:216|54:216|-1:223,1,111.99999332428,2|2,0:0|1:2,0:0:0:0:
55,76,7827,1,2,0:0:0:0:
63,78,7910,1,0,0:0:0:0:
71,81,7994,1,8,0:0:0:0:
79,83,8077,1,8,0:0:0:0:
87,86,8160,6,0,B|130:18|201:38|201:38|212:70|247:95,1,167.99998998642,2|0,1:2|1:2,0:0:0:0:
282,109,8494,2,0,P|304:74|332:52,1,55.99999666214,8|0,0:0|0:0,0:0:0:0:
397,68,8660,2,0,P|416:104|421:139,1,55.99999666214,0|0,1:2|0:0,0:0:0:0:
375,188,8827,2,0,P|333:186|300:173,1,55.99999666214,8|0,0:0|0:0,0:0:0:0:
202,151,8994,5,8,0:0:0:0:
207,158,9077,1,8,0:0:0:0:
211,165,9160,2,0,P|169:210|196:321,1,167.99998998642,6|0,1:2|0:0,0:0:0:0:
258,337,9494,2,0,P|290:317|324:313,1,55.99999666214,2|0,1:2|0:0,0:0:0:0:
386,331,9660,2,0,P|448:329|470:233,1,167.99998998642,10|0,0:0|0:0,0:0:0:0:
436,171,9994,2,0,P|420:127|421:95,1,55.99999666214,10|8,0:0|0:0,0:0:0:0:
447,33,10160,6,0,B|414:89|340:71|340:71|356:48|356:16,1,167.99998998642,6|0,1:2|0:0,0:0:0:0:
279,24,10494,2,0,P|235:24|204:33,1,55.99999666214,0|0,1:2|0:0,0:0:0:0:
137,72,10660,1,10,0:0:0:0:
132,79,10744,1,8,0:0:0:0:
128,86,10827,1,8,0:0:0:0:
123,93,10910,1,8,0:0:0:0:
118,100,10994,6,0,P|195:114|227:216,1,167.99998998642,6|0,1:2|0:0,0:0:0:0:
232,267,11327,2,0,P|204:287|191:309,1,55.99999666214,2|0,0:0|0:0,0:0:0:0:
148,382,11494,1,0,1:2:0:0:
53,288,11660,1,8,0:0:0:0:
53,288,11743,1,8,0:0:0:0:
53,288,11827,2,0,B|90:247|95:207|86:161|30:137|30:137|-3:163|0:206,1,239.999985694885,6|0,1:2|0:0,0:0:0:0:
211,137,12327,6,0,P|225:165|232:211,1,55.99999666214,2|0,1:2|0:0,0:0:0:0:
192,304,12493,1,8,0:0:0:0:
289,361,12660,1,4,0:3:0:0:
296,365,12743,1,4,0:3:0:0:
304,368,12826,6,0,P|368:318|273:289,1,223.99998664856,6|2,1:2|1:2,0:0:0:0:
192,304,13326,2,0,P|120:264|118:211,1,111.99999332428,8|0,0:0|1:2,0:0:0:0:
211,137,13659,5,12,0:2:0:0:
117,94,13825,2,0,L|63:99,2,39.9999976158143,2|2|2,0:0|0:0|0:0,0:0:0:0:
221,11,14162,6,0,B|262:13|262:13|294:35|294:35|370:38,1,119.999992847443,6|0,1:0|0:0,0:0:0:0:
343,33,14412,1,0,1:2:0:0:
352,30,14495,2,0,P|306:78|344:190,1,179.999989271164,10|8,0:0|0:0,0:0:0:0:
442,178,14828,2,0,P|375:162|324:184,1,119.999992847443,2|0,0:0|1:2,0:0:0:0:
322,376,15161,2,0,P|403:377|356:246,1,239.999985694885,10|2,0:0|1:3,0:0:0:0:
247,303,15661,6,0,P|230:261|235:240,1,59.9999964237213,2|0,0:0|1:2,0:0:0:0:
195,149,15828,2,0,P|238:195|218:267,1,119.999992847443,10|2,0:0|0:0,0:0:0:0:
222,254,16078,1,8,0:0:0:0:
211,260,16161,2,0,P|150:255|120:264,1,59.9999964237213,2|0,0:0|0:0,0:0:0:0:
73,350,16328,2,0,P|40:292|49:255,1,59.9999964237213,2|0,1:2|0:0,0:0:0:0:
98,188,16495,2,0,P|26:204|5:109,1,179.999989271164,8|2,0:0|0:0,0:0:0:0:
58,65,16828,6,0,B|156:61|104:138|233:138,1,179.999989271164,6|0,1:2|1:2,0:0:0:0:
294,128,17161,2,0,P|318:97|359:62,1,59.9999964237213,8|0,0:0|0:0,0:0:0:0:
313,244,17328,2,0,P|223:216|140:269,1,179.999989271164,2|0,0:0|0:0,0:0:0:0:
80,318,17661,2,0,P|36:295|-2:295,1,59.9999964237213,2|0,1:2|0:0,0:0:0:0:
149,368,17828,2,0,B|203:404|273:375|273:375|238:366|214:323,1,179.999989271164,8|0,0:0|0:0,0:0:0:0:
234,267,18161,6,0,P|235:206|296:162,1,119.999992847443,2|0,1:3|0:0,0:0:0:0:
284,170,18411,1,0,1:2:0:0:
293,171,18495,2,0,P|340:169|368:155,1,59.9999964237213,10|0,0:0|0:0,0:0:0:0:
440,97,18661,2,0,P|426:118|435:181,1,59.9999964237213,2|0,0:0|0:0,0:0:0:0:
476,216,18828,1,2,0:3:0:0:
506,363,18995,2,0,P|477:377|442:373,1,59.9999964237213,0|0,1:2|0:0,0:0:0:0:
384,354,19161,2,0,P|333:315|224:339,1,179.999989271164,8|8,0:0|0:0,0:0:0:0:
140,365,19495,6,0,B|79:349|8:377|8:377|43:352|55:313,1,179.999989271164,4|0,1:0|1:2,0:0:0:0:
83,282,19828,2,0,P|96:252|93:210,1,59.9999964237213,10|0,0:0|0:0,0:0:0:0:
49,135,19995,1,2,0:0:0:0:
192,216,20161,2,0,P|221:193|266:185,1,59.9999964237213,2|0,0:0|0:0,0:0:0:0:
338,217,20328,1,2,1:2:0:0:
354,54,20495,2,0,P|272:7|191:45,1,179.999989271164,10|0,0:0|0:0,0:0:0:0:
135,93,20828,6,0,P|72:106|44:167,1,103.999993801117,2|0,1:3|0:0,0:0:0:0:
48,143,21078,1,0,1:2:0:0:
47,151,21161,2,0,P|77:191|90:301,1,155.999990701676,8|8,0:0|0:0,0:0:0:0:
44,349,21495,1,2,0:0:0:0:
182,267,21661,6,0,P|178:226|165:198,1,51.9999969005585,0|0,1:2|0:0,0:0:0:0:
197,371,21828,2,0,P|255:338|244:229,1,155.999990701676,10|2,0:0|0:0,0:0:0:0:
243,180,22161,6,0,B|233:129|270:99|270:99|314:119|326:168,1,179.999989271164,6|0,1:2|1:2,0:0:0:0:
371,245,22495,2,0,P|330:175|423:149,1,179.999989271164,8|8,0:0|0:0,0:0:0:0:
488,170,22828,2,0,P|474:128|481:84,1,59.9999964237213,2|0,0:1|0:0,0:0:0:0:
500,21,22995,1,2,1:0:0:0:
404,52,23161,2,0,P|335:33|257:48,1,119.999992847443,10|0,0:0|0:0,0:0:0:0:
153,190,23495,6,0,P|160:105|75:121,1,179.999989271164,2|0,1:3|1:2,0:0:0:0:
40,173,23828,2,0,P|76:207|99:281,1,119.999992847443,8|2,0:0|0:0,0:0:0:0:
98,282,24078,1,8,0:0:0:0:
98,291,24161,2,0,P|146:280|189:290,1,59.9999964237213,2|0,0:1|0:0,0:0:0:0:
226,344,24328,2,0,P|266:338|299:313,1,59.9999964237213,2|0,1:0|0:0,0:0:0:0:
337,260,24495,5,10,0:1:0:0:
344,253,24578,1,0,0:0:0:0:
350,246,24661,1,8,0:0:0:0:
356,238,24745,1,8,0:0:0:0:
361,230,24828,6,0,P|300:201|293:100,1,119.999992847443,4|0,1:0|0:0,0:0:0:0:
284,147,25078,1,0,1:2:0:0:
289,139,25161,2,0,P|353:140|377:32,1,179.999989271164,10|8,0:0|0:0,0:0:0:0:
318,1,25495,2,0,P|261:13|229:30,1,59.9999964237213,2|0,0:0|0:0,0:0:0:0:
187,85,25661,2,0,P|138:91|99:80,1,59.9999964237213,0|0,1:2|0:0,0:0:0:0:
21,68,25828,2,0,B|9:44|29:18|29:18|93:72|69:167,1,179.999989271164,10|0,0:0|0:0,0:0:0:0:
45,203,26161,5,2,1:3:0:0:
191,322,26328,2,0,P|208:292|206:261,1,59.9999964237213,2|0,0:0|1:2,0:0:0:0:
244,205,26495,2,0,P|232:155|240:124,1,59.9999964237213,10|0,0:0|0:0,0:0:0:0:
366,65,26661,2,0,P|312:136|325:204,1,119.999992847443,0|2,0:0|0:0,0:0:0:0:
377,203,26995,2,0,P|393:247|395:275,1,59.9999964237213,2|0,1:2|0:0,0:0:0:0:
413,361,27161,2,0,P|337:313|212:358,1,179.999989271164,8|2,0:0|0:0,0:0:0:0:
149,366,27495,6,0,P|177:308|124:250,1,119.999992847443,6|0,1:2|0:0,0:0:0:0:
144,258,27745,1,0,1:2:0:0:
135,254,27828,2,0,P|81:278|8:251,1,119.999992847443,10|0,0:0|0:0,0:0:0:0:
18,187,28078,2,0,P|56:122|48:44,1,119.999992847443,8|0,0:0|0:0,0:0:0:0:
141,28,28328,2,0,P|132:61|137:87,1,59.9999964237213,0|0,1:2|0:0,0:0:0:0:
203,136,28495,2,0,B|248:133|274:90|274:90|301:135|356:142,1,179.999989271164,10|0,0:0|0:0,0:0:0:0:
452,141,28828,6,0,B|436:98|398:97|398:97|358:151|402:221,1,179.999989271164,4|0,1:1|0:0,0:0:0:0:
394,205,29161,1,8,0:0:0:0:
399,213,29245,1,8,0:0:0:0:
404,221,29328,1,8,0:0:0:0:
409,229,29411,1,8,0:0:0:0:
414,237,29495,2,0,P|376:257|357:277,1,59.9999964237213,8|8,0:0|0:0,0:0:0:0:
316,384,29661,2,0,P|311:270|188:228,1,239.999985694886,8|4,0:3|0:3,0:0:0:0:
142,262,30161,5,4,1:0:0:0:
66,131,32161,6,0,P|76:95|95:70,1,47.9999971389771,0|0,1:2|0:0,0:0:0:0:
147,41,32328,1,2,0:3:0:0:
247,151,32495,5,8,0:0:0:0:
252,156,32578,1,8,0:0:0:0:
257,160,32661,1,8,0:0:0:0:
262,164,32745,1,8,0:0:0:0:
267,168,32828,6,0,B|296:131|339:123|339:123|313:121|298:115,1,111.99999332428,4|0,1:0|0:0,0:0:0:0:
196,225,33078,2,0,B|149:218|121:185|121:185|132:208|134:224,1,111.99999332428,8|0,0:0|0:0,0:0:0:0:
274,263,33328,2,0,B|291:307|276:347|276:347|291:326|304:317,1,111.99999332428,0|0,1:2|0:0,0:0:0:0:
350,228,33494,2,0,P|394:198|455:300,1,167.99998998642,8|0,0:0|0:0,0:0:0:0:
432,335,33828,6,0,P|368:339|314:383,1,111.99999332428,0|0,1:2|0:0,0:0:0:0:
253,379,34078,2,0,P|181:346|146:353,1,111.99999332428,0|0,1:2|0:0,0:0:0:0:
73,378,34328,2,0,P|67:338|53:307,1,55.99999666214,0|0,1:2|0:0,0:0:0:0:
0,202,34494,2,0,P|44:245|95:227,1,111.99999332428,8|8,0:0|0:0,0:0:0:0:
95,228,34744,1,8,0:0:0:0:
101,222,34828,6,0,P|79:169|84:101,1,111.99999332428,4|0,1:2|0:0,0:0:0:0:
150,68,35078,2,0,P|206:75|260:122,1,111.99999332428,0|0,1:2|0:0,0:0:0:0:
237,188,35328,2,0,P|214:208|208:256,1,55.99999666214,0|0,1:2|0:0,0:0:0:0:
212,319,35494,2,0,P|283:366|368:289,1,167.99998998642,10|0,0:1|0:0,0:0:0:0:
383,266,35828,5,2,1:2:0:0:
383,266,35911,1,8,0:0:0:0:
241,192,36078,5,0,1:2:0:0:
241,192,36161,2,0,P|186:176|117:169,1,111.99999332428,2|0,0:3|1:2,0:0:0:0:
439,122,36494,5,8,0:0:0:0:
447,123,36577,1,2,0:0:0:0:
455,124,36661,1,2,0:0:0:0:
463,125,36744,1,8,0:0:0:0:
470,126,36827,6,0,P|519:81|464:4,1,167.99998998642,4|0,1:0|1:2,0:0:0:0:
395,2,37161,2,0,P|366:17|349:43,1,55.99999666214,2|0,0:0|0:0,0:0:0:0:
322,112,37327,2,0,P|256:61|190:58,1,111.99999332428,2|8,1:2|0:0,0:0:0:0:
34,232,37744,5,8,0:0:0:0:
44,229,37827,2,0,B|141:214|113:310|242:281,1,167.99998998642,2|0,1:3|1:2,0:0:0:0:
273,272,38161,2,0,P|291:239|319:218,1,55.99999666214,10|0,0:0|0:0,0:0:0:0:
384,229,38327,2,0,P|403:261|407:295,1,55.99999666214,2|8,1:2|0:0,0:0:0:0:
363,357,38494,2,0,P|324:351|282:363,1,55.99999666214,8|0,0:0|0:0,0:0:0:0:
233,384,38661,5,8,0:0:0:0:
224,382,38744,1,8,0:0:0:0:
215,381,38827,2,0,P|172:320|84:328,1,167.99998998642,4|0,1:2|1:2,0:0:0:0:
9,373,39161,6,0,P|2:311|17:286,1,55.99999666214,2|0,0:0|0:0,0:0:0:0:
40,254,39327,2,0,P|49:214|47:186,1,55.99999666214,2|0,1:2|0:0,0:0:0:0:
0,132,39494,2,0,P|-2:98|8:69,1,55.99999666214,10|0,0:0|0:0,0:0:0:0:
27,0,39661,2,0,P|63:21|80:58,1,55.99999666214,2|0,0:0|0:0,0:0:0:0:
151,14,39827,2,0,P|150:55|127:88,1,55.99999666214,2|0,1:3|0:0,0:0:0:0:
76,110,39994,1,8,0:0:0:0:
82,116,40077,2,0,P|120:157|130:235,1,111.99999332428,2|0,1:2|0:0,0:0:0:0:
196,277,40327,6,0,P|215:246|243:233,1,55.99999666214,0|0,1:2|0:0,0:0:0:0:
311,248,40494,2,0,P|371:231|331:129,1,167.99998998642,12|0,0:0|0:0,0:0:0:0:
285,106,40827,6,0,P|255:88|289:17,1,111.99999332428,4|0,1:0|0:0,0:0:0:0:
346,20,41077,2,0,P|387:59|470:26,1,111.99999332428,2|2,1:2|1:2,0:0:0:0:
508,18,41327,2,0,P|515:67|507:104,1,55.99999666214,2|0,0:0|0:0,0:0:0:0:
467,162,41494,5,2,1:2:0:0:
462,169,41577,2,0,P|451:223|467:294,1,111.99999332428,8|0,0:0|0:0,0:0:0:0:
512,347,41827,6,0,B|424:299|421:384|308:332,1,167.99998998642,2|0,1:3|1:2,0:0:0:0:
297,290,42161,2,0,P|286:239|268:217,1,55.99999666214,8|2,0:0|1:2,0:0:0:0:
226,183,42327,2,0,P|219:143|208:113,1,55.99999666214,2|0,0:0|0:0,0:0:0:0:
170,54,42494,5,0,1:2:0:0:
162,49,42577,2,0,P|87:43|67:68,1,111.99999332428,8|0,0:0|0:0,0:0:0:0:
39,139,42827,6,0,P|82:195|95:269,1,111.99999332428,4|0,1:0|0:0,0:0:0:0:
27,269,43077,2,0,P|23:319|35:348,1,55.99999666214,2|8,1:2|0:0,0:0:0:0:
96,366,43244,1,0,1:2:0:0:
104,366,43327,2,0,P|140:340|184:346,1,55.99999666214,2|0,0:0|0:0,0:0:0:0:
252,366,43494,1,2,1:2:0:0:
245,359,43577,2,0,P|222:293|273:245,1,111.99999332428,8|0,0:0|0:0,0:0:0:0:
317,236,43827,6,0,P|366:256|431:205,1,111.99999332428,6|2,1:2|0:0,0:0:0:0:
423,225,44077,1,0,1:2:0:0:
427,217,44161,2,0,P|407:168|414:127,1,55.99999666214,8|2,0:0|1:2,0:0:0:0:
467,115,44327,2,0,P|468:80|460:48,1,55.99999666214,2|0,0:0|0:0,0:0:0:0:
394,4,44494,2,0,P|359:43|265:50,1,111.99999332428,2|8,1:3|0:0,0:0:0:0:
294,56,44744,1,8,0:0:0:0:
285,54,44827,6,0,P|297:129|282:176,1,111.99999332428,4|0,1:0|0:0,0:0:0:0:
280,168,45077,1,0,1:2:0:0:
272,172,45160,2,0,P|228:167|185:176,1,55.99999666214,8|0,0:0|1:2,0:0:0:0:
149,210,45327,1,0,0:0:0:0:
18,37,45493,5,0,1:2:0:0:
22,44,45577,1,8,0:0:0:0:
25,51,45660,2,0,P|67:89|45:196,1,167.99998998642,2|0,1:3|1:2,0:0:0:0:
2,249,45993,2,0,P|-1:284|10:331,1,55.99999666214,8|0,0:0|1:2,0:0:0:0:
51,369,46160,1,0,0:0:0:0:
207,298,46327,5,0,1:2:0:0:
199,302,46410,1,8,0:0:0:0:
190,304,46493,2,0,P|146:250|247:212,1,167.99998998642,6|0,1:2|1:2,0:0:0:0:
282,207,46827,2,0,P|316:175|356:170,1,55.99999666214,8|0,0:0|1:2,0:0:0:0:
393,200,46993,1,0,0:0:0:0:
415,15,47160,5,0,1:2:0:0:
420,21,47243,1,8,0:0:0:0:
425,28,47327,2,0,P|358:76|301:50,1,111.99999332428,2|0,1:3|0:0,0:0:0:0:
326,67,47577,1,0,1:2:0:0:
317,64,47660,2,0,P|271:66|238:84,1,55.99999666214,8|0,0:0|1:2,0:0:0:0:
200,116,47827,1,0,0:0:0:0:
183,333,47993,5,0,1:2:0:0:
168,328,48077,1,8,0:0:0:0:
157,317,48160,2,0,P|145:242|160:195,1,111.99999332428,6|0,1:2|0:0,0:0:0:0:
162,203,48410,1,0,1:2:0:0:
170,199,48493,2,0,P|214:204|257:195,1,55.99999666214,8|0,0:0|1:2,0:0:0:0:
293,161,48660,1,0,0:0:0:0:
424,334,48826,5,0,1:2:0:0:
420,327,48910,1,8,0:0:0:0:
417,320,48993,2,0,P|375:282|397:175,1,167.99998998642,2|0,1:3|1:2,0:0:0:0:
441,123,49326,2,0,P|444:88|433:41,1,55.99999666214,8|0,0:0|1:2,0:0:0:0:
397,4,49493,1,0,0:0:0:0:
235,73,49660,5,0,1:2:0:0:
243,69,49743,1,8,0:0:0:0:
252,67,49826,2,0,P|296:121|195:159,1,167.99998998642,4|0,1:2|1:2,0:0:0:0:
160,164,50160,2,0,P|126:196|86:201,1,55.99999666214,8|0,0:0|1:2,0:0:0:0:
49,171,50326,1,0,0:0:0:0:
27,356,50493,5,0,1:2:0:0:
22,350,50576,1,8,0:0:0:0:
17,343,50660,2,0,P|84:295|141:321,1,111.99999332428,2|2,1:3|0:0,0:0:0:0:
116,304,50910,1,0,1:2:0:0:
125,307,50993,2,0,P|171:305|204:287,1,55.99999666214,8|0,0:0|1:2,0:0:0:0:
242,255,51160,2,0,P|285:257|311:267,1,55.99999666214,2|0,0:0|0:0,0:0:0:0:
355,312,51326,1,0,0:0:0:0:
508,129,51493,6,0,P|457:112|423:106,1,55.99999666214,4|0,1:0|0:0,0:0:0:0:
389,152,51659,2,0,P|351:163|313:160,2,55.99999666214,2|8|10,0:0|0:3|0:3,0:0:0:0:
299,88,51993,6,0,P|258:123|236:150,1,55.99999666214,10|0,0:0|0:0,0:0:0:0:
259,202,52159,2,0,P|249:240|227:271,2,55.99999666214,2|8|10,0:0|0:0|0:3,0:0:0:0:
105,384,52493,6,0,P|88:346|88:323,1,55.99999666214,6|0,1:2|0:0,0:0:0:0:
141,274,52659,1,2,0:0:0:0:
49,205,52826,6,0,P|53:177|69:155,1,55.99999666214,10|0,0:3|0:0,0:0:0:0:
25,87,52993,2,0,P|51:76|78:78,1,55.99999666214,2|8,1:2|0:0,0:0:0:0:
113,9,53159,2,0,P|135:26|149:51,1,55.99999666214,2|8,1:2|0:0,0:0:0:0:
227,47,53326,2,0,P|223:75|209:98,1,55.99999666214,10|8,0:3|0:3,0:0:0:0:
198,174,53493,5,6,1:2:0:0:
198,174,54576,6,0,P|265:146|251:74,1,119.999992847443,12|0,0:1|0:0,0:0:0:0:
228,37,54826,2,0,P|199:31|161:35,1,39.9999976158143,0|0,1:2|0:0,0:0:0:0:
93,56,54992,2,0,B|87:41|95:27|95:27|132:59|112:133,1,119.999992847443,12|0,0:0|0:0,0:0:0:0:
74,173,55242,6,0,P|64:209|76:279,1,79.9999952316285,8|0,1:2|0:0,0:0:0:0:
135,300,55492,2,0,P|171:290|225:245,1,79.9999952316285,8|0,1:2|0:0,0:0:0:0:
278,229,55742,6,0,B|308:211|314:166|314:166|323:194|301:241,1,119.999992847443,8|0,1:2|0:0,0:0:0:0:
272,311,55992,2,0,B|276:351|308:373|308:373|278:373|256:322,1,119.999992847443,8|0,1:2|0:0,0:0:0:0:
481,99,56534,6,0,P|446:28|374:34,1,159.999990463257,2|0,0:0|0:0,0:0:0:0:
343,105,56995,6,0,B|257:136|267:43|142:106,1,179.999989271164,4|0,1:0|0:0,0:0:0:0:
118,151,57328,2,0,L|129:221,1,59.9999964237213,8|0,0:0|0:0,0:0:0:0:
188,279,57495,2,0,L|211:212,1,55.99999666214,0|8,1:2|0:0,0:0:0:0:
276,188,57661,1,0,1:2:0:0:
284,185,57745,2,0,P|353:219|364:278,1,111.99999332428,8|8,0:0|0:3,0:0:0:0:
440,309,57995,6,0,P|439:240|495:145,1,167.99998998642,4|8,1:0|0:0,0:0:0:0:
495,72,58328,2,0,P|446:83|402:78,1,55.99999666214,10|8,0:0|0:0,0:0:0:0:
351,112,58495,2,0,P|308:110|277:101,1,55.99999666214,10|8,0:0|0:0,0:0:0:0:
194,66,58661,1,8,0:3:0:0:
188,73,58745,1,8,0:3:0:0:
182,80,58828,1,4,0:3:0:0:
176,87,58911,1,4,0:3:0:0:
170,93,58995,6,0,P|227:151|195:266,1,167.99998998642,4|0,1:0|1:2,0:0:0:0:
162,285,59328,2,0,P|118:293|99:303,1,55.99999666214,8|0,0:0|0:0,0:0:0:0:
16,327,59495,2,0,P|32:273|33:249,1,55.99999666214,0|0,1:2|0:0,0:0:0:0:
4,198,59661,1,8,0:0:0:0:
116,0,59828,5,8,0:0:0:0:
120,7,59911,1,8,0:0:0:0:
123,15,59995,2,0,P|80:60|85:160,1,167.99998998642,6|0,1:2|0:0,0:0:0:0:
155,189,60328,2,0,P|183:166|206:159,1,55.99999666214,2|0,1:2|0:0,0:0:0:0:
279,191,60494,1,10,0:0:0:0:
155,189,60661,1,0,3:0:0:0:
279,191,60828,1,8,0:0:0:0:
287,194,60911,1,8,0:0:0:0:
294,197,60994,6,0,B|333:127|268:70|268:70|251:89|240:122,1,179.999989271164,4|0,1:0|0:0,0:0:0:0:
201,159,61328,2,0,P|160:156|133:145,1,55.99999666214,0|0,1:2|0:0,0:0:0:0:
28,110,61494,1,10,0:0:0:0:
27,101,61578,1,0,1:2:0:0:
25,93,61661,1,8,0:0:0:0:
23,84,61744,1,8,0:0:0:0:
22,74,61828,6,0,B|63:18|146:43|146:43|121:67|119:98,1,179.999989271164,4|0,1:0|0:0,0:0:0:0:
146,151,62161,2,0,P|142:186|158:231,1,55.99999666214,2|0,0:0|0:0,0:0:0:0:
207,279,62328,1,2,1:2:0:0:
54,315,62494,1,8,0:0:0:0:
54,315,62578,1,8,0:0:0:0:
54,315,62661,6,0,B|152:294|125:376|232:366,1,179.999989271164,4|8,1:0|0:0,0:0:0:0:
285,325,62994,2,0,P|292:297|401:256,1,111.99999332428,2|2,0:0|1:2,0:0:0:0:
479,156,63327,2,0,P|426:79|445:36,1,111.99999332428,8|4,0:0|0:3,0:0:0:0:
439,48,63577,1,4,0:3:0:0:
450,25,63661,6,0,B|387:23|387:23|339:54|339:54|263:54,1,179.999989271164,4|0,1:0|0:0,0:0:0:0:
225,0,63994,2,0,P|204:37|213:85,1,55.99999666214,0|0,1:2|0:0,0:0:0:0:
243,130,64161,1,8,0:0:0:0:
243,130,64244,1,8,0:0:0:0:
243,130,64327,5,0,1:2:0:0:
207,211,64494,5,12,0:0:0:0:
265,260,64661,5,10,0:0:0:0:
251,333,64827,5,10,0:0:0:0:
256,349,64911,1,10,0:0:0:0:
14,180,65327,5,2,0:0:0:0:
14,180,65411,1,2,0:0:0:0:
14,180,65494,1,2,0:0:0:0:
14,180,65577,1,2,0:0:0:0:
14,180,65661,6,0,B|80:140|137:188|137:188|109:202|89:240,1,191.999988555908,2|2,0:0|0:0,0:0:0:0:
83,304,66994,2,0,B|135:356|203:334|203:334|210:293|247:274,1,191.999988555908,2|2,0:0|0:0,0:0:0:0:
372,180,68327,5,0,1:2:0:0:
364,175,68411,2,0,B|330:173|306:205|306:205|338:192|364:199,1,119.999992847443,12|0,0:1|1:2,0:0:0:0:
440,132,68661,2,0,B|458:103|443:66|443:66|438:100|419:120,1,119.999992847443,8|0,0:0|1:2,0:0:0:0:
439,219,68911,2,0,B|454:249|493:254|493:254|466:233|459:207,1,119.999992847443,8|0,0:0|1:2,0:0:0:0:
364,175,69161,2,0,B|330:173|306:205|306:205|338:192|364:199,1,119.999992847443,12|0,0:0|0:0,0:0:0:0:
244,261,69494,6,0,P|231:238|225:204,1,59.9999964237213,8|8,0:0|0:0,0:0:0:0:
262,101,69661,1,8,0:0:0:0:
240,110,69744,1,8,0:0:0:0:
216,114,69827,1,0,1:2:0:0:
192,112,69911,1,0,1:2:0:0:
170,104,69994,2,0,P|156:134|146:170,1,59.9999964237213,8|8,0:3|0:3,0:0:0:0:
103,261,70161,1,4,0:3:0:0:
93,268,70244,1,4,0:3:0:0:
84,276,70327,2,0,P|65:229|30:186,1,59.9999964237213,12|0,0:0|0:0,0:0:0:0:
24,131,70494,5,10,0:0:0:0:
30,120,70577,1,8,0:0:0:0:
36,109,70661,1,8,0:0:0:0:
42,99,70744,1,8,0:0:0:0:
48,89,70827,1,8,0:0:0:0:
54,79,70911,1,8,0:0:0:0:
60,69,70994,6,0,B|162:48|143:130|240:109,1,191.999988555908,4|0,1:0|1:2,0:0:0:0:
290,53,71327,2,0,P|322:41|443:102,1,127.999992370606,10|0,0:0|0:0,0:0:0:0:
417,72,71577,1,8,0:0:0:0:
423,83,71661,2,0,P|381:130|375:222,1,127.999992370606,2|0,0:0|1:2,0:0:0:0:
378,348,71994,2,0,B|311:346|311:346|261:377|261:377|175:375,1,191.999988555908,10|0,0:0|0:0,0:0:0:0:
110,325,72327,6,0,P|141:244|110:199,1,127.999992370606,2|0,1:3|0:0,0:0:0:0:
113,205,72577,1,0,1:2:0:0:
100,200,72660,2,0,P|59:187|35:89,1,127.999992370606,10|0,0:0|0:0,0:0:0:0:
33,102,72910,1,8,0:0:0:0:
41,91,72994,2,0,P|89:83|132:39,1,63.9999961853028,2|0,0:0|0:0,0:0:0:0:
164,7,73160,1,0,1:2:0:0:
269,108,73327,2,0,P|238:162|231:242,1,127.999992370606,10|2,0:0|0:0,0:0:0:0:
459,238,73660,6,0,P|403:171|341:244,1,191.999988555908,6|0,1:2|1:2,0:0:0:0:
362,302,73994,2,0,P|329:308|296:334,1,63.9999961853028,8|0,0:0|0:0,0:0:0:0:
246,375,74160,1,0,1:2:0:0:
154,257,74327,2,0,B|118:256|83:284|83:284|86:252|116:238,1,127.999992370606,2|2,0:1|1:1,0:0:0:0:
269,201,74660,2,0,B|305:200|340:228|340:228|337:196|301:183,1,127.999992370606,10|0,0:0|0:0,0:0:0:0:
212,0,74994,6,0,P|193:73|135:63,1,127.999992370606,2|0,1:3|0:0,0:0:0:0:
141,66,75244,1,0,1:2:0:0:
129,60,75327,2,0,P|156:111|160:158,1,63.9999961853028,8|0,0:0|0:0,0:0:0:0:
156,199,75494,2,0,P|129:250|125:297,1,63.9999961853028,0|8,1:2|0:0,0:0:0:0:
11,218,75660,6,0,B|85:204|64:270|156:253,1,127.999992370606,2|2,0:1|1:0,0:0:0:0:
272,134,75994,1,10,0:1:0:0:
267,146,76077,1,0,0:0:0:0:
263,158,76160,1,8,0:0:0:0:
261,170,76244,1,8,0:0:0:0:
260,182,76327,6,0,B|322:226|395:183|395:183|368:171|348:143,1,191.999988555908,4|0,1:0|1:2,0:0:0:0:
329,85,76660,2,0,P|347:17|418:83,1,191.999988555908,10|8,0:0|0:0,0:0:0:0:
468,132,76994,2,0,P|482:165|481:216,1,63.9999961853028,2|0,1:2|0:0,0:0:0:0:
473,269,77160,1,0,1:2:0:0:
285,268,77327,5,10,0:0:0:0:
302,247,77410,1,8,0:0:0:0:
326,238,77494,1,8,0:3:0:0:
352,242,77577,1,4,0:3:0:0:
373,257,77660,2,0,P|373:280|370:306,1,47.999997138977,8|0,1:2|0:0,0:0:0:0:
393,381,77910,6,0,B|300:274|260:415|159:294,1,239.999985694885,12|0,0:1|0:0,0:0:0:0:
178,301,78327,1,0,1:2:0:0:
181,289,78410,1,8,0:0:0:0:
186,278,78494,1,0,3:2:0:0:
192,268,78577,1,0,3:2:0:0:
198,261,78660,2,0,P|179:230|152:210,3,39.9999976158143,8|8|4|4,0:0|0:3|0:3|0:3,0:0:0:0:
105,253,78994,6,0,B|83:268|74:286|74:286|-3:247|21:154,1,179.999989271164,2|0,1:3|1:2,0:0:0:0:
36,102,79327,2,0,P|87:70|157:78,1,119.999992847443,14|0,0:0|0:0,0:0:0:0:
153,81,79577,1,8,0:0:0:0:
160,90,79660,2,0,P|232:127|307:65,1,179.999989271164,2|8,1:3|0:0,0:0:0:0:
295,57,79994,5,8,0:0:0:0:
278,52,80077,1,8,0:0:0:0:
260,53,80160,1,8,0:0:0:0:
245,62,80244,1,8,0:3:0:0:
233,76,80327,1,8,0:3:0:0:
230,94,80410,1,4,0:3:0:0:
234,112,80494,1,4,0:3:0:0:
245,126,80577,1,4,0:3:0:0:
261,134,80660,6,0,P|225:179|229:265,1,119.999992847443,2|8,1:3|0:0,0:0:0:0:
272,300,80910,2,0,P|328:308|401:262,1,119.999992847443,2|0,1:3|0:0,0:0:0:0:
394,206,81160,2,0,P|362:176|351:135,1,59.9999964237213,2|0,1:3|0:0,0:0:0:0:
433,44,81327,5,8,0:0:0:0:
433,44,81410,1,8,0:0:0:0:
433,44,81494,1,8,0:0:0:0:
433,44,81577,1,8,0:0:0:0:
433,44,81660,2,0,P|465:48|496:68,1,53.9999967813492,8|8,0:3|0:3,0:0:0:0:
283,59,81827,2,0,P|315:55|346:35,1,53.9999967813492,8|8,0:3|0:3,0:0:0:0:
200,0,81994,5,4,0:3:0:0:
190,12,82077,1,4,0:3:0:0:
183,26,82160,1,4,0:3:0:0:
177,41,82244,1,4,0:3:0:0:
172,56,82327,6,0,P|107:81|114:180,1,179.999989271164,4|4,1:0|0:3,0:0:0:0:
190,217,82660,2,0,P|201:254|206:285,1,51.9999969005585,4|4,0:3|0:3,0:0:0:0:
106,312,82827,2,0,P|117:275|122:244,1,51.9999969005585,8|4,0:0|0:3,0:0:0:0:
23,209,82993,2,0,P|34:246|39:277,2,51.9999969005585,4|4|4,0:3|0:3|0:3,0:0:0:0:
99,97,83327,6,0,B|182:66|171:143|268:112,1,155.999990701676,0|4,1:2|0:3,0:0:0:0:
339,109,83660,2,0,P|371:149|383:194,1,51.9999969005585,4|4,0:3|0:3,0:0:0:0:
333,231,83827,2,0,P|282:238|237:226,1,51.9999969005585,8|4,0:0|0:3,0:0:0:0:
229,165,83993,2,0,P|247:117|280:84,2,51.9999969005585,4|4|4,0:3|0:3|0:3,0:0:0:0:
196,241,84327,6,0,P|214:289|247:322,1,51.9999969005585,4|0,1:0|0:0,0:0:0:0:
293,317,84493,2,0,P|343:325|388:313,3,51.9999969005585,0|0|0|2,1:2|0:0|3:0|0:0,0:0:0:0:
142,176,84827,6,0,P|109:215|97:260,1,51.9999969005585,8|0,0:0|1:2,0:0:0:0:
127,296,84993,2,0,P|145:343|177:376,3,51.9999969005585,0|0|0|8,0:0|1:2|0:0|0:0,0:0:0:0:
260,357,85327,6,0,P|292:317|304:272,5,51.9999969005585,4|0|8|8|8|8,1:2|0:0|0:3|0:0|0:0|0:0,0:0:0:0:
332,232,85827,1,8,0:0:0:0:
326,222,85910,1,8,0:3:0:0:
320,213,85993,1,8,0:3:0:0:
314,203,86077,1,4,0:3:0:0:
308,194,86160,1,4,0:3:0:0:
302,184,86243,1,4,0:3:0:0:
296,175,86327,6,0,P|258:143|186:183,1,119.999992847443,4|0,1:0|0:0,0:0:0:0:
165,238,86577,2,0,P|182:269|187:356,1,103.999993801117,8|8,0:0|0:0,0:0:0:0:
112,373,86827,6,0,P|17:362|6:296,1,119.999992847443,4|8,1:2|0:0,0:0:0:0:
7,337,87077,1,8,0:3:0:0:
4,324,87160,1,8,0:3:0:0:
1,311,87243,1,4,0:3:0:0:
0,299,87327,6,0,P|52:256|68:206,1,119.999992847443,4|0,1:2|0:0,0:0:0:0:
60,197,87577,1,8,0:3:0:0:
53,187,87660,1,4,0:3:0:0:
45,177,87743,1,4,0:3:0:0:
38,166,87827,6,0,P|24:90|41:52,1,119.999992847443,12|0,0:0|0:0,0:0:0:0:
106,11,88053,2,0,P|148:15|170:35,1,69.3333260269169,8|8,0:3|0:3,0:0:0:0:
222,109,88233,1,0,1:2:0:0:
222,109,88293,1,0,1:2:0:0:
222,109,88354,6,0,B|178:98|151:123|151:123|172:126|192:142,1,119.999997425079,12|0,0:1|0:0,0:0:0:0:
257,197,88576,2,0,B|269:240|304:257|304:257|296:231|298:215,1,119.999992847443,10|0,0:0|0:0,0:0:0:0:
315,122,88827,2,0,B|346:90|343:51|343:51|324:71|310:77,1,119.999992847443,10|0,0:0|0:0,0:0:0:0:
222,109,88993,6,0,B|178:98|151:123|151:123|172:126|185:136,1,99.5999940633778,10|0,0:0|0:0,0:0:0:0:
308,184,89326,6,0,B|342:212|383:193|383:193|365:170|349:167,1,119.999992847443,12|0,0:0|0:0,0:0:0:0:
273,91,89576,2,0,B|276:40|242:19|242:19|231:42|236:62,1,119.999992847443,12|0,0:0|0:0,0:0:0:0:
214,165,89826,2,0,B|174:182|167:227|167:227|192:225|207:211,1,119.999992847443,12|0,0:0|0:0,0:0:0:0:
