osu file format v14

[General]
AudioFilename: audio.mp3
AudioLeadIn: 0
PreviewTime: 56457
Countdown: 0
SampleSet: Soft
StackLeniency: 0.3
Mode: 0
LetterboxInBreaks: 0
WidescreenStoryboard: 1

[Editor]
DistanceSpacing: 1
BeatDivisor: 4
GridSize: 32
TimelineZoom: 1.6

[Metadata]
Title:asura
TitleUnicode:asura
Artist:Co shu Nie
ArtistUnicode:Còˆ shu Nie
Creator:enryotoki
Version:iljaaz's insane
Source:
Tags:Japanese Rock Aurora DeviousPanda iljaaz AIR Agatsu
BeatmapID:1982511
BeatmapSetID:945838

[Difficulty]
HPDrainRate:3
CircleSize:4.1
OverallDifficulty:8.2
ApproachRate:9
SliderMultiplier:1.5
SliderTickRate:1

[Events]
//Background and Video events
0,0,"0009fb04e8c5735da3ff0e8cc0a43f91bad9f96a_s2_n0.jpg",0,0
//Break Periods
//Storyboard Layer 0 (Background)
//Storyboard Layer 1 (Fail)
//Storyboard Layer 2 (Pass)
//Storyboard Layer 3 (Foreground)
//Storyboard Sound Samples

[TimingPoints]
126,333.333333333333,3,2,1,30,1,0
3959,-71.4285714285714,3,2,1,50,0,0
4459,-62.5,3,2,1,50,0,0
6125,-71.4285714285714,3,2,1,50,0,0
7125,-71.4285714285714,3,2,1,30,0,0
13625,-125,3,2,1,30,0,0
14125,333.333333333333,4,2,1,50,1,0
14125,-66.6666666666667,4,2,1,50,0,1
30124,-66.6666666666667,4,2,1,30,0,0
31124,-125,4,2,1,30,0,0
32791,-83.3333333333333,4,2,1,50,0,0
42821,333.333333333333,4,2,1,50,1,0
42821,-71.4285714285714,4,2,1,60,0,0
51458,333.333333333333,3,2,1,50,1,0
54541,-100,3,2,1,70,0,0
56958,333.333333333333,3,2,1,50,1,0
57958,-100,3,2,1,50,0,0
64624,-100,3,2,1,30,0,0
65624,333.333333333333,4,2,1,30,1,0
68290,-100,4,2,1,50,0,0
70957,-66.6666666666667,4,2,1,50,0,1
82290,-111.111111111111,4,2,1,40,0,0
88290,-45.4545454545455,4,2,1,60,0,0
89290,-45.4545454545455,4,2,1,70,0,0

[Colours]
Combo1 : 132,142,213
Combo2 : 207,133,133
Combo3 : 215,190,134
SliderBorder : 255,255,255

[HitObjects]
467,314,459,5,0,0:0:0:0:
500,206,625,1,0,0:0:0:0:
477,184,709,1,0,0:0:0:0:
444,194,792,2,0,P|449:214|455:242,1,37.5,0|0,0:0|0:0,0:0:0:0:
383,316,959,2,0,P|387:297|391:279,1,37.5,0|0,0:0|0:0,0:0:0:0:
336,209,1125,6,0,B|297:198|297:198|271:220,2,75,0|0|0,0:0|0:0|0:0,0:0:0:0:
285,310,1625,1,0,0:0:0:0:
201,267,1792,2,0,P|164:262|122:261,1,75,0|0,0:0|0:0,0:0:0:0:
99,286,2042,1,0,0:0:0:0:
99,286,2125,6,0,P|119:286|157:292,1,37.5,0|0,0:0|0:0,0:0:0:0:
59,200,2292,2,0,P|39:200|1:206,1,37.5,0|0,0:0|0:0,0:0:0:0:
178,165,2459,2,0,P|181:145|190:114,1,37.5,0|0,0:0|0:0,0:0:0:0:
78,64,2625,2,0,P|74:42|66:13,1,37.5,0|0,0:0|0:0,0:0:0:0:
195,45,2792,6,0,B|264:59|248:97|321:109,1,112.5,0|0,0:0|0:0,0:0:0:0:
330,97,3125,6,0,L|386:83,1,37.5,8|8,0:0|1:0,0:0:0:0:
477,11,3375,2,0,P|470:57|464:119,1,75,8|2,1:0|0:0,0:0:0:0:
443,117,3625,1,8,0:0:0:0:
456,159,3709,1,2,0:0:0:0:
488,165,3792,1,2,0:0:0:0:
495,155,3875,1,2,0:0:0:0:
420,188,3959,6,0,P|436:242|455:318,1,104.999996795654,12|8,0:0|1:0,0:0:0:0:
381,325,4209,2,0,P|397:271|416:195,1,104.999996795654,10|0,0:0|0:0,0:0:0:0:
349,167,4459,2,0,P|264:158|227:234,1,180,6|0,0:0|0:0,0:0:0:0:
245,267,4792,2,0,P|238:235|243:188,1,60,8|2,0:0|0:0,0:0:0:0:
110,154,4959,1,8,0:0:0:0:
142,194,5042,1,8,0:0:0:0:
114,234,5125,6,0,P|119:175|128:115,1,120,10|0,0:0|0:0,0:0:0:0:
162,67,5375,1,8,0:0:0:0:
203,56,5459,1,8,0:0:0:0:
227,62,5542,1,8,0:0:0:0:
234,82,5625,1,8,0:0:0:0:
227,95,5709,1,2,0:0:0:0:
220,98,5792,5,2,0:0:0:0:
297,23,5959,1,2,0:0:0:0:
402,125,6125,6,0,P|392:188|387:248,1,104.999996795654,2|8,1:0|0:0,0:0:0:0:
388,229,6459,1,8,0:0:0:0:
502,289,6625,2,0,P|495:262|490:226,1,52.4999983978272,2|8,0:0|0:0,0:0:0:0:
291,335,6792,2,0,P|297:308|303:272,1,52.4999983978272,2|8,0:0|0:0,0:0:0:0:
432,366,6959,2,0,P|425:339|420:303,1,52.4999983978272,2|0,0:0|0:0,0:0:0:0:
309,210,7125,6,0,B|236:201|245:268|158:289,1,157.499995193482,2|8,0:0|1:0,0:0:0:0:
159,276,7459,1,2,0:0:0:0:
96,214,7625,1,2,0:0:0:0:
71,81,7792,2,0,P|76:54|82:20,1,52.4999983978272,2|2,0:0|0:0,0:0:0:0:
169,141,7959,2,0,P|173:166|178:192,1,52.4999983978272,8|8,0:0|0:0,0:0:0:0:
278,15,8125,6,0,P|203:1|153:57,1,157.499995193482,6|2,0:0|0:0,0:0:0:0:
163,65,8459,1,8,0:0:0:0:
365,57,8625,1,2,0:0:0:0:
278,15,8792,2,0,P|284:68|288:143,1,104.999996795654,8|8,0:0|0:0,0:0:0:0:
263,138,9042,1,8,0:0:0:0:
263,138,9125,6,0,B|277:119|307:110|307:110|356:128|376:184,1,157.499995193482,2|0,0:0|0:0,0:0:0:0:
375,195,9459,1,2,0:0:0:0:
484,151,9625,2,0,P|477:210|473:275,1,104.999996795654,8|0,0:0|0:0,0:0:0:0:
357,350,9959,2,0,P|331:336|294:324,1,52.4999983978272,8|8,0:0|0:0,0:0:0:0:
203,250,10125,6,0,P|129:264|105:336,1,157.499995193482,6|0,0:0|0:0,0:0:0:0:
115,346,10459,1,2,0:0:0:0:
192,154,10625,1,8,1:0:0:0:
111,123,10792,1,8,0:0:0:0:
0,229,10959,6,0,P|52:233|103:246,1,104.999996795654,2|8,0:0|0:0,0:0:0:0:
103,246,11292,1,2,0:0:0:0:
242,57,11459,2,0,P|189:68|133:82,1,104.999996795654,2|8,0:0|0:0,0:0:0:0:
87,88,11709,1,8,0:0:0:0:
87,88,11792,2,0,P|140:99|196:113,1,104.999996795654,2|0,0:0|0:0,0:0:0:0:
274,134,12042,6,0,P|326:127|379:124,1,104.999996795654,8|0,0:0|0:0,0:0:0:0:
391,129,12292,1,2,0:0:0:0:
496,49,12459,1,8,0:0:0:0:
411,58,12625,1,2,0:0:0:0:
378,89,12709,1,2,0:0:0:0:
391,129,12792,2,0,B|432:231|373:188|412:281,1,157.499995193482,6|0,0:0|0:0,0:0:0:0:
419,293,13125,5,2,0:0:0:0:
277,212,13293,5,8,0:0:0:0:
245,253,13376,1,8,0:0:0:0:
235,304,13459,1,2,0:0:0:0:
277,212,13625,6,0,P|313:263|312:338,1,120,10|2,1:0|0:0,0:0:0:0:
124,194,14125,6,0,P|111:277|94:360,1,168.750006437302,6|2,0:0|0:0,0:0:0:0:
113,374,14458,2,0,P|102:318|95:262,1,112.500004291535,8|0,0:0|0:0,0:0:0:0:
76,130,14708,1,8,0:0:0:0:
93,93,14791,2,0,P|148:90|191:123,1,112.500004291535,2|2,0:0|0:0,0:0:0:0:
277,211,15124,2,0,P|286:156|298:101,1,112.500004291535,8|0,0:0|0:0,0:0:0:0:
445,42,15458,5,6,0:0:0:0:
489,140,15624,2,0,P|485:172|484:202,1,56.2500021457673,2|2,0:0|0:0,0:0:0:0:
398,116,15791,1,8,0:0:0:0:
379,217,15958,1,2,0:0:0:0:
394,257,16041,1,8,0:0:0:0:
397,308,16124,1,0,0:0:0:0:
491,222,16291,1,2,0:0:0:0:
385,350,16458,2,0,B|294:343|330:292|234:286,1,168.750006437302,8|0,0:0|0:0,0:0:0:0:
219,314,16791,6,0,P|163:322|108:332,1,112.500004291535,6|0,0:0|0:0,0:0:0:0:
18,258,17041,1,2,0:0:0:0:
46,241,17124,2,0,P|75:247|121:258,1,56.2500021457673,8|0,0:0|0:0,0:0:0:0:
246,135,17291,2,0,P|192:146|163:193,1,112.500004291535,2|2,0:0|0:0,0:0:0:0:
25,67,17624,1,2,0:0:0:0:
86,7,17791,2,0,P|132:34|139:88,1,112.500004291535,8|0,0:0|0:0,0:0:0:0:
246,135,18124,6,0,B|347:119|314:178|431:157,1,168.750006437302,6|2,0:0|0:0,0:0:0:0:
418,154,18458,1,8,0:0:0:0:
283,210,18624,2,0,P|290:241|297:293,1,56.2500021457673,2|8,0:0|0:0,0:0:0:0:
418,154,18791,1,0,0:0:0:0:
512,274,18958,1,2,0:0:0:0:
428,333,19124,2,0,P|436:251|498:197,1,168.750006437302,8|8,0:0|1:0,0:0:0:0:
504,201,19458,6,0,P|493:139|486:70,1,112.500004291535,6|0,0:0|0:0,0:0:0:0:
360,14,19708,1,2,0:0:0:0:
381,26,19791,2,0,P|378:84|372:149,1,112.500004291535,8|0,0:0|0:0,0:0:0:0:
175,188,20041,1,8,0:0:0:0:
142,163,20124,2,0,P|199:133|257:138,1,112.500004291535,2|2,0:0|0:0,0:0:0:0:
59,241,20458,2,0,P|49:185|38:130,1,112.500004291535,8|0,0:0|0:0,0:0:0:0:
250,218,20791,6,0,P|230:270|215:324,1,112.500004291535,6|2,0:0|0:0,0:0:0:0:
371,363,21041,1,2,0:0:0:0:
355,384,21124,2,0,P|335:331|320:277,1,112.500004291535,8|0,0:0|0:0,0:0:0:0:
460,166,21374,1,8,0:0:0:0:
444,145,21457,2,0,P|424:197|409:251,1,112.500004291535,2|2,0:0|0:0,0:0:0:0:
446,50,21791,2,0,B|373:40|378:108|296:115,1,168.750006437302,8|0,0:0|0:0,0:0:0:0:
242,71,22124,6,0,B|283:111|283:111|260:161,1,112.500004291535,6|2,0:0|0:0,0:0:0:0:
112,172,22374,1,2,0:0:0:0:
80,150,22458,2,0,P|137:136|207:124,1,112.500004291535,8|8,0:0|0:0,0:0:0:0:
144,281,22708,1,8,0:0:0:0:
125,302,22791,2,0,P|91:309|54:318,1,56.2500021457673,8|0,0:0|0:0,0:0:0:0:
214,238,22958,1,2,0:0:0:0:
266,319,23124,2,0,B|363:303|323:369|419:369,1,168.750006437302,8|0,0:0|0:0,0:0:0:0:
431,360,23458,5,6,0:0:0:0:
509,243,23624,1,2,0:0:0:0:
485,211,23708,1,2,0:0:0:0:
447,191,23791,2,0,P|460:254|481:323,1,112.500004291535,8|2,0:0|0:0,0:0:0:0:
339,222,24041,1,2,0:0:0:0:
360,199,24124,2,0,P|368:166|375:126,1,56.2500021457673,8|2,0:0|0:0,0:0:0:0:
266,319,24291,2,0,P|274:352|281:392,1,56.2500021457673,2|0,0:0|0:0,0:0:0:0:
137,263,24458,1,8,0:0:0:0:
169,232,24541,1,8,0:0:0:0:
165,205,24624,1,8,0:0:0:0:
157,199,24708,1,8,0:0:0:0:
151,207,24791,6,0,P|209:222|273:243,1,112.500004291535,6|0,0:0|0:0,0:0:0:0:
163,356,25041,1,0,0:0:0:0:
138,344,25124,2,0,P|80:359|16:380,1,112.500004291535,8|0,0:0|0:0,0:0:0:0:
26,176,25374,1,8,0:0:0:0:
46,157,25458,2,0,P|61:217|72:274,1,112.500004291535,2|2,0:0|0:0,0:0:0:0:
259,238,25791,2,0,P|269:182|283:128,1,112.500004291535,8|0,0:0|0:0,0:0:0:0:
133,14,26124,5,6,0:0:0:0:
199,131,26291,2,0,P|194:103|188:75,1,56.2500021457673,2|2,0:0|0:0,0:0:0:0:
352,167,26458,2,0,P|346:195|342:222,1,56.2500021457673,8|0,0:0|0:0,0:0:0:0:
230,328,26624,2,0,P|181:304|178:251,1,112.500004291535,2|2,0:0|0:0,0:0:0:0:
315,299,26958,1,2,0:0:0:0:
230,328,27124,2,0,B|130:323|191:386|57:378,1,168.750006437302,8|0,0:0|0:0,0:0:0:0:
61,370,27458,5,6,0:0:0:0:
126,254,27624,2,0,P|136:227|145:189,1,56.2500021457673,0|2,0:0|0:0,0:0:0:0:
35,91,27791,2,0,P|47:144|61:223,1,112.500004291535,8|0,0:0|0:0,0:0:0:0:
147,91,28041,1,8,0:0:0:0:
121,120,28124,2,0,P|131:64|144:10,1,112.500004291535,2|2,0:0|0:0,0:0:0:0:
323,120,28458,2,0,P|269:136|216:157,1,112.500004291535,8|2,0:0|0:0,0:0:0:0:
416,48,28791,6,0,B|492:163|383:151|464:301,1,225.000008583069,6|8,0:0|0:0,0:0:0:0:
485,277,29208,1,8,0:0:0:0:
447,246,29291,1,8,0:0:0:0:
403,259,29374,1,8,0:0:0:0:
372,295,29458,1,8,0:0:0:0:
331,315,29541,1,8,1:0:0:0:
300,317,29624,1,8,1:0:0:0:
281,308,29708,1,8,1:0:0:0:
274,299,29791,5,2,0:0:0:0:
282,332,29874,1,2,0:0:0:0:
262,359,29958,1,2,0:0:0:0:
223,371,30041,1,2,0:0:0:0:
176,325,30124,5,2,1:0:0:0:
176,325,30624,1,0,0:0:0:0:
164,235,31124,6,0,P|170:279|175:324,1,90,0|0,0:0|0:0,0:0:0:0:
74,265,31458,2,0,P|81:223|89:166,1,90,0|0,0:0|0:0,0:0:0:0:
87,176,32124,5,2,0:0:0:0:
43,61,32291,2,0,P|46:81|54:109,1,30,0|0,0:0|0:0,0:0:0:0:
238,95,32458,1,8,0:0:0:0:
219,65,32541,1,8,0:0:0:0:
186,76,32624,1,8,0:0:0:0:
189,109,32708,1,8,0:0:0:0:
221,120,32791,6,0,P|228:165|237:231,1,89.9999972534181,6|0,0:0|0:0,0:0:0:0:
257,219,33041,2,0,P|264:263|270:307,1,89.9999972534181,8|0,0:0|0:0,0:0:0:0:
258,336,33291,1,2,0:0:0:0:
397,171,33458,2,0,P|391:199|386:235,1,44.999998626709,8|0,0:0|0:0,0:0:0:0:
355,306,33624,2,0,P|370:330|392:359,1,44.999998626709,0|0,0:0|0:0,0:0:0:0:
502,291,33791,6,0,P|486:248|475:205,1,89.9999972534181,6|0,0:0|0:0,0:0:0:0:
498,186,34041,2,0,P|482:143|471:100,1,89.9999972534181,8|0,0:0|0:0,0:0:0:0:
489,73,34291,1,2,0:0:0:0:
392,138,34458,1,8,0:0:0:0:
251,55,34624,1,8,0:0:0:0:
277,39,34708,1,8,0:0:0:0:
309,53,34791,6,0,P|302:96|296:159,1,89.9999972534181,6|0,0:0|0:0,0:0:0:0:
267,158,35041,2,0,P|260:201|254:264,1,89.9999972534181,2|0,0:0|0:0,0:0:0:0:
268,281,35291,1,2,0:0:0:0:
145,206,35458,2,0,P|118:203|79:202,1,44.999998626709,8|0,0:0|0:0,0:0:0:0:
258,362,35624,2,0,P|284:359|324:358,1,44.999998626709,2|0,0:0|0:0,0:0:0:0:
57,299,35791,6,0,P|62:325|66:354,1,44.999998626709,2|8,0:0|0:0,0:0:0:0:
173,191,35958,1,0,0:0:0:0:
145,206,36041,2,0,P|140:227|136:250,1,44.999998626709,2|2,0:0|0:0,0:0:0:0:
6,77,36208,1,0,0:0:0:0:
34,92,36291,2,0,P|38:113|42:136,1,44.999998626709,2|2,0:0|0:0,0:0:0:0:
195,80,36458,1,2,0:0:0:0:
176,65,36541,2,0,P|148:62|111:62,1,44.999998626709,2|8,0:0|0:0,0:0:0:0:
335,133,36708,1,2,0:0:0:0:
316,148,36791,6,0,P|288:151|273:94,1,89.9999972534181,6|0,0:0|0:0,0:0:0:0:
327,53,37041,2,0,P|376:65|436:79,1,89.9999972534181,2|0,0:0|0:0,0:0:0:0:
428,71,37291,1,2,0:0:0:0:
498,145,37458,2,0,P|504:194|510:262,1,89.9999972534181,8|0,0:0|0:0,0:0:0:0:
375,371,37791,2,0,P|384:304|393:216,1,134.999995880127,2|2,0:0|0:0,0:0:0:0:
381,230,38124,5,8,0:0:0:0:
488,320,38291,1,2,0:0:0:0:
301,293,38458,2,0,P|275:295|244:299,1,44.999998626709,8|0,0:0|0:0,0:0:0:0:
175,235,38624,2,0,P|149:232|118:229,1,44.999998626709,2|0,0:0|0:0,0:0:0:0:
53,286,38791,2,0,P|80:343|144:340,1,134.999995880127,6|0,0:0|0:0,0:0:0:0:
148,331,39124,1,2,0:0:0:0:
59,205,39291,1,2,0:0:0:0:
123,123,39458,5,8,0:0:0:0:
71,60,39624,1,2,0:0:0:0:
225,15,39791,2,0,P|215:61|209:115,1,89.9999972534181,2|8,0:0|0:0,0:0:0:0:
312,160,40041,2,0,P|302:113|293:59,1,89.9999972534181,2|0,0:0|0:0,0:0:0:0:
304,59,40291,1,2,0:0:0:0:
413,143,40458,1,8,0:0:0:0:
364,253,40624,1,0,0:0:0:0:
512,302,40791,6,0,P|487:248|435:220,1,119.999996337891,6|0,0:0|0:0,0:0:0:0:
361,281,41124,2,0,P|349:324|340:374,1,89.9999972534181,8|2,0:0|0:0,0:0:0:0:
152,261,41458,1,2,0:0:0:0:
176,237,41541,2,0,P|190:281|202:331,1,89.9999972534181,8|2,0:0|0:0,0:0:0:0:
65,293,41791,2,0,P|72:246|79:177,1,89.9999972534181,6|0,0:0|0:0,0:0:0:0:
168,136,42041,1,2,0:0:0:0:
145,112,42124,6,0,P|140:86|136:56,1,44.999998626709,10|0,0:0|0:0,0:0:0:0:
262,90,42291,2,0,P|252:137|246:189,1,89.9999972534181,2|8,0:0|0:0,0:0:0:0:
257,195,42541,1,10,0:0:0:0:
409,121,42821,6,0,P|394:70|382:19,1,104.999996795654,6|0,0:0|0:0,0:0:0:0:
500,157,43071,1,2,0:0:0:0:
480,176,43154,2,0,P|473:233|470:287,1,104.999996795654,8|2,0:0|0:0,0:0:0:0:
325,341,43487,1,2,0:0:0:0:
308,318,43571,2,0,P|358:310|397:343,1,104.999996795654,8|2,0:0|0:0,0:0:0:0:
207,363,43821,6,0,P|200:329|189:290,1,52.4999983978272,6|0,0:0|0:0,0:0:0:0:
270,183,43987,2,0,P|263:216|252:256,1,52.4999983978272,2|0,0:0|0:0,0:0:0:0:
93,281,44154,2,0,P|86:247|75:208,1,52.4999983978272,8|2,0:0|0:0,0:0:0:0:
176,105,44321,2,0,P|169:138|158:178,1,52.4999983978272,0|2,0:0|0:0,0:0:0:0:
43,34,44487,2,0,B|128:33|91:94|175:104,1,157.499995193482,2|8,0:0|0:0,0:0:0:0:
241,58,44821,6,0,P|275:49|302:46,2,52.4999983978272,6|2|2,0:0|0:0|0:0,0:0:0:0:
368,93,45071,1,2,0:0:0:0:
368,93,45154,1,8,0:0:0:0:
368,93,45237,2,0,P|373:70|377:38,2,52.4999983978272,2|2|0,0:0|0:0|0:0,0:0:0:0:
461,157,45487,1,2,0:0:0:0:
461,157,45570,1,8,0:0:0:0:
461,157,45653,2,0,P|466:180|470:212,2,52.4999983978272,0|2|2,0:0|0:0|0:0,0:0:0:0:
323,193,45904,1,2,0:0:0:0:
323,193,45987,1,8,0:0:0:0:
323,193,46070,2,0,P|318:216|314:248,2,52.4999983978272,0|2|2,0:0|0:0|0:0,0:0:0:0:
411,301,46321,1,2,0:0:0:0:
411,301,46404,1,8,0:0:0:0:
410,301,46487,6,0,P|360:314|310:332,1,104.999996795654,6|0,0:0|0:0,0:0:0:0:
201,302,46737,1,2,0:0:0:0:
201,302,46820,1,8,0:0:0:0:
201,302,46904,2,0,P|192:273|181:246,2,52.4999983978272,0|2|0,0:0|0:0|0:0,0:0:0:0:
90,354,47154,1,2,0:0:0:0:
90,354,47237,1,8,0:0:0:0:
90,354,47321,2,0,P|98:325|110:298,2,52.4999983978272,2|0|2,0:0|0:0|0:0,0:0:0:0:
43,243,47570,1,0,0:0:0:0:
43,243,47653,1,8,0:0:0:0:
43,243,47737,2,0,P|34:214|23:187,2,52.4999983978272,2|0|2,0:0|0:0|0:0,0:0:0:0:
123,193,47987,1,2,0:0:0:0:
123,193,48070,1,8,0:0:0:0:
123,193,48154,6,0,B|135:141|135:141|112:141|83:135,1,104.999996795654,6|0,0:0|0:0,0:0:0:0:
67,52,48404,1,2,0:0:0:0:
67,52,48487,1,8,0:0:0:0:
67,52,48570,2,0,P|90:57|130:58,2,52.4999983978272,0|2|2,0:0|0:0|0:0,0:0:0:0:
202,79,48820,1,2,0:0:0:0:
202,79,48903,1,2,0:0:0:0:
202,79,48987,2,0,P|217:61|238:27,2,52.4999983978272,10|2|2,0:0|0:0|0:0,0:0:0:0:
304,157,49237,1,0,0:0:0:0:
304,157,49320,1,10,0:0:0:0:
304,157,49404,2,0,P|296:134|277:99,2,52.4999983978272,0|0|2,0:0|0:0|0:0,0:0:0:0:
444,66,49654,1,8,0:0:0:0:
444,66,49737,1,8,1:0:0:0:
444,66,49820,6,0,P|428:126|419:192,1,104.999996795654,2|2,0:0|0:0,0:0:0:0:
470,241,50070,1,2,0:0:0:0:
470,241,50154,1,8,0:0:0:0:
470,241,50237,2,0,P|477:268|481:297,2,52.4999983978272,2|2|2,0:0|0:0|0:0,0:0:0:0:
359,236,50487,1,8,0:0:0:0:
359,236,50571,1,2,0:0:0:0:
359,236,50654,6,0,P|352:263|342:341,1,104.999996795654,6|2,0:0|0:0,0:0:0:0:
370,370,50904,1,2,0:0:0:0:
370,370,50987,1,8,0:0:0:0:
370,370,51070,2,0,P|364:340|355:309,1,52.4999983978272,2|0,0:0|0:0,0:0:0:0:
269,279,51237,1,0,0:0:0:0:
169,346,51458,6,0,P|132:349|95:354,2,75,6|2|2,0:0|0:0|0:0,0:0:0:0:
241,195,51958,2,0,P|278:198|315:203,2,75,8|0|2,0:0|0:0|0:0,0:0:0:0:
118,161,52458,2,0,P|127:201|137:250,2,75,6|2|2,0:0|0:0|0:0,0:0:0:0:
217,43,52958,2,0,P|207:83|198:132,2,75,2|2|2,0:0|0:0|0:0,0:0:0:0:
96,0,53458,5,2,1:0:0:0:
96,0,54541,2,0,P|106:59|117:139,1,112.5,6|8,0:0|0:0,0:0:0:0:
113,111,54958,1,6,0:0:0:0:
350,40,55207,1,10,0:0:0:0:
12,14,55457,1,10,0:0:0:0:
143,327,55707,1,12,0:0:0:0:
236,0,55957,1,10,1:0:0:0:
236,0,56958,6,0,P|245:38|256:94,2,75,6|8|8,0:0|0:0|0:0,0:0:0:0:
176,106,57458,2,0,P|186:126|194:146,1,37.5,2|8,0:0|1:0,0:0:0:0:
305,182,57624,2,0,P|295:202|287:222,1,37.5,0|8,0:0|0:0,0:0:0:0:
130,283,57791,2,0,P|140:303|148:323,1,37.5,0|0,0:0|0:0,0:0:0:0:
325,372,57958,6,0,P|343:316|372:247,1,112.5,2|0,0:0|0:0,0:0:0:0:
392,272,58291,1,8,1:0:0:0:
377,303,58374,1,8,1:0:0:0:
342,316,58458,1,8,1:0:0:0:
300,303,58541,1,8,1:0:0:0:
277,254,58624,5,8,0:0:0:0:
291,238,58708,1,2,0:0:0:0:
313,245,58791,1,2,0:0:0:0:
309,268,58874,1,2,0:0:0:0:
277,254,58958,6,0,P|263:198|240:117,1,112.5,2|2,1:0|0:0,0:0:0:0:
244,141,59291,1,8,0:0:0:0:
98,180,59458,1,2,0:0:0:0:
23,43,59624,1,8,0:0:0:0:
155,96,59791,2,0,P|160:118|168:146,1,37.5,8|8,0:0|0:0,0:0:0:0:
42,245,59958,6,0,P|29:307|13:375,1,112.5,2|0,0:0|0:0,0:0:0:0:
11,362,60291,1,2,0:0:0:0:
127,314,60458,2,0,B|190:301|180:347|263:337,1,112.5,8|0,0:0|0:0,0:0:0:0:
265,309,60791,2,0,P|287:301|331:292,1,37.5,8|8,0:0|0:0,0:0:0:0:
492,346,60957,6,0,P|423:327|405:257,1,150,6|2,0:0|0:0,0:0:0:0:
505,196,61457,2,0,P|510:222|518:257,1,37.5,8|0,0:0|0:0,0:0:0:0:
335,187,61624,2,0,P|330:213|322:248,1,37.5,8|8,0:0|0:0,0:0:0:0:
425,84,61791,2,0,P|371:68|318:47,1,112.5,2|0,0:0|0:0,0:0:0:0:
311,41,62124,1,2,0:0:0:0:
219,124,62291,2,0,P|182:128|146:137,1,75,2|8,0:0|0:0,0:0:0:0:
112,173,62541,1,8,0:0:0:0:
112,173,62624,2,0,P|119:235|130:298,1,112.5,0|2,0:0|0:0,0:0:0:0:
134,295,62957,5,2,0:0:0:0:
201,206,63124,1,2,0:0:0:0:
112,173,63291,2,0,P|107:134|98:83,1,75,8|2,0:0|0:0,0:0:0:0:
4,26,63541,1,2,0:0:0:0:
21,46,63624,2,0,P|17:88|12:135,1,75,6|0,0:0|0:0,0:0:0:0:
180,42,63957,5,2,0:0:0:0:
46,313,64124,1,8,0:0:0:0:
56,279,64207,1,8,0:0:0:0:
35,256,64291,1,2,0:0:0:0:
224,287,64457,1,8,0:0:0:0:
112,173,64624,1,10,0:0:0:0:
245,306,64791,5,10,0:0:0:0:
245,306,64874,1,2,0:0:0:0:
302,179,65041,5,2,0:0:0:0:
302,179,65124,1,2,0:0:0:0:
302,179,65207,1,2,0:0:0:0:
302,179,65291,1,0,0:0:0:0:
316,200,65374,5,0,0:0:0:0:
316,200,65457,1,0,0:0:0:0:
316,200,65540,1,0,0:0:0:0:
316,200,65624,6,0,B|374:178|436:201|436:201|429:188|415:182,2,150,2|0|0,1:0|0:0|0:0,0:0:0:0:
316,200,66624,1,0,0:0:0:0:
316,200,67124,1,0,0:0:0:0:
234,291,67290,1,0,0:0:0:0:
125,221,67457,2,0,B|168:191|226:208|226:208|202:208|181:216,2,150,0|0|0,0:0|0:0|0:0,0:0:0:0:
48,346,68290,5,2,0:0:0:0:
48,346,68374,2,0,P|44:323|36:286,1,37.5,8|0,0:0|0:0,0:0:0:0:
227,327,68540,5,2,0:0:0:0:
227,327,68624,2,0,P|230:304|239:267,1,37.5,8|0,0:0|0:0,0:0:0:0:
7,176,68790,5,2,0:0:0:0:
7,176,68874,2,0,P|3:153|-5:116,1,37.5,8|0,0:0|0:0,0:0:0:0:
186,157,69040,5,2,0:0:0:0:
186,157,69124,2,0,P|189:134|198:97,1,37.5,8|0,0:0|0:0,0:0:0:0:
121,242,69290,5,2,0:0:0:0:
121,242,69374,2,0,P|117:219|109:182,1,37.5,2|8,0:0|1:0,0:0:0:0:
233,225,69540,5,8,1:0:0:0:
261,267,69624,1,8,0:0:0:0:
240,319,69707,5,8,0:0:0:0:
244,290,69790,1,8,0:0:0:0:
282,279,69874,1,8,0:0:0:0:
316,296,69957,1,2,0:0:0:0:
343,331,70040,1,2,0:0:0:0:
367,340,70124,1,2,0:0:0:0:
383,332,70207,1,2,0:0:0:0:
386,324,70290,5,8,1:0:0:0:
476,263,70457,5,8,0:0:0:0:
476,263,70540,1,8,0:0:0:0:
476,263,70624,5,8,0:0:0:0:
470,225,70707,1,8,0:0:0:0:
464,188,70790,1,8,0:0:0:0:
459,151,70873,1,8,0:0:0:0:
452,113,70957,6,0,P|383:69|303:88,1,168.750006437302,6|2,0:0|0:0,0:0:0:0:
305,117,71290,2,0,P|325:67|345:8,1,112.500004291535,8|0,0:0|0:0,0:0:0:0:
168,76,71540,1,8,0:0:0:0:
193,97,71624,2,0,P|209:151|225:219,1,112.500004291535,2|2,0:0|0:0,0:0:0:0:
157,306,71957,2,0,B|100:289|100:289|55:317,1,112.500004291535,8|2,0:0|0:0,0:0:0:0:
254,384,72290,6,0,P|274:329|308:255,1,112.500004291535,2|0,0:0|0:0,0:0:0:0:
168,76,72540,1,2,0:0:0:0:
193,97,72624,2,0,P|209:151|225:219,1,112.500004291535,8|0,0:0|0:0,0:0:0:0:
29,132,72873,1,8,0:0:0:0:
51,108,72957,2,0,P|67:54|83:-14,1,112.500004291535,2|2,0:0|0:0,0:0:0:0:
193,97,73290,2,0,P|252:129|301:123,1,112.500004291535,8|0,0:0|0:0,0:0:0:0:
453,68,73540,1,0,0:0:0:0:
430,46,73623,6,0,P|384:91|380:160,1,112.500004291535,6|2,0:0|0:0,0:0:0:0:
449,282,73873,1,2,0:0:0:0:
471,259,73957,2,0,P|463:202|459:136,1,112.500004291535,8|8,0:0|0:0,0:0:0:0:
300,242,74207,1,8,0:0:0:0:
328,258,74290,2,0,P|324:316|316:378,1,112.500004291535,2|2,0:0|0:0,0:0:0:0:
99,229,74623,2,0,B|188:214|146:163|236:141,1,168.750006437302,8|0,0:0|0:0,0:0:0:0:
248,145,74957,5,2,0:0:0:0:
184,280,75123,2,0,P|178:314|175:349,1,56.2500021457673,8|8,0:0|0:0,0:0:0:0:
98,152,75290,2,0,P|82:97|57:21,1,112.500004291535,8|2,0:0|0:0,0:0:0:0:
274,121,75540,1,8,0:0:0:0:
248,145,75623,2,0,P|241:173|237:205,1,56.2500021457673,2|2,0:0|0:0,0:0:0:0:
171,75,75790,2,0,P|166:47|160:19,1,56.2500021457673,8|2,1:0|0:0,0:0:0:0:
99,229,75957,2,0,P|92:257|88:289,1,56.2500021457673,8|8,0:0|0:0,0:0:0:0:
195,362,76123,1,8,0:0:0:0:
237,369,76207,1,8,0:0:0:0:
265,339,76290,6,0,P|204:351|123:374,1,112.500004291535,6|0,0:0|0:0,0:0:0:0:
272,250,76540,1,2,0:0:0:0:
293,233,76623,2,0,P|348:243|402:257,1,112.500004291535,8|0,0:0|0:0,0:0:0:0:
501,154,76873,1,2,0:0:0:0:
480,137,76956,2,0,P|424:147|370:161,1,112.500004291535,2|2,0:0|0:0,0:0:0:0:
276,30,77290,2,0,P|306:37|335:49,1,56.2500021457673,8|8,0:0|0:0,0:0:0:0:
288,196,77457,2,0,P|280:226|269:255,1,56.2500021457673,8|2,1:0|0:0,0:0:0:0:
87,135,77623,5,2,0:0:0:0:
87,135,77873,6,0,B|58:213|104:279|104:279|90:235|100:194,1,225.000008583069,6|0,0:0|0:0,0:0:0:0:
197,250,78290,2,0,P|174:307|158:365,1,112.500004291535,8|0,0:0|0:0,0:0:0:0:
332,311,78623,1,8,0:0:0:0:
353,272,78707,1,8,1:0:0:0:
351,244,78790,1,8,1:0:0:0:
339,233,78873,1,8,1:0:0:0:
332,237,78957,6,0,P|393:210|431:119,1,168.750006437302,6|2,0:0|0:0,0:0:0:0:
410,97,79290,2,0,P|431:191|454:267,1,168.750006437302,8|8,0:0|0:0,0:0:0:0:
509,340,79623,2,0,P|469:290|363:319,1,168.750006437302,2|8,0:0|0:0,0:0:0:0:
374,347,79957,2,0,P|320:360|226:373,1,112.500004291535,8|8,0:0|0:0,0:0:0:0:
115,267,80207,1,8,1:0:0:0:
137,244,80290,6,0,P|160:300|177:361,1,112.500004291535,2|2,0:0|0:0,0:0:0:0:
0,185,80623,2,0,P|23:129|40:68,1,112.500004291535,8|8,1:0|1:0,0:0:0:0:
115,267,80873,1,8,1:0:0:0:
137,244,80957,6,0,P|160:300|177:361,1,112.500004291535,8|8,0:0|0:0,0:0:0:0:
258,250,81207,1,8,0:0:0:0:
270,218,81290,1,8,0:0:0:0:
259,190,81373,1,0,0:0:0:0:
247,158,81457,1,8,0:0:0:0:
261,127,81540,1,8,0:0:0:0:
290,114,81623,5,8,0:0:0:0:
290,114,81790,1,8,0:0:0:0:
290,114,81957,5,2,0:0:0:0:
319,122,82040,1,2,0:0:0:0:
348,130,82123,1,2,0:0:0:0:
377,138,82207,1,2,0:0:0:0:
405,146,82290,6,0,P|438:136|471:128,2,67.4999979400635,10|2|2,1:0|0:0|0:0,0:0:0:0:
365,232,82790,1,8,0:0:0:0:
439,290,82957,2,0,P|446:330|456:377,1,67.4999979400635,2|2,0:0|0:0,0:0:0:0:
300,337,83207,1,0,0:0:0:0:
320,313,83290,2,0,P|326:279|332:246,1,67.4999979400635,2|2,0:0|0:0,0:0:0:0:
213,181,83623,2,0,B|237:208|237:208|227:237,2,67.4999979400635,2|8|2,0:0|0:0|0:0,0:0:0:0:
78,278,84123,1,2,0:0:0:0:
78,278,84207,1,0,0:0:0:0:
78,278,84290,5,6,0:0:0:0:
131,209,84457,2,0,P|124:175|110:105,1,101.249996910095,2|0,0:0|0:0,0:0:0:0:
85,73,84790,1,8,1:0:0:0:
85,73,84873,2,0,B|114:92|114:92|163:74,2,67.4999979400635,2|2|8,0:0|0:0|0:0,0:0:0:0:
89,27,85290,6,0,P|144:37|180:46,1,67.4999979400635,2|8,0:0|1:0,0:0:0:0:
217,110,85540,1,8,1:0:0:0:
251,137,85623,1,2,0:0:0:0:
285,147,85707,1,2,0:0:0:0:
333,135,85790,1,2,0:0:0:0:
364,101,85873,1,8,1:0:0:0:
363,68,85957,1,0,0:0:0:0:
342,55,86040,1,2,0:0:0:0:
329,62,86123,1,2,0:0:0:0:
331,76,86207,1,2,0:0:0:0:
363,68,86290,6,0,P|411:52|469:46,1,101.249996910095,6|8,0:0|1:0,0:0:0:0:
469,50,86623,1,0,0:0:0:0:
474,146,86790,2,0,B|459:182|459:182|463:226,2,67.4999979400635,2|8|2,0:0|0:0|0:0,0:0:0:0:
352,208,87207,1,8,1:0:0:0:
363,215,87290,2,0,L|377:289,1,67.4999979400635,2|8,0:0|0:0,0:0:0:0:
261,351,87540,1,8,0:0:0:0:
278,323,87623,1,8,0:0:0:0:
254,290,87707,1,0,0:0:0:0:
273,256,87790,2,0,P|275:205|277:136,1,101.249996910095,8|0,0:0|0:0,0:0:0:0:
144,82,88123,1,10,0:0:0:0:
156,114,88207,1,8,0:0:0:0:
152,140,88290,6,0,P|70:190|0:246,1,165.000005035401,12|0,0:0|0:0,0:0:0:0:
32,269,88540,2,0,P|28:191|17:77,1,165.000005035401,6|0,0:0|0:0,0:0:0:0:
125,0,88790,2,0,P|169:6|217:32,1,82.5000025177003,12|0,0:0|0:0,0:0:0:0:
315,121,88957,2,0,B|330:132|353:139|353:139|335:92|295:75|295:75|268:134|276:196,1,247.500007553101,8|0,0:0|0:0,0:0:0:0:
311,284,89290,6,0,B|394:269|387:350|488:377,1,165.000005035401,12|0,0:0|0:0,0:0:0:0:
486,297,89540,2,0,P|409:294|385:367,1,165.000005035401,12|0,0:0|0:0,0:0:0:0:
252,384,89790,2,0,P|237:342|172:217,1,165.000005035401,10|0,1:0|0:0,0:0:0:0:
