osu file format v14

[General]
AudioFilename: audio.mp3
AudioLeadIn: 0
PreviewTime: 56467
Countdown: 0
SampleSet: Soft
StackLeniency: 0.2
Mode: 0
LetterboxInBreaks: 0
WidescreenStoryboard: 0

[Editor]
DistanceSpacing: 1
BeatDivisor: 4
GridSize: 16
TimelineZoom: 3.699999

[Metadata]
Title:asura
TitleUnicode:asura
Artist:Co shu Nie
ArtistUnicode:Còˆ shu Nie
Creator:DeviousPanda
Version:semaphore's Extra
Source:
Tags:Japanese Rock Aurora Gillstar iljaaz Melwoine AIR Agatsu Jounzan EvilElvis Natteke desu semaphore
BeatmapID:2164160
BeatmapSetID:986422

[Difficulty]
HPDrainRate:6
CircleSize:4
OverallDifficulty:8.7
ApproachRate:9.4
SliderMultiplier:2
SliderTickRate:1

[Events]
//Background and Video events
0,0,"randombg.jpg",0,0
//Break Periods
//Storyboard Layer 0 (Background)
//Storyboard Layer 1 (Fail)
//Storyboard Layer 2 (Pass)
//Storyboard Layer 3 (Foreground)
//Storyboard Layer 4 (Overlay)
//Storyboard Sound Samples

[TimingPoints]
469,333.333333333333,4,2,4,50,1,0
3135,333.333333333333,3,2,4,50,1,0
6135,-80,3,2,4,50,0,0
14135,333.333333333333,4,2,4,50,1,0
14135,-66.6666666666667,4,2,4,50,0,1
30134,333.333333333333,3,2,4,50,1,0
30134,-200,4,2,4,50,0,0
32301,-100,4,2,4,50,0,0
32801,333.333333333333,3,2,4,50,1,0
32801,-80,4,2,4,50,0,0
40467,-200,4,2,4,50,0,0
40800,-66.6666666666667,4,2,4,50,0,0
44800,333.333333333333,5,2,4,50,1,0
44800,-200,5,2,4,50,0,0
51466,333.333333333333,3,2,4,50,1,0
51466,-80,3,2,4,50,0,0
53466,-100,3,2,4,50,0,0
56958,333.333333333333,3,2,4,50,1,0
56958,-66.6666666666667,3,2,4,50,0,0
59957,-80,3,2,4,50,0,0
60957,-80,3,2,4,50,0,0
61791,333.333333333333,3,2,4,50,1,0
61791,-80,3,2,4,50,0,0
62624,333.333333333333,3,2,4,50,1,0
62624,-80,3,2,4,50,0,0
64623,-80,3,2,4,30,0,0
65624,333.333333333333,4,2,4,50,1,0
65624,-200,4,2,4,50,0,0
68373,-66.6666666666667,4,2,4,50,0,0
70957,-66.6666666666667,4,2,4,50,0,1
77623,-133.333333333333,4,2,4,50,0,0
78956,-100,4,2,4,50,0,0
80622,-80,4,2,4,50,0,0
82289,-80,4,2,4,50,0,0
84289,-66.6666666666667,4,2,4,50,0,0
88289,-50,4,2,4,50,0,0
89788,-200,4,2,4,50,0,0

[Colours]
Combo1 : 206,0,103
Combo2 : 255,79,79
Combo3 : 255,128,128
Combo4 : 255,100,177

[HitObjects]
512,194,3136,5,4,1:0:0:0:
492,200,3219,1,8,3:0:0:0:
352,122,3385,1,8,3:0:0:0:
285,255,3552,1,8,3:0:0:0:
264,248,3635,1,0,3:0:0:0:
243,241,3718,1,0,3:0:0:0:
222,234,3802,1,0,3:0:0:0:
200,232,3885,1,0,3:0:0:0:
200,232,3968,6,0,P|151:237|102:276,1,100,12|8,3:1|3:0,0:0:0:0:
85,269,4218,2,0,P|74:317|96:375,1,100,12|0,3:1|0:0,0:0:0:0:
17,199,4468,2,0,P|21:154|19:94,1,100,12|0,3:0|0:0,0:0:0:0:
141,12,4718,1,0,0:0:0:0:
141,12,4802,1,8,1:2:0:0:
184,0,4885,1,2,1:3:0:0:
228,8,4968,1,8,1:2:0:0:
259,40,5052,1,8,1:2:0:0:
267,83,5135,6,0,B|309:105|309:105|368:96,1,100,4|0,3:1|1:0,0:0:0:0:
384,243,5385,1,8,1:2:0:0:
329,247,5469,1,8,1:2:0:0:
275,251,5552,1,8,1:2:0:0:
221,255,5635,1,8,3:0:0:0:
167,262,5718,1,8,3:0:0:0:
167,262,5802,1,2,3:2:0:0:
167,262,6135,6,0,P|165:234|168:196,1,62.5,14|0,1:2|0:0,0:0:0:0:
28,174,6301,2,0,P|30:202|27:238,1,62.5,10|0,1:2|0:0,0:0:0:0:
152,0,6468,1,10,1:2:0:0:
113,16,6551,1,0,0:0:0:0:
88,50,6634,1,2,1:2:0:0:
86,92,6718,1,8,1:2:0:0:
107,128,6801,1,2,1:2:0:0:
107,128,6884,2,0,P|169:133|235:128,1,125,8|0,1:2|0:0,0:0:0:0:
287,75,7134,6,0,L|354:92,1,62.5,12|0,3:2|0:0,0:0:0:0:
475,205,7301,1,0,1:0:0:0:
475,205,7384,2,0,P|479:143|454:85,1,125,8|0,1:2|0:0,0:0:0:0:
429,68,7634,1,4,3:2:0:0:
413,305,7801,1,0,1:0:0:0:
366,309,7884,1,0,1:0:0:0:
319,313,7968,1,8,1:2:0:0:
272,319,8051,1,8,1:2:0:0:
272,319,8134,6,0,B|209:299|209:299|152:329,1,125,4|0,3:0|1:0,0:0:0:0:
113,239,8384,1,8,3:0:0:0:
113,239,8468,2,0,P|116:207|115:170,1,62.5,8|0,1:2|0:0,0:0:0:0:
274,172,8635,2,0,P|271:204|272:241,1,62.5,0|0,3:0|0:0,0:0:0:0:
200,85,8801,2,0,L|200:19,1,62.5,8|0,1:2|0:0,0:0:0:0:
65,0,8968,1,0,1:0:0:0:
65,0,9051,1,8,1:2:0:0:
26,63,9134,6,0,P|29:136|26:253,1,187.5,12|0,3:2|0:0,0:0:0:0:
10,265,9468,1,8,3:0:0:0:
256,304,9634,1,8,1:2:0:0:
256,304,9968,1,0,1:0:0:0:
256,304,10051,1,8,1:2:0:0:
315,260,10134,6,0,P|374:261|447:267,1,125,12|0,3:2|0:0,0:0:0:0:
406,96,10467,1,8,3:0:0:0:
512,173,10634,1,8,1:2:0:0:
512,173,10800,1,0,1:0:0:0:
405,363,10967,1,12,3:2:0:0:
264,201,11134,6,0,P|268:132|266:72,1,125,0|2,1:0|0:3,0:0:0:0:
315,260,11468,1,8,3:0:0:0:
124,260,11634,1,0,1:0:0:0:
124,260,11718,1,8,1:2:0:0:
124,260,11801,6,0,P|128:329|126:389,1,125,12|0,3:2|0:0,0:0:0:0:
2,240,12051,2,0,P|-2:171|0:111,1,125,0|0,1:0|0:0,0:0:0:0:
6,84,12302,1,8,3:0:0:0:
271,226,12468,1,8,1:2:0:0:
205,262,12635,1,0,3:0:0:0:
205,262,12718,1,0,3:0:0:0:
205,262,12801,6,0,B|367:241|284:311|451:294,1,250,12|8,3:2|3:0,0:0:0:0:
490,108,13301,1,8,1:2:0:0:
496,153,13384,1,8,1:2:0:0:
503,200,13467,1,8,3:0:0:0:
503,200,13634,5,12,1:2:0:0:
503,200,14135,6,0,B|439:164|439:164|365:191,1,150.000005722046,4|0,1:3|3:0,0:0:0:0:
307,238,14385,1,8,3:0:0:0:
307,238,14468,2,0,L|216:229,1,75.0000028610231,8|0,1:2|0:0,0:0:0:0:
168,268,14635,1,0,1:0:0:0:
79,204,14718,2,0,P|85:119|99:18,1,150.000005722046,8|0,1:2|0:0,0:0:0:0:
69,24,14968,1,8,3:0:0:0:
9,297,15135,6,0,P|88:312|129:372,1,150.000005722046,8|2,1:2|0:3,0:0:0:0:
208,360,15385,1,0,1:0:0:0:
208,360,15468,2,0,L|287:368,1,75.0000028610231,4|0,1:0|0:0,0:0:0:0:
212,70,15635,1,0,3:0:0:0:
179,83,15718,1,8,3:0:0:0:
212,93,15801,6,0,P|297:95|394:106,1,150.000005722046,8|0,1:2|1:0,0:0:0:0:
473,18,16051,2,0,P|388:16|291:5,1,150.000005722046,8|0,1:2|0:0,0:0:0:0:
285,4,16301,1,8,3:0:0:0:
444,163,16468,5,8,1:2:0:0:
362,314,16635,1,2,0:3:0:0:
363,351,16718,1,2,0:3:0:0:
362,314,16801,6,0,P|318:247|208:255,1,150.000005722046,4|0,1:2|1:0,0:0:0:0:
184,292,17051,1,8,3:0:0:0:
184,292,17135,2,0,L|102:283,1,75.0000028610231,8|0,1:2|0:0,0:0:0:0:
0,162,17301,1,0,1:0:0:0:
33,97,17385,2,0,P|127:86|218:79,1,150.000005722046,0|0,1:0|0:0,0:0:0:0:
203,63,17635,2,0,L|198:152,1,75.0000028610231,8|0,3:0|0:0,0:0:0:0:
317,155,17801,6,0,P|318:79|325:3,1,150.000005722046,8|2,1:2|0:3,0:0:0:0:
348,244,18051,1,2,0:3:0:0:
348,244,18135,6,0,B|262:232|294:277|203:266,1,150.000005722046,4|0,1:2|3:0,0:0:0:0:
170,339,18385,1,8,3:0:0:0:
170,339,18468,2,0,L|256:362,1,75.0000028610231,8|0,1:2|0:0,0:0:0:0:
39,254,18635,1,0,1:0:0:0:
24,265,18718,1,8,1:2:0:0:
38,276,18801,6,0,P|41:223|41:186,1,75.0000028610231,2|0,3:0|3:0,0:0:0:0:
181,181,18968,2,0,P|178:234|178:271,1,75.0000028610231,8|0,3:0|0:0,0:0:0:0:
58,126,19135,1,8,1:2:0:0:
298,17,19301,1,8,1:2:0:0:
298,17,19385,1,8,1:2:0:0:
353,67,19468,6,0,P|433:86|466:191,1,150.000005722046,4|0,1:3|3:0,0:0:0:0:
444,219,19718,1,8,3:0:0:0:
444,219,19801,2,0,L|440:312,1,75.0000028610231,8|0,1:2|0:0,0:0:0:0:
391,350,19968,1,0,1:0:0:0:
294,296,20051,2,0,P|218:294|133:297,1,150.000005722046,8|0,1:2|0:0,0:0:0:0:
106,302,20301,1,0,3:0:0:0:
283,214,20468,6,0,L|290:125,1,75.0000028610231,8|0,1:2|0:0,0:0:0:0:
231,70,20635,1,2,0:3:0:0:
231,70,20718,1,0,1:0:0:0:
231,70,20801,6,0,P|160:106|160:211,1,150.000005722046,4|0,1:0|3:0,0:0:0:0:
59,219,21051,1,8,3:0:0:0:
59,219,21135,2,0,P|62:133|58:52,1,150.000005722046,8|0,1:2|1:0,0:0:0:0:
74,45,21385,2,0,L|0:49,1,75.0000028610231,8|2,1:2|0:3,0:0:0:0:
143,169,21551,1,0,0:0:0:0:
143,169,21635,2,0,L|217:165,1,75.0000028610231,8|0,3:0|0:0,0:0:0:0:
126,384,21801,6,0,P|108:308|148:246,1,150.000005722046,8|2,1:2|0:3,0:0:0:0:
512,271,22135,6,0,B|451:314|451:314|364:288,1,150.000005722046,4|0,3:2|3:0,0:0:0:0:
315,246,22385,1,8,3:0:0:0:
315,246,22468,2,0,L|217:257,1,75.0000028610231,8|0,1:2|0:0,0:0:0:0:
368,185,22635,1,0,1:0:0:0:
368,185,22718,2,0,P|367:107|370:32,1,150.000005722046,8|0,1:2|0:0,0:0:0:0:
401,107,22968,1,8,3:0:0:0:
207,185,23135,6,0,L|281:176,1,75.0000028610231,10|2,1:2|0:0,0:0:0:0:
123,66,23301,1,2,0:0:0:0:
159,73,23385,1,2,0:0:0:0:
124,88,23468,6,0,P|42:114|14:179,1,150.000005722046,6|0,1:2|3:0,0:0:0:0:
69,227,23718,1,8,3:0:0:0:
69,227,23801,2,0,L|60:319,1,75.0000028610231,8|0,1:2|0:0,0:0:0:0:
111,360,23968,1,0,1:0:0:0:
209,293,24051,2,0,P|291:284|350:328,1,150.000005722046,8|0,1:2|0:0,0:0:0:0:
260,382,24301,2,0,P|227:384|175:384,1,75.0000028610231,2|0,3:2|0:0,0:0:0:0:
423,266,24468,5,8,1:2:0:0:
423,266,24551,1,8,1:2:0:0:
475,213,24635,1,0,3:0:0:0:
468,156,24718,1,0,3:0:0:0:
416,134,24801,6,0,B|331:126|360:171|273:163,1,150.000005722046,4|0,1:3|3:0,0:0:0:0:
218,111,25051,1,8,3:0:0:0:
218,111,25135,2,0,L|115:124,1,75.0000028610231,8|0,1:2|0:0,0:0:0:0:
85,170,25301,1,0,1:0:0:0:
53,96,25385,2,0,P|55:177|49:260,1,150.000005722046,8|0,1:2|0:0,0:0:0:0:
42,282,25635,1,8,3:0:0:0:
184,372,25801,6,0,P|220:306|305:301,1,150.000005722046,8|2,1:2|0:3,0:0:0:0:
342,357,26051,1,0,0:0:0:0:
342,357,26135,6,0,L|426:351,1,75.0000028610231,4|0,1:0|0:0,0:0:0:0:
469,103,26301,1,0,3:0:0:0:
433,113,26385,1,8,3:0:0:0:
468,125,26468,6,0,P|372:125|298:130,1,150.000005722046,8|0,1:2|1:0,0:0:0:0:
248,9,26718,2,0,P|344:9|418:4,1,150.000005722046,8|0,1:2|0:0,0:0:0:0:
435,0,26968,1,8,3:0:0:0:
400,206,27135,5,8,1:2:0:0:
190,95,27301,1,2,0:3:0:0:
226,100,27385,1,0,0:0:0:0:
190,95,27468,6,0,P|111:109|74:179,1,150.000005722046,4|0,1:2|0:0,0:0:0:0:
111,236,27718,1,8,3:0:0:0:
111,236,27801,2,0,L|102:314,1,75.0000028610231,8|0,1:2|0:0,0:0:0:0:
323,282,27968,1,0,1:0:0:0:
289,266,28051,1,8,1:2:0:0:
258,337,28135,2,0,P|259:248|254:169,1,150.000005722046,2|8,0:3|3:0,0:0:0:0:
316,58,28385,1,0,0:0:0:0:
316,58,28468,6,0,P|315:95|317:132,1,75.0000028610231,8|0,1:2|0:0,0:0:0:0:
391,51,28635,2,0,P|390:88|392:125,1,75.0000028610231,2|0,0:3|0:0,0:0:0:0:
493,190,28801,5,4,1:0:0:0:
493,190,29134,1,8,1:2:0:0:
420,209,29217,1,8,1:2:0:0:
345,214,29300,1,8,1:2:0:0:
270,211,29384,1,8,1:2:0:0:
195,197,29467,5,8,1:2:0:0:
252,190,29550,1,8,1:2:0:0:
219,183,29634,1,8,3:0:0:0:
219,183,29717,1,8,3:0:0:0:
159,138,29800,5,0,3:0:0:0:
152,102,29884,1,0,3:0:0:0:
153,137,29967,1,0,3:0:0:0:
160,101,30050,1,0,3:0:0:0:
101,194,30134,6,0,P|68:197|-1:289,2,150,4|2|2,3:1|0:0|0:0,0:0:0:0:
101,194,31468,1,2,0:0:0:0:
101,194,32134,1,12,3:0:0:0:
320,18,32301,6,0,P|318:55|321:96,1,50,2|0,0:3|0:0,0:0:0:0:
381,132,32468,1,8,1:2:0:0:
381,132,32551,1,8,1:2:0:0:
381,132,32633,1,8,1:2:0:0:
381,132,32718,1,8,1:2:0:0:
226,144,32801,6,0,P|230:63|228:8,1,125,4|0,1:3|0:0,0:0:0:0:
320,194,33051,2,0,P|316:275|318:330,1,125,8|0,1:2|0:0,0:0:0:0:
319,350,33301,1,8,3:0:0:0:
461,221,33467,2,0,L|380:208,1,62.5,8|0,1:2|0:0,0:0:0:0:
176,328,33634,1,2,0:3:0:0:
204,341,33717,1,0,0:0:0:0:
175,353,33801,6,0,P|137:292|149:211,1,125,4|0,1:3|0:0,0:0:0:0:
247,143,34051,2,0,P|285:204|273:285,1,125,8|0,3:0|0:0,0:0:0:0:
273,284,34301,1,8,3:0:0:0:
186,42,34467,1,8,1:2:0:0:
158,56,34551,1,0,1:0:0:0:
130,70,34634,1,8,1:2:0:0:
102,85,34717,1,8,1:2:0:0:
75,101,34801,5,4,1:3:0:0:
75,101,34884,2,0,P|77:141|76:165,1,62.5,0|0,0:0|0:0,0:0:0:0:
9,272,35051,1,8,3:0:0:0:
9,272,35134,2,0,P|7:232|8:208,1,62.5,2|0,0:3|0:0,0:0:0:0:
9,48,35301,1,8,3:0:0:0:
163,233,35467,2,0,B|232:228|213:260|285:255,1,125,8|2,1:2|0:0,0:0:0:0:
346,208,35717,1,0,0:0:0:0:
346,208,35801,5,10,3:0:0:0:
415,240,35884,2,0,L|488:234,1,62.5,8|2,1:2|0:0,0:0:0:0:
450,322,36051,1,0,3:0:0:0:
450,322,36134,2,0,L|377:328,1,62.5,2|0,0:3|1:0,0:0:0:0:
474,113,36301,1,0,3:0:0:0:
474,113,36384,1,0,3:0:0:0:
501,125,36467,1,2,1:3:0:0:
454,130,36550,1,0,0:0:0:0:
409,114,36634,1,0,1:0:0:0:
365,95,36717,1,0,1:0:0:0:
318,99,36800,6,0,P|255:100|162:7,2,187.5,4|8|8,1:0|3:0|3:0,0:0:0:0:
464,21,37467,2,0,L|371:11,1,62.5,8|0,1:2|0:0,0:0:0:0:
120,224,37634,1,0,0:0:0:0:
150,233,37717,1,0,0:0:0:0:
120,241,37800,2,0,P|123:179|122:94,1,125,8|0,3:0|0:0,0:0:0:0:
63,1,38050,1,8,3:0:0:0:
63,1,38134,6,0,P|60:39|63:78,1,62.5,0|0,1:2|0:0,0:0:0:0:
0,116,38300,1,8,3:0:0:0:
233,226,38467,2,0,B|287:191|287:191|353:210,1,125,8|0,1:2|1:0,0:0:0:0:
386,277,38717,1,8,1:2:0:0:
469,212,38800,2,0,P|468:146|472:6,2,187.5,4|0|8,3:1|3:0|3:0,0:0:0:0:
309,378,39467,6,0,P|311:344|308:300,1,62.5,8|0,1:2|0:0,0:0:0:0:
387,355,39634,1,0,0:0:0:0:
174,252,39800,6,0,L|41:268,1,125,4|8,3:2|1:2,0:0:0:0:
122,116,40050,2,0,L|255:100,1,125,8|0,3:0|0:0,0:0:0:0:
190,144,40300,1,0,3:0:0:0:
298,37,40467,6,0,L|384:46,1,75,8|0,1:2|3:0,0:0:0:0:
484,231,40800,6,0,P|484:193|487:142,1,75.0000028610231,4|0,1:0|0:0,0:0:0:0:
430,286,40967,1,0,0:0:0:0:
360,254,41050,1,8,3:0:0:0:
262,335,41134,2,0,P|184:331|95:335,1,150.000005722046,8|2,1:2|0:3,0:0:0:0:
41,41,41467,5,8,3:0:0:0:
87,102,41550,2,0,B|179:96|142:139|238:134,1,150.000005722046,8|0,1:2|0:0,0:0:0:0:
286,74,41800,2,0,L|278:-3,1,75.0000028610231,8|0,3:0|0:0,0:0:0:0:
342,133,41967,2,0,L|334:210,1,75.0000028610231,2|8,0:3|3:0,0:0:0:0:
431,68,42134,6,0,P|471:67|507:70,1,75.0000028610231,8|8,1:2|3:0,0:0:0:0:
247,228,42300,1,2,0:3:0:0:
247,228,42384,1,0,0:0:0:0:
188,274,42467,1,8,3:0:0:0:
119,239,42550,2,0,P|121:160|120:73,1,150.000005722046,8|0,1:2|0:0,0:0:0:0:
1,175,42800,6,0,P|-1:254|0:341,1,150.000005722046,12|0,3:1|3:0,0:0:0:0:
121,334,43050,1,8,3:0:0:0:
121,334,43134,2,0,L|210:345,1,75.0000028610231,8|8,1:2|3:0,0:0:0:0:
58,384,43300,1,2,0:3:0:0:
344,313,43467,5,8,3:0:0:0:
344,313,43550,2,0,P|351:239|308:160,1,150.000005722046,8|0,1:2|0:0,0:0:0:0:
331,136,43800,2,0,L|250:153,1,75.0000028610231,12|0,3:1|0:0,0:0:0:0:
439,215,43967,2,0,L|520:198,1,75.0000028610231,2|8,0:3|3:0,0:0:0:0:
421,29,44134,5,8,1:2:0:0:
457,36,44217,1,8,3:0:0:0:
421,48,44300,2,0,P|422:86|420:125,1,75.0000028610231,2|0,0:3|0:0,0:0:0:0:
241,74,44467,2,0,P|240:36|242:-3,1,75.0000028610231,4|0,3:1|0:0,0:0:0:0:
198,270,44634,5,8,1:2:0:0:
195,343,44717,1,8,1:0:0:0:
195,343,44800,6,0,L|288:341,1,75,12|0,3:0|3:0,0:0:0:0:
121,307,45134,1,12,1:0:0:0:
121,307,45217,2,0,L|41:320,1,75,8|0,3:0|3:0,0:0:0:0:
97,135,45551,5,8,1:0:0:0:
97,135,45634,1,8,3:0:0:0:
97,135,45717,1,0,0:0:0:0:
97,135,45801,2,0,L|130:132,1,25,2|0,1:3|3:0,0:0:0:0:
276,59,45967,5,12,1:0:0:0:
276,59,46051,1,8,3:0:0:0:
276,59,46134,1,0,0:0:0:0:
276,59,46217,2,0,L|251:80,1,25,0|0,3:0|3:0,0:0:0:0:
178,229,46384,5,8,1:0:0:0:
178,229,46467,1,14,3:0:0:0:
178,229,46551,1,0,0:0:0:0:
178,229,46634,2,0,L|185:196,1,25,0|0,1:0|3:0,0:0:0:0:
154,36,46801,5,12,1:0:0:0:
154,36,46884,1,8,3:0:0:0:
154,36,46967,1,0,0:0:0:0:
154,36,47051,2,0,L|167:66,1,25,0|0,3:0|3:0,0:0:0:0:
288,173,47217,5,8,1:0:0:0:
288,173,47301,1,10,3:0:0:0:
288,173,47384,1,0,0:0:0:0:
288,173,47467,2,0,L|259:156,1,25,0|0,1:0|3:0,0:0:0:0:
110,177,47634,5,12,1:0:0:0:
110,177,47717,1,8,3:0:0:0:
110,177,47801,1,0,0:0:0:0:
110,177,47884,2,0,L|138:160,1,25,0|0,3:0|3:0,0:0:0:0:
240,32,48051,5,8,1:0:0:0:
240,32,48134,1,14,3:0:0:0:
240,32,48217,1,0,0:0:0:0:
240,32,48301,2,0,L|226:62,1,25,0|0,1:0|3:0,0:0:0:0:
223,228,48467,5,12,1:0:0:0:
223,228,48550,1,8,3:0:0:0:
223,228,48634,1,0,0:0:0:0:
223,228,48717,2,0,L|216:195,1,25,0|0,3:0|1:0,0:0:0:0:
119,63,48884,5,8,1:0:0:0:
119,63,48967,1,12,3:0:0:0:
119,63,49050,1,0,0:0:0:0:
119,63,49134,2,0,L|144:85,1,25,2|0,1:3|3:0,0:0:0:0:
299,130,49300,5,12,1:0:0:0:
299,130,49384,1,8,3:0:0:0:
299,130,49467,1,0,0:0:0:0:
299,130,49550,2,0,L|266:127,1,25,0|0,3:0|3:0,0:0:0:0:
137,199,49717,5,8,1:0:0:0:
137,199,49800,1,14,3:0:0:0:
137,199,49884,1,0,0:0:0:0:
137,199,49967,2,0,L|156:171,1,25,0|0,1:0|3:0,0:0:0:0:
194,13,50134,5,12,1:0:0:0:
194,13,50217,1,8,3:0:0:0:
194,13,50300,1,0,0:0:0:0:
194,13,50384,2,0,L|195:46,1,25,0|0,3:0|3:0,0:0:0:0:
262,197,50550,5,8,1:0:0:0:
262,197,50634,1,8,3:0:0:0:
262,197,50717,1,0,0:0:0:0:
262,197,50800,2,0,L|242:170,1,25,2|0,1:3|3:0,0:0:0:0:
98,91,50967,5,12,1:0:0:0:
98,91,51050,1,8,3:0:0:0:
98,91,51134,1,0,0:0:0:0:
98,91,51217,2,0,L|130:101,1,25,0|0,3:0|3:0,0:0:0:0:
301,24,51384,1,8,1:0:0:0:
322,51,51467,6,0,B|395:43|371:72|445:66,1,125,4|0,1:0|0:0,0:0:0:0:
501,118,51717,1,0,3:0:0:0:
501,118,51800,2,0,L|493:189,1,62.5,0|0,3:0|0:0,0:0:0:0:
490,1,51967,1,12,1:2:0:0:
443,275,52133,5,0,3:0:0:0:
397,263,52217,1,8,1:2:0:0:
351,273,52300,1,0,3:0:0:0:
320,308,52383,1,0,0:0:0:0:
320,308,52467,6,0,B|267:341|267:341|206:325,1,125,4|0,1:0|3:0,0:0:0:0:
169,255,52717,1,0,3:0:0:0:
169,255,52800,2,0,L|94:268,1,62.5,0|0,3:0|0:0,0:0:0:0:
43,74,52967,1,8,3:0:0:0:
43,74,53050,1,12,1:2:0:0:
115,46,53133,5,4,1:0:0:0:
115,46,53217,2,0,L|242:61,1,125,12|0,1:2|0:0,0:0:0:0:
400,27,53467,5,4,3:0:0:0:
407,42,54466,5,0,0:0:0:0:
407,42,54549,2,0,P|405:96|406:172,1,100,12|0,1:2|0:0,0:0:0:0:
459,250,54799,2,0,P|460:214|459:192,1,50,8|0,3:0|0:0,0:0:0:0:
380,334,54966,6,0,P|333:299|231:320,4,150,12|12|12|12|8,3:2|3:2|3:2|3:2|3:0,0:0:0:0:
27,114,56958,6,0,B|98:143|98:143|166:105,1,150.000005722046,14|10,1:2|1:2,0:0:0:0:
143,27,57208,1,0,1:0:0:0:
143,27,57291,2,0,L|252:46,1,75.0000028610231,10|0,1:2|0:0,0:0:0:0:
391,150,57458,1,10,3:2:0:0:
322,122,57541,1,8,1:2:0:0:
275,182,57624,1,2,0:0:0:0:
275,182,57708,2,0,P|278:262|277:350,1,150.000005722046,8|0,1:2|0:0,0:0:0:0:
480,381,57958,6,0,P|458:314|389:281,1,150.000005722046,12|0,1:2|1:0,0:0:0:0:
244,264,58208,1,0,1:0:0:0:
244,264,58291,5,8,1:2:0:0:
171,248,58374,1,8,1:2:0:0:
112,200,58458,1,8,1:2:0:0:
91,128,58541,1,8,1:2:0:0:
27,69,58624,5,8,1:2:0:0:
17,77,58707,1,0,3:0:0:0:
20,88,58791,1,0,3:0:0:0:
31,83,58874,1,0,3:0:0:0:
104,18,58957,6,0,B|192:6|158:44|256:39,1,150.000005722046,12|0,1:2|3:0,0:0:0:0:
311,91,59207,1,8,3:0:0:0:
311,91,59291,2,0,L|396:74,1,75.0000028610231,0|0,1:2|0:0,0:0:0:0:
272,162,59457,1,8,3:0:0:0:
451,318,59624,6,0,P|448:279|450:239,1,75.0000028610231,8|0,1:2|0:0,0:0:0:0:
389,380,59791,1,0,1:0:0:0:
334,332,59874,1,8,1:2:0:0:
270,367,59958,6,0,P|193:356|141:248,1,187.5,12|0,3:2|0:0,0:0:0:0:
158,252,60291,2,0,L|168:176,1,62.5,8|0,3:0|0:0,0:0:0:0:
115,44,60457,5,8,1:2:0:0:
0,81,60624,1,0,3:0:0:0:
262,171,60791,1,8,1:2:0:0:
286,152,60874,1,8,1:2:0:0:
312,75,60957,6,0,P|309:155|311:278,1,187.5,12|0,1:2|0:0,0:0:0:0:
333,284,61290,1,8,3:0:0:0:
297,384,61457,1,8,1:2:0:0:
441,246,61623,1,8,1:2:0:0:
441,246,61707,1,8,1:2:0:0:
422,319,61791,6,0,L|419:243,1,62.5,12|0,3:2|0:0,0:0:0:0:
507,110,61957,2,0,L|327:-21,1,187.5,8|0,1:2|0:0,0:0:0:0:
404,71,62290,1,8,3:0:0:0:
111,88,62458,6,0,L|100:16,1,62.5,8|0,1:2|0:0,0:0:0:0:
131,92,62624,6,0,L|149:223,1,125,12|0,1:2|0:0,0:0:0:0:
37,312,62874,6,0,L|141:230,1,125,8|0,1:2|0:0,0:0:0:0:
109,299,63124,1,8,3:0:0:0:
224,242,63290,6,0,L|284:271,1,62.5,8|0,1:2|3:0,0:0:0:0:
404,310,63457,1,8,3:0:0:0:
374,322,63540,1,8,3:0:0:0:
404,328,63624,6,0,P|410:258|403:131,1,187.5,12|0,3:2|0:0,0:0:0:0:
415,111,63957,2,0,L|338:119,1,62.5,8|0,3:0|0:0,0:0:0:0:
200,25,64124,5,8,1:2:0:0:
200,25,64207,1,8,1:2:0:0:
140,68,64290,2,0,P|138:103|141:139,1,62.5,8|0,3:0|0:0,0:0:0:0:
269,157,64457,2,0,P|271:122|268:86,1,62.5,8|0,1:2|0:0,0:0:0:0:
197,198,64624,6,0,P|195:233|198:269,1,62.5,8|0,1:2|0:0,0:0:0:0:
237,382,64790,1,8,1:2:0:0:
258,312,64874,5,8,1:2:0:0:
258,312,65624,6,0,L|373:322,2,100,2|0|0,0:3|0:0|0:0,0:0:0:0:
258,312,66624,1,2,0:0:0:0:
137,339,66790,1,2,0:0:0:0:
137,339,66957,6,0,L|36:306,3,100,2|2|2|2,0:0|0:0|0:0|0:0,0:0:0:0:
23,73,68290,5,8,3:0:0:0:
94,53,68374,2,0,P|169:77|197:138,1,150.000005722046,12|8,1:2|3:0,0:0:0:0:
157,216,68624,2,0,L|50:242,1,75.0000028610231,8|0,1:2|0:0,0:0:0:0:
284,319,68790,1,8,3:0:0:0:
284,319,68874,6,0,P|282:241|289:157,1,150.000005722046,8|8,1:2|3:0,0:0:0:0:
379,0,69124,2,0,P|381:78|374:162,1,150.000005722046,8|0,1:2|3:0,0:0:0:0:
428,209,69374,1,0,0:0:0:0:
428,209,69457,5,8,1:2:0:0:
448,279,69540,1,8,1:2:0:0:
399,335,69624,5,8,1:2:0:0:
363,347,69707,1,8,1:2:0:0:
326,340,69790,1,0,3:0:0:0:
298,314,69873,1,0,3:0:0:0:
238,244,69957,5,8,3:0:0:0:
230,245,70040,1,8,3:0:0:0:
222,246,70123,1,0,3:0:0:0:
214,247,70207,1,0,3:0:0:0:
81,265,70290,6,0,P|164:262|257:268,1,150.000005722046,12|8,1:2|1:2,0:0:0:0:
161,166,70540,1,8,1:2:0:0:
161,166,70623,5,8,1:2:0:0:
211,141,70707,1,8,1:2:0:0:
260,115,70790,1,8,1:2:0:0:
310,89,70873,1,8,1:2:0:0:
333,0,70957,6,0,L|356:176,1,150.000005722046,4|0,1:3|3:0,0:0:0:0:
293,240,71207,1,8,3:0:0:0:
293,240,71290,2,0,L|331:169,1,75.0000028610231,8|0,1:2|0:0,0:0:0:0:
483,156,71457,1,0,1:0:0:0:
512,221,71540,6,0,P|439:240|405:314,1,150.000005722046,8|0,1:2|0:0,0:0:0:0:
329,384,71790,2,0,P|331:340|329:302,1,75.0000028610231,0|0,3:0|0:0,0:0:0:0:
211,141,71957,2,0,B|127:134|150:173|66:166,1,150.000005722046,8|2,1:2|0:3,0:0:0:0:
32,148,72207,1,0,1:0:0:0:
67,136,72290,6,0,L|59:51,1,75.0000028610231,4|0,1:0|0:0,0:0:0:0:
18,297,72457,1,0,3:0:0:0:
86,273,72540,1,8,3:0:0:0:
136,328,72623,2,0,L|219:339,1,75.0000028610231,8|0,1:2|0:0,0:0:0:0:
405,301,72790,1,0,1:0:0:0:
405,301,72873,6,0,P|390:219|315:186,1,150.000005722046,8|0,1:2|0:0,0:0:0:0:
276,233,73123,2,0,L|196:245,1,75.0000028610231,8|0,3:0|0:0,0:0:0:0:
319,164,73290,2,0,P|321:86|316:11,1,150.000005722046,8|2,1:2|0:3,0:0:0:0:
328,162,73623,6,0,P|330:84|325:9,1,150.000005722046,4|0,3:2|3:0,0:0:0:0:
244,41,73873,1,8,3:0:0:0:
244,41,73957,2,0,L|168:30,1,75.0000028610231,8|0,1:2|0:0,0:0:0:0:
26,72,74123,1,0,1:0:0:0:
97,85,74207,6,0,P|160:146|155:207,1,150.000005722046,8|0,1:2|0:0,0:0:0:0:
91,320,74457,2,0,P|88:278|94:237,1,75.0000028610231,8|0,3:0|0:0,0:0:0:0:
349,328,74623,1,10,1:2:0:0:
144,381,74790,1,2,0:0:0:0:
469,160,74957,6,0,B|389:150|419:201|327:190,1,150.000005722046,6|0,1:2|3:0,0:0:0:0:
272,131,75207,1,8,3:0:0:0:
272,131,75290,2,0,L|284:53,1,75.0000028610231,8|0,1:2|0:0,0:0:0:0:
194,109,75457,1,0,1:0:0:0:
205,180,75540,6,0,L|227:330,1,150.000005722046,8|0,1:2|0:0,0:0:0:0:
168,375,75790,2,0,L|281:283,1,75.0000028610231,2|0,3:2|0:0,0:0:0:0:
407,170,75957,5,8,1:2:0:0:
366,133,76040,1,8,1:2:0:0:
325,95,76123,1,0,3:0:0:0:
283,56,76207,1,0,3:0:0:0:
283,56,76290,6,0,P|201:56|160:119,1,150.000005722046,4|0,1:3|3:0,0:0:0:0:
106,159,76540,1,8,3:0:0:0:
106,159,76623,2,0,L|30:170,1,75.0000028610231,8|0,1:2|0:0,0:0:0:0:
222,275,76790,1,0,1:0:0:0:
186,339,76873,6,0,P|190:258|188:164,1,150.000005722046,8|0,1:2|0:0,0:0:0:0:
173,348,77123,2,0,P|176:304|176:264,1,75.0000028610231,8|0,3:0|0:0,0:0:0:0:
379,92,77290,5,8,1:2:0:0:
433,147,77373,1,0,0:0:0:0:
408,224,77457,1,2,0:3:0:0:
416,221,77540,1,0,0:0:0:0:
476,266,77623,6,0,L|468:349,1,75.0000028610231,4|0,1:0|0:0,0:0:0:0:
247,117,77873,6,0,B|327:133|308:71|381:67,1,150.000005722046,4|0,1:0|0:0,0:0:0:0:
459,69,78290,5,8,1:2:0:0:
384,45,78373,1,8,1:2:0:0:
4,200,78623,5,8,1:2:0:0:
22,195,78707,1,8,3:0:0:0:
81,237,78790,1,8,3:0:0:0:
99,242,78873,1,8,3:0:0:0:
164,209,78957,6,0,L|278:191,1,100,4|0,3:1|0:0,0:0:0:0:
332,240,79207,1,0,3:0:0:0:
332,240,79290,6,0,L|341:187,1,50,8|0,1:2|0:0,0:0:0:0:
468,376,79540,1,8,1:2:0:0:
410,332,79623,6,0,P|413:277|412:230,1,100,4|0,3:1|0:0,0:0:0:0:
504,55,79873,1,8,1:2:0:0:
504,55,79957,5,8,1:2:0:0:
465,86,80040,1,8,1:2:0:0:
415,93,80123,1,8,1:2:0:0:
366,77,80207,1,0,3:0:0:0:
333,38,80290,5,0,3:0:0:0:
310,26,80373,1,0,3:0:0:0:
285,21,80457,1,0,3:0:0:0:
260,24,80540,1,0,3:0:0:0:
260,24,80623,6,0,L|165:46,1,62.5,4|0,1:0|3:0,0:0:0:0:
346,179,80790,2,0,L|324:274,1,62.5,8|8,1:2|3:0,0:0:0:0:
185,350,80957,5,4,1:0:0:0:
112,363,81040,1,0,3:0:0:0:
68,302,81123,1,8,3:0:0:0:
68,302,81207,1,0,1:0:0:0:
99,202,81290,5,8,1:2:0:0:
104,171,81373,1,8,1:2:0:0:
109,139,81457,2,0,L|94:61,1,62.5,8|8,1:2|1:2,0:0:0:0:
194,100,81623,2,0,P|200:63|198:30,1,62.5,8|0,1:2|3:0,0:0:0:0:
5,17,81790,2,0,P|-1:54|1:87,1,62.5,8|0,1:2|3:0,0:0:0:0:
218,199,81957,5,8,3:0:0:0:
236,195,82040,1,8,3:0:0:0:
224,212,82123,1,8,3:0:0:0:
242,208,82207,1,8,3:0:0:0:
299,251,82290,6,0,L|371:266,1,62.5,4|0,3:1|0:0,0:0:0:0:
473,384,82456,1,0,3:0:0:0:
465,353,82540,1,0,3:0:0:0:
457,322,82623,1,0,3:0:0:0:
449,291,82706,1,8,3:0:0:0:
449,291,82790,6,0,L|433:228,1,62.5,8|8,1:2|3:0,0:0:0:0:
350,110,82956,1,0,1:0:0:0:
356,76,83040,1,0,3:0:0:0:
359,110,83123,1,0,3:0:0:0:
365,76,83206,1,0,3:0:0:0:
423,36,83290,6,0,L|474:-1,1,62.5,8|0,3:0|0:0,0:0:0:0:
199,38,83456,1,0,3:0:0:0:
209,67,83540,1,0,3:0:0:0:
219,96,83623,1,0,3:0:0:0:
230,125,83706,1,8,3:0:0:0:
230,125,83790,6,0,L|259:189,1,62.5,8|0,1:2|0:0,0:0:0:0:
201,312,83956,1,0,1:0:0:0:
174,328,84040,1,0,1:0:0:0:
143,324,84123,1,0,1:0:0:0:
113,336,84206,1,0,1:0:0:0:
113,336,84290,6,0,P|111:291|116:236,1,75.0000028610231,4|0,3:1|0:0,0:0:0:0:
53,132,84456,2,0,P|55:177|50:232,1,75.0000028610231,8|0,3:0|0:0,0:0:0:0:
319,256,84623,1,2,0:0:0:0:
275,271,84706,1,2,0:0:0:0:
318,285,84790,5,8,1:2:0:0:
318,285,84873,2,0,P|315:201|323:121,1,150.000005722046,8|0,3:0|3:0,0:0:0:0:
498,77,85123,1,0,0:0:0:0:
429,44,85206,5,8,1:2:0:0:
445,25,85290,2,0,L|361:44,1,75.0000028610231,4|0,3:1|0:0,0:0:0:0:
144,0,85456,2,0,L|208:53,1,75.0000028610231,0|0,3:0|0:0,0:0:0:0:
279,240,85623,2,0,L|283:162,1,75.0000028610231,8|0,1:2|0:0,0:0:0:0:
281,12,85790,5,8,1:2:0:0:
281,12,85873,1,0,3:0:0:0:
308,85,85956,5,0,3:0:0:0:
312,140,86040,1,0,3:0:0:0:
289,191,86123,1,0,3:0:0:0:
267,243,86206,1,0,3:0:0:0:
275,298,86290,1,4,3:1:0:0:
291,244,86373,6,0,P|295:199|292:159,1,75.0000028610231,8|0,1:2|1:0,0:0:0:0:
95,126,86540,2,0,P|91:171|94:211,1,75.0000028610231,8|0,1:2|1:0,0:0:0:0:
214,39,86706,5,8,1:2:0:0:
281,12,86790,2,0,B|372:-7|329:60|430:32,1,150.000005722046,4|8,3:1|1:2,0:0:0:0:
488,136,87040,1,0,3:0:0:0:
488,136,87123,1,0,3:0:0:0:
454,206,87206,1,0,3:0:0:0:
494,305,87290,6,0,L|418:333,1,75.0000028610231,4|0,3:1|0:0,0:0:0:0:
291,244,87456,1,0,3:0:0:0:
291,244,87540,1,0,3:0:0:0:
291,244,87623,6,0,L|350:296,2,50.0000019073487,8|0|0,3:0|0:0|0:0,0:0:0:0:
328,369,87790,6,0,L|341:289,1,75.0000028610231,12|0,1:2|0:0,0:0:0:0:
97,308,87956,5,0,3:0:0:0:
95,298,88012,5,0,3:0:0:0:
93,287,88067,5,0,3:0:0:0:
91,277,88123,5,0,3:0:0:0:
90,266,88178,5,0,3:0:0:0:
89,255,88234,5,0,3:0:0:0:
87,241,88290,6,0,L|256:101,1,200,12|0,1:2|0:0,0:0:0:0:
428,183,88540,2,0,L|222:106,1,200,12|0,1:2|0:0,0:0:0:0:
224,14,88790,2,0,L|255:205,1,100,12|0,1:2|0:0,0:0:0:0:
488,284,88956,6,0,B|319:207|369:392|141:318,1,300,12|0,1:2|0:0,0:0:0:0:
34,254,89291,6,0,P|58:128|69:26,1,200,12|0,3:2|0:0,0:0:0:0:
44,254,89540,2,0,P|68:128|79:26,1,200,12|0,3:2|0:0,0:0:0:0:
84,321,89790,6,0,L|96:374,1,50,12|0,3:2|0:0,0:0:0:0:
