osu file format v14

[General]
AudioFilename: audio.mp3
AudioLeadIn: 0
PreviewTime: 56467
Countdown: 0
SampleSet: Soft
StackLeniency: 0.2
Mode: 0
LetterboxInBreaks: 0
WidescreenStoryboard: 1

[Editor]
DistanceSpacing: 0.1
BeatDivisor: 8
GridSize: 4
TimelineZoom: 2

[Metadata]
Title:asura
TitleUnicode:asura
Artist:Co shu Nie
ArtistUnicode:Còˆ shu Nie
Creator:DeviousPanda
Version:Jounzan's Ultra
Source:
Tags:Japanese Rock Aurora Gillstar iljaaz Melwoine AIR Agatsu Jounzan EvilElvis Natteke desu semaphore
BeatmapID:2164095
BeatmapSetID:986422

[Difficulty]
HPDrainRate:4
CircleSize:3.8
OverallDifficulty:8.2
ApproachRate:9.6
SliderMultiplier:2
SliderTickRate:1

[Events]
//Background and Video events
0,0,"randombg.jpg",0,0
//Break Periods
//Storyboard Layer 0 (Background)
//Storyboard Layer 1 (Fail)
//Storyboard Layer 2 (Pass)
//Storyboard Layer 3 (Foreground)
//Storyboard Layer 4 (Overlay)
//Storyboard Sound Samples

[TimingPoints]
469,333.333333333333,4,2,4,50,1,0
3135,333.333333333333,3,2,4,50,1,0
3968,-50,3,2,4,50,0,0
4218,-133.333333333333,3,2,4,50,0,0
4468,-50,3,2,4,50,0,0
4803,-25,3,2,4,50,0,0
5134,-50,3,2,4,50,0,0
6136,-50,3,2,4,50,0,0
6468,-333.333333333333,3,2,4,50,0,0
7134,-50,3,2,4,50,0,0
10134,-100,3,2,4,50,0,0
14135,333.333333333333,4,2,4,50,1,0
14135,-40,4,2,4,50,0,1
16133,-133.333333333333,4,2,4,50,0,1
17799,-66.6666666666667,4,2,4,50,0,1
18966,-50,4,2,4,50,0,1
19466,-40,4,2,4,50,0,1
26633,-133.333333333333,4,2,4,50,0,1
28799,-66.6666666666667,4,2,4,50,0,1
30134,333.333333333333,3,2,4,50,1,0
30134,-66.6666666666667,3,2,4,50,0,0
32133,-100,3,2,4,50,0,0
32801,333.333333333333,3,2,4,50,1,0
32801,-50,4,2,4,50,0,0
39132,-33.3333333333333,4,2,4,50,0,0
39465,-50,4,2,4,50,0,0
40798,-66.6666666666667,4,2,4,50,0,0
42800,-50,4,2,4,50,0,1
44800,333.333333333333,5,2,4,50,1,0
44800,-200,5,2,4,50,0,0
45550,-200,5,2,4,50,0,1
51466,333.333333333333,3,2,4,50,1,0
52966,-100,3,2,4,50,0,1
54466,-33.3333333333333,3,2,4,50,0,0
54797,-166.666666666667,3,2,4,50,0,0
54964,-66.6666666666667,3,2,4,50,0,0
55214,-333.333333333333,3,2,4,50,0,0
55464,-33.3333333333333,3,2,4,50,0,0
56958,333.333333333333,3,2,4,50,1,0
56958,-50,3,2,4,50,0,0
59958,-100,3,2,4,50,0,0
61791,333.333333333333,3,2,4,50,1,0
62624,333.333333333333,3,2,4,50,1,0
64624,-100,3,2,4,30,0,0
65624,333.333333333333,4,2,4,50,1,0
65624,-333.333333333333,4,2,4,50,0,0
68290,-33.3333333333333,4,2,4,50,0,0
70957,-33.3333333333333,4,2,4,50,0,1
77457,-133.333333333333,4,2,4,50,0,1
77623,-133.333333333333,4,2,4,50,0,0
78957,-133.333333333333,4,2,4,50,0,1
79290,-33.3333333333333,4,2,4,50,0,1
79623,-333.333333333333,4,2,4,50,0,1
80290,-133.333333333333,4,2,4,50,0,1
80623,-33.3333333333333,4,2,4,50,0,1
81623,-133.333333333333,4,2,4,50,0,1
81790,-33.3333333333333,4,2,4,50,0,1
82290,-66.6666666666667,4,2,4,50,0,1
82456,-133.333333333333,4,2,4,50,0,1
82790,-66.6666666666667,4,2,4,50,0,1
82956,-133.333333333333,4,2,4,50,0,1
83290,-66.6666666666667,4,2,4,50,0,1
84956,-133.333333333333,4,2,4,50,0,1
85290,-66.6666666666667,4,2,4,50,0,1
88290,-33.3333333333333,4,2,4,50,0,0
88790,-133.333333333333,4,2,4,50,0,0
88956,-333.333333333333,4,2,4,50,0,0
89290,-33.3333333333333,4,2,4,50,0,0

[Colours]
Combo1 : 206,0,103
Combo2 : 255,79,79
Combo3 : 255,128,128
Combo4 : 255,100,177

[HitObjects]
256,192,470,12,0,2803,0:0:0:0:
14,124,3136,5,4,1:0:0:0:
30,298,3219,2,0,P|30:252|22:178,1,100,0|0,3:0|3:0,0:0:0:0:
96,178,3469,1,4,1:0:0:0:
111,160,3552,1,0,0:0:0:0:
111,184,3635,1,0,0:0:0:0:
111,160,3718,1,0,3:0:0:0:
126,176,3802,1,0,3:0:0:0:
111,160,3885,1,0,3:1:0:0:
106,118,3968,6,0,B|233:67|208:224|372:189,1,250,8|0,3:1|0:0,0:0:0:0:
341,171,4218,6,0,P|313:141|301:76,1,93.7500035762788,8|0,3:1|0:0,0:0:0:0:
366,182,4468,6,0,P|370:127|489:43,1,200,8|0,3:1|0:0,0:0:0:0:
473,74,4718,2,0,P|472:53|465:6,1,50,8|0,3:1|0:0,0:0:0:0:
466,149,4802,1,0,1:1:0:0:
488,221,4885,1,0,1:1:0:0:
488,233,4968,1,0,1:1:0:0:
491,244,5052,1,0,1:1:0:0:
477,360,5135,6,0,P|475:318|466:223,1,100,4|0,1:3|1:1,0:0:0:0:
395,233,5302,1,0,1:1:0:0:
319,252,5385,1,0,1:1:0:0:
302,254,5468,1,0,1:1:0:0:
284,250,5552,1,0,1:1:0:0:
211,225,5635,1,0,1:1:0:0:
133,239,5718,5,0,1:1:0:0:
93,235,5802,1,0,1:1:0:0:
70,202,5885,1,0,1:3:0:0:
87,163,5968,1,0,1:3:0:0:
132,154,6052,1,0,1:3:0:0:
230,196,6135,6,0,P|284:195|358:200,1,100,4|0,1:3|0:0,0:0:0:0:
505,180,6301,2,0,P|451:182|379:181,1,100,2|0,1:2|0:0,0:0:0:0:
140,196,6468,6,0,L|123:196,1,14.9999995422363,2|0,1:2|0:0,0:0:0:0:
39,196,6634,2,0,L|54:196,1,14.9999995422363,2|0,3:2|3:3,0:0:0:0:
155,196,6801,6,0,L|138:196,1,14.9999995422363,0|2,0:0|3:2,0:0:0:0:
24,196,6968,2,0,L|41:196,1,14.9999995422363,8|0,3:2|0:0,0:0:0:0:
226,240,7134,6,0,L|245:354,1,100,8|0,3:2|0:0,0:0:0:0:
152,291,7301,1,0,3:3:0:0:
120,306,7384,1,8,3:2:0:0:
26,355,7468,2,0,L|39:242,1,100,0|0,0:0|3:3,0:0:0:0:
37,255,7634,2,0,L|48:354,1,100,8|0,3:2|0:0,0:0:0:0:
149,76,7801,5,4,1:3:0:0:
91,30,7884,1,8,1:3:0:0:
218,26,7968,2,0,B|239:76|239:76|222:153,1,100,8|8,1:2|3:0,0:0:0:0:
358,167,8134,6,0,B|145:160,1,200,8|0,1:2|0:0,0:0:0:0:
71,125,8384,1,8,1:2:0:0:
9,170,8468,2,0,B|-8:129|-8:129|5:73,1,100,0|0,3:0|0:0,0:0:0:0:
144,37,8634,1,8,1:2:0:0:
240,74,8718,1,0,0:0:0:0:
330,32,8801,2,0,L|456:29,1,100,8|0,1:2|3:0,0:0:0:0:
494,68,8968,1,8,3:2:0:0:
502,65,9051,1,2,3:0:0:0:
432,108,9134,6,0,P|338:126|291:326,1,300,4|0,3:0|0:0,0:0:0:0:
482,348,9468,2,0,P|487:308|477:235,1,100,8|0,1:2|0:0,0:0:0:0:
379,329,9634,1,0,1:2:0:0:
364,332,9718,1,0,0:0:0:0:
368,344,9801,1,0,3:2:0:0:
382,341,9884,1,0,0:0:0:0:
359,282,9968,1,8,3:2:0:0:
377,208,10051,1,8,1:2:0:0:
194,265,10134,6,0,B|102:226|99:338|-5:313,1,200,4|8,1:3|1:3,0:0:0:0:
164,337,10634,1,8,1:2:0:0:
64,210,10801,2,0,P|42:185|34:167,1,50,8|0,1:2|0:0,0:0:0:0:
24,54,10968,5,12,1:3:0:0:
22,58,11051,1,0,0:0:0:0:
24,62,11134,1,0,1:3:0:0:
28,64,11218,1,0,1:3:0:0:
32,64,11301,1,8,1:3:0:0:
36,62,11384,1,0,0:0:0:0:
39,58,11468,5,8,1:2:0:0:
15,138,11551,1,0,0:0:0:0:
53,206,11634,1,8,1:2:0:0:
131,211,11718,1,0,0:0:0:0:
337,61,11801,6,0,P|247:92|201:198,1,200,12|8,1:3|1:3,0:0:0:0:
251,331,12301,2,0,P|225:280|179:253,1,100,8|8,1:2|1:2,0:0:0:0:
131,211,12633,1,8,1:3:0:0:
387,207,12801,6,0,L|495:205,1,100,12|8,1:3|1:2,0:0:0:0:
306,186,13134,1,12,1:3:0:0:
221,207,13301,1,8,1:2:0:0:
221,207,13384,1,0,0:0:0:0:
221,207,13467,1,0,0:0:0:0:
132,195,13634,6,0,L|87:199,1,25,8|0,1:2|0:0,0:0:0:0:
87,119,13801,5,2,2:2:0:0:
145,44,13885,5,2,2:2:0:0:
82,84,13968,5,2,2:2:0:0:
178,56,14051,5,2,2:2:0:0:
264,27,14135,6,0,L|-9:18,1,250,4|0,1:3|1:0,0:0:0:0:
152,135,14385,1,0,3:2:0:0:
43,235,14468,2,0,L|197:232,1,125,8|0,1:2|3:0,0:0:0:0:
282,359,14635,6,0,B|314:311|314:311|282:226,1,125,2|0,1:3|0:0,0:0:0:0:
171,102,14801,2,0,B|226:144|226:144|296:142,1,125,2|0,1:3|3:0,0:0:0:0:
476,121,14968,2,0,B|408:151|408:151|378:220,1,125,0|0,1:0|0:0,0:0:0:0:
382,272,15135,1,8,1:2:0:0:
443,323,15218,1,0,3:0:0:0:
496,262,15301,1,2,0:3:0:0:
453,269,15385,1,0,0:0:0:0:
439,302,15468,6,0,L|268:349,1,125,4|0,1:0|0:0,0:0:0:0:
282,120,15635,2,0,L|235:246,1,125,0|0,1:0|3:2,0:0:0:0:
67,119,15801,2,0,L|124:278,1,125,8|0,1:2|3:0,0:0:0:0:
190,60,15968,1,2,1:3:0:0:
132,12,16051,1,0,0:0:0:0:
220,21,16134,6,0,B|295:2|292:59|376:51,1,150.000005722046,2|8,0:3|1:2,0:0:0:0:
379,41,16634,2,0,P|378:70|378:80,1,37.5000014305115,2|0,1:3|0:0,0:0:0:0:
416,351,16801,6,0,P|418:284|414:266,1,75.0000028610231,4|0,1:2|1:0,0:0:0:0:
409,199,17050,1,0,3:2:0:0:
470,150,17134,2,0,P|492:149|512:153,1,37.5000014305115,8|0,1:2|3:0,0:0:0:0:
355,101,17300,1,2,1:3:0:0:
289,134,17384,1,0,0:0:0:0:
216,111,17467,2,0,P|180:111|163:115,1,37.5000014305115,2|0,1:3|3:0,0:0:0:0:
64,156,17634,2,0,P|100:156|117:160,1,37.5000014305115,0|0,1:0|3:0,0:0:0:0:
158,206,17801,6,0,P|110:189|11:207,1,150.000005722046,8|2,1:2|0:3,0:0:0:0:
86,284,18050,1,0,0:0:0:0:
89,76,18134,6,0,L|92:-6,1,75.0000028610231,4|8,1:2|1:2,0:0:0:0:
236,106,18300,2,0,L|232:21,1,75.0000028610231,0|0,1:0|3:2,0:0:0:0:
382,100,18467,2,0,L|390:21,1,75.0000028610231,8|0,1:2|3:0,0:0:0:0:
368,176,18634,1,2,1:3:0:0:
408,244,18717,1,8,1:2:0:0:
396,277,18800,2,0,L|408:360,1,75.0000028610231,2|0,0:3|3:0,0:0:0:0:
509,222,18967,6,0,P|489:188|435:147,1,100,8|0,1:2|3:0,0:0:0:0:
297,140,19134,2,0,P|257:169|230:211,1,100,12|0,1:2|3:0,0:0:0:0:
309,343,19300,2,0,P|374:356|417:347,1,100,2|0,0:3|0:0,0:0:0:0:
369,227,19467,6,0,B|245:157|258:309|87:253,1,250,4|0,1:3|1:0,0:0:0:0:
35,150,19717,1,0,3:2:0:0:
135,62,19800,2,0,B|162:115|162:115|143:199,1,125,8|0,1:2|3:0,0:0:0:0:
59,356,19967,2,0,B|32:303|32:303|51:219,1,125,2|0,1:3|0:0,0:0:0:0:
229,87,20134,6,0,L|376:122,1,125,2|0,1:3|3:0,0:0:0:0:
361,306,20300,2,0,L|214:341,1,125
409,188,20467,1,8,1:2:0:0:
480,172,20550,1,0,3:0:0:0:
507,211,20634,1,2,1:3:0:0:
484,224,20717,1,0,0:0:0:0:
467,223,20801,6,0,P|388:183|352:29,1,250,4|0,1:0|1:0,0:0:0:0:
244,173,21051,1,0,3:2:0:0:
115,48,21135,2,0,P|118:115|104:188,1,125,8|0,1:2|3:0,0:0:0:0:
9,271,21301,1,2,1:3:0:0:
150,307,21385,1,0,0:0:0:0:
48,361,21468,2,0,P|38:299|41:237,1,125,2|0,1:3|3:0,0:0:0:0:
193,216,21635,1,0,0:0:0:0:
270,199,21718,1,0,0:0:0:0:
336,248,21801,2,0,P|345:186|342:124,1,125,8|0,1:2|3:0,0:0:0:0:
498,13,21968,2,0,P|488:74|491:136,1,125,2|0,1:3|0:0,0:0:0:0:
259,314,22135,6,0,P|369:342|497:227,1,250,4|0,1:2|1:0,0:0:0:0:
420,186,22385,1,0,3:2:0:0:
510,257,22468,2,0,L|345:261,1,125,8|0,1:2|3:0,0:0:0:0:
270,199,22635,1,2,1:3:0:0:
201,236,22718,1,0,0:0:0:0:
121,166,22801,2,0,P|65:186|4:362,1,250,2|0,1:3|0:0,0:0:0:0:
100,314,23050,1,0,3:0:0:0:
195,354,23134,2,0,P|272:349|326:349,1,125,8|0,1:2|3:0,0:0:0:0:
386,307,23300,1,2,1:3:0:0:
459,335,23384,1,0,0:0:0:0:
363,216,23467,6,0,B|443:261|553:202|525:69|321:54|336:158|350:252|162:215,1,500,4|8,1:0|1:2,0:0:0:0:
121,166,23884,1,0,3:0:0:0:
65,220,23967,1,2,1:3:0:0:
121,270,24050,1,8,1:2:0:0:
215,142,24134,6,0,B|233:85|233:85|204:-1,1,125,2|0,0:3|3:0,0:0:0:0:
23,26,24300,2,0,B|5:83|5:83|34:169,1,125,8|0,1:2|3:0,0:0:0:0:
290,206,24467,5,12,1:2:0:0:
390,192,24550,1,0,3:0:0:0:
498,205,24634,1,2,0:3:0:0:
474,197,24717,1,0,0:0:0:0:
461,198,24801,6,0,P|367:215|242:341,1,250,4|0,1:3|1:0,0:0:0:0:
385,309,25051,1,0,3:2:0:0:
487,361,25135,2,0,P|412:342|336:349,1,125,8|0,1:2|3:0,0:0:0:0:
217,227,25301,1,2,1:3:0:0:
141,251,25385,1,0,0:0:0:0:
67,233,25468,2,0,P|142:214|218:221,1,125,2|0,1:3|3:0,0:0:0:0:
37,43,25635,2,0,P|22:125|-5:182,1,125,0|0,0:0|0:0,0:0:0:0:
223,133,25801,2,0,P|176:78|153:23,1,125,8|0,1:2|3:0,0:0:0:0:
104,136,25968,1,2,1:3:0:0:
120,139,26051,1,0,0:0:0:0:
123,324,26135,6,0,L|-28:351,1,125,4|0,1:0|0:0,0:0:0:0:
215,367,26301,1,0,1:0:0:0:
243,296,26385,1,0,3:2:0:0:
308,332,26468,2,0,L|448:356,1,125,8|0,1:2|3:0,0:0:0:0:
497,311,26635,6,0,P|504:298|510:268,1,37.5000014305115,2|0,1:3|0:0,0:0:0:0:
459,25,26801,2,0,P|478:93|496:182,1,150.000005722046,2|8,0:3|1:2,0:0:0:0:
500,195,27301,2,0,P|466:197|449:204,1,37.5000014305115,2|0,0:3|0:0,0:0:0:0:
251,238,27468,6,0,P|279:234|329:238,1,75.0000028610231,4|0,1:2|1:0,0:0:0:0:
183,264,27718,1,0,3:2:0:0:
200,342,27801,2,0,P|202:320|201:295,1,37.5000014305115,8|0,1:2|3:0,0:0:0:0:
142,192,27969,1,2,1:3:0:0:
175,127,28051,1,0,0:0:0:0:
154,65,28134,2,0,P|153:83|155:102,1,37.5000014305115,2|0,0:3|3:0,0:0:0:0:
64,216,28301,2,0,L|11:221,1,37.5000014305115,0|0,0:0|3:0,0:0:0:0:
246,229,28468,1,8,1:2:0:0:
319,194,28551,1,0,3:0:0:0:
393,221,28634,2,0,L|436:229,1,37.5000014305115,2|0,0:3|0:0,0:0:0:0:
492,178,28801,6,0,P|493:128|480:17,1,150.000005722046,4|0,1:0|1:0,0:0:0:0:
461,104,29051,1,0,3:2:0:0:
492,178,29134,1,8,1:2:0:0:
508,255,29218,1,0,3:0:0:0:
492,327,29301,1,2,1:3:0:0:
472,253,29384,1,8,1:2:0:0:
492,178,29468,1,2,0:3:0:0:
510,104,29551,1,0,3:0:0:0:
482,31,29634,1,8,1:2:0:0:
461,104,29718,1,0,3:0:0:0:
408,182,29801,6,0,L|360:171,1,37.5000014305115,12|0,1:2|0:0,0:0:0:0:
390,216,29884,2,0,L|355:184,1,37.5000014305115,0|0,3:0|0:0,0:0:0:0:
313,261,29968,6,0,L|286:219,1,37.5000014305115,2|0,0:3|0:0,0:0:0:0:
276,272,30051,2,0,L|273:224,1,37.5000014305115,12|0,1:2|0:0,0:0:0:0:
293,154,30134,5,12,1:3:0:0:
229,110,30634,1,0,0:0:0:0:
171,152,31134,1,0,0:0:0:0:
108,116,31634,1,0,0:0:0:0:
34,139,32134,2,0,P|32:187|36:254,1,100,4|2,1:0|0:3,0:0:0:0:
108,349,32468,5,8,1:2:0:0:
119,338,32551,5,8,1:2:0:0:
168,285,32634,5,8,1:2:0:0:
222,233,32718,5,8,1:2:0:0:
460,326,32801,6,0,B|434:298|434:298|261:310,1,200,4|8,1:3|1:2,0:0:0:0:
19,164,33051,2,0,B|45:135|45:135|218:147,1,200,4|8,1:3|1:2,0:0:0:0:
444,93,33301,2,0,B|429:66|429:66|345:77,1,100,4|0,1:3|0:0,0:0:0:0:
252,37,33467,5,4,1:2:0:0:
252,37,33634,1,0,0:0:0:0:
51,326,33801,6,0,B|78:298|78:298|251:310,1,200,4|8,1:3|1:2,0:0:0:0:
493,164,34051,2,0,B|466:135|466:135|293:147,1,200,4|8,1:3|1:2,0:0:0:0:
68,93,34301,2,0,B|83:66|83:66|167:77,1,100,4|0,1:3|0:0,0:0:0:0:
260,37,34467,5,4,1:2:0:0:
260,37,34634,1,8,3:0:0:0:
209,230,34801,6,0,B|142:261|142:261|133:313|133:313|-2:384,1,200,4|8,1:3|1:2,0:0:0:0:
221,316,35051,1,4,1:3:0:0:
296,341,35134,2,0,B|319:319|319:319|401:340,1,100,0|8,0:0|1:2,0:0:0:0:
441,286,35301,1,4,1:3:0:0:
492,342,35384,1,0,0:0:0:0:
446,239,35467,2,0,L|453:109,1,100,4|8,1:2|1:2,0:0:0:0:
457,60,35634,1,0,0:0:0:0:
283,238,35801,5,4,1:2:0:0:
270,169,35884,1,0,0:0:0:0:
258,99,35967,1,0,1:2:0:0:
248,29,36051,5,0,1:2:0:0:
237,57,36134,1,0,1:2:0:0:
229,86,36217,1,0,1:2:0:0:
183,163,36301,6,0,L|169:211,1,50,0|0,1:0|0:0,0:0:0:0:
203,220,36384,2,0,L|217:172,1,50,8|0,1:3|0:0,0:0:0:0:
168,289,36467,5,4,1:3:0:0:
152,343,36550,1,8,1:3:0:0:
181,328,36634,1,0,1:0:0:0:
133,314,36717,1,0,1:0:0:0:
37,343,36800,6,0,L|147:309,1,100,4|0,1:2|0:0,0:0:0:0:
390,247,36967,2,0,L|280:213,1,100,0|0,3:0|0:0,0:0:0:0:
71,96,37134,2,0,L|181:62,1,100,2|0,3:3|0:0,0:0:0:0:
241,46,37300,1,8,3:2:0:0:
311,21,37384,1,0,0:0:0:0:
478,103,37467,6,0,B|428:68|428:68|253:132,1,200,0|2,1:2|3:0,0:0:0:0:
270,106,37800,2,0,L|287:219,1,100,12|0,3:2|0:0,0:0:0:0:
255,361,37967,1,8,3:2:0:0:
297,296,38050,1,0,0:0:0:0:
190,279,38134,2,0,B|263:284|263:284|305:325|305:325|395:335,1,200,0|2,3:0|3:3,0:0:0:0:
437,275,38384,1,0,0:0:0:0:
377,203,38467,2,0,L|392:94,1,100,8|0,3:2|0:0,0:0:0:0:
336,38,38634,2,0,L|408:123,1,100,8|0,3:0|0:0,0:0:0:0:
491,108,38800,2,0,B|413:47|384:160|271:120,1,200,8|0,3:2|3:2,0:0:0:0:
149,214,39050,1,0,3:2:0:0:
146,296,39134,6,0,P|220:272|217:178,1,150.000005722046,8|0,3:0|0:0,0:0:0:0:
150,133,39300,2,0,P|76:157|79:251,1,150.000005722046,8|0,3:2|0:0,0:0:0:0:
125,303,39467,6,0,P|78:280|56:233,1,100,0|0,3:2|0:0,0:0:0:0:
170,124,39634,2,0,P|217:147|239:194,1,100,8|0,3:0|0:0,0:0:0:0:
363,282,39800,5,4,3:2:0:0:
290,314,39884,1,0,0:0:0:0:
222,287,39967,1,8,3:2:0:0:
290,314,40134,2,0,L|408:328,1,100,8|0,3:2|0:0,0:0:0:0:
463,355,40300,2,0,P|479:284|455:141,1,200,8|12,3:0|3:2,0:0:0:0:
49,29,40800,6,0,P|33:100|39:201,1,150.000005722046,4|0,1:2|3:2,0:0:0:0:
72,248,41050,1,8,3:0:0:0:
80,354,41134,2,0,P|68:312|62:275,1,75.0000028610231,8|0,1:2|0:0,0:0:0:0:
143,197,41300,1,8,3:0:0:0:
201,247,41384,1,0,0:0:0:0:
229,222,41467,2,0,B|293:200|307:249|400:238,1,150.000005722046,8|0,1:2|3:0,0:0:0:0:
438,190,41717,1,8,3:0:0:0:
480,211,41800,6,0,P|471:159|469:123,1,75.0000028610231,8|0,1:2|0:0,0:0:0:0:
427,29,41967,1,8,3:0:0:0:
377,77,42050,1,0,0:0:0:0:
291,26,42134,2,0,L|202:44,1,75.0000028610231,0|0,1:0|0:0,0:0:0:0:
134,132,42300,1,0,3:2:0:0:
65,175,42384,1,8,3:0:0:0:
29,148,42467,2,0,L|102:160,1,75.0000028610231,8|0,1:2|0:0,0:0:0:0:
214,160,42634,1,8,3:0:0:0:
299,199,42717,1,0,0:0:0:0:
386,163,42800,6,0,B|474:205|474:205|505:344,1,200,8|0,1:0|3:0,0:0:0:0:
326,286,43050,1,8,3:0:0:0:
266,336,43134,2,0,L|148:376,1,100,8|0,1:2|0:0,0:0:0:0:
133,235,43300,1,8,3:0:0:0:
68,276,43384,1,0,0:0:0:0:
18,215,43467,2,0,B|1:169|1:169|29:90,1,100,8|0,1:0|0:0,0:0:0:0:
220,142,43634,2,0,B|237:190|237:190|220:236,1,100,0|8,3:0|3:0,0:0:0:0:
117,112,43800,6,0,L|105:0,1,100,12|0,1:2|0:0,0:0:0:0:
257,73,43967,1,8,3:0:0:0:
315,21,44050,1,0,0:0:0:0:
395,112,44134,2,0,L|407:0,1,100,8|0,1:0|0:0,0:0:0:0:
384,5,44300,2,0,L|394:104,1,100,0|8,3:0|3:0,0:0:0:0:
468,223,44467,2,0,B|396:194|396:194|324:232,1,150,12|0,1:2|0:0,0:0:0:0:
312,262,44634,1,8,3:0:0:0:
373,345,44717,1,0,0:0:0:0:
215,276,44800,6,0,P|182:277|163:281,1,50,12|8,1:3|3:3,0:0:0:0:
98,247,45051,1,0,0:0:0:0:
12,276,45134,2,0,P|45:277|91:285,1,75,8|8,1:0|3:3,0:0:0:0:
228,95,45551,6,0,P|221:82|218:67,4,25,8|8|0|8|0,1:0|3:3|0:0|3:3|0:0,0:0:0:0:
337,259,45967,2,0,P|352:266|358:271,4,25,8|0|8|0|0,1:0|0:0|3:3|0:0|0:0,0:0:0:0:
152,192,46384,2,0,P|134:189|123:190,4,25,8|8|0|8|0,1:0|3:3|0:0|3:3|0:0,0:0:0:0:
350,138,46801,2,0,P|362:130|369:121,4,25,8|0|0|8|0,1:0|0:0|0:0|3:3|0:0,0:0:0:0:
209,291,47217,2,0,P|199:308|196:318,4,25,8|8|0|8|8,1:0|3:3|0:0|3:3|3:3,0:0:0:0:
228,95,47634,2,0,P|221:82|218:67,4,25,8|0|8|8|0,1:0|0:0|3:3|3:3|0:0,0:0:0:0:
299,54,48051,6,0,P|306:41|309:26,4,25,12|0|0|8|0,1:0|0:0|0:0|3:3|0:0,0:0:0:0:
126,272,48467,2,0,P|111:279|105:284,4,25,8|8|8|0|0,1:0|3:3|3:3|0:0|0:0,0:0:0:0:
407,203,48884,2,0,P|425:200|436:201,4,25,8|8|8|8|0,1:0|3:3|1:0|3:3|0:0,0:0:0:0:
124,113,49300,2,0,P|112:105|105:96,4,25,8|0|8|0|8,1:0|0:0|1:0|0:0|3:3,0:0:0:0:
316,306,49717,2,0,P|326:323|329:333,4,25,8|0|8|8|0,1:0|0:0|3:3|1:3|0:0,0:0:0:0:
299,54,50134,2,0,P|306:41|309:26,4,25,8|0|8|0|0,1:0|0:0|1:0|0:0|0:0,0:0:0:0:
159,192,50550,6,0,P|138:197|129:199,2,25,8|0|0,1:0|0:0|0:0,0:0:0:0:
354,241,50800,2,0,P|365:248|375:256,1,25,8|8,3:3|3:3,0:0:0:0:
348,154,50967,6,0,P|369:151|378:149,1,25,8|8,1:0|3:3,0:0:0:0:
183,269,51134,2,0,P|175:279|168:290,3,25,0|8|0|0,0:0|3:3|1:0|0:0,0:0:0:0:
295,335,51467,5,4,1:2:0:0:
250,100,51633,1,0,1:0:0:0:
41,231,51800,1,8,1:2:0:0:
203,245,51967,5,4,1:2:0:0:
248,10,52133,1,0,1:0:0:0:
457,141,52300,1,8,1:2:0:0:
217,335,52467,5,4,1:2:0:0:
273,110,52633,1,0,1:0:0:0:
471,231,52800,1,8,1:2:0:0:
309,245,52966,6,0,B|315:223|315:223|298:180,1,50,4|0,1:2|0:0,0:0:0:0:
255,16,53133,2,0,B|223:22|223:22|202:58,1,50,0|0,1:0|3:0,0:0:0:0:
49,171,53299,2,0,B|76:179|76:179|122:163,1,50,8|0,1:2|3:0,0:0:0:0:
207,143,53465,5,4,1:2:0:0:
0,260,54549,6,0,B|59:231|59:231|315:300,1,300.000011444092,0|12,0:0|3:2,0:0:0:0:
430,71,54798,6,0,P|431:60|436:32,1,29.9999990844727,8|0,3:2|0:0,0:0:0:0:
512,332,54965,6,0,B|465:308|465:308|249:376,1,150.000005722046,12|0,3:2|0:0,0:0:0:0:
301,114,55215,6,0,P|300:103|295:75,1,29.9999990844727,12|0,3:2|0:0,0:0:0:0:
255,21,55465,6,0,P|274:204|97:243,1,300.000011444092,12|0,3:2|0:0,0:0:0:0:
316,256,55715,2,0,P|213:156|254:20,1,300.000011444092,12|0,3:2|0:0,0:0:0:0:
484,139,55965,6,0,B|251:16|262:275|25:176,1,450.000017166138,12|0,3:2|0:0,0:0:0:0:
62,189,56959,6,0,P|63:134|59:81,1,100,4|0,1:3|0:0,0:0:0:0:
260,260,57125,2,0,P|259:315|263:368,1,100,2|0,1:2|0:0,0:0:0:0:
278,183,57292,1,2,1:2:0:0:
363,184,57375,2,0,P|269:223|146:184,1,200,0|0,0:0|3:3,0:0:0:0:
357,277,57625,1,0,0:0:0:0:
425,240,57709,1,2,3:2:0:0:
469,305,57792,2,0,P|505:261|512:208,1,100,8|0,3:2|0:0,0:0:0:0:
448,110,57959,1,8,3:2:0:0:
430,116,58042,1,0,0:0:0:0:
425,105,58125,1,0,3:3:0:0:
436,96,58209,1,8,3:2:0:0:
386,29,58292,5,0,0:0:0:0:
464,23,58375,1,0,3:3:0:0:
512,88,58459,1,8,3:2:0:0:
481,161,58542,1,0,0:0:0:0:
402,171,58625,1,4,1:3:0:0:
354,111,58708,1,8,1:3:0:0:
363,101,58792,1,8,1:2:0:0:
367,113,58875,1,8,3:0:0:0:
323,230,58958,6,0,L|310:3,1,200,8|0,1:2|0:0,0:0:0:0:
210,114,59208,5,8,1:2:0:0:
208,38,59292,2,0,L|198:167,2,100,0|0|8,3:0|0:0|1:2,0:0:0:0:
55,97,59542,5,0,0:0:0:0:
112,15,59625,2,0,L|75:107,1,100,8|0,1:2|3:0,0:0:0:0:
228,226,59792,5,8,3:2:0:0:
150,279,59875,1,2,3:0:0:0:
228,273,59958,2,0,P|281:273|423:325,1,200,4|8,3:0|1:2,0:0:0:0:
151,206,60457,2,0,P|122:148|108:104,1,100,0|0,1:2|3:2,0:0:0:0:
82,317,60791,5,8,3:2:0:0:
150,279,60874,1,8,1:2:0:0:
73,295,60957,2,0,P|47:313|33:331,1,50,4|0,1:3|0:0,0:0:0:0:
268,352,61123,2,0,P|251:333|230:319,1,50,0|0,1:3|1:3,0:0:0:0:
52,222,61290,1,8,1:3:0:0:
52,222,61457,1,8,1:2:0:0:
52,222,61624,6,0,P|69:241|90:255,1,50,8|0,1:2|0:0,0:0:0:0:
268,247,61791,2,0,P|294:229|308:211,1,50,12|0,1:3|0:0,0:0:0:0:
138,344,61957,1,0,1:3:0:0:
138,344,62123,1,8,1:3:0:0:
197,197,62290,1,8,1:2:0:0:
359,326,62457,5,8,1:2:0:0:
435,250,62541,1,0,0:0:0:0:
332,292,62624,2,0,P|288:303|266:313,1,50,12|0,1:3|0:0,0:0:0:0:
441,299,62790,2,0,P|485:310|507:320,1,50,0|0,1:3|1:3,0:0:0:0:
378,172,62957,5,8,1:3:0:0:
503,99,63124,1,8,1:2:0:0:
464,226,63290,1,8,1:2:0:0:
403,81,63457,2,0,P|393:56|388:27,1,50,8|0,1:3|0:0,0:0:0:0:
281,238,63624,6,0,P|286:281|275:349,1,100,12|8,1:3|1:2,0:0:0:0:
204,306,63874,1,0,0:0:0:0:
137,344,63957,1,12,1:3:0:0:
31,184,64124,2,0,P|26:141|37:73,1,100,8|0,1:2|0:0,0:0:0:0:
97,47,64374,1,0,0:0:0:0:
162,89,64457,1,8,1:2:0:0:
169,222,64624,5,8,1:2:0:0:
241,252,64707,1,10,1:2:0:0:
310,221,64790,1,10,1:2:0:0:
306,217,64874,1,8,1:2:0:0:
301,218,64957,1,8,1:2:0:0:
300,223,65040,1,10,1:2:0:0:
303,226,65124,1,10,1:2:0:0:
307,226,65207,1,8,1:2:0:0:
330,147,65290,5,0,1:2:0:0:
258,153,65374,5,2,1:2:0:0:
220,223,65457,5,2,1:2:0:0:
272,297,65540,5,0,1:2:0:0:
361,286,65624,6,0,B|452:255|453:325|534:318,1,179.999994506836,0|2,1:2|0:0,0:0:0:0:
503,237,66790,1,2,0:0:0:0:
511,158,66957,2,0,P|506:138|505:124,1,29.9999990844727,4|0,0:0|0:0,0:0:0:0:
453,44,67290,2,0,P|451:58|447:73,1,29.9999990844727,2|0,0:0|0:0,0:0:0:0:
383,132,67624,2,0,P|378:117|377:102,1,29.9999990844727,2|0,0:0|0:0,0:0:0:0:
313,30,67957,6,0,P|311:44|307:59,1,29.9999990844727,4|0,0:0|0:0,0:0:0:0:
285,162,68207,5,0,0:0:0:0:
215,241,68290,2,0,B|173:178|173:178|200:88,1,150.000005722046,4|8,1:3|1:0,0:0:0:0:
303,201,68457,1,0,0:0:0:0:
382,275,68540,2,0,B|424:211|424:211|402:140,1,150.000005722046,4|8,1:3|1:0,0:0:0:0:
292,237,68707,1,0,0:0:0:0:
151,333,68790,2,0,L|302:314,1,150.000005722046,4|8,1:3|1:0,0:0:0:0:
393,372,68957,2,0,L|242:353,1,150.000005722046,0|4,0:0|1:3,0:0:0:0:
150,246,69124,1,8,1:0:0:0:
81,274,69207,1,0,0:0:0:0:
40,210,69290,2,0,P|24:126|33:50,1,150.000005722046,8|0,1:0|0:0,0:0:0:0:
274,15,69457,2,0,P|290:99|281:175,1,150.000005722046,4|0,1:3|0:0,0:0:0:0:
482,237,69624,5,4,1:3:0:0:
484,266,69707,1,8,1:0:0:0:
479,295,69790,1,0,0:0:0:0:
456,315,69873,1,4,1:3:0:0:
429,328,69957,1,8,1:0:0:0:
400,320,70040,1,0,0:0:0:0:
377,299,70123,1,4,1:3:0:0:
370,269,70207,1,8,1:0:0:0:
351,231,70290,6,0,B|430:246|430:246|505:228,1,150.000005722046,0|4,0:0|1:3,0:0:0:0:
284,313,70457,5,8,1:0:0:0:
220,264,70540,1,0,0:0:0:0:
244,189,70623,1,8,1:0:0:0:
307,140,70707,1,0,0:0:0:0:
289,64,70790,1,4,1:3:0:0:
218,43,70873,1,0,0:0:0:0:
71,104,70957,6,0,B|207:40|211:202|382:140,1,300.000011444092,4|0,1:3|1:0,0:0:0:0:
429,276,71207,1,0,3:2:0:0:
510,189,71290,2,0,P|516:97|497:11,1,150.000005722046,8|0,1:2|3:0,0:0:0:0:
406,69,71457,1,2,1:3:0:0:
313,32,71540,1,0,0:0:0:0:
253,96,71623,2,0,P|242:170|249:244,1,150.000005722046,2|0,1:3|3:0,0:0:0:0:
324,337,71790,2,0,P|251:276|191:254,1,150.000005722046,0|0,1:0|1:0,0:0:0:0:
62,203,71957,1,8,1:2:0:0:
8,258,72040,1,0,3:0:0:0:
61,310,72123,1,2,1:3:0:0:
118,258,72207,1,0,0:0:0:0:
155,24,72290,6,0,P|81:34|14:67,1,150.000005722046,4|0,1:0|0:0,0:0:0:0:
210,142,72457,1,0,1:0:0:0:
297,124,72540,1,0,3:2:0:0:
252,55,72623,6,0,P|236:128|244:202,1,150.000005722046,8|0,1:2|3:0,0:0:0:0:
420,88,72790,1,2,1:3:0:0:
491,50,72873,1,0,1:0:0:0:
420,9,72957,6,0,P|460:88|510:134,1,150.000005722046,2|0,0:3|3:0,0:0:0:0:
399,159,73123,1,0,0:0:0:0:
502,258,73207,1,0,0:0:0:0:
351,356,73290,2,0,P|396:270|437:227,1,150.000005722046,8|0,1:2|3:0,0:0:0:0:
164,231,73457,2,0,P|212:287|244:355,1,150.000005722046,2|0,1:3|1:0,0:0:0:0:
357,136,73623,6,0,B|202:172|213:-10|31:71,1,300.000011444092,4|0,1:2|1:0,0:0:0:0:
115,150,73873,1,0,3:2:0:0:
50,248,73957,2,0,B|11:184|11:184|31:95,1,150.000005722046,8|0,1:2|3:0,0:0:0:0:
237,212,74123,1,2,1:3:0:0:
164,231,74207,1,0,0:0:0:0:
309,367,74290,6,0,B|348:303|348:303|331:229,1,150.000005722046,2|0,1:3|3:0,0:0:0:0:
491,7,74457,2,0,B|416:0|416:0|357:46,1,150.000005722046,0|0,0:0|3:0,0:0:0:0:
100,26,74623,2,0,B|115:99|115:99|177:141,1,150.000005722046,8|0,1:2|3:0,0:0:0:0:
293,129,74790,5,2,1:3:0:0:
277,112,74873,1,0,0:0:0:0:
223,213,74957,2,0,P|343:215|178:148,1,600.000022888185,4|8,1:2|1:2,0:0:0:0:
267,364,75373,1,0,3:0:0:0:
277,340,75457,1,2,1:3:0:0:
253,340,75540,1,8,1:2:0:0:
168,280,75623,2,0,L|19:347,1,150.000005722046,2|0,0:3|3:0,0:0:0:0:
376,312,75790,2,0,L|525:379,1,150.000005722046,8|0,1:2|3:0,0:0:0:0:
268,239,75957,5,12,1:2:0:0:
259,173,76040,1,0,3:0:0:0:
276,104,76123,1,2,0:3:0:0:
257,30,76207,1,0,0:0:0:0:
263,51,76290,6,0,B|163:211|378:174|268:374,1,300.000011444092,4|0,1:3|1:0,0:0:0:0:
225,265,76540,1,0,3:2:0:0:
384,214,76623,2,0,B|413:281|413:281|371:387,1,150.000005722046,8|0,1:2|3:0,0:0:0:0:
158,335,76790,2,0,B|129:268|129:268|171:162,1,150.000005722046,2|0,1:3|0:0,0:0:0:0:
0,14,76957,2,0,L|94:151,1,150.000005722046,2|0,1:3|3:0,0:0:0:0:
236,176,77123,2,0,L|321:52,1,150.000005722046,0|0,0:0|0:0,0:0:0:0:
167,119,77290,5,8,1:2:0:0:
60,218,77373,1,0,3:0:0:0:
225,265,77457,2,0,P|242:288|254:307,1,37.5000014305115,2|0,0:3|0:0,0:0:0:0:
388,361,77623,5,4,1:3:0:0:
496,220,77873,1,4,1:2:0:0:
496,220,78289,2,0,P|479:197|467:178,1,37.5000014305115,8|8,1:2|1:3,0:0:0:0:
428,123,78456,1,0,0:0:0:0:
428,123,78623,5,8,3:3:0:0:
354,101,78707,1,0,3:3:0:0:
382,29,78790,1,0,3:3:0:0:
456,48,78873,1,0,3:3:0:0:
364,185,78956,6,0,P|352:235|346:267,1,75.0000028610231,4|10,1:3|1:3,0:0:0:0:
336,337,79206,1,8,3:3:0:0:
233,167,79290,6,0,P|245:111|267:8,1,150.000005722046,0|0,3:3|3:3,0:0:0:0:
339,46,79457,1,10,3:2:0:0:
412,66,79540,1,0,0:0:0:0:
352,31,79623,6,0,P|343:65|341:76,1,44.999998626709,4|8,1:3|3:3,0:0:0:0:
318,151,79956,1,0,3:3:0:0:
291,223,80040,1,0,3:3:0:0:
265,293,80123,1,10,3:2:0:0:
237,365,80207,1,0,0:0:0:0:
188,286,80290,6,0,P|198:257|200:242,1,37.5000014305115,4|0,1:3|0:0,0:0:0:0:
110,289,80457,2,0,P|97:267|85:254,1,37.5000014305115,10|8,1:3|3:3,0:0:0:0:
53,346,80623,6,0,P|16:319|-27:295,1,75.0000028610231,0|0,3:3|0:0,0:0:0:0:
53,346,80706,2,0,P|33:322|-10:278,1,75.0000028610231,0|0,3:3|0:0,0:0:0:0:
53,346,80790,2,0,P|55:319|40:263,1,75.0000028610231,10|0,3:2|0:0,0:0:0:0:
58,193,80873,5,0,0:0:0:0:
99,127,80957,1,4,1:3:0:0:
172,123,81040,1,0,0:0:0:0:
212,188,81123,1,10,1:3:0:0:
279,230,81207,1,8,3:3:0:0:
354,225,81290,1,0,3:3:0:0:
401,167,81373,1,0,3:3:0:0:
412,190,81457,6,0,P|416:235|414:286,1,75.0000028610231,10|0,3:2|0:0,0:0:0:0:
425,214,81540,2,0,P|428:251|428:288,1,75.0000028610231,0|0,0:0|0:0,0:0:0:0:
509,337,81623,6,0,P|507:317|511:274,1,56.2500021457673,4|0,1:3|0:0,0:0:0:0:
508,246,81790,6,0,P|504:188|512:87,1,150.000005722046,10|8,1:3|3:3,0:0:0:0:
510,56,81957,5,0,3:3:0:0:
501,89,82040,1,0,3:3:0:0:
510,110,82123,1,10,3:2:0:0:
503,118,82207,1,0,0:0:0:0:
484,191,82290,6,0,P|483:236|487:287,1,75.0000028610231,4|0,1:3|0:0,0:0:0:0:
405,352,82456,6,0,P|405:328|406:312,1,37.5000014305115,10|8,1:2|3:3,0:0:0:0:
304,300,82623,2,0,P|304:276|303:260,1,37.5000014305115,0|8,3:3|3:3,0:0:0:0:
199,354,82790,6,0,P|200:316|199:279,1,75.0000028610231,10|0,3:2|0:0,0:0:0:0:
101,275,82956,6,0,P|101:251|102:235,1,37.5000014305115,4|0,1:3|0:0,0:0:0:0:
0,223,83123,2,0,P|0:199|-1:183,1,37.5000014305115,10|8,1:2|3:3,0:0:0:0:
70,37,83290,6,0,P|69:95|71:125,1,75.0000028610231,0|8,3:3|3:3,0:0:0:0:
144,176,83456,1,10,3:2:0:0:
150,180,83540,1,0,0:0:0:0:
157,180,83623,1,4,1:3:0:0:
164,177,83706,1,0,0:0:0:0:
241,115,83790,2,0,P|242:77|240:40,1,75.0000028610231,10|8,1:2|3:3,0:0:0:0:
149,102,83957,5,8,3:2:0:0:
151,181,84041,1,8,3:3:0:0:
155,259,84124,1,10,3:2:0:0:
160,337,84207,1,0,0:0:0:0:
227,285,84291,6,0,B|152:257|155:323|47:296,1,150.000005722046,4|10,1:3|1:2,0:0:0:0:
262,357,84541,1,8,3:3:0:0:
318,311,84624,1,2,3:3:0:0:
290,237,84707,1,8,3:3:0:0:
231,186,84791,1,10,3:2:0:0:
214,111,84874,1,0,0:0:0:0:
266,50,84957,6,0,P|283:74|290:94,1,37.5000014305115,0|0,1:2|0:0,0:0:0:0:
397,140,85124,2,0,P|366:144|345:146,1,37.5000014305115,10|8,1:2|3:3,0:0:0:0:
236,257,85291,6,0,P|251:199|275:147,1,75.0000028610231,2|8,3:3|3:3,0:0:0:0:
274,330,85457,1,10,3:2:0:0:
199,333,85541,1,0,0:0:0:0:
154,270,85624,1,0,1:3:0:0:
171,194,85707,1,0,0:0:0:0:
302,118,85791,5,10,1:2:0:0:
323,117,85874,1,8,3:3:0:0:
339,133,85957,1,2,3:3:0:0:
335,151,86041,1,8,3:3:0:0:
321,161,86124,1,10,3:2:0:0:
298,157,86207,1,0,0:0:0:0:
195,39,86291,6,0,L|305:46,1,75.0000028610231,4|0,1:3|0:0,0:0:0:0:
383,48,86457,1,10,1:2:0:0:
423,38,86541,1,10,1:2:0:0:
386,61,86624,1,2,3:3:0:0:
425,57,86707,1,10,3:2:0:0:
512,168,86791,6,0,L|402:175,1,75.0000028610231,14|0,3:2|0:0,0:0:0:0:
363,160,86957,1,6,3:2:0:0:
289,174,87041,1,0,0:0:0:0:
213,161,87124,1,10,3:2:0:0:
136,177,87207,1,6,3:2:0:0:
0,258,87291,6,0,L|110:265,1,75.0000028610231,2|10,3:3|3:2,0:0:0:0:
213,256,87457,1,14,3:2:0:0:
214,273,87541,1,2,3:3:0:0:
225,255,87624,1,4,3:2:0:0:
228,273,87707,1,10,3:2:0:0:
494,326,87791,6,0,L|384:333,1,75.0000028610231,12|4,3:3|3:2,0:0:0:0:
310,337,87956,2,0,L|357:333,1,37.5000014305115,10|0,3:2|0:0,0:0:0:0:
310,331,88040,2,0,L|347:334,1,37.5000014305115,12|0,3:3|0:0,0:0:0:0:
312,344,88123,2,0,L|359:330,1,37.5000014305115,4|0,3:2|0:0,0:0:0:0:
312,323,88206,2,0,L|347:333,1,37.5000014305115,8|0,3:2|0:0,0:0:0:0:
379,261,88290,6,0,P|375:194|180:94,1,300.000011444092,12|0,1:3|0:0,0:0:0:0:
319,90,88540,2,0,P|179:124|133:261,1,300.000011444092,12|0,1:3|0:0,0:0:0:0:
255,107,88790,6,0,L|255:62,1,37.5000014305115,12|0,1:3|0:0,0:0:0:0:
260,258,88957,6,0,P|260:280|261:307,1,44.999998626709,12|0,1:2|0:0,0:0:0:0:
379,353,89290,6,0,B|476:241|476:241|434:62,1,300.000011444092,12|0,1:2|0:0,0:0:0:0:
133,31,89540,2,0,B|36:143|36:143|78:322,1,300.000011444092,12|0,1:2|0:0,0:0:0:0:
268,165,89790,5,12,1:3:0:0:
