osu file format v14

[General]
AudioFilename: audio.mp3
AudioLeadIn: 0
PreviewTime: 56467
Countdown: 0
SampleSet: Soft
StackLeniency: 0.4
Mode: 0
LetterboxInBreaks: 0
WidescreenStoryboard: 1

[Editor]
Bookmarks: 14125,30124,44821,56958,70957,82290,89790
DistanceSpacing: 1.3
BeatDivisor: 4
GridSize: 16
TimelineZoom: 2.4

[Metadata]
Title:asura
TitleUnicode:asura
Artist:Co shu Nie
ArtistUnicode:Còˆ shu Nie
Creator:DeviousPanda
Version:Gill's Extreme
Source:
Tags:Japanese Rock Aurora Gillstar iljaaz Melwoine AIR Agatsu Jounzan EvilElvis Natteke desu semaphore
BeatmapID:2119027
BeatmapSetID:986422

[Difficulty]
HPDrainRate:5
CircleSize:4
OverallDifficulty:9.2
ApproachRate:9.6
SliderMultiplier:3
SliderTickRate:1

[Events]
//Background and Video events
0,0,"asura.jpg",0,0
//Break Periods
2,65874,67781
//Storyboard Layer 0 (Background)
//Storyboard Layer 1 (Fail)
//Storyboard Layer 2 (Pass)
//Storyboard Layer 3 (Foreground)
//Storyboard Layer 4 (Overlay)
//Storyboard Sound Samples

[TimingPoints]
469,333.333333333333,4,2,2,80,1,0
3135,333.333333333333,3,2,2,80,1,0
3135,-71.4285714285714,3,2,2,60,0,0
3969,-71.4285714285714,3,2,2,60,0,0
4802,-250,3,2,2,60,0,0
4927,-250,3,2,2,5,0,0
4969,-250,3,2,2,60,0,0
5135,-71.4285714285714,3,2,2,60,0,0
6135,-83.3333333333333,3,2,2,50,0,0
6469,-125,3,2,2,50,0,0
9135,-333.333333333333,3,2,2,50,0,0
9469,-125,3,2,2,50,0,0
10469,-83.3333333333333,3,2,2,50,0,0
10969,-71.4285714285714,3,2,2,50,0,0
11302,-125,3,2,2,50,0,0
12802,-83.3333333333333,3,2,2,50,0,0
13135,-125,3,2,2,50,0,0
13302,-83.3333333333333,3,2,2,50,0,0
14135,333.333333333333,4,2,2,80,1,0
14135,-66.6666666666667,4,2,2,70,0,0
28801,-500,4,2,2,70,0,0
29134,-66.6666666666667,4,2,2,70,0,0
30134,333.333333333333,3,2,2,80,1,0
30134,-62.5,3,2,2,60,0,0
32134,-500,3,2,2,60,0,0
32801,333.333333333333,3,2,2,80,1,0
32801,-66.6666666666667,4,2,2,60,0,0
36801,-83.3333333333333,4,2,2,60,0,0
38134,-74.0740740740741,4,2,2,60,0,0
38468,-66.6666666666667,4,2,2,60,0,0
38801,-83.3333333333333,4,2,2,60,0,0
40801,-71.4285714285714,4,2,2,60,0,0
42800,-62.5,3,2,2,60,0,0
44800,333.333333333333,5,2,2,80,1,0
44800,-100,5,2,3,45,0,0
51466,333.333333333333,3,2,2,80,1,0
51467,-100,3,2,2,60,0,0
54549,-71.4285714285714,3,2,2,70,0,0
54799,-166.666666666667,3,2,2,50,0,0
54956,-62.5,3,2,2,50,0,0
56958,333.333333333333,3,2,2,80,1,0
56958,-83.3333333333333,3,2,2,50,0,0
61791,333.333333333333,3,2,2,80,1,0
61791,-83.3333333333333,3,2,2,50,0,0
62624,333.333333333333,3,2,2,80,1,0
62624,-83.3333333333333,3,2,2,50,0,0
65624,333.333333333333,4,2,2,80,1,0
68290,-50,4,2,2,65,0,0
69290,-71.4285714285714,4,2,2,65,0,0
70957,-66.6666666666667,4,2,2,70,0,0
77873,-166.666666666667,4,2,2,60,0,0
78957,-66.6666666666667,4,2,2,60,0,0
80957,-66.6666666666667,4,2,3,60,0,0
81290,-66.6666666666667,4,2,2,55,0,0
82623,-83.3333333333333,4,2,2,55,0,0
84290,-62.5,4,2,2,55,0,0
88290,-55.5555555555556,4,2,2,70,0,0
88790,-83.3333333333333,4,2,2,70,0,0
88957,-55.5555555555556,4,2,2,70,0,0

[Colours]
Combo1 : 242,79,55
Combo2 : 21,247,202

[HitObjects]
256,192,469,12,2,2802,0:1:0:0:
11,50,3135,5,0,1:0:0:0:
18,59,3219,1,0,1:0:0:0:
23,201,3385,5,0,1:0:0:0:
61,127,3552,5,0,1:0:0:0:
136,137,3635,1,0,1:0:0:0:
147,211,3719,1,0,1:0:0:0:
82,256,3802,1,0,1:0:0:0:
75,265,3884,1,0,1:0:0:0:
40,342,3969,6,0,B|135:377|135:377|238:327,1,209.999993591309,4|0,0:3|0:0,0:0:0:0:
352,52,4219,2,0,P|264:70|246:187,1,209.999993591309,4|0,0:0|0:0,0:0:0:0:
473,316,4469,2,0,B|303:376|347:201|164:261,1,314.999990386963,4|0,0:3|0:0,0:0:0:0:
151,274,4802,6,0,L|148:219,1,45,8|0,0:0|0:0,0:0:0:0:
155,144,4969,5,8,0:0:0:0:
91,97,5052,1,8,0:0:0:0:
29,42,5135,6,0,L|246:50,1,209.999993591309,4|0,0:1|0:0,0:0:0:0:
480,60,5385,5,8,0:0:0:0:
415,19,5469,1,8,0:0:0:0:
352,65,5552,1,8,0:0:0:0:
287,25,5635,1,8,0:0:0:0:
233,83,5719,1,8,0:0:0:0:
269,152,5802,1,8,0:0:0:0:
348,144,5885,5,2,0:0:0:0:
375,217,5969,1,2,0:0:0:0:
368,295,6052,1,2,0:0:0:0:
323,361,6135,6,0,P|308:266|334:179,1,179.999994506836,4|8,3:0|0:0,0:0:0:0:
468,98,6385,1,0,0:0:0:0:
477,95,6469,2,0,P|473:56|469:21,1,60,10|0,0:0|0:0,0:0:0:0:
485,16,6635,2,0,P|477:54|472:88,1,60,2|8,3:2|0:0,0:0:0:0:
432,223,6802,2,0,P|432:193|431:163,1,60,2|8,0:0|0:0,0:0:0:0:
255,85,6969,2,0,P|254:55|255:25,1,60,2|0,0:0|0:0,0:0:0:0:
346,48,7135,6,0,B|360:104|360:104|329:182,1,120,2|0,3:2|0:0,0:0:0:0:
180,162,7385,1,8,0:0:0:0:
176,153,7469,2,0,B|153:96|153:96|167:40,1,120,2|2,0:0|3:2,0:0:0:0:
279,346,7802,5,2,0:0:0:0:
294,352,7885,1,8,0:0:0:0:
348,297,7969,1,0,1:0:0:0:
288,246,8052,1,0,1:0:0:0:
214,276,8135,6,0,L|78:297,1,120,2|0,3:2|0:0,0:0:0:0:
144,204,8385,1,0,3:0:0:0:
138,200,8469,2,0,L|2:221,1,120,8|0,0:0|3:0,0:0:0:0:
294,352,8802,2,0,L|424:364,1,120,8|0,0:0|1:0,0:0:0:0:
486,198,9052,1,8,0:0:0:0:
497,192,9135,6,0,L|490:259,1,67.4999979400635,2|0,3:2|0:0,0:0:0:0:
404,280,9469,6,0,L|398:217,1,60,2|0,3:2|0:0,0:0:0:0:
389,149,9635,1,10,0:2:0:0:
336,89,9719,1,0,1:0:0:0:
379,25,9802,1,8,0:3:0:0:
450,49,9885,1,8,0:3:0:0:
450,61,9969,1,10,0:0:0:0:
448,72,10052,1,8,0:0:0:0:
446,81,10135,6,0,P|353:80|253:161,1,180,4|0,3:2|0:0,0:0:0:0:
75,233,10469,2,0,B|48:204|48:204|0:192,1,89.9999972534181,0|0,3:0|0:0,0:0:0:0:
87,106,10635,2,0,B|78:67|78:67|43:33,1,89.9999972534181,8|0,0:0|0:0,0:0:0:0:
203,86,10802,2,0,B|215:47|215:47|202:0,1,89.9999972534181,8|0,0:0|1:0,0:0:0:0:
378,137,10969,6,0,B|260:108|316:210|161:187,1,209.999993591309,4|8,3:2|0:0,0:0:0:0:
182,204,11219,1,0,0:0:0:0:
177,216,11302,2,0,P|181:264|181:294,1,60,2|0,0:0|0:0,0:0:0:0:
102,307,11469,2,0,P|129:346|144:372,1,60,0|0,3:2|0:0,0:0:0:0:
405,304,11635,1,8,0:0:0:0:
341,353,11719,1,8,0:0:0:0:
275,317,11802,2,0,B|262:258|262:258|297:187,1,120,4|0,3:2|0:0,0:0:0:0:
393,144,12052,5,0,1:0:0:0:
393,144,12135,2,0,L|386:210,1,60,2|0,0:0|0:0,0:0:0:0:
387,215,12302,2,0,L|370:72,2,120,2|8|0,3:2|0:0|0:0,0:0:0:0:
483,264,12719,1,0,1:0:0:0:
483,264,12802,2,0,B|402:298|402:298|307:280,1,179.999994506836,4|0,3:0|0:0,0:0:0:0:
88,241,13052,5,0,0:0:0:0:
88,241,13135,2,0,L|100:300,1,60,2|0,3:2|0:0,0:0:0:0:
32,353,13302,2,0,B|113:319|113:319|208:337,2,179.999994506836,8|0|2,0:0|3:0|1:2,0:0:0:0:
279,370,13802,5,2,0:0:0:0:
314,279,13885,5,2,0:0:0:0:
227,208,13969,5,2,0:0:0:0:
321,116,14052,5,2,0:0:0:0:
227,9,14135,6,0,B|87:5|145:90|-5:70,1,225.000008583069,4|0,3:1|0:0,0:0:0:0:
227,115,14385,1,0,3:0:0:0:
227,115,14468,2,0,P|320:103|409:207,1,225.000008583069,10|0,0:0|0:0,0:0:0:0:
429,268,14718,1,8,0:0:0:0:
396,195,14801,2,0,P|378:142|396:90,1,112.500004291535,2|0,0:0|0:0,0:0:0:0:
507,216,14968,2,0,P|524:269|507:322,1,112.500004291535,0|0,3:0|0:0,0:0:0:0:
221,342,15134,2,0,B|361:346|303:261|453:281,1,225.000008583069,10|0,0:0|0:0,0:0:0:0:
212,350,15384,5,0,0:0:0:0:
212,350,15468,2,0,L|190:123,1,225.000008583069,0|2,3:0|0:0,0:0:0:0:
388,363,15717,1,0,3:0:0:0:
388,363,15801,2,0,L|419:139,1,225.000008583069,10|0,0:0|0:0,0:0:0:0:
79,302,16051,2,0,L|48:78,1,225.000008583069,10|0,0:0|0:0,0:0:0:0:
320,149,16301,2,0,L|309:35,1,112.500004291535,2|0,3:2|0:0,0:0:0:0:
317,24,16468,2,0,L|295:247,1,225.000008583069,8|0,0:0|0:0,0:0:0:0:
184,104,16718,5,0,0:0:0:0:
184,104,16801,2,0,P|76:99|34:218,1,225.000008583069,4|0,3:2|0:0,0:0:0:0:
114,335,17051,1,0,3:0:0:0:
51,381,17134,2,0,B|28:331|28:331|51:276,1,112.500004291535,8|0,0:0|0:0,0:0:0:0:
189,297,17301,5,2,0:0:0:0:
260,335,17384,1,8,0:0:0:0:
333,303,17468,2,0,P|397:306|456:334,1,112.500004291535,0|0,0:0|0:0,0:0:0:0:
260,249,17634,2,0,L|248:137,1,112.500004291535,2|0,3:2|0:0,0:0:0:0:
64,97,17801,2,0,B|196:103|139:18|296:36,1,225.000008583069,8|0,0:0|0:0,0:0:0:0:
469,102,18051,5,0,0:0:0:0:
469,102,18134,2,0,B|430:79|430:79|238:140,1,225.000008583069,2|0,3:2|0:0,0:0:0:0:
14,306,18384,5,0,3:0:0:0:
14,306,18467,2,0,B|53:283|53:283|245:344,1,225.000008583069,10|0,0:0|0:0,0:0:0:0:
490,342,18718,5,10,0:0:0:0:
421,304,18801,1,0,3:0:0:0:
351,340,18884,1,0,1:0:0:0:
288,293,18968,2,0,B|270:237|270:237|288:165,1,112.500004291535,2|0,3:2|0:0,0:0:0:0:
494,35,19134,2,0,B|507:87|507:87|489:143,1,112.500004291535,12|0,0:0|0:0,0:0:0:0:
386,233,19301,1,8,0:0:0:0:
363,159,19384,1,8,0:0:0:0:
392,86,19468,6,0,L|385:313,1,225.000008583069,4|0,3:0|0:0,0:0:0:0:
492,104,19718,1,0,3:0:0:0:
492,104,19801,2,0,B|352:108|410:23|260:43,1,225.000008583069,10|0,0:0|0:0,0:0:0:0:
129,126,20051,1,8,0:0:0:0:
129,126,20134,2,0,B|105:70|105:70|116:0,1,112.500004291535,2|0,0:0|0:0,0:0:0:0:
93,251,20301,2,0,B|56:299|56:299|-9:325,1,112.500004291535,0|0,3:0|0:0,0:0:0:0:
233,209,20468,2,0,B|293:216|293:216|348:260,1,112.500004291535,10|0,0:0|0:0,0:0:0:0:
155,343,20634,5,0,3:0:0:0:
86,380,20718,1,0,1:0:0:0:
14,351,20801,2,0,P|-28:252|26:133,1,225.000008583069,4|0,3:2|0:0,0:0:0:0:
75,193,21051,1,0,3:0:0:0:
151,201,21134,2,0,P|195:111|149:-5,1,225.000008583069,10|0,0:0|0:0,0:0:0:0:
0,68,21384,5,8,0:0:0:0:
0,68,21468,2,0,B|53:50|53:50|119:86,1,112.500004291535,2|0,0:0|0:0,0:0:0:0:
200,287,21634,2,0,B|147:305|147:305|81:269,1,112.500004291535,0|0,3:0|0:0,0:0:0:0:
0,205,21801,2,0,P|121:169|222:140,1,225.000008583069,10|0,0:0|0:0,0:0:0:0:
499,97,22051,5,0,0:0:0:0:
499,97,22134,2,0,P|382:61|277:32,1,225.000008583069,4|0,3:0|0:0,0:0:0:0:
481,306,22385,1,0,3:0:0:0:
481,306,22468,2,0,P|370:337|264:371,1,225.000008583069,8|0,0:0|0:0,0:0:0:0:
192,338,22718,1,8,0:0:0:0:
116,362,22801,2,0,P|100:305|114:252,1,112.500004291535,2|0,0:0|0:0,0:0:0:0:
246,190,22968,2,0,L|134:178,1,112.500004291535,0|0,3:0|0:0,0:0:0:0:
125,174,23134,2,0,L|237:162,1,112.500004291535,10|0,0:0|0:0,0:0:0:0:
371,135,23301,5,0,3:0:0:0:
438,101,23384,1,0,1:0:0:0:
510,125,23468,2,0,P|368:105|312:36,1,225.000008583069,4|0,3:2|0:0,0:0:0:0:
242,72,23718,1,0,3:0:0:0:
167,44,23801,2,0,B|127:27|127:27|47:60,1,112.500004291535,8|0,0:0|0:0,0:0:0:0:
204,224,23968,1,0,1:0:0:0:
210,212,24051,1,8,0:0:0:0:
216,199,24134,6,0,L|234:78,1,112.500004291535,4|0,0:0|0:0,0:0:0:0:
16,292,24301,2,0,L|-2:171,1,112.500004291535,0|0,3:0|0:0,0:0:0:0:
124,117,24468,5,8,0:0:0:0:
89,188,24551,1,0,1:0:0:0:
130,254,24634,1,8,0:0:0:0:
104,326,24718,1,0,1:0:0:0:
104,335,24801,6,0,B|236:287|185:390|340:336,1,225.000008583069,4|0,3:1|0:0,0:0:0:0:
497,158,25051,1,0,3:0:0:0:
497,158,25134,2,0,P|381:163|347:281,1,225.000008583069,10|0,0:0|0:0,0:0:0:0:
401,302,25384,1,8,0:0:0:0:
474,277,25468,2,0,P|493:327|476:386,1,112.500004291535,2|0,0:0|0:0,0:0:0:0:
337,260,25634,2,0,P|322:206|341:154,1,112.500004291535,0|0,3:0|0:0,0:0:0:0:
512,49,25801,2,0,B|415:99|415:99|291:53,1,225.000008583069,10|0,0:0|0:0,0:0:0:0:
34,47,26051,5,0,0:0:0:0:
34,47,26134,2,0,P|152:40|205:156,1,225.000008583069,0|2,3:0|0:0,0:0:0:0:
163,359,26384,1,0,3:0:0:0:
163,359,26468,2,0,P|97:260|171:156,1,225.000008583069,10|0,0:0|0:0,0:0:0:0:
363,86,26718,2,0,P|310:191|183:179,1,225.000008583069,10|0,0:0|0:0,0:0:0:0:
13,126,26968,2,0,P|65:107|124:94,1,112.500004291535,2|0,3:2|0:0,0:0:0:0:
213,111,27134,2,0,B|73:115|131:30|-19:50,1,225.000008583069,8|0,0:0|0:0,0:0:0:0:
186,17,27384,5,0,0:0:0:0:
186,17,27468,2,0,L|161:263,1,225.000008583069,4|0,3:2|0:0,0:0:0:0:
104,295,27718,1,0,3:0:0:0:
166,251,27801,2,0,P|275:236|364:303,1,225.000008583069,10|0,0:0|0:0,0:0:0:0:
418,358,28051,1,8,0:0:0:0:
491,327,28134,2,0,B|515:275|515:275|496:216,1,112.500004291535,2|0,0:0|0:0,0:0:0:0:
295,260,28301,2,0,B|278:312|278:312|302:364,1,112.500004291535,0|0,3:0|0:0,0:0:0:0:
419,198,28468,2,0,B|258:175|258:175|248:178|248:178|74:151,1,337.500012874604,10|0,0:0|0:0,0:0:0:0:
37,78,28801,6,0,L|31:26,1,52.5,4|0,3:0|0:0,0:0:0:0:
30,11,29134,5,8,0:0:0:0:
85,68,29217,1,8,0:0:0:0:
88,145,29300,1,8,0:0:0:0:
39,204,29383,1,8,0:0:0:0:
34,212,29468,5,2,1:2:0:0:
12,249,29551,1,0,1:0:0:0:
11,293,29634,1,0,1:0:0:0:
36,331,29717,1,0,1:0:0:0:
36,361,29801,5,8,0:3:0:0:
67,327,29884,1,8,0:3:0:0:
58,370,29968,1,8,0:3:0:0:
75,356,30051,1,8,0:3:0:0:
82,382,30134,5,4,3:1:0:0:
81,375,32134,6,0,L|25:385,1,52.5,2|0,0:0|0:0,0:0:0:0:
142,329,32468,5,8,0:0:0:0:
212,366,32551,1,8,0:0:0:0:
278,327,32634,1,8,0:0:0:0:
348,363,32718,1,8,0:0:0:0:
423,340,32801,6,0,B|457:300|457:300|434:124,1,225.000008583069,4|0,3:0|0:0,0:0:0:0:
321,16,33051,2,0,B|287:56|287:56|309:227,1,225.000008583069,8|0,0:0|0:0,0:0:0:0:
502,74,33301,2,0,B|457:39|457:39|379:54,1,112.500004291535,0|0,3:0|0:0,0:0:0:0:
276,301,33468,2,0,B|330:311|330:311|375:276,1,112.500004291535,8|0,0:0|0:0,0:0:0:0:
89,340,33801,6,0,B|55:300|55:300|78:124,1,225.000008583069,4|0,3:0|0:0,0:0:0:0:
191,16,34051,2,0,B|225:56|225:56|202:227,1,225.000008583069,0|0,3:0|0:0,0:0:0:0:
10,74,34301,2,0,B|55:39|55:39|133:54,1,112.500004291535,0|0,3:0|0:0,0:0:0:0:
236,301,34468,2,0,B|181:311|181:311|136:276,1,112.500004291535,8|0,0:0|0:0,0:0:0:0:
0,214,34634,5,8,0:0:0:0:
52,275,34718,1,0,1:0:0:0:
48,355,34801,2,0,P|37:255|79:135,1,225.000008583069,4|0,3:2|0:0,0:0:0:0:
143,182,35051,1,0,3:0:0:0:
219,156,35134,2,0,B|245:126|245:126|232:44,1,112.500004291535,2|0,0:0|0:0,0:0:0:0:
165,0,35301,2,0,B|139:30|139:30|152:112,1,112.500004291535,2|0,3:2|0:0,0:0:0:0:
256,359,35468,5,10,0:0:0:0:
260,364,35634,1,2,0:0:0:0:
337,247,35801,5,2,3:2:0:0:
372,233,35884,1,8,0:0:0:0:
404,256,35968,1,0,1:0:0:0:
434,237,36051,1,0,3:0:0:0:
477,262,36134,5,2,1:2:0:0:
420,225,36218,1,2,1:2:0:0:
353,261,36301,1,2,3:2:0:0:
290,225,36384,1,2,1:2:0:0:
221,250,36468,1,2,1:2:0:0:
155,218,36551,1,2,1:2:0:0:
88,254,36634,1,2,1:2:0:0:
24,210,36718,1,2,1:2:0:0:
84,265,36801,6,0,L|101:75,1,179.999994506836,4|0,3:0|0:0,0:0:0:0:
34,39,37051,1,0,3:0:0:0:
20,118,37134,2,0,P|65:141|109:175,1,89.9999972534181,10|0,0:0|0:0,0:0:0:0:
205,271,37301,2,0,P|111:293|50:369,1,179.999994506836,2|8,3:2|0:0,0:0:0:0:
375,354,37634,1,0,3:0:0:0:
375,354,37718,1,0,1:0:0:0:
375,354,37801,6,0,L|382:164,1,179.999994506836,0|0,3:0|0:0,0:0:0:0:
387,158,38051,1,0,3:0:0:0:
387,158,38134,2,0,L|367:363,1,202.500000772476,8|2,0:0|3:2,0:0:0:0:
376,374,38384,1,0,1:0:0:0:
376,374,38468,2,0,L|365:146,1,225.000008583069,8|0,0:0|1:0,0:0:0:0:
493,344,38718,1,0,1:0:0:0:
493,344,38801,6,0,B|391:337|442:278|313:271,1,179.999994506836,4|0,3:2|0:0,0:0:0:0:
268,314,39051,1,0,3:0:0:0:
192,290,39134,2,0,P|188:239|196:185,1,89.9999972534181,10|0,0:0|0:0,0:0:0:0:
380,78,39301,2,0,P|384:122|380:167,1,89.9999972534181,2|0,3:2|0:0,0:0:0:0:
93,240,39468,2,0,P|88:195|93:150,1,89.9999972534181,10|0,0:0|0:0,0:0:0:0:
282,117,39634,2,0,P|286:161|282:206,1,89.9999972534181,2|0,0:0|0:0,0:0:0:0:
186,117,39801,2,0,P|181:72|186:27,1,89.9999972534181,2|0,3:2|0:0,0:0:0:0:
207,24,39968,6,0,P|302:14|357:92,1,179.999994506836,10|0,0:0|0:0,0:0:0:0:
417,120,40218,1,0,0:0:0:0:
350,86,40301,2,0,P|344:50|360:-1,1,89.9999972534181,2|0,3:2|0:0,0:0:0:0:
482,76,40468,2,0,P|532:186|467:332,1,269.999991760254,8|0,0:0|0:0,0:0:0:0:
251,373,40801,6,0,B|226:256|299:292|265:159,1,209.999993591309,4|0,3:0|0:0,0:0:0:0:
236,98,41051,1,2,3:2:0:0:
279,37,41134,2,0,B|326:24|326:24|386:36,1,104.999996795654,8|2,0:0|3:2,0:0:0:0:
169,149,41301,2,0,B|149:104|149:104|167:45,1,104.999996795654,2|0,0:0|0:0,0:0:0:0:
339,139,41468,1,0,3:0:0:0:
403,184,41551,2,0,L|184:234,1,209.999993591309,10|0,0:0|0:0,0:0:0:0:
51,384,41801,6,0,P|22:311|74:179,1,209.999993591309,2|0,3:2|0:0,0:0:0:0:
122,242,42051,1,0,3:0:0:0:
202,220,42134,2,0,B|220:170|220:170|208:119,1,104.999996795654,10|0,0:0|3:0,0:0:0:0:
25,14,42301,2,0,B|13:65|13:65|33:117,1,104.999996795654,2|0,0:0|0:0,0:0:0:0:
134,171,42468,1,2,3:2:0:0:
116,248,42551,2,0,L|102:25,1,209.999993591309,8|0,0:0|0:0,0:0:0:0:
217,30,42801,6,0,P|338:31|412:155,1,240,4|0,3:1|0:0,0:0:0:0:
359,179,43051,1,2,3:2:0:0:
395,247,43134,2,0,B|413:300|413:300|390:359,1,120,8|0,0:0|3:0,0:0:0:0:
223,277,43301,2,0,P|270:313|344:295,1,120,2|0,0:0|0:0,0:0:0:0:
502,246,43467,1,2,3:2:0:0:
477,171,43551,2,0,P|381:142|292:249,1,240,8|0,0:0|0:0,0:0:0:0:
249,127,43801,6,0,L|114:154,1,120,2|2,3:2|0:0,0:0:0:0:
28,329,43967,1,2,0:0:0:0:
90,376,44051,1,2,3:2:0:0:
159,340,44134,2,0,B|184:282|184:282|155:225,1,120,10|2,0:0|3:2,0:0:0:0:
55,80,44301,2,0,B|29:130|29:130|54:188,1,120,2|2,0:0|0:0,0:0:0:0:
201,30,44467,2,0,L|336:57,1,120,10|2,0:0|0:0,0:0:0:0:
421,156,44634,1,8,0:0:0:0:
404,84,44717,1,8,0:0:0:0:
441,18,44801,6,0,P|454:96|426:196,1,150,4|0,3:2|0:0,0:0:0:0:
442,247,45051,1,0,3:0:0:0:
442,247,45134,1,8,0:0:0:0:
442,247,45217,2,0,B|365:231|365:231|280:275,1,150,0|0,3:0|0:0,0:0:0:0:
49,337,45467,5,0,3:0:0:0:
49,337,45550,1,10,0:0:0:0:
49,337,45634,2,0,B|126:321|126:321|211:365,1,150,0|0,3:0|0:0,0:0:0:0:
356,341,45884,5,0,3:0:0:0:
356,341,45967,1,8,0:0:0:0:
356,341,46051,2,0,P|384:272|353:189,1,150,0|0,3:0|0:0,0:0:0:0:
127,185,46301,5,0,3:0:0:0:
127,185,46384,1,8,0:0:0:0:
127,185,46467,2,0,P|99:254|130:337,1,150,2|0,3:2|0:0,0:0:0:0:
241,256,46717,5,0,3:0:0:0:
241,256,46800,1,8,0:0:0:0:
241,256,46884,2,0,L|250:92,1,150,0|0,3:0|0:0,0:0:0:0:
249,84,47134,5,0,3:0:0:0:
249,84,47217,1,8,0:0:0:0:
249,84,47301,2,0,L|258:248,1,150,2|0,3:2|0:0,0:0:0:0:
399,263,47550,5,0,3:0:0:0:
399,263,47634,1,8,0:0:0:0:
399,263,47717,2,0,B|309:273|354:315|248:330,1,150,0|0,3:0|0:0,0:0:0:0:
39,317,47967,5,0,3:0:0:0:
39,317,48050,1,8,0:0:0:0:
39,317,48134,2,0,P|110:334|172:275,1,150,4|0,3:2|0:0,0:0:0:0:
136,103,48384,5,0,3:0:0:0:
136,103,48467,1,8,0:0:0:0:
136,103,48550,2,0,P|65:86|3:145,1,150,0|0,3:0|0:0,0:0:0:0:
337,284,48800,5,0,3:0:0:0:
337,284,48883,1,8,0:0:0:0:
337,284,48967,2,0,P|394:328|475:299,1,150,2|0,3:2|0:0,0:0:0:0:
512,127,49217,5,0,3:0:0:0:
512,127,49300,1,8,0:0:0:0:
512,127,49384,2,0,P|454:82|373:111,1,150,0|0,3:0|0:0,0:0:0:0:
257,213,49634,5,0,3:0:0:0:
257,213,49717,1,8,0:0:0:0:
257,213,49800,2,0,L|246:47,1,150,2|0,3:2|0:0,0:0:0:0:
370,220,50050,5,0,3:0:0:0:
370,220,50134,1,8,0:0:0:0:
371,221,50217,2,0,L|341:368,1,150,0|0,3:0|0:0,0:0:0:0:
166,362,50467,5,0,3:0:0:0:
166,362,50550,1,10,0:0:0:0:
167,361,50633,2,0,L|137:214,1,150,0|2,3:0|0:0,0:0:0:0:
21,64,50884,5,0,3:0:0:0:
21,64,50967,1,8,0:0:0:0:
21,64,51050,2,0,B|116:123|116:123|247:66,1,225,2|0,3:2|0:0,0:0:0:0:
507,162,51466,5,4,3:0:0:0:
240,143,51632,1,2,0:0:0:0:
512,164,51799,1,2,0:0:0:0:
407,281,51966,5,10,0:0:0:0:
340,21,52132,1,2,0:0:0:0:
403,291,52299,1,2,0:0:0:0:
269,261,52465,5,4,3:2:0:0:
467,50,52632,1,2,0:0:0:0:
264,268,52799,1,2,0:0:0:0:
472,44,52966,5,2,3:2:0:0:
478,122,53049,1,8,0:0:0:0:
417,168,53132,1,2,3:2:0:0:
338,163,53216,1,8,0:0:0:0:
267,197,53299,1,0,1:0:0:0:
228,265,53382,1,0,1:0:0:0:
260,336,53466,1,4,3:0:0:0:
261,344,54549,6,0,P|250:245|263:122,1,209.999993591309,12|0,0:0|0:0,0:0:0:0:
259,150,54799,6,0,L|307:146,1,44.999998626709,4|0,3:2|0:0,0:0:0:0:
497,181,54966,6,0,P|396:144|250:179,1,240,12|0,0:0|0:0,0:0:0:0:
39,179,55215,2,0,P|140:216|286:181,1,240,12|0,0:0|0:0,0:0:0:0:
254,0,55465,6,0,B|254:137|173:80|184:229,1,240,12|0,0:0|0:0,0:0:0:0:
278,374,55715,2,0,B|278:237|359:294|348:145,1,240,12|0,0:0|0:0,0:0:0:0:
108,24,55965,5,4,1:0:0:0:
50,39,56958,6,0,L|156:21,1,89.9999972534181,4|0,3:0|0:0,0:0:0:0:
103,181,57124,2,0,L|14:165,1,89.9999972534181,8|0,0:0|0:0,0:0:0:0:
6,173,57291,2,0,L|94:157,1,89.9999972534181,8|0,0:0|0:0,0:0:0:0:
115,313,57458,1,2,3:2:0:0:
41,292,57541,2,0,P|28:335|44:382,1,89.9999972534181,8|2,0:0|0:0,0:0:0:0:
181,277,57708,2,0,P|212:191|170:92,1,179.999994506836,8|0,0:0|0:0,0:0:0:0:
50,53,57958,5,2,3:2:0:0:
11,68,58041,1,0,1:0:0:0:
51,94,58124,1,0,1:0:0:0:
83,67,58208,1,0,1:0:0:0:
145,21,58291,5,10,0:0:0:0:
221,19,58374,1,8,0:0:0:0:
284,68,58458,1,10,0:0:0:0:
360,87,58541,1,8,0:0:0:0:
420,37,58624,5,8,0:3:0:0:
425,42,58708,1,8,0:3:0:0:
430,47,58791,1,8,0:3:0:0:
434,52,58874,1,8,0:3:0:0:
438,58,58958,6,0,B|342:72|399:112|261:122,1,179.999994506836,4|0,3:0|0:0,0:0:0:0:
221,176,59208,1,0,3:0:0:0:
144,162,59291,2,0,B|128:120|128:120|143:74,1,89.9999972534181,8|0,0:0|0:0,0:0:0:0:
297,203,59458,2,0,B|310:245|310:245|294:287,1,89.9999972534181,0|0,3:0|0:0,0:0:0:0:
146,305,59624,2,0,B|244:313|197:369|323:369,1,179.999994506836,8|0,0:0|0:0,0:0:0:0:
79,363,59874,5,8,0:0:0:0:
79,363,59958,2,0,P|39:243|90:98,1,269.999991760254,4|0,3:2|0:0,0:0:0:0:
227,164,60291,2,0,P|185:169|129:179,1,89.9999972534181,2|0,3:2|0:0,0:0:0:0:
310,23,60458,2,0,P|268:18|212:8,1,89.9999972534181,10|0,0:0|0:0,0:0:0:0:
52,31,60624,2,0,B|98:26|98:26|153:56,1,89.9999972534181,0|0,3:0|0:0,0:0:0:0:
309,118,60791,1,10,0:0:0:0:
374,166,60874,1,0,1:0:0:0:
444,134,60957,6,0,P|343:112|229:238,1,269.999991760254,4|0,3:0|0:0,0:0:0:0:
195,346,61291,2,0,P|153:361|88:360,1,89.9999972534181,0|0,3:0|0:0,0:0:0:0:
293,306,61457,2,0,P|335:321|400:320,1,89.9999972534181,10|0,0:0|0:0,0:0:0:0:
143,261,61624,1,0,1:0:0:0:
75,226,61707,1,0,1:0:0:0:
11,184,61791,6,0,L|188:151,1,179.999994506836,4|8,3:2|0:0,0:0:0:0:
257,110,62041,1,0,0:0:0:0:
331,139,62124,2,0,B|381:151|381:151|431:125,1,89.9999972534181,2|0,0:0|0:0,0:0:0:0:
511,72,62291,2,0,L|334:39,1,179.999994506836,2|8,3:2|0:0,0:0:0:0:
161,10,62541,5,8,0:0:0:0:
155,6,62624,2,0,B|163:103|100:54|106:172,1,179.999994506836,4|0,3:0|0:0,0:0:0:0:
45,264,62874,2,0,P|142:274|238:304,1,179.999994506836,8|0,0:0|0:0,0:0:0:0:
291,357,63124,2,0,B|313:318|313:318|304:273,1,89.9999972534181,2|0,3:2|0:0,0:0:0:0:
200,198,63291,2,0,P|297:188|393:158,1,179.999994506836,8|8,0:0|0:3,0:0:0:0:
483,20,63541,5,8,0:3:0:0:
483,20,63624,2,0,B|467:137|467:137|473:144|473:144|449:295,1,269.999991760254,4|0,3:0|0:0,0:0:0:0:
452,312,63957,2,0,L|447:212,1,89.9999972534181,0|0,3:0|0:0,0:0:0:0:
235,87,64124,1,8,0:0:0:0:
302,49,64207,1,8,0:0:0:0:
372,85,64291,2,0,B|382:127|382:127|367:174,1,89.9999972534181,0|0,3:0|0:0,0:0:0:0:
213,255,64457,2,0,P|257:262|301:271,1,89.9999972534181,8|0,0:0|0:0,0:0:0:0:
118,352,64624,5,8,0:0:0:0:
43,327,64707,1,2,0:0:0:0:
17,255,64791,1,10,0:0:0:0:
49,189,64874,1,10,0:0:0:0:
53,183,64957,1,2,0:0:0:0:
115,137,65040,5,2,0:0:0:0:
146,104,65124,1,2,0:0:0:0:
143,63,65207,1,2,0:0:0:0:
118,34,65290,1,2,0:0:0:0:
23,73,65374,5,2,0:0:0:0:
8,100,65457,5,2,0:0:0:0:
41,102,65540,5,2,0:0:0:0:
54,75,65624,5,4,0:0:0:0:
38,343,68290,5,0,3:0:0:0:
29,347,68374,2,0,L|205:333,1,150,12|0,0:0|0:0,0:0:0:0:
476,283,68540,5,0,3:0:0:0:
483,287,68624,2,0,L|307:273,1,150,12|0,0:0|0:0,0:0:0:0:
8,208,68790,5,0,3:0:0:0:
0,213,68874,2,0,L|176:199,1,150,12|0,0:0|0:0,0:0:0:0:
505,148,69040,5,0,3:0:0:0:
512,153,69124,2,0,L|336:139,1,150,12|0,0:0|0:0,0:0:0:0:
246,377,69290,6,0,B|261:326|261:326|247:276,1,104.999996795654,0|0,3:0|0:0,0:0:0:0:
268,83,69457,1,10,0:0:0:0:
215,65,69540,1,8,0:0:0:0:
160,67,69624,1,8,0:0:0:0:
108,99,69707,1,10,0:0:0:0:
55,117,69790,1,0,3:2:0:0:
0,115,69874,1,0,3:0:0:0:
23,45,69957,5,2,1:2:0:0:
29,42,70040,1,0,1:2:0:0:
37,42,70124,1,2,1:2:0:0:
44,41,70207,1,0,1:0:0:0:
50,42,70290,6,0,L|36:179,1,104.999996795654,12|0,0:0|0:0,0:0:0:0:
3,299,70457,5,10,0:0:0:0:
89,269,70540,5,12,0:0:0:0:
180,273,70624,5,8,0:0:0:0:
263,324,70707,5,8,0:0:0:0:
350,354,70790,5,12,0:0:0:0:
440,350,70874,5,8,0:0:0:0:
498,282,70957,6,0,L|511:56,1,225.000008583069,4|0,3:1|0:0,0:0:0:0:
408,206,71207,1,0,3:0:0:0:
408,206,71290,2,0,P|302:247|220:174,1,225.000008583069,10|0,0:0|0:0,0:0:0:0:
195,111,71540,1,8,0:0:0:0:
229,172,71624,2,0,P|236:239|206:291,1,112.500004291535,2|0,0:0|0:0,0:0:0:0:
53,349,71790,2,0,B|105:371|105:371|158:355,1,112.500004291535,0|0,3:0|0:0,0:0:0:0:
2,271,71957,2,0,P|-6:216|13:164,1,112.500004291535,10|0,0:0|0:0,0:0:0:0:
104,124,72124,1,0,3:0:0:0:
128,199,72207,1,0,1:0:0:0:
104,272,72290,6,0,B|98:140|183:197|165:40,1,225.000008583069,4|0,3:2|0:0,0:0:0:0:
220,268,72540,1,0,3:0:0:0:
220,268,72624,2,0,B|267:243|267:243|327:264,1,112.500004291535,10|0,0:0|0:0,0:0:0:0:
493,314,72790,1,0,0:0:0:0:
510,236,72873,1,8,0:0:0:0:
482,164,72957,2,0,L|367:173,1,112.500004291535,2|0,0:0|0:0,0:0:0:0:
363,163,73123,2,0,L|475:171,1,112.500004291535,0|0,3:0|0:0,0:0:0:0:
380,360,73290,2,0,P|404:259|328:128,1,225.000008583069,10|0,0:0|0:0,0:0:0:0:
215,30,73540,5,0,0:0:0:0:
215,30,73623,2,0,B|115:46|115:46|102:60|102:60|-17:79,1,225.000008583069,4|0,3:0|0:0,0:0:0:0:
46,309,73873,5,0,3:0:0:0:
46,309,73956,2,0,B|146:325|146:325|159:339|159:339|278:358,1,225.000008583069,8|0,0:0|0:0,0:0:0:0:
206,298,74207,1,8,0:0:0:0:
153,237,74290,2,0,B|137:187|137:187|164:126,1,112.500004291535,2|0,0:0|0:0,0:0:0:0:
257,57,74457,2,0,L|145:39,1,112.500004291535,0|0,3:0|0:0,0:0:0:0:
253,235,74623,2,0,L|364:217,1,112.500004291535,10|0,0:0|0:0,0:0:0:0:
361,40,74790,5,0,3:0:0:0:
434,62,74873,1,0,1:0:0:0:
507,88,74957,2,0,B|402:113|402:113|392:123|392:123|263:149,1,225.000008583069,4|0,3:2|0:0,0:0:0:0:
214,135,75207,1,0,3:0:0:0:
155,186,75290,2,0,B|119:199|119:199|31:172,1,112.500004291535,8|0,0:0|0:0,0:0:0:0:
79,10,75457,5,0,1:0:0:0:
91,3,75540,1,8,0:0:0:0:
103,0,75623,2,0,P|122:58|102:112,1,112.500004291535,4|0,0:0|0:0,0:0:0:0:
38,280,75790,2,0,P|93:282|160:311,1,112.500004291535,0|0,3:0|0:0,0:0:0:0:
473,349,75957,5,8,0:0:0:0:
402,384,76040,1,0,1:0:0:0:
336,343,76123,1,8,0:0:0:0:
264,369,76207,1,0,1:0:0:0:
259,373,76290,6,0,P|225:260|288:150,1,225.000008583069,4|0,3:1|0:0,0:0:0:0:
325,223,76540,1,0,3:0:0:0:
403,205,76623,2,0,P|437:92|374:-18,1,225.000008583069,10|0,0:0|0:0,0:0:0:0:
335,51,76873,1,8,0:0:0:0:
262,22,76957,2,0,P|207:41|167:92,1,112.500004291535,2|0,3:2|0:0,0:0:0:0:
192,272,77123,2,0,P|200:215|177:155,1,112.500004291535,0|0,3:0|0:0,0:0:0:0:
9,86,77290,1,10,0:0:0:0:
9,86,77373,1,8,0:0:0:0:
9,86,77457,2,0,P|53:121|117:131,1,112.500004291535,0|0,3:0|0:0,0:0:0:0:
257,114,77623,5,8,0:0:0:0:
52,384,77873,2,0,L|37:190,1,179.999994506836,4|0,3:2|0:0,0:0:0:0:
47,211,78290,1,8,0:0:0:0:
49,209,78373,1,8,0:0:0:0:
188,317,78623,5,8,0:0:0:0:
258,352,78706,1,0,1:0:0:0:
324,311,78789,1,0,1:0:0:0:
392,346,78873,1,0,1:0:0:0:
459,307,78957,6,0,L|464:74,1,225.000008583069,4|0,3:0|0:0,0:0:0:0:
476,74,79207,1,0,3:0:0:0:
476,71,79290,2,0,L|448:294,1,225.000008583069,10|0,0:0|0:0,0:0:0:0:
459,307,79540,1,0,1:0:0:0:
459,307,79623,2,0,L|454:74,1,225.000008583069,2|0,3:2|0:0,0:0:0:0:
388,38,79873,5,8,0:0:0:0:
309,40,79957,1,10,0:0:0:0:
251,89,80040,1,8,0:0:0:0:
174,101,80123,1,8,0:0:0:0:
96,83,80207,1,0,1:0:0:0:
41,27,80290,5,8,0:3:0:0:
45,21,80373,1,8,0:3:0:0:
51,15,80457,1,8,0:3:0:0:
58,10,80540,1,8,0:3:0:0:
65,6,80623,5,2,1:2:0:0:
141,6,80707,1,0,1:0:0:0:
202,52,80790,1,0,1:0:0:0:
210,124,80873,1,0,1:0:0:0:
175,189,80957,5,10,0:0:0:0:
95,188,81040,1,8,0:0:0:0:
60,253,81124,1,8,0:0:0:0:
68,325,81207,1,8,0:0:0:0:
129,369,81290,5,2,1:2:0:0:
155,378,81373,1,0,1:0:0:0:
183,379,81456,1,0,1:0:0:0:
210,371,81539,1,0,1:0:0:0:
230,356,81623,6,0,P|247:310|232:244,1,112.500004291535,10|8,0:0|0:3,0:0:0:0:
148,177,81790,2,0,P|135:231|154:283,1,112.500004291535,8|8,0:0|0:3,0:0:0:0:
325,358,81957,5,0,1:0:0:0:
352,366,82040,1,8,0:3:0:0:
380,365,82123,1,0,1:0:0:0:
406,356,82206,1,8,0:3:0:0:
413,351,82290,6,0,B|401:214|466:272|437:108,1,225.000008583069,4|8,3:1|0:3,0:0:0:0:
414,58,82540,1,8,0:3:0:0:
405,51,82623,2,0,P|373:84|359:136,1,89.9999972534181,0|0,1:0|3:0,0:0:0:0:
290,96,82790,2,0,P|286:141|309:190,1,89.9999972534181,8|0,0:0|3:0,0:0:0:0:
105,332,82957,6,0,P|137:299|151:247,1,89.9999972534181,0|0,1:0|3:0,0:0:0:0:
220,287,83124,2,0,P|223:241|200:192,1,89.9999972534181,0|0,1:0|3:0,0:0:0:0:
85,197,83290,5,0,3:0:0:0:
45,176,83373,1,8,0:3:0:0:
21,139,83456,1,0,1:0:0:0:
19,94,83539,1,8,0:3:0:0:
39,55,83624,1,0,1:0:0:0:
75,29,83707,1,0,3:0:0:0:
119,23,83790,6,0,L|215:41,1,89.9999972534181,8|0,0:0|0:0,0:0:0:0:
227,118,83957,2,0,L|315:102,1,89.9999972534181,0|8,1:0|0:3,0:0:0:0:
449,50,84123,5,0,1:0:0:0:
458,43,84207,1,8,0:3:0:0:
469,33,84290,2,0,B|463:138|463:138|468:147|468:147|459:278,1,240,4|0,3:0|3:0,0:0:0:0:
212,320,84540,1,2,0:0:0:0:
274,370,84623,1,2,1:2:0:0:
344,335,84707,1,2,0:0:0:0:
351,334,84790,2,0,B|374:282|374:282|348:218,1,120,10|0,0:0|3:0,0:0:0:0:
130,98,84957,5,0,1:0:0:0:
192,48,85040,1,0,3:0:0:0:
262,83,85124,1,0,1:0:0:0:
322,38,85207,1,8,0:0:0:0:
328,34,85290,2,0,B|351:86|351:86|325:150,1,120,4|0,3:2|0:0,0:0:0:0:
218,240,85457,5,8,0:3:0:0:
150,197,85540,1,8,0:0:0:0:
73,218,85623,1,8,0:0:0:0:
44,293,85707,1,0,1:0:0:0:
90,359,85790,1,2,1:2:0:0:
168,362,85873,5,8,0:3:0:0:
175,358,85957,1,8,0:3:0:0:
184,353,86040,1,0,1:0:0:0:
193,348,86123,1,8,0:3:0:0:
202,344,86207,1,0,1:0:0:0:
210,340,86290,5,4,3:0:0:0:
286,360,86373,1,8,0:0:0:0:
360,337,86457,1,0,1:0:0:0:
377,260,86540,1,8,0:0:0:0:
324,203,86623,1,0,1:0:0:0:
319,198,86707,1,8,0:0:0:0:
266,141,86790,5,4,3:2:0:0:
283,64,86873,1,8,0:3:0:0:
360,42,86957,1,0,1:0:0:0:
426,84,87040,1,8,0:3:0:0:
437,81,87123,1,0,1:0:0:0:
449,76,87207,1,8,3:0:0:0:
460,73,87290,6,0,B|484:130|484:130|459:193,1,120,4|0,3:2|0:0,0:0:0:0:
331,121,87457,1,0,3:0:0:0:
320,132,87540,2,0,L|329:268,1,120,0|0,3:0|3:0,0:0:0:0:
319,357,87679,5,0,3:0:0:0:
318,361,87735,1,0,3:0:0:0:
317,367,87790,6,0,B|295:312|295:312|319:255,1,120,4|0,3:2|0:0,0:0:0:0:
177,91,87957,1,0,1:0:0:0:
160,86,88012,1,0,1:0:0:0:
142,86,88068,1,0,3:0:0:0:
125,89,88123,1,0,3:0:0:0:
109,97,88179,1,0,3:0:0:0:
96,108,88235,1,0,3:0:0:0:
90,118,88290,6,0,B|29:234|29:234|90:369,1,269.999991760254,12|0,0:0|0:0,0:0:0:0:
420,363,88540,2,0,B|478:237|478:237|417:121,1,269.999991760254,12|0,0:0|0:0,0:0:0:0:
250,153,88790,6,0,L|257:302,1,134.999995880127,12|0,0:0|0:0,0:0:0:0:
171,373,88957,6,0,B|142:233|270:199|270:199|366:175|337:38,1,404.999987640381,12|0,0:0|0:0,0:0:0:0:
133,35,89290,6,0,P|32:134|85:270,1,269.999991760254,12|0,0:0|0:0,0:0:0:0:
375,356,89540,2,0,P|476:257|423:121,1,269.999991760254,12|0,0:0|0:0,0:0:0:0:
257,22,89790,5,4,1:0:0:0:
