osu file format v14

[General]
AudioFilename: audio.mp3
AudioLeadIn: 0
PreviewTime: 56467
Countdown: 0
SampleSet: Soft
StackLeniency: 0.3
Mode: 0
LetterboxInBreaks: 0
WidescreenStoryboard: 1

[Editor]
DistanceSpacing: 1.3
BeatDivisor: 8
GridSize: 32
TimelineZoom: 1.6

[Metadata]
Title:asura
TitleUnicode:asura
Artist:Co shu Nie
ArtistUnicode:Còˆ shu Nie
Creator:DeviousPanda
Version:Expert
Source:
Tags:Japanese Rock Aurora Gillstar iljaaz Melwoine AIR Agatsu Jounzan EvilElvis Natteke desu semaphore
BeatmapID:2063642
BeatmapSetID:986422

[Difficulty]
HPDrainRate:5
CircleSize:4.6
OverallDifficulty:8.4
ApproachRate:9.3
SliderMultiplier:1.8
SliderTickRate:1

[Events]
//Background and Video events
0,0,"asura.jpg",0,0
//Break Periods
2,30334,31580
//Storyboard Layer 0 (Background)
//Storyboard Layer 1 (Fail)
//Storyboard Layer 2 (Pass)
//Storyboard Layer 3 (Foreground)
//Storyboard Layer 4 (Overlay)
//Storyboard Sound Samples

[TimingPoints]
469,333.333333333333,4,2,2,80,1,0
469,-100,4,2,2,80,0,0
635,-100,4,2,2,60,0,0
2802,-100,4,2,2,80,0,0
3051,-100,4,2,2,60,0,0
3135,333.333333333333,3,2,2,80,1,0
3135,-100,3,2,2,60,0,0
3969,-100,3,2,2,60,0,0
4927,-100,3,2,2,5,0,0
4969,-100,3,2,2,60,0,0
6135,-80,3,2,2,50,0,0
9135,-1000,3,2,2,50,0,0
10135,-80,3,2,2,50,0,0
14135,333.333333333333,4,2,2,80,1,0
14135,-71.4285714285714,4,2,2,70,0,1
15134,-214.284183684402,4,2,2,70,0,1
15468,-71.4285714285714,4,2,2,70,0,1
15551,-71.4285714285714,4,2,2,60,0,1
15634,-71.4285714285714,4,2,2,70,0,1
15884,-71.4285714285714,4,2,2,60,0,1
15968,-71.4285714285714,4,2,2,70,0,1
16134,-71.4285714285714,4,2,2,60,0,1
16218,-71.4285714285714,4,2,2,70,0,1
17801,-214.284183684402,4,2,2,70,0,1
18134,-71.4285714285714,4,2,2,70,0,1
18551,-71.4285714285714,4,2,2,60,0,1
18634,-71.4285714285714,4,2,2,70,0,1
20468,-214.284183684402,4,2,2,70,0,1
20801,-71.4285714285714,4,2,2,70,0,1
20884,-71.4285714285714,4,2,2,60,0,1
20968,-71.4285714285714,4,2,2,70,0,1
21801,-214.284183684402,4,2,2,70,0,1
22134,-62.5,4,2,2,70,0,1
22217,-62.5,4,2,2,60,0,1
22301,-62.5,4,2,2,70,0,1
22551,-62.5,4,2,2,60,0,1
22634,-62.5,4,2,2,70,0,1
23551,-62.5,4,2,2,60,0,1
23634,-62.5,4,2,2,70,0,1
24801,-71.4285714285714,4,2,2,70,0,1
25801,-214.284183684402,4,2,2,70,0,1
26134,-71.4285714285714,4,2,2,70,0,1
26217,-71.4285714285714,4,2,2,60,0,1
26301,-71.4285714285714,4,2,2,70,0,1
26551,-71.4285714285714,4,2,2,60,0,1
26634,-71.4285714285714,4,2,2,70,0,1
26801,-71.4285714285714,4,2,2,60,0,1
26884,-71.4285714285714,4,2,2,70,0,1
27134,-214.284183684402,4,2,2,70,0,1
27468,-71.4285714285714,4,2,2,70,0,1
28551,-71.4285714285714,4,2,2,60,0,1
28717,-71.4285714285714,4,2,2,70,0,1
29050,-71.4285714285714,4,2,2,60,0,1
29134,-71.4285714285714,4,2,2,70,0,1
30134,333.333333333333,3,2,2,80,1,0
30134,-100,3,2,2,60,0,0
32801,333.333333333333,3,2,2,80,1,0
32801,-55.5555555555556,3,2,2,60,0,1
34801,-71.4285714285714,3,2,2,60,0,0
36801,-83.3333333333333,3,2,2,60,0,0
38468,-250,3,2,2,60,0,0
38801,-83.3333333333333,3,2,2,60,0,0
42800,-71.4285714285714,3,2,2,60,0,0
43770,-62.5,3,2,2,60,0,0
44800,333.333333333333,5,2,2,80,1,0
44800,-83.3333333333333,3,2,3,45,0,1
46466,-62.5,3,2,3,45,0,1
46800,-83.3333333333333,3,2,3,45,0,1
48133,-62.5,3,2,3,45,0,1
48466,-83.3333333333333,3,2,3,45,0,1
51383,-100,3,2,3,70,0,0
51466,333.333333333333,3,2,2,80,1,0
51467,-100,3,2,2,60,0,0
51508,-100,3,2,2,70,0,0
51634,-100,3,2,2,60,0,0
51675,-100,3,2,2,70,0,0
51801,-100,3,2,2,60,0,0
51842,-100,3,2,2,70,0,0
51968,-100,3,2,2,60,0,0
52051,-100,3,2,2,70,0,0
52134,-100,3,2,2,60,0,0
52218,-100,3,2,2,70,0,0
52301,-100,3,2,2,60,0,0
52384,-100,3,2,2,70,0,0
52468,-100,3,2,2,60,0,0
52509,-100,3,2,2,70,0,0
52634,-100,3,2,2,60,0,0
52675,-100,3,2,2,70,0,0
52801,-100,3,2,2,60,0,0
52842,-100,3,2,2,70,0,0
52968,-100,3,2,2,60,0,0
54549,-100,3,2,2,70,0,0
54799,-71.4285714285714,3,2,2,50,0,0
54966,-62.5,3,2,2,50,0,0
55465,-55.5555555555556,3,2,2,50,0,0
55715,-50,3,2,2,50,0,0
55965,-100,3,2,2,50,0,0
56507,-1000,3,2,2,50,0,0
56958,333.333333333333,3,2,2,80,1,0
56958,-66.6666666666667,3,2,2,50,0,1
58791,-222.222222222221,3,2,2,50,0,1
58958,-66.6666666666667,3,2,2,50,0,1
59958,-1000,3,2,2,50,0,0
60957,-66.6666666666667,3,2,2,50,0,1
61791,333.333333333333,3,2,2,80,1,0
61791,-66.6666666666667,3,2,2,50,0,1
62624,333.333333333333,3,2,2,80,1,0
62624,-66.6666666666667,3,2,2,50,0,1
64624,-66.6666666666667,3,2,2,50,0,1
64957,-66.6666666666667,3,2,2,50,0,1
65124,-66.6666666666667,3,2,2,45,0,1
65207,-66.6666666666667,3,2,2,40,0,1
65291,-66.6666666666667,3,2,2,35,0,1
65374,-66.6666666666667,3,2,2,30,0,1
65457,-66.6666666666667,3,2,2,25,0,1
65541,-66.6666666666667,3,2,2,20,0,1
65624,333.333333333333,4,2,2,15,1,0
65624,-1000,4,2,2,50,0,0
66957,-200,4,2,2,50,0,0
67290,-250,4,2,2,50,0,0
67624,-333.333333333333,4,2,2,50,0,0
67957,-500,4,2,2,50,0,0
68289,-500,4,2,2,65,0,0
68290,-66.6666666666667,4,2,2,65,0,1
70957,-66.6666666666667,3,2,2,70,0,1
73290,-200,3,2,2,70,0,1
73623,-57.1428571428571,3,2,2,70,0,1
77873,-133.333333333333,3,2,2,60,0,0
78290,-66.6666666666667,3,2,2,60,0,0
79290,-76.9230769230769,3,2,2,60,0,0
79623,-90.9090909090909,3,2,2,60,0,0
80957,-90.9090909090909,3,2,3,60,0,0
81290,-90.9090909090909,3,2,2,55,0,0
82123,-222.222222222222,3,2,2,55,0,0
82290,-90.9090909090909,3,2,2,55,0,0
86290,-90.9090909090909,3,2,2,55,0,1
88290,-50,3,2,2,70,0,1
88540,-40,3,2,2,70,0,1
88790,-36.3636363636364,3,2,2,70,0,1
88957,-50,3,2,2,70,0,1
89290,-40,3,2,2,70,0,1
89540,-33.3333333333333,3,2,2,70,0,1
89790,-125,3,2,2,70,0,0
90290,-125,3,2,2,30,0,0

[Colours]
Combo1 : 69,245,197
Combo2 : 224,46,46
Combo3 : 255,227,215
SliderBorder : 255,255,255

[HitObjects]
45,67,469,5,0,0:0:0:0:
33,59,635,5,2,0:0:0:0:
54,43,719,1,0,0:0:0:0:
89,47,802,1,2,0:0:0:0:
112,71,885,1,0,0:0:0:0:
144,83,969,1,2,0:0:0:0:
177,76,1052,1,0,0:0:0:0:
190,46,1135,6,0,P|183:28|165:8,1,45,2|0,0:0|0:0,0:0:0:0:
241,89,1302,2,0,P|252:74|260:49,1,45,2|0,0:0|0:0,0:0:0:0:
222,155,1469,2,0,P|240:158|266:152,1,45,2|0,0:0|0:0,0:0:0:0:
156,172,1635,2,0,P|162:189|180:209,1,45,2|0,0:0|0:0,0:0:0:0:
99,129,1802,5,2,0:0:0:0:
91,120,1969,5,2,0:0:0:0:
67,144,2052,1,0,0:0:0:0:
66,181,2135,1,2,0:0:0:0:
86,208,2219,1,0,0:0:0:0:
106,241,2302,1,2,0:0:0:0:
98,278,2385,1,0,0:0:0:0:
67,298,2469,6,0,P|42:302|6:285,1,45,2|0,0:0|0:0,0:0:0:0:
115,384,2635,1,2,0:0:0:0:
124,341,2719,1,0,0:0:0:0:
158,312,2802,2,0,P|220:295|283:337,1,135,2|0,0:1|0:0,0:0:0:0:
362,209,3135,5,0,1:0:0:0:
371,221,3219,2,0,L|357:299,1,45,0|0,1:0|0:0,0:0:0:0:
443,264,3385,2,0,L|459:340,1,45,0|0,1:0|0:0,0:0:0:0:
450,173,3552,5,0,1:0:0:0:
441,189,3635,1,0,1:0:0:0:
485,176,3719,1,0,1:0:0:0:
503,128,3802,1,0,1:0:0:0:
483,85,3885,1,0,1:0:0:0:
476,39,3969,6,0,P|478:26|503:-6,1,45,4|0,0:3|0:0,0:0:0:0:
393,116,4135,1,0,0:0:0:0:
405,109,4219,2,0,P|389:63|326:36,1,90,4|0,0:0|0:0,0:0:0:0:
190,126,4469,6,0,L|344:110,1,135,4|0,0:3|0:0,0:0:0:0:
187,241,4802,1,8,0:0:0:0:
178,233,4885,1,0,0:0:0:0:
169,224,4969,1,8,0:0:0:0:
162,215,5052,1,8,0:0:0:0:
154,206,5135,2,0,L|243:197,1,90,4|0,0:1|0:0,0:0:0:0:
357,301,5385,5,8,0:0:0:0:
363,288,5469,1,8,0:0:0:0:
315,259,5552,1,8,0:0:0:0:
259,266,5635,1,8,0:0:0:0:
226,308,5719,1,8,0:0:0:0:
179,319,5802,2,0,P|153:311|136:291,2,45,8|2|2,0:0|0:0|0:0,0:0:0:0:
300,349,6052,5,2,0:0:0:0:
298,334,6135,1,4,3:0:0:0:
420,90,6302,6,0,P|416:117|400:141,1,56.25,8|0,0:0|0:0,0:0:0:0:
436,203,6469,2,0,P|410:213|382:212,1,56.25,10|0,0:0|0:0,0:0:0:0:
162,183,6635,5,2,3:2:0:0:
214,136,6719,1,8,0:0:0:0:
278,142,6802,1,2,0:0:0:0:
308,185,6885,1,8,0:0:0:0:
311,231,6969,2,0,P|323:255|346:273,1,56.25,2|0,0:0|0:0,0:0:0:0:
478,135,7135,5,2,3:2:0:0:
243,214,7302,1,0,0:0:0:0:
243,214,7385,1,8,0:0:0:0:
243,214,7469,1,2,0:0:0:0:
427,214,7635,5,2,3:2:0:0:
200,72,7802,1,2,0:0:0:0:
150,52,7885,1,8,0:0:0:0:
101,69,7969,1,0,1:0:0:0:
81,116,8052,1,0,1:0:0:0:
88,170,8135,6,0,P|105:234|68:308,1,112.5,2|0,3:2|0:0,0:0:0:0:
99,342,8385,1,0,3:0:0:0:
114,346,8469,2,0,P|140:332|160:289,1,56.25,8|0,0:0|0:0,0:0:0:0:
216,271,8635,2,0,P|228:297|227:325,1,56.25,0|0,3:0|0:0,0:0:0:0:
264,215,8802,2,0,P|241:201|213:198,1,56.25,8|0,0:0|0:0,0:0:0:0:
228,0,8969,5,0,1:0:0:0:
235,9,9052,1,8,0:0:0:0:
242,17,9135,2,0,L|237:37,1,18,2|2,3:2|3:2,0:0:0:0:
324,124,9635,6,0,L|320:109,1,13.5,10|8,0:2|0:3,0:0:0:0:
449,61,9969,5,10,0:0:0:0:
454,79,10052,1,8,0:0:0:0:
458,95,10135,2,0,B|413:108|372:79|378:68|384:57|344:30|305:41,1,168.75,4|0,3:2|0:0,0:0:0:0:
321,111,10469,1,0,3:0:0:0:
400,184,10635,6,0,P|406:211|400:239,1,56.25,8|0,0:0|0:0,0:0:0:0:
457,283,10802,2,0,P|437:302|411:311,1,56.25,8|0,0:0|1:0,0:0:0:0:
352,357,10969,2,0,P|373:375|400:383,1,56.25,4|0,3:2|0:0,0:0:0:0:
340,282,11135,5,8,0:0:0:0:
340,282,11219,1,0,0:0:0:0:
340,282,11302,2,0,L|243:298,1,56.25,2|0,0:0|0:0,0:0:0:0:
161,307,11469,1,0,3:2:0:0:
402,181,11635,5,8,0:0:0:0:
371,210,11719,1,8,0:0:0:0:
328,210,11802,2,0,P|274:198|237:150,1,112.5,4|0,3:2|0:0,0:0:0:0:
175,140,12052,1,0,1:0:0:0:
172,128,12135,2,0,P|191:100|232:87,1,56.25,2|0,0:0|0:0,0:0:0:0:
202,23,12302,2,0,P|235:25|267:54,1,56.25,2|0,3:2|0:0,0:0:0:0:
323,54,12469,2,0,P|325:26|316:0,1,56.25,8|0,0:0|0:0,0:0:0:0:
71,2,12634,5,0,0:0:0:0:
81,12,12719,1,0,1:0:0:0:
90,22,12802,2,0,L|63:197,1,168.75,4|0,3:0|0:0,0:0:0:0:
47,336,13135,6,0,P|71:320|118:324,1,56.25,2|0,3:2|0:0,0:0:0:0:
171,259,13302,1,8,0:0:0:0:
165,271,13385,1,0,0:0:0:0:
159,284,13469,2,0,P|142:261|117:249,1,56.25,0|0,3:0|0:0,0:0:0:0:
253,353,13635,5,2,1:2:0:0:
263,362,13802,5,2,0:0:0:0:
254,297,13885,1,2,0:0:0:0:
246,231,13969,1,2,0:0:0:0:
237,162,14052,1,2,0:0:0:0:
228,93,14135,6,0,P|252:148|332:167,1,125.999996154785,4|0,3:1|0:0,0:0:0:0:
374,190,14385,1,0,3:0:0:0:
378,204,14468,2,0,P|331:243|270:237,1,125.999996154785,10|0,0:0|0:0,0:0:0:0:
465,218,14718,1,8,0:0:0:0:
452,212,14801,2,0,P|445:174|415:144,1,62.9999980773926,2|0,0:0|0:0,0:0:0:0:
470,95,14968,2,0,P|433:82|392:93,1,62.9999980773926,0|0,3:0|0:0,0:0:0:0:
335,64,15134,6,0,P|348:35|379:16,1,63.0004511751061,10|0,0:0|0:0,0:0:0:0:
474,223,15468,6,0,L|369:209,1,62.9999980773926,0|0,3:0|0:0,0:0:0:0:
251,264,15634,1,2,0:0:0:0:
259,278,15718,1,0,3:0:0:0:
268,291,15801,2,0,L|373:277,1,62.9999980773926,10|0,0:0|0:0,0:0:0:0:
463,135,15968,5,0,0:0:0:0:
454,148,16051,2,0,L|349:134,1,62.9999980773926,10|0,0:0|0:0,0:0:0:0:
315,353,16218,5,0,0:0:0:0:
324,366,16301,2,0,L|429:352,1,62.9999980773926,2|0,3:2|0:0,0:0:0:0:
353,0,16468,6,0,B|374:47|347:88|339:82|331:78|292:129|329:172,1,188.999994232178,8|0,0:0|0:0,0:0:0:0:
391,139,16801,6,0,P|397:202|354:244,1,125.999996154785,4|0,3:2|0:0,0:0:0:0:
306,295,17051,1,0,3:0:0:0:
310,306,17134,2,0,P|337:319|380:315,1,62.9999980773926,8|0,0:0|0:0,0:0:0:0:
241,289,17301,1,2,0:0:0:0:
233,300,17384,2,0,P|235:329|261:367,2,62.9999980773926,8|0|0,0:0|0:0|0:0,0:0:0:0:
157,274,17634,2,0,P|173:247|199:230,1,62.9999980773926,2|0,3:2|0:0,0:0:0:0:
245,165,17801,6,0,P|216:151|181:152,1,63.0004511751061,8|0,0:0|0:0,0:0:0:0:
294,5,18134,6,0,L|320:129,1,125.999996154785,2|0,3:2|0:0,0:0:0:0:
119,106,18384,1,0,3:0:0:0:
132,99,18468,2,0,L|150:25,1,62.9999980773926,10|0,0:0|0:0,0:0:0:0:
410,244,18634,5,0,0:0:0:0:
396,239,18718,2,0,L|382:178,1,62.9999980773926,10|0,0:0|3:0,0:0:0:0:
63,153,18884,5,0,1:0:0:0:
72,165,18968,2,0,L|57:226,1,62.9999980773926,2|0,3:2|0:0,0:0:0:0:
214,384,19134,5,12,0:0:0:0:
246,342,19218,1,0,0:0:0:0:
241,289,19301,1,8,0:0:0:0:
203,253,19384,1,8,0:0:0:0:
189,202,19468,6,0,P|191:158|297:98,1,125.999996154785,4|0,3:0|0:0,0:0:0:0:
290,50,19718,1,0,3:0:0:0:
292,36,19801,2,0,P|231:22|178:57,1,125.999996154785,10|0,0:0|0:0,0:0:0:0:
354,6,20051,1,8,0:0:0:0:
361,0,20134,2,0,P|371:37|357:81,1,62.9999980773926,2|0,0:0|0:0,0:0:0:0:
432,98,20301,2,0,P|404:125|359:135,1,62.9999980773926,0|0,3:0|0:0,0:0:0:0:
326,182,20468,6,0,P|351:201|388:207,1,63.0004511751061,10|0,0:0|1:0,0:0:0:0:
450,181,20801,6,0,L|463:242,1,62.9999980773926,4|0,3:2|0:0,0:0:0:0:
224,366,20968,1,0,0:0:0:0:
235,358,21051,1,0,3:0:0:0:
246,351,21134,2,0,L|275:187,1,125.999996154785,10|0,0:0|0:0,0:0:0:0:
398,48,21384,5,8,0:0:0:0:
389,62,21468,2,0,L|402:123,1,62.9999980773926,2|0,0:0|0:0,0:0:0:0:
237,106,21634,2,0,L|223:167,1,62.9999980773926,0|0,3:0|0:0,0:0:0:0:
417,345,21801,6,0,L|401:280,1,63.0004511751061,10|0,0:0|0:0,0:0:0:0:
209,30,22134,6,0,P|171:59|169:120,1,72,4|0,3:0|0:0,0:0:0:0:
211,243,22301,1,0,0:0:0:0:
229,237,22384,1,0,3:0:0:0:
243,232,22468,2,0,P|236:184|185:152,1,72,8|0,0:0|0:0,0:0:0:0:
99,49,22634,5,0,0:0:0:0:
62,106,22718,1,8,0:0:0:0:
17,159,22801,2,0,P|62:176|115:148,1,72,2|0,0:0|0:0,0:0:0:0:
153,189,22968,2,0,P|137:220|107:239,1,72,0|0,3:0|0:0,0:0:0:0:
5,346,23134,6,0,B|51:386|111:346|105:338|98:328|146:290|206:320,1,216,10|0,0:0|1:0,0:0:0:0:
323,384,23468,6,0,L|307:281,1,72,4|0,3:2|0:0,0:0:0:0:
427,199,23634,1,0,0:0:0:0:
434,210,23718,1,0,3:0:0:0:
441,220,23801,2,0,L|426:290,1,72,8|0,0:0|0:0,0:0:0:0:
228,83,23968,5,0,1:0:0:0:
260,45,24051,1,8,0:0:0:0:
317,35,24134,1,4,0:0:0:0:
360,66,24218,1,0,0:0:0:0:
411,73,24301,2,0,P|441:59|469:0,1,72,0|0,3:0|0:0,0:0:0:0:
295,106,24468,5,8,0:0:0:0:
292,120,24551,1,0,1:0:0:0:
291,133,24634,1,8,0:0:0:0:
288,147,24718,1,0,1:0:0:0:
286,159,24801,6,0,P|211:207|142:175,1,125.999996154785,4|0,3:1|0:0,0:0:0:0:
109,201,25051,1,0,3:0:0:0:
98,211,25134,2,0,P|129:263|188:282,1,125.999996154785,10|0,0:0|0:0,0:0:0:0:
31,190,25384,1,8,0:0:0:0:
30,177,25468,2,0,P|60:148|101:141,1,62.9999980773926,2|0,0:0|0:0,0:0:0:0:
83,66,25634,2,0,P|123:77|149:109,1,62.9999980773926,0|0,3:0|0:0,0:0:0:0:
210,116,25801,6,0,P|214:85|205:55,1,63.0004511751061,10|0,0:0|0:0,0:0:0:0:
50,292,26134,6,0,L|119:284,1,62.9999980773926,0|0,3:0|0:0,0:0:0:0:
227,360,26301,1,2,0:0:0:0:
219,368,26384,1,0,3:0:0:0:
211,377,26468,2,0,L|142:369,1,62.9999980773926,10|0,0:0|0:0,0:0:0:0:
135,198,26634,5,0,0:0:0:0:
143,206,26717,1,10,0:0:0:0:
151,215,26801,2,0,L|220:207,1,62.9999980773926,0|0,0:0|0:0,0:0:0:0:
297,359,26968,2,0,L|366:367,1,62.9999980773926,2|0,3:2|0:0,0:0:0:0:
328,128,27134,6,0,L|253:139,1,63.0004511751061,8|0,0:0|0:0,0:0:0:0:
344,43,27468,6,0,P|403:86|405:167,1,125.999996154785,4|0,3:2|0:0,0:0:0:0:
432,206,27718,1,0,3:0:0:0:
444,211,27801,2,0,P|486:166|489:105,1,125.999996154785,10|0,0:0|0:0,0:0:0:0:
477,287,28051,1,8,0:0:0:0:
465,279,28134,2,0,P|428:282|395:261,1,62.9999980773926,2|0,0:0|0:0,0:0:0:0:
357,323,28301,2,0,P|335:292|337:253,1,62.9999980773926,0|0,3:0|0:0,0:0:0:0:
300,203,28468,2,0,P|275:222|264:251,1,62.9999980773926,10|0,0:0|0:0,0:0:0:0:
278,134,28634,2,0,P|309:130|338:142,1,62.9999980773926,0|0,0:0|0:0,0:0:0:0:
159,367,28801,6,0,L|183:168,1,188.999994232178,4|0,3:0|0:0,0:0:0:0:
113,7,29134,5,8,0:0:0:0:
80,46,29218,1,8,0:0:0:0:
88,98,29301,1,8,0:0:0:0:
139,120,29384,1,8,0:0:0:0:
191,99,29468,1,2,1:2:0:0:
242,89,29551,1,0,1:0:0:0:
272,107,29634,1,0,1:0:0:0:
278,134,29718,1,0,1:0:0:0:
269,151,29801,1,8,0:3:0:0:
255,153,29884,1,8,0:3:0:0:
247,148,29968,1,8,0:3:0:0:
247,143,30051,1,8,0:3:0:0:
251,140,30134,5,4,3:1:0:0:
503,115,32134,6,0,L|445:107,1,45,2|0,0:0|0:0,0:0:0:0:
332,91,32301,1,0,0:0:0:0:
322,78,32468,5,8,0:0:0:0:
285,101,32551,1,8,0:0:0:0:
275,147,32634,1,8,0:0:0:0:
296,185,32718,1,8,0:0:0:0:
330,201,32801,6,0,B|354:212|370:194|370:194|310:156|250:225,1,161.999995056153,4|0,3:0|0:0,0:0:0:0:
219,345,33051,2,0,B|197:360|205:383|205:383|267:350|238:263,1,161.999995056153,8|0,0:0|0:0,0:0:0:0:
150,177,33301,6,0,B|147:150|123:145|123:145|117:169|143:188,1,80.9999975280763,0|0,3:0|0:0,0:0:0:0:
60,247,33468,6,0,B|38:227|2:231|2:231|36:199|86:215|79:232|72:245|124:269|169:244,1,242.999992584229,8|0,0:0|0:0,0:0:0:0:
232,52,33801,6,0,B|244:120|244:120|249:127|249:127|267:235,1,161.999995056153,4|0,3:0|0:0,0:0:0:0:
339,352,34051,2,0,B|351:284|351:284|356:277|356:277|374:169,1,161.999995056153,0|0,3:0|0:0,0:0:0:0:
166,343,34301,5,0,3:0:0:0:
154,336,34384,1,0,0:0:0:0:
142,330,34468,2,0,B|236:312,1,80.9999975280763,8|0,0:0|0:0,0:0:0:0:
428,154,34634,5,8,0:0:0:0:
447,140,34717,1,0,1:0:0:0:
467,126,34801,2,0,B|314:100,1,125.999996154785,4|0,3:2|0:0,0:0:0:0:
173,248,35051,5,0,3:0:0:0:
161,258,35134,2,0,P|151:224|169:177,1,62.9999980773926,2|0,0:0|0:0,0:0:0:0:
158,129,35301,1,2,3:2:0:0:
149,123,35384,1,0,0:0:0:0:
139,116,35467,2,0,P|109:127|89:150,1,62.9999980773926,10|0,0:0|0:0,0:0:0:0:
141,43,35634,2,0,P|171:49|195:69,1,62.9999980773926,2|0,0:0|0:0,0:0:0:0:
262,189,35801,5,2,3:2:0:0:
273,199,35884,2,0,L|256:100,1,62.9999980773926,8|0,0:0|1:0,0:0:0:0:
375,72,36051,5,0,3:0:0:0:
364,62,36134,2,0,L|381:161,1,62.9999980773926,2|2,1:2|1:2,0:0:0:0:
442,236,36301,5,2,3:2:0:0:
413,214,36384,1,2,1:2:0:0:
372,216,36468,1,2,1:2:0:0:
336,235,36551,1,2,1:2:0:0:
307,263,36634,1,2,1:2:0:0:
261,273,36718,1,2,1:2:0:0:
216,253,36801,6,0,P|189:195|222:141,1,107.999996704102,4|0,3:0|0:0,0:0:0:0:
147,104,37051,1,0,3:0:0:0:
147,114,37134,2,0,P|177:91|202:87,1,53.9999983520508,10|0,0:0|0:0,0:0:0:0:
203,19,37301,2,0,P|237:33|253:53,1,53.9999983520508,2|0,3:2|0:0,0:0:0:0:
273,199,37468,6,0,L|310:52,1,107.999996704102,8|0,0:0|3:0,0:0:0:0:
376,28,37718,1,0,1:0:0:0:
367,37,37801,2,0,L|403:171,1,107.999996704102,0|0,3:0|0:0,0:0:0:0:
199,221,38051,1,0,3:0:0:0:
190,209,38134,2,0,L|213:126,1,53.9999983520508,8|0,0:0|0:0,0:0:0:0:
360,47,38301,2,0,L|383:130,1,53.9999983520508,2|0,3:2|1:0,0:0:0:0:
173,52,38468,6,0,L|196:-31,1,53.9999983520508,8|0,0:0|1:0,0:0:0:0:
423,216,38801,6,0,B|377:238|346:211|349:205|351:200|309:174|270:200,1,161.999995056153,4|0,3:2|3:0,0:0:0:0:
305,259,39134,6,0,P|291:294|293:324,1,53.9999983520508,10|0,0:0|0:0,0:0:0:0:
380,106,39301,2,0,P|394:141|392:171,1,53.9999983520508,2|0,3:2|0:0,0:0:0:0:
260,376,39468,6,0,P|238:360|223:338,1,53.9999983520508,10|0,0:0|0:0,0:0:0:0:
459,185,39635,2,0,P|435:214|407:224,1,53.9999983520508,2|0,0:0|0:0,0:0:0:0:
426,288,39801,2,0,P|388:283|364:262,1,53.9999983520508,2|0,3:2|0:0,0:0:0:0:
290,81,39968,5,10,0:0:0:0:
297,93,40051,2,0,L|269:210,1,107.999996704102,0|0,0:0|0:0,0:0:0:0:
183,58,40301,2,0,L|203:143,1,53.9999983520508,2|0,3:2|0:0,0:0:0:0:
325,300,40468,6,0,L|373:104,1,161.999995056153,8|0,0:0|0:0,0:0:0:0:
165,272,40801,6,0,P|163:231|107:172,1,107.999996704102,4|0,3:0|0:0,0:0:0:0:
54,140,41051,1,2,3:2:0:0:
65,141,41134,2,0,P|86:119|138:119,1,53.9999983520508,8|2,0:0|3:2,0:0:0:0:
225,145,41301,2,0,P|187:134|171:108,1,53.9999983520508,2|0,0:0|0:0,0:0:0:0:
157,1,41468,1,0,3:0:0:0:
166,8,41551,2,0,P|165:43|140:78,1,53.9999983520508,10|0,0:0|0:0,0:0:0:0:
46,271,41718,5,0,0:0:0:0:
57,259,41801,2,0,L|188:274,1,107.999996704102,2|0,3:2|0:0,0:0:0:0:
88,358,42051,1,0,3:0:0:0:
77,346,42134,2,0,L|-8:357,1,53.9999983520508,10|0,0:0|3:0,0:0:0:0:
89,193,42301,2,0,L|174:204,1,53.9999983520508,2|0,0:0|0:0,0:0:0:0:
253,324,42468,1,2,3:2:0:0:
244,335,42551,2,0,L|159:346,1,53.9999983520508,8|0,0:0|0:0,0:0:0:0:
260,136,42718,5,0,0:0:0:0:
248,129,42800,2,0,P|242:208|309:250,1,125.999996154785,4|0,3:1|0:0,0:0:0:0:
329,104,43051,1,2,3:2:0:0:
334,94,43134,2,0,P|305:61|261:50,1,62.9999980773926,8|0,0:0|3:0,0:0:0:0:
346,225,43301,2,0,P|346:256|333:284,1,62.9999980773926,2|0,0:0|0:0,0:0:0:0:
388,144,43468,1,2,3:2:0:0:
399,143,43551,2,0,P|413:101|400:57,1,62.9999980773926,8|0,0:0|0:0,0:0:0:0:
512,225,43718,5,0,0:0:0:0:
500,219,43801,2,0,L|425:228,1,72,2|2,3:2|0:0,0:0:0:0:
492,81,43968,2,0,L|417:72,1,72,2|2,0:0|3:2,0:0:0:0:
344,291,44134,6,0,L|256:307,1,72,10|2,0:0|3:2,0:0:0:0:
218,162,44300,2,0,L|315:171,1,72,2|2,0:0|0:0,0:0:0:0:
352,28,44467,2,0,L|277:19,1,72,10|2,0:0|0:0,0:0:0:0:
65,192,44634,5,8,0:0:0:0:
137,178,44718,1,8,0:0:0:0:
210,168,44800,6,0,P|235:190|242:221,2,53.9999983520508,4|0|0,3:2|0:0|0:0,0:0:0:0:
132,89,45050,1,0,3:0:0:0:
121,100,45133,1,8,0:0:0:0:
164,114,45217,1,0,3:0:0:0:
203,92,45300,2,0,P|217:76|228:40,1,53.9999983520508,0|0,0:0|0:0,0:0:0:0:
51,6,45467,5,0,3:0:0:0:
42,16,45550,2,0,L|54:92,2,53.9999983520508,10|0|0,0:0|3:0|0:0,0:0:0:0:
2,133,45800,5,0,0:0:0:0:
11,142,45883,1,0,3:0:0:0:
20,152,45967,2,0,L|8:228,1,53.9999983520508,8|0,0:0|3:0,0:0:0:0:
164,114,46133,2,0,L|152:38,1,53.9999983520508,0|0,0:0|0:0,0:0:0:0:
79,236,46300,5,0,3:0:0:0:
76,250,46383,1,8,0:0:0:0:
74,263,46467,2,0,B|99:283|141:260|139:254|136:247|166:217|214:233,1,144,2|0,3:2|0:0,0:0:0:0:
292,316,46717,5,0,3:0:0:0:
278,325,46800,2,0,P|273:294|289:260,1,53.9999983520508,8|0,0:0|3:0,0:0:0:0:
326,183,46967,2,0,P|301:202|265:203,1,53.9999983520508,0|0,0:0|0:0,0:0:0:0:
25,191,47133,5,0,3:0:0:0:
36,182,47217,1,8,0:0:0:0:
47,173,47300,2,0,P|76:184|97:213,1,53.9999983520508,2|0,3:2|0:0,0:0:0:0:
157,183,47467,2,0,P|161:213|147:246,1,53.9999983520508,0|0,0:0|3:0,0:0:0:0:
210,270,47633,1,8,0:0:0:0:
207,283,47717,2,0,P|187:301|161:308,1,53.9999983520508,0|0,3:0|0:0,0:0:0:0:
287,384,47883,5,0,0:0:0:0:
267,341,47967,1,0,3:0:0:0:
283,289,48050,1,8,0:0:0:0:
292,300,48133,6,0,P|335:271|348:173,1,144,4|0,3:2|0:0,0:0:0:0:
322,83,48383,1,0,3:0:0:0:
321,100,48466,2,0,P|350:115|400:104,1,53.9999983520508,8|0,0:0|3:0,0:0:0:0:
458,39,48633,5,0,0:0:0:0:
451,49,48717,1,0,0:0:0:0:
443,60,48800,2,0,L|460:131,1,53.9999983520508,0|8,3:0|0:0,0:0:0:0:
260,23,48967,2,0,L|233:150,1,107.999996704102,2|0,3:2|0:0,0:0:0:0:
429,245,49217,5,0,3:0:0:0:
436,233,49300,2,0,L|419:162,2,53.9999983520508,8|0|0,0:0|3:0|0:0,0:0:0:0:
292,300,49550,5,0,0:0:0:0:
284,288,49633,1,0,3:0:0:0:
276,276,49717,1,8,0:0:0:0:
269,264,49800,2,0,L|286:193,2,53.9999983520508,2|0|0,3:2|0:0|0:0,0:0:0:0:
476,352,50050,5,0,3:0:0:0:
442,322,50133,1,8,0:0:0:0:
397,317,50217,1,0,3:0:0:0:
357,337,50300,1,0,0:0:0:0:
315,373,50383,1,0,0:0:0:0:
259,370,50467,1,0,3:0:0:0:
221,335,50550,1,10,0:0:0:0:
213,345,50633,6,0,L|227:261,2,53.9999983520508,0|0|2,3:0|0:0|0:0,0:0:0:0:
354,224,50883,1,0,3:0:0:0:
363,235,50967,1,8,0:0:0:0:
372,248,51049,2,0,L|348:71,1,161.999995056153,2|0,3:2|0:0,0:0:0:0:
172,23,51383,5,0,0:0:0:0:
168,36,51465,2,0,P|179:55|184:61,2,22.5,4|0|0,3:0|0:0|0:0,0:0:0:0:
168,120,51632,2,0,P|190:119|200:116,2,22.5,2|0|0,0:0|0:0|0:0,0:0:0:0:
240,161,51799,2,0,P|251:141|253:131,2,22.5,2|0|0,0:0|0:0|0:0,0:0:0:0:
161,265,51966,5,10,0:0:0:0:
172,253,52049,2,0,L|162:203,1,45,0|2,0:0|0:0,0:0:0:0:
273,301,52216,5,0,0:0:0:0:
262,289,52299,2,0,L|272:239,1,45,2|0,0:0|0:0,0:0:0:0:
342,172,52466,6,0,P|330:152|323:145,2,22.5,4|0|0,3:2|0:0|0:0,0:0:0:0:
342,88,52632,2,0,P|319:88|310:91,2,22.5,2|0|0,0:0|0:0|0:0,0:0:0:0:
270,47,52799,2,0,P|258:66|256:76,2,22.5,2|0|0,0:0|0:0|0:0,0:0:0:0:
251,141,52966,5,2,3:2:0:0:
203,128,53049,1,8,0:0:0:0:
171,83,53132,1,2,3:2:0:0:
126,50,53216,1,8,0:0:0:0:
72,63,53299,1,0,1:0:0:0:
43,108,53382,1,0,1:0:0:0:
56,106,53466,5,4,3:0:0:0:
125,212,54549,6,0,P|181:189|215:196,1,90,12|0,0:0|0:0,0:0:0:0:
311,105,54799,2,0,P|275:127|256:163,1,62.9999980773926,4|0,3:2|0:0,0:0:0:0:
273,347,54966,6,0,P|299:272|252:188,1,144,12|0,0:0|0:0,0:0:0:0:
93,138,55215,2,0,P|54:245|75:279,1,144,12|0,0:0|0:0,0:0:0:0:
397,107,55465,2,0,P|337:30|254:46,1,161.999995056153,12|0,0:0|0:0,0:0:0:0:
0,374,55715,6,0,B|85:363|85:363|97:369|97:369|251:350,1,180,12|0,0:0|0:0,0:0:0:0:
273,347,55965,1,4,1:0:0:0:
161,260,56507,6,0,L|158:281,1,20.25
110,212,56958,6,0,P|134:195|188:197,1,67.5000025749208,4|0,3:0|0:0,0:0:0:0:
239,164,57124,2,0,P|221:136|192:121,1,67.5000025749208,8|0,0:0|0:0,0:0:0:0:
297,209,57291,2,0,P|311:179|309:145,1,67.5000025749208,8|0,0:0|0:0,0:0:0:0:
271,0,57458,5,2,3:2:0:0:
280,14,57541,2,0,L|266:92,1,67.5000025749208,8|2,0:0|0:0,0:0:0:0:
380,0,57708,2,0,L|401:133,1,135.000005149842,8|0,0:0|0:0,0:0:0:0:
287,279,57958,6,0,P|320:277|349:259,1,67.5000025749208,2|0,3:2|1:0,0:0:0:0:
263,349,58124,2,0,P|234:332|215:304,1,67.5000025749208,0|0,1:0|1:0,0:0:0:0:
222,216,58291,5,10,0:0:0:0:
171,224,58374,1,8,0:0:0:0:
134,267,58458,1,10,0:0:0:0:
130,322,58541,1,8,0:0:0:0:
161,364,58624,5,8,0:3:0:0:
158,352,58708,1,8,0:3:0:0:
155,342,58791,2,0,L|149:315,1,20.2499993820191,8|8,0:3|0:3,0:3:0:0:
55,279,58958,5,4,3:0:0:0:
297,358,59124,1,0,0:0:0:0:
297,358,59208,1,0,3:0:0:0:
297,358,59291,6,0,P|305:315|274:270,1,67.5000025749208,8|0,0:0|0:0,0:0:0:0:
306,213,59458,2,0,P|338:222|362:246,1,67.5000025749208,0|0,3:0|0:0,0:0:0:0:
297,133,59624,2,0,P|264:141|241:165,1,67.5000025749208,8|0,0:0|0:0,0:0:0:0:
213,256,59791,5,0,0:0:0:0:
223,252,59874,1,8,0:0:0:0:
234,247,59958,2,0,L|230:260,1,13.5,4|0,3:2|0:0,0:0:0:0:
176,346,60291,5,2,3:2:0:0:
187,349,60458,2,0,L|183:336,1,13.5,10|0,0:0|0:0,0:0:0:0:
92,180,60791,5,10,0:0:0:0:
88,198,60874,1,0,1:0:0:0:
85,214,60957,2,0,B|133:243|183:214|176:204|169:192|225:153|275:190,1,202.500007724762,4|0,3:0|0:0,0:0:0:0:
341,203,61291,6,0,P|329:233|303:255,1,67.5000025749208,0|0,3:0|0:0,0:0:0:0:
417,205,61457,2,0,P|412:172|392:146,1,67.5000025749208,10|0,0:0|0:0,0:0:0:0:
369,56,61624,5,0,1:0:0:0:
368,66,61707,1,0,1:0:0:0:
367,76,61791,2,0,P|400:72|431:85,1,67.5000025749208,4|0,3:2|0:0,0:0:0:0:
328,5,61957,2,0,P|301:25|288:55,1,67.5000025749208,8|0,0:0|0:0,0:0:0:0:
316,128,62123,5,2,0:0:0:0:
325,138,62290,2,0,L|178:122,1,135.000005149842,2|8,3:2|0:0,0:0:0:0:
127,366,62540,5,8,0:0:0:0:
132,379,62624,2,0,P|156:359|112:239,1,135.000005149842,4|0,3:0|0:0,0:0:0:0:
211,199,62873,5,8,0:0:0:0:
203,211,62956,2,0,P|151:189|100:212,1,67.5000025749208,0|0,0:0|0:0,0:0:0:0:
121,123,63123,2,0,P|75:157|70:212,1,67.5000025749208,2|0,3:2|0:0,0:0:0:0:
15,213,63290,2,0,P|1:183|3:150,1,67.5000025749208,8|0,0:0|0:0,0:0:0:0:
159,32,63456,5,8,0:3:0:0:
166,26,63540,1,8,0:3:0:0:
175,19,63624,2,0,L|199:243,1,202.500007724762,4|0,3:0|0:0,0:0:0:0:
168,357,63956,6,0,P|187:331|228:314,1,67.5000025749208,0|0,3:0|0:0,0:0:0:0:
320,307,64123,1,8,0:0:0:0:
305,312,64206,1,8,0:0:0:0:
291,316,64290,2,0,P|281:274|235:241,1,67.5000025749208,0|0,3:0|0:0,0:0:0:0:
234,384,64456,1,8,0:0:0:0:
157,135,64623,5,8,0:0:0:0:
172,116,64706,1,2,0:0:0:0:
203,107,64790,1,10,0:0:0:0:
254,117,64873,1,10,0:0:0:0:
305,156,64956,1,2,0:0:0:0:
369,168,65040,1,2,0:0:0:0:
419,145,65123,1,2,0:0:0:0:
428,105,65206,1,2,0:0:0:0:
412,76,65290,1,2,0:0:0:0:
393,70,65373,1,2,0:0:0:0:
384,72,65456,1,2,0:0:0:0:
381,77,65540,1,2,0:0:0:0:
380,84,65624,6,0,B|391:153,1,67.5,4|0,0:0|0:0,0:0:0:0:
451,182,66957,6,0,P|424:211|387:217,1,67.5,0|0,0:0|0:0,0:0:0:0:
399,287,67290,2,0,P|360:278|342:258,1,54,0|0,0:0|0:0,0:0:0:0:
290,300,67624,2,0,P|280:272|283:255,1,40.4999987640381,0|0,0:0|0:0,0:0:0:0:
230,222,67957,2,0,P|241:208|251:202,1,27,0|0,0:0|0:0,0:0:0:0:
320,187,68289,5,0,3:0:0:0:
332,195,68373,2,0,L|312:93,1,67.5000025749208,12|0,0:0|0:0,0:0:0:0:
199,137,68539,5,0,3:0:0:0:
187,145,68623,2,0,L|207:43,1,67.5000025749208,12|0,0:0|0:0,0:0:0:0:
396,222,68789,5,0,3:0:0:0:
408,230,68873,2,0,L|388:128,1,67.5000025749208,12|0,0:0|0:0,0:0:0:0:
116,176,69039,5,0,3:0:0:0:
104,184,69123,2,0,L|124:82,1,67.5000025749208,12|0,0:0|0:0,0:0:0:0:
373,41,69289,5,0,3:0:0:0:
375,57,69373,1,0,0:0:0:0:
377,71,69456,5,10,0:0:0:0:
340,51,69539,1,8,0:0:0:0:
287,61,69623,1,8,0:0:0:0:
263,106,69706,1,10,0:0:0:0:
270,159,69789,1,0,3:2:0:0:
298,198,69873,1,0,3:0:0:0:
300,245,69956,1,2,1:2:0:0:
275,285,70039,1,0,1:2:0:0:
225,298,70123,1,2,1:2:0:0:
176,274,70206,1,0,1:0:0:0:
179,288,70289,5,12,0:0:0:0:
116,128,70456,5,10,0:0:0:0:
113,142,70539,1,12,0:0:0:0:
110,156,70623,1,8,0:0:0:0:
107,170,70706,1,8,0:0:0:0:
104,184,70790,1,12,0:0:0:0:
101,197,70873,1,8,0:0:0:0:
98,212,70957,6,0,P|153:171|225:190,1,135.000005149842,4|0,3:1|0:0,0:0:0:0:
284,197,71207,1,0,3:0:0:0:
294,188,71290,2,0,P|269:126|209:102,1,135.000005149842,10|0,0:0|0:0,0:0:0:0:
358,203,71540,1,8,0:0:0:0:
368,199,71624,2,0,P|351:240|301:265,1,67.5000025749208,2|0,0:0|0:0,0:0:0:0:
365,319,71790,2,0,P|320:324|274:293,1,67.5000025749208,0|0,3:0|0:0,0:0:0:0:
225,319,71957,2,0,P|233:351|256:376,1,67.5000025749208,10|0,0:0|0:0,0:0:0:0:
152,314,72124,2,0,P|162:282|185:258,1,67.5000025749208,0|0,3:0|1:0,0:0:0:0:
437,197,72290,6,0,L|266:179,1,135.000005149842,4|0,3:2|0:0,0:0:0:0:
194,264,72540,1,0,3:0:0:0:
207,272,72624,2,0,L|378:254,1,135.000005149842,10|0,0:0|0:0,0:0:0:0:
427,118,72873,1,8,0:0:0:0:
416,126,72957,2,0,L|342:118,1,67.5000025749208,2|0,0:0|0:0,0:0:0:0:
492,215,73123,2,0,L|424:207,1,67.5000025749208,0|0,3:0|0:0,0:0:0:0:
331,332,73290,6,0,L|398:324,1,67.5,10|0,0:0|0:0,0:0:0:0:
483,52,73623,6,0,P|506:85|498:159,1,78.7500007510185,4|0,3:0|0:0,0:0:0:0:
352,184,73790,1,0,0:0:0:0:
322,177,73873,1,0,3:0:0:0:
293,172,73957,2,0,P|310:135|378:105,1,78.7500007510185,8|0,0:0|0:0,0:0:0:0:
449,192,74123,5,0,0:0:0:0:
471,259,74207,1,8,0:0:0:0:
499,329,74290,2,0,P|458:332|398:288,1,78.7500007510185,2|0,0:0|0:0,0:0:0:0:
346,306,74457,2,0,P|351:344|374:376,1,78.7500007510185,0|0,3:0|0:0,0:0:0:0:
395,254,74623,6,0,B|351:210|283:244|291:261|298:275|235:315|183:261,1,236.250002253056,10|0,0:0|1:0,0:0:0:0:
113,264,74957,2,0,P|122:224|153:200,1,78.7500007510185,4|0,3:2|0:0,0:0:0:0:
252,187,75123,5,0,0:0:0:0:
247,204,75207,1,0,3:0:0:0:
236,213,75290,2,0,P|228:163|193:128,1,78.7500007510185,8|0,0:0|0:0,0:0:0:0:
13,60,75457,5,0,1:0:0:0:
41,103,75540,1,8,0:0:0:0:
89,116,75623,1,4,3:2:0:0:
139,98,75707,1,0,3:0:0:0:
183,64,75790,1,0,3:0:0:0:
237,63,75873,1,0,3:0:0:0:
277,98,75957,5,8,0:0:0:0:
275,84,76040,1,0,1:0:0:0:
272,71,76123,1,8,0:0:0:0:
270,58,76207,1,0,1:0:0:0:
268,46,76290,6,0,P|222:94|245:203,1,157.500001502037,4|0,3:1|0:0,0:0:0:0:
241,255,76540,1,0,3:0:0:0:
231,273,76623,2,0,P|160:242|135:170,1,157.500001502037,10|0,0:0|0:0,0:0:0:0:
232,340,76873,1,8,0:0:0:0:
243,350,76957,2,0,P|279:335|303:305,1,78.7500007510185,2|0,3:2|0:0,0:0:0:0:
370,333,77123,2,0,P|375:294|360:258,1,78.7500007510185,0|0,3:0|0:0,0:0:0:0:
336,26,77290,5,10,0:0:0:0:
324,94,77373,1,8,0:0:0:0:
312,158,77457,1,0,3:0:0:0:
301,225,77540,1,0,0:0:0:0:
294,217,77623,5,8,0:0:0:0:
481,328,77873,6,0,L|455:171,1,135.000005149842,4|0,3:2|0:0,0:0:0:0:
422,50,78290,5,8,0:0:0:0:
409,41,78373,2,0,P|438:99|516:117,1,135.000005149842,8|0,0:0|0:0,0:0:0:0:
362,242,78623,5,8,0:0:0:0:
389,200,78707,1,0,1:0:0:0:
375,150,78790,1,0,1:0:0:0:
334,124,78873,1,0,1:0:0:0:
322,133,78957,6,0,P|270:88|298:5,1,135.000005149842,4|0,3:0|0:0,0:0:0:0:
181,153,79207,1,0,3:0:0:0:
172,141,79290,2,0,P|183:109|201:93,1,58.4999973220826,10|0,0:0|0:0,0:0:0:0:
76,91,79457,1,0,0:0:0:0:
80,76,79540,1,0,1:0:0:0:
85,62,79623,2,0,P|118:55|133:61,2,49.5000015106202,2|0|0,3:2|0:0|0:0,0:0:0:0:
105,165,79873,5,8,0:0:0:0:
100,154,79957,1,10,0:0:0:0:
72,182,80040,1,8,0:0:0:0:
79,232,80123,1,8,0:0:0:0:
119,268,80207,1,0,1:0:0:0:
126,319,80290,1,8,0:3:0:0:
103,350,80373,1,8,0:3:0:0:
77,356,80457,1,8,0:3:0:0:
63,343,80540,1,8,0:3:0:0:
63,333,80623,5,2,1:2:0:0:
72,334,80707,1,0,1:0:0:0:
76,340,80790,1,0,1:0:0:0:
73,346,80873,1,0,1:0:0:0:
73,346,80957,6,0,L|56:291,1,49.5000015106202,10|8,0:0|0:0,0:0:0:0:
187,180,81123,1,8,0:0:0:0:
179,169,81207,1,8,0:0:0:0:
173,158,81290,2,0,L|156:213,1,49.5000015106202,2|0,1:2|1:0,0:0:0:0:
212,301,81457,5,0,1:0:0:0:
229,314,81540,1,0,1:0:0:0:
249,316,81623,2,0,P|274:296|284:258,1,49.5000015106202,10|8,0:0|0:3,0:0:0:0:
354,261,81790,2,0,P|335:227|288:207,1,49.5000015106202,8|8,0:0|0:3,0:0:0:0:
256,140,81957,5,0,1:0:0:0:
258,148,82040,1,8,0:3:0:0:
261,156,82123,2,0,L|266:183,1,20.2499993820191,0|8,1:0|0:3,0:3:0:0:
216,234,82290,5,4,3:1:0:0:
385,140,82457,1,8,0:3:0:0:
397,145,82540,1,8,0:3:0:0:
409,150,82623,2,0,P|414:184|395:216,1,49.5000015106202,0|0,1:0|3:0,0:0:0:0:
464,102,82790,2,0,P|446:85|423:79,1,49.5000015106202,8|0,0:0|3:0,0:0:0:0:
366,31,82957,2,0,P|384:14|408:7,1,49.5000015106202,0|0,1:0|3:0,0:0:0:0:
297,56,83123,2,0,P|291:32|296:8,1,49.5000015106202,0|0,1:0|3:0,0:0:0:0:
217,258,83290,5,0,3:0:0:0:
169,177,83457,1,0,1:0:0:0:
178,185,83540,1,8,0:3:0:0:
188,192,83623,2,0,P|183:169|188:145,1,49.5000015106202,0|0,1:0|3:0,0:0:0:0:
292,144,83790,2,0,P|268:151|251:168,1,49.5000015106202,8|0,0:0|0:0,0:0:0:0:
304,209,83956,2,0,P|327:216|346:232,1,49.5000015106202,0|8,1:0|0:3,0:0:0:0:
295,274,84123,2,0,P|301:298|296:322,1,49.5000015106202,0|8,1:0|0:3,0:0:0:0:
168,268,84290,6,0,L|243:251,1,49.5000015106202,4|0,3:0|0:0,0:0:0:0:
491,200,84457,2,0,L|332:235,1,148.50000453186,0|2,3:0|0:0,0:0:0:0:
89,256,84790,5,10,0:0:0:0:
103,249,84873,2,0,L|178:266,1,49.5000015106202,0|0,3:0|1:0,0:0:0:0:
427,307,85040,2,0,L|361:294,1,49.5000015106202,0|0,3:0|1:0,0:0:0:0:
198,207,85207,5,8,0:0:0:0:
212,203,85290,2,0,P|222:224|209:283,1,49.5000015106202,4|0,3:2|0:0,0:0:0:0:
11,357,85457,1,8,0:3:0:0:
36,316,85540,1,8,0:0:0:0:
83,301,85623,1,8,0:0:0:0:
136,314,85707,1,0,1:0:0:0:
177,346,85790,1,2,1:2:0:0:
231,351,85873,1,8,0:3:0:0:
276,321,85957,1,8,0:3:0:0:
286,283,86040,1,0,1:0:0:0:
268,252,86123,1,8,0:3:0:0:
239,243,86207,1,0,1:0:0:0:
224,250,86290,5,4,3:0:0:0:
262,279,86373,1,8,0:0:0:0:
309,268,86457,1,0,1:0:0:0:
334,234,86540,2,0,P|339:211|322:172,1,49.5000015106202,8|0,0:0|1:0,0:0:0:0:
382,129,86707,1,8,0:0:0:0:
381,142,86790,2,0,P|363:126|321:121,1,49.5000015106202,4|8,3:2|0:3,0:0:0:0:
224,21,86957,5,0,1:0:0:0:
228,56,87040,1,8,0:3:0:0:
258,75,87123,1,0,1:0:0:0:
293,73,87207,1,8,3:0:0:0:
324,55,87290,2,0,P|301:62|276:96,1,49.5000015106202,4|0,3:2|0:0,0:0:0:0:
151,212,87457,5,0,1:0:0:0:
137,206,87540,1,0,0:0:0:0:
125,202,87623,2,0,L|90:211,2,33.0000010070801,0|0|0,3:0|3:0|3:0,0:0:0:0:
205,171,87790,2,0,L|277:154,1,49.5000015106202,4|0,3:2|0:0,0:0:0:0:
477,16,87957,5,0,1:0:0:0:
464,26,88012,5,0,1:0:0:0:
455,41,88068,5,0,3:0:0:0:
453,58,88123,5,0,3:0:0:0:
457,75,88179,5,0,3:0:0:0:
466,86,88235,5,0,3:0:0:0:
477,94,88290,6,0,B|458:59|412:65|412:65|362:99|402:193,1,180,12|0,0:0|0:0,0:0:0:0:
425,223,88540,6,0,B|372:251|318:211|326:196|335:182|288:129|225:148,1,225,12|0,0:0|0:0,0:0:0:0:
230,260,88790,6,0,P|238:212|265:252,1,123.750001180172,12|0,0:0|0:0,0:0:0:0:
119,64,88957,6,0,B|169:98|179:175|160:178|137:181|118:245|165:315,1,270,12|0,0:0|0:0,0:0:0:0:
433,237,89290,6,0,B|381:250|381:250|340:324|340:324|192:352,1,225,12|0,0:0|0:0,0:0:0:0:
257,225,89540,6,0,B|326:244|326:244|381:343|381:343|530:372,1,270.000010299683,12|0,0:0|0:0,0:0:0:0:
355,177,89790,6,0,B|341:131|341:131|369:80|369:80|389:137|389:137|368:181,1,216,4|0,1:0|0:0,0:0:0:0:
