osu file format v14

[General]
AudioFilename: audio.mp3
AudioLeadIn: 0
PreviewTime: 56467
Countdown: 0
SampleSet: Soft
StackLeniency: 0.3
Mode: 0
LetterboxInBreaks: 0
WidescreenStoryboard: 1

[Editor]
DistanceSpacing: 0.8
BeatDivisor: 4
GridSize: 32
TimelineZoom: 1.6

[Metadata]
Title:asura
TitleUnicode:asura
Artist:Co shu Nie
ArtistUnicode:Còˆ shu Nie
Creator:DeviousPanda
Version:Agatsu's Normal
Source:
Tags:Japanese Rock Aurora Gillstar iljaaz Melwoine AIR Agatsu Jounzan EvilElvis Natteke desu semaphore
BeatmapID:2063639
BeatmapSetID:986422

[Difficulty]
HPDrainRate:3.2
CircleSize:3.5
OverallDifficulty:4
ApproachRate:5
SliderMultiplier:1.1
SliderTickRate:1

[Events]
//Background and Video events
0,0,"asura.jpg",0,0
//Break Periods
//Storyboard Layer 0 (Background)
//Storyboard Layer 1 (Fail)
//Storyboard Layer 2 (Pass)
//Storyboard Layer 3 (Foreground)
//Storyboard Layer 4 (Overlay)
//Storyboard Sound Samples

[TimingPoints]
469,333.333333333333,4,2,2,60,1,0
2802,-100,4,2,2,60,0,0
3135,333.333333333333,3,2,2,60,1,0
3135,-100,3,2,2,60,0,0
3969,-100,3,2,2,60,0,0
4927,-100,3,2,2,5,0,0
4969,-100,3,2,2,60,0,0
6134,-100,3,2,2,50,0,1
12801,-100,3,2,2,50,0,0
14135,333.333333333333,4,2,2,70,1,0
14135,-100,4,2,2,70,0,1
19134,-100,4,2,2,60,0,0
19301,-100,4,2,2,70,0,0
19468,-100,4,2,2,70,0,1
23468,-100,4,2,2,60,0,0
23801,-100,4,2,2,70,0,0
24801,-100,4,2,2,70,0,1
30134,333.333333333333,3,2,2,70,1,0
30134,-111.111111111111,3,2,2,60,0,0
32134,-111.111111111111,3,2,2,60,0,0
32801,333.333333333333,3,2,2,60,1,0
32801,-100,4,2,2,60,0,0
40792,-100,4,2,2,60,0,0
44800,333.333333333333,5,2,2,60,1,1
44800,-100,5,2,3,45,0,1
51466,333.333333333333,3,2,2,60,1,1
51468,-100,3,2,2,60,0,1
53466,-100,3,2,2,50,0,0
54549,-100,3,2,2,70,0,1
54801,-100,3,2,2,50,0,1
55717,-100,3,2,2,50,0,1
56132,-100,3,2,2,50,0,0
56467,-100,3,2,2,50,0,0
56958,333.333333333333,3,2,2,50,1,0
56958,-100,3,2,2,50,0,1
57958,-100,3,2,2,50,0,0
61791,333.333333333333,3,2,2,50,1,0
62624,333.333333333333,3,2,2,50,1,0
65624,333.333333333333,4,2,2,50,1,0
65624,-111.111111111111,4,2,2,50,0,0
68290,-100,4,2,2,65,0,0
69290,-100,4,2,2,65,0,0
69457,-100,4,2,2,65,0,0
70957,-100,4,2,2,70,0,1
75957,-100,4,2,2,70,0,0
76290,-100,4,2,2,70,0,1
77623,-100,4,2,2,70,0,0
77873,-100,4,2,2,60,0,0
78957,-100,4,2,2,60,0,0
80957,-100,4,2,3,60,0,0
81290,-100,4,2,2,55,0,0
88290,-100,4,2,2,70,0,1
89290,-100,4,2,2,70,0,0

[Colours]
Combo1 : 69,245,197
Combo2 : 224,46,46
Combo3 : 255,227,215
SliderBorder : 255,255,255

[HitObjects]
65,117,3135,6,0,L|58:20,2,82.5,0|0|0,1:0|1:0|1:0,0:0:0:0:
157,178,3969,2,0,P|200:180|257:166,2,82.5,4|4|4,0:3|0:0|0:3,0:0:0:0:
70,245,4802,1,8,0:0:0:0:
134,334,5135,2,0,L|243:327,1,110,4|8,0:1|0:0,0:0:0:0:
293,350,5635,1,8,0:0:0:0:
293,350,5802,1,8,0:0:0:0:
386,292,6135,6,0,L|450:294,2,55,4|8|10,3:0|0:0|0:0,0:0:0:0:
345,255,6635,1,2,3:2:0:0:
345,255,6802,1,2,0:0:0:0:
414,169,7135,2,0,P|426:117|414:60,1,110,2|2,3:2|0:0,0:0:0:0:
378,20,7635,1,2,3:2:0:0:
378,20,7802,1,2,0:0:0:0:
279,67,8135,6,0,P|210:53|102:84,1,165,2|0,3:2|3:0,0:0:0:0:
78,111,8802,1,8,0:0:0:0:
121,212,9135,2,0,L|113:331,1,110,2|2,3:2|3:2,0:0:0:0:
148,364,9635,1,10,0:2:0:0:
250,323,9969,1,10,0:0:0:0:
250,323,10135,6,0,L|242:213,1,110,4|0,3:2|3:0,0:0:0:0:
235,158,10635,1,8,0:0:0:0:
298,68,10969,2,0,P|351:59|411:77,1,110,4|2,3:2|0:0,0:0:0:0:
448,107,11469,1,0,3:2:0:0:
430,215,11802,6,0,L|439:330,1,110,4|2,3:2|0:0,0:0:0:0:
396,360,12302,2,0,P|345:368|290:351,1,110,2|0,3:2|0:0,0:0:0:0:
251,312,12802,1,4,3:0:0:0:
264,202,13135,2,0,L|261:87,1,110,2|0,3:2|3:0,0:0:0:0:
228,47,13635,1,2,1:2:0:0:
99,103,14135,6,0,L|90:224,1,110,4|10,3:1|0:0,0:0:0:0:
61,318,14801,1,2,0:0:0:0:
153,377,15134,2,0,L|272:368,1,110,10|0,0:0|3:0,0:0:0:0:
315,352,15634,2,0,P|305:323|303:287,2,55,2|10|0,0:0|0:0|0:0,0:0:0:0:
440,381,16301,2,0,P|466:324|458:274,1,110,2|0,3:2|0:0,0:0:0:0:
431,232,16801,6,0,L|442:118,1,110,4|8,3:2|0:0,0:0:0:0:
474,78,17301,1,2,0:0:0:0:
386,10,17634,2,0,P|330:8|281:34,1,110,2|0,3:2|0:0,0:0:0:0:
255,80,18134,2,0,L|267:198,1,110,2|10,3:2|0:0,0:0:0:0:
298,234,18634,1,0,0:0:0:0:
242,329,18968,2,0,P|185:345|129:329,1,110,2|8,3:2|0:0,0:0:0:0:
96,295,19468,6,0,L|90:180,1,110,4|10,3:0|0:0,0:0:0:0:
15,104,20134,1,2,0:0:0:0:
93,26,20468,2,0,L|209:35,1,110,10|4,0:0|3:2,0:0:0:0:
293,95,21134,2,0,L|358:89,1,55,10|0,0:0|0:0,0:0:0:0:
396,64,21468,2,0,P|419:106|410:175,1,110,2|10,0:0|0:0,0:0:0:0:
335,242,22134,6,0,L|221:231,1,110,4|8,3:0|0:0,0:0:0:0:
148,153,22801,2,0,L|72:158,1,55,2|0,0:0|3:0,0:0:0:0:
38,164,23134,2,0,P|19:213|30:280,1,110,10|4,0:0|3:2,0:0:0:0:
101,348,23801,1,8,0:0:0:0:
207,320,24134,2,0,L|266:330,1,55,4|0,0:0|3:0,0:0:0:0:
292,374,24468,2,0,L|351:364,1,55,8|8,0:0|0:0,0:0:0:0:
395,339,24801,6,0,L|403:225,1,110,4|10,3:1|0:0,0:0:0:0:
462,136,25468,1,2,0:0:0:0:
364,85,25801,2,0,P|306:67|243:80,1,110,10|0,0:0|3:0,0:0:0:0:
215,108,26301,2,0,P|179:105|145:85,2,55,2|10|0,0:0|0:0|0:0,0:0:0:0:
234,237,26968,2,0,L|116:228,1,110,2|0,3:2|0:0,0:0:0:0:
69,225,27468,6,0,P|58:164|80:108,1,110,4|10,3:2|0:0,0:0:0:0:
160,53,28134,2,0,L|223:55,1,55,2|0,0:0|3:0,0:0:0:0:
266,33,28468,1,10,0:0:0:0:
328,121,28801,2,0,L|333:238,1,110,4|8,3:0|0:0,0:0:0:0:
292,268,29301,1,8,0:0:0:0:
292,268,29468,2,0,L|286:332,1,55,2|0,1:2|1:0,0:0:0:0:
323,364,29801,2,0,L|392:372,1,55,8|8,0:3|0:3,0:0:0:0:
422,349,30134,6,0,P|498:308|512:240,1,148.49999546814,4|0,3:1|0:0,0:0:0:0:
474,132,31134,1,0,0:0:0:0:
386,248,31634,1,0,0:0:0:0:
355,121,32134,1,2,0:0:0:0:
317,51,32468,2,0,L|263:45,1,49.4999984893799,8|8,0:0|0:0,0:0:0:0:
227,86,32801,6,0,L|132:91,2,82.5,4|8|0,3:0|0:0|3:0,0:0:0:0:
263,127,33468,1,8,0:0:0:0:
215,226,33801,2,0,L|203:331,2,82.5,4|0|0,3:0|3:0|3:0,0:0:0:0:
165,200,34468,1,8,0:0:0:0:
61,237,34801,2,0,P|52:194|59:154,2,82.5,4|0|2,3:2|3:0|3:2,0:0:0:0:
31,284,35468,5,10,0:0:0:0:
112,357,35801,1,2,3:2:0:0:
112,357,35968,2,0,L|228:349,1,110,0|2,1:0|3:2,0:0:0:0:
264,314,36468,1,2,1:2:0:0:
372,330,36801,2,0,P|397:275|385:218,1,110,4|10,3:0|0:0,0:0:0:0:
353,186,37301,1,2,3:2:0:0:
353,186,37468,1,8,0:0:0:0:
243,199,37801,6,0,L|121:186,1,110,0|8,3:0|0:0,0:0:0:0:
78,184,38301,2,0,P|53:129|65:72,1,110,2|0,3:2|1:0,0:0:0:0:
94,38,38801,1,4,3:2:0:0:
199,68,39134,2,0,L|194:8,2,55,10|2|10,0:0|3:2|0:0,0:0:0:0:
291,128,39801,2,0,P|344:137|403:117,1,110,2|0,3:2|0:0,0:0:0:0:
439,86,40301,1,2,3:2:0:0:
439,86,40468,1,8,0:0:0:0:
495,179,40801,6,0,L|485:299,1,110,4|8,3:0|0:0,0:0:0:0:
474,342,41301,1,2,0:0:0:0:
474,342,41468,1,0,3:0:0:0:
371,302,41801,2,0,P|319:288|256:304,1,110,2|10,3:2|0:0,0:0:0:0:
221,333,42301,1,2,0:0:0:0:
221,333,42468,1,2,3:2:0:0:
121,285,42801,2,0,L|112:168,1,110,4|8,3:1|0:0,0:0:0:0:
75,134,43301,1,2,0:0:0:0:
75,134,43468,5,2,3:2:0:0:
156,60,43801,2,0,L|212:68,1,55,2|2,3:2|0:0,0:0:0:0:
246,109,44134,2,0,L|304:103,2,55,10|2|10,0:0|0:0|0:0,0:0:0:0:
187,202,44800,6,0,P|173:252|184:313,1,110,4|8,3:2|0:0,0:0:0:0:
281,356,45467,1,0,3:0:0:0:
281,356,45634,2,0,L|395:345,1,110,0|8,3:0|0:0,0:0:0:0:
484,287,46300,1,0,3:0:0:0:
484,287,46467,2,0,P|501:223|491:170,1,110,2|8,3:2|0:0,0:0:0:0:
385,166,47133,1,0,3:0:0:0:
385,166,47300,6,0,L|268:160,1,110,2|8,3:2|0:0,0:0:0:0:
165,173,47967,1,0,3:0:0:0:
165,173,48133,2,0,P|153:117|174:61,1,110,4|8,3:2|0:0,0:0:0:0:
261,7,48800,1,0,3:0:0:0:
261,7,48967,2,0,L|380:16,1,110,2|8,3:2|0:0,0:0:0:0:
479,30,49633,1,0,3:0:0:0:
479,30,49800,6,0,L|490:149,1,110,2|8,3:2|0:0,0:0:0:0:
494,194,50300,1,0,0:0:0:0:
384,194,50633,2,0,L|311:189,1,55,0|2,3:0|0:0,0:0:0:0:
278,168,50967,1,8,0:0:0:0:
130,242,51466,6,0,L|125:313,2,55,4|2|2,3:0|0:0|0:0,0:0:0:0:
81,216,51966,2,0,P|66:169|83:102,1,110,10|2,0:0|0:0,0:0:0:0:
118,72,52466,1,4,3:2:0:0:
220,112,52799,1,2,0:0:0:0:
220,112,52966,2,0,L|232:232,1,110,2|0,3:2|1:0,0:0:0:0:
234,276,53466,5,4,3:0:0:0:
461,229,54549,2,0,L|468:320,2,82.5,12|4|0,0:0|3:2|0:0,0:0:0:0:
422,189,55215,1,12,0:0:0:0:
353,142,55465,2,0,L|363:44,2,82.5,12|12|4,0:0|0:0|1:0,0:0:0:0:
63,140,56958,6,0,L|56:73,2,55,4|8|8,3:0|0:0|0:0,0:0:0:0:
38,189,57458,1,2,3:2:0:0:
38,189,57624,1,2,0:0:0:0:
69,294,57958,2,0,P|118:311|183:300,1,110,2|10,3:2|0:0,0:0:0:0:
217,268,58458,1,10,0:0:0:0:
217,268,58624,1,8,0:3:0:0:
186,161,58958,6,0,L|199:45,1,110,4|8,3:0|0:0,0:0:0:0:
244,21,59458,1,0,3:0:0:0:
244,21,59624,1,8,0:0:0:0:
338,77,59958,2,0,P|393:87|454:70,1,110,4|2,3:2|3:2,0:0:0:0:
488,40,60458,2,0,L|479:159,1,110,10|10,0:0|0:0,0:0:0:0:
442,189,60957,6,0,L|452:324,1,110,4|0,3:0|3:0,0:0:0:0:
426,348,61457,1,10,0:0:0:0:
321,313,61791,2,0,P|270:298|196:312,1,110,4|2,3:2|0:0,0:0:0:0:
170,338,62291,1,2,3:2:0:0:
72,287,62624,2,0,L|62:169,1,110,4|0,3:0|0:0,0:0:0:0:
23,138,63124,1,2,3:2:0:0:
23,138,63291,1,8,0:0:0:0:
109,70,63624,6,0,P|169:60|236:82,1,110,4|0,3:0|3:0,0:0:0:0:
261,102,64124,1,8,0:0:0:0:
200,193,64457,1,8,0:0:0:0:
200,193,64624,2,0,L|193:266,1,55,8|10,0:0|0:0,0:0:0:0:
157,287,64957,2,0,P|234:280|338:297,1,165,2|2,0:0|0:0,0:0:0:0:
367,308,65624,6,0,L|359:193,2,98.9999969787599,4|0|0,0:0|0:0|0:0,0:0:0:0:
463,329,66624,2,0,L|471:214,1,98.9999969787599,0|0,0:0|0:0,0:0:0:0:
416,146,67290,1,0,0:0:0:0:
416,146,67457,2,0,P|370:132|302:144,1,98.9999969787599,0|0,0:0|0:0,0:0:0:0:
182,227,68290,6,0,L|66:214,1,110,0|12,3:0|0:0,0:0:0:0:
22,236,68790,2,0,P|12:175|30:121,2,110,0|12|10,3:0|0:0|0:0,0:0:0:0:
49,284,69624,1,8,0:0:0:0:
141,344,69957,1,2,1:2:0:0:
141,344,70124,2,0,L|205:335,1,55,2|12,1:2|0:0,0:0:0:0:
236,300,70457,2,0,L|290:307,1,55,10|8,0:0|0:0,0:0:0:0:
331,343,70790,1,12,0:0:0:0:
331,343,70957,6,0,P|383:357|453:339,1,110,4|10,3:1|0:0,0:0:0:0:
494,252,71624,1,2,0:0:0:0:
416,174,71957,2,0,L|406:55,1,110,10|4,0:0|3:2,0:0:0:0:
310,10,72624,2,0,L|248:4,1,55,10|0,0:0|0:0,0:0:0:0:
219,46,72957,2,0,P|170:60|108:46,1,110,2|10,0:0|0:0,0:0:0:0:
23,111,73623,6,0,L|30:238,1,110,4|8,3:0|0:0,0:0:0:0:
95,309,74290,2,0,L|151:314,1,55,2|0,0:0|3:0,0:0:0:0:
194,346,74623,2,0,L|201:218,1,110,10|4,0:0|3:2,0:0:0:0:
137,145,75290,1,8,0:0:0:0:
214,67,75623,2,0,L|279:62,1,55,4|0,0:0|3:0,0:0:0:0:
307,22,75957,2,0,L|361:26,1,55,8|8,0:0|0:0,0:0:0:0:
416,36,76290,6,0,P|434:87|421:157,1,110,4|10,3:1|0:0,0:0:0:0:
338,206,76957,1,2,3:2:0:0:
244,147,77290,2,0,L|175:144,1,55,10|0,0:0|3:0,0:0:0:0:
146,109,77623,2,0,L|52:117,1,82.5,8|4,0:0|3:2,0:0:0:0:
14,244,78290,2,0,L|17:302,1,55,8|0,0:0|0:0,0:0:0:0:
55,338,78623,2,0,L|119:335,1,55,8|0,0:0|1:0,0:0:0:0:
156,304,78957,6,0,L|268:315,1,110,4|10,3:0|0:0,0:0:0:0:
363,364,79623,2,0,L|428:358,1,55,2|0,3:2|0:0,0:0:0:0:
473,355,79957,2,0,L|476:288,1,55,10|8,0:0|0:0,0:0:0:0:
506,254,80290,2,0,L|499:133,1,110,8|2,0:3|1:2,0:0:0:0:
410,79,80957,2,0,L|342:71,1,55,10|8,0:0|0:0,0:0:0:0:
306,97,81290,2,0,L|236:101,1,55,2|0,1:2|1:0,0:0:0:0:
209,63,81623,6,0,L|97:53,1,110,10|0,0:0|1:0,0:0:0:0:
19,129,82290,2,0,P|3:178|12:240,1,110,4|0,3:1|1:0,0:0:0:0:
42,280,82790,1,8,0:0:0:0:
42,280,82957,1,0,1:0:0:0:
100,372,83290,2,0,L|228:359,1,110,0|0,3:0|1:0,0:0:0:0:
264,364,83790,1,8,0:0:0:0:
264,364,83957,1,0,1:0:0:0:
308,263,84290,6,0,L|298:137,1,110,4|2,3:0|1:2,0:0:0:0:
326,105,84790,2,0,P|372:89|443:101,1,110,10|0,0:0|1:0,0:0:0:0:
479,123,85290,1,4,3:2:0:0:
427,219,85623,1,8,0:0:0:0:
427,219,85790,2,0,L|419:336,1,110,2|8,1:2|0:3,0:0:0:0:
379,366,86290,2,0,P|326:371|264:342,1,110,4|0,3:0|1:0,0:0:0:0:
237,309,86790,1,4,3:2:0:0:
305,158,87290,6,0,L|300:44,1,110,4|0,3:2|3:0,0:0:0:0:
256,13,87790,2,0,P|199:6|146:28,1,110,4|0,3:2|3:0,0:0:0:0:
119,69,88290,2,0,L|28:57,2,82.5,12|12|12,0:0|0:0|0:0,0:0:0:0:
148,115,88957,1,12,0:0:0:0:
100,214,89290,6,0,L|88:313,2,82.5,12|12|4,0:0|0:0|1:0,0:0:0:0:
