osu file format v14

[General]
AudioFilename: audio.mp3
AudioLeadIn: 0
PreviewTime: 56467
Countdown: 0
SampleSet: Soft
StackLeniency: 0.3
Mode: 0
LetterboxInBreaks: 0
WidescreenStoryboard: 0

[Editor]
DistanceSpacing: 1.6
BeatDivisor: 4
GridSize: 32
TimelineZoom: 1.6

[Metadata]
Title:asura
TitleUnicode:asura
Artist:Co shu Nie
ArtistUnicode:Còˆ shu Nie
Creator:DeviousPanda
Version:AIR's Hard
Source:
Tags:Japanese Rock Aurora Gillstar iljaaz Melwoine AIR Agatsu Jounzan EvilElvis Natteke desu semaphore
BeatmapID:2063640
BeatmapSetID:986422

[Difficulty]
HPDrainRate:3.8
CircleSize:4
OverallDifficulty:7
ApproachRate:8
SliderMultiplier:1.5
SliderTickRate:1

[Events]
//Background and Video events
0,0,"asura.jpg",0,0
//Break Periods
//Storyboard Layer 0 (Background)
//Storyboard Layer 1 (Fail)
//Storyboard Layer 2 (Pass)
//Storyboard Layer 3 (Foreground)
//Storyboard Layer 4 (Overlay)
//Storyboard Sound Samples

[TimingPoints]
469,333.333333333333,4,2,2,60,1,0
469,-100,4,2,2,80,0,0
802,-100,4,2,2,60,0,0
2802,-100,4,2,2,80,0,0
3051,-100,4,2,2,60,0,0
3135,333.333333333333,3,2,2,60,1,0
3135,-100,3,2,2,60,0,0
3969,-83.3333333333333,3,2,2,60,0,0
4927,-83.3333333333333,3,2,2,5,0,0
4969,-83.3333333333333,3,2,2,60,0,0
6134,-100,3,2,2,50,0,1
7134,-100,3,2,2,50,0,0
12802,-100,3,2,2,50,0,0
14135,333.333333333333,4,2,2,70,1,0
14135,-83.3333333333333,4,2,2,70,0,1
16134,-83.3333333333333,4,2,2,60,0,1
16301,-83.3333333333333,4,2,2,70,0,1
19134,-83.3333333333333,4,2,2,60,0,0
19301,-83.3333333333333,4,2,2,70,0,0
19468,-83.3333333333333,4,2,2,70,0,1
23468,-83.3333333333333,4,2,2,60,0,0
23634,-83.3333333333333,4,2,2,70,0,0
24801,-83.3333333333333,4,2,2,70,0,1
26800,-83.3333333333333,4,2,2,60,0,1
26968,-83.3333333333333,4,2,2,70,0,1
28634,-83.3333333333333,4,2,2,60,0,1
28801,-83.3333333333333,4,2,2,70,0,1
29634,-95.2380952380952,4,2,2,70,0,1
30134,333.333333333333,3,2,2,60,1,0
30134,-111.111111111111,4,2,2,60,0,0
32134,-111.111111111111,4,2,2,60,0,0
32801,333.333333333333,3,2,2,60,1,0
32801,-100,4,2,2,60,0,0
40792,-100,4,2,2,60,0,0
42800,-83.3333333333333,4,2,2,60,0,0
44800,333.333333333333,5,2,2,60,1,1
44800,-100,5,2,3,45,0,1
51466,333.333333333333,3,2,2,60,1,0
51466,-83.3333333333333,3,2,2,50,0,0
51467,-83.3333333333333,3,2,2,60,0,0
51716,-83.3333333333333,3,2,2,50,0,0
51800,-83.3333333333333,3,2,2,60,0,0
52716,-83.3333333333333,3,2,2,50,0,0
52800,-83.3333333333333,3,2,2,60,0,0
53466,-111.111111111111,3,2,2,50,0,0
53467,-111.111111111111,3,2,2,60,0,0
53675,-111.111111111111,3,2,2,50,0,0
54466,-100,3,2,2,50,0,0
54549,-100,3,2,2,70,0,1
54799,-100,3,2,2,50,0,1
55715,-100,3,2,2,50,0,1
56132,-100,3,2,2,50,0,0
56466,-100,3,2,2,50,0,0
56958,333.333333333333,3,2,2,50,1,0
56958,-100,3,2,2,50,0,1
57958,-100,3,2,2,50,0,0
61791,333.333333333333,3,2,2,50,1,0
62624,333.333333333333,3,2,2,50,1,0
62957,-100,3,2,2,60,0,0
63124,-100,3,2,2,50,0,0
64624,-100,3,2,2,50,0,0
65624,333.333333333333,4,2,2,50,1,0
65624,-111.111111111111,4,2,2,50,0,0
68290,-100,4,2,2,65,0,0
70957,-83.3333333333333,4,2,2,70,0,1
75957,-83.3333333333333,4,2,2,70,0,0
76290,-83.3333333333333,4,2,2,70,0,1
77623,-100,4,2,2,70,0,0
77873,-100,4,2,2,60,0,0
80957,-100,4,2,3,60,0,0
81290,-100,4,2,2,55,0,0
88290,-83.3333333333333,4,2,2,70,0,1
89290,-83.3333333333333,4,2,2,70,0,0

[Colours]
Combo1 : 69,245,197
Combo2 : 224,46,46
Combo3 : 255,227,215
SliderBorder : 255,255,255

[HitObjects]
129,258,469,6,0,P|100:213|157:236,1,150
193,319,969,1,2,0:0:0:0:
253,252,1135,2,0,L|274:161,1,75,2|0,0:0|0:0,0:0:0:0:
327,299,1469,2,0,L|412:289,1,75,2|0,0:0|0:0,0:0:0:0:
486,228,1802,6,0,B|431:165|539:160|448:63,1,150,2|0,0:0|0:0,0:0:0:0:
469,89,2302,1,2,0:0:0:0:
394,108,2469,1,2,0:0:0:0:
419,38,2635,1,2,0:0:0:0:
320,51,2802,2,0,B|179:62,1,112.5,2|0,0:1|0:0,0:0:0:0:
161,64,3135,6,0,B|127:46|93:33|93:33|111:90|115:186,1,225,0|0,1:0|1:0,0:0:0:0:
49,276,3802,2,0,P|30:271|24:251,1,37.5,0|0,1:0|1:0,0:0:0:0:
46,210,3969,2,0,L|202:216,2,134.999995880127,4|4|4,0:3|0:0|0:3,0:0:0:0:
265,161,4802,5,8,0:0:0:0:
285,178,4885,1,0,0:0:0:0:
295,202,4969,1,8,0:0:0:0:
293,228,5052,1,8,0:0:0:0:
282,252,5135,2,0,P|357:248|417:266,1,134.999995880127,4|8,0:1|0:0,0:0:0:0:
467,293,5469,2,0,P|489:297|480:282,3,44.999998626709,8|8|8|8,0:0|0:0|0:0|0:0,0:0:0:0:
490,232,5802,2,0,L|497:133,1,89.9999972534181,8|2,0:0|0:0,0:0:0:0:
441,41,6135,6,0,P|394:61|400:170,1,150,4|10,3:0|0:0,0:0:0:0:
277,142,6635,1,2,3:2:0:0:
191,168,6802,2,0,L|198:79,1,75,2|2,0:0|0:0,0:0:0:0:
137,22,7135,2,0,L|25:37,1,112.5,2|8,3:2|0:0,0:0:0:0:
4,40,7469,1,2,0:0:0:0:
77,137,7635,1,2,3:2:0:0:
12,212,7802,2,0,L|7:291,1,75,2|0,0:0|1:0,0:0:0:0:
102,360,8135,6,0,P|129:339|223:332,1,112.5,2|0,3:2|3:0,0:0:0:0:
258,340,8469,2,0,B|286:358|286:358|281:306,1,75,8|0,0:0|3:0,0:0:0:0:
416,269,8802,2,0,L|501:279,1,75,8|0,0:0|1:0,0:0:0:0:
494,285,9052,1,8,0:0:0:0:
497,292,9135,2,0,L|332:269,1,150,2|2,3:2|3:2,0:0:0:0:
422,161,9635,2,0,L|506:154,2,75,10|8|10,0:2|0:3|0:0,0:0:0:0:
398,51,10135,6,0,B|319:92|337:4|242:52,1,150,4|0,3:2|3:0,0:0:0:0:
254,144,10635,2,0,P|283:161|279:127,1,75,8|8,0:0|0:0,0:0:0:0:
175,92,10969,2,0,L|70:81,1,75,4|8,3:2|0:0,0:0:0:0:
10,46,11302,1,2,0:0:0:0:
30,143,11469,2,0,P|41:210|48:284,1,112.5,0|8,3:2|0:0,0:0:0:0:
41,298,11802,6,0,P|23:341|95:326,1,150,4|2,3:2|0:0,0:0:0:0:
227,340,12302,2,0,B|240:242|240:242|189:251,1,150,2|0,3:2|0:0,0:0:0:0:
316,318,12802,2,0,L|405:332,1,75,4|0,3:0|0:0,0:0:0:0:
467,286,13135,1,2,3:2:0:0:
448,197,13302,2,0,P|449:182|478:184,3,37.5,8|0|0|0,0:0|0:0|3:0|0:0,0:0:0:0:
505,205,13635,2,0,P|419:208|376:282,1,150,2|2,1:2|0:0,0:0:0:0:
333,135,14135,6,0,B|307:84|307:84|322:0,1,134.999995880127,4|0,3:1|3:0,0:0:0:0:
355,3,14468,2,0,L|452:-5,1,89.9999972534181,10|0,0:0|0:0,0:0:0:0:
405,129,14801,2,0,P|341:145|329:129,1,89.9999972534181,2|0,0:0|3:0,0:0:0:0:
185,108,15134,2,0,P|149:137|12:133,1,179.999994506836,10|0,0:0|3:0,0:0:0:0:
40,240,15634,1,2,0:0:0:0:
9,332,15801,1,10,0:0:0:0:
97,295,15968,2,0,L|195:304,1,89.9999972534181
276,369,16301,2,0,B|288:328|346:300|346:300|378:344|435:353,1,179.999994506836,2|0,3:2|0:0,0:0:0:0:
502,258,16801,6,0,P|498:208|438:244,1,134.999995880127,4|0,3:2|3:0,0:0:0:0:
433,259,17134,1,8,0:0:0:0:
345,178,17301,2,0,L|242:170,1,89.9999972534181,2|0,0:0|0:0,0:0:0:0:
364,76,17634,2,0,B|455:56|455:56|400:155,1,179.999994506836,2|0,3:2|0:0,0:0:0:0:
345,178,18134,2,0,L|200:167,1,134.999995880127,2|0,3:2|3:0,0:0:0:0:
183,167,18468,1,10,0:0:0:0:
166,265,18634,2,0,B|192:276|212:274|212:274|232:263|249:240,1,89.9999972534181,0|0,0:0|3:0,0:0:0:0:
249,97,18968,2,0,B|224:66|175:63|175:63|113:82|91:159,1,179.999994506836,2|8,3:2|0:0,0:0:0:0:
210,167,19468,6,0,L|350:187,1,134.999995880127,4|0,3:0|3:0,0:0:0:0:
379,192,19801,2,0,B|374:89,1,89.9999972534181,10|0,0:0|0:0,0:0:0:0:
249,97,20134,2,0,P|213:124|214:174,1,89.9999972534181,2|0,0:0|3:0,0:0:0:0:
321,259,20468,2,0,P|350:293|268:292,1,179.999994506836,10|4,0:0|3:2,0:0:0:0:
4,318,21134,2,0,P|23:233|86:188,1,134.999995880127,10|8,0:0|0:0,0:0:0:0:
95,173,21468,2,0,B|92:146|111:132|111:132|125:153|106:178,1,89.9999972534181,2|0,0:0|3:0,0:0:0:0:
23,117,21801,2,0,P|9:55|34:17,1,89.9999972534181,10|0,0:0|0:0,0:0:0:0:
163,9,22134,6,0,B|174:80|174:80|223:154,1,134.999995880127,4|0,3:0|3:0,0:0:0:0:
222,157,22468,1,8,0:0:0:0:
296,93,22634,1,0,0:0:0:0:
378,135,22801,2,0,L|473:144,1,89.9999972534181,2|0,0:0|3:0,0:0:0:0:
503,245,23134,2,0,B|414:254|414:254|329:301,1,179.999994506836,10|4,0:0|3:2,0:0:0:0:
250,350,23634,1,0,0:0:0:0:
253,341,23718,1,0,3:0:0:0:
256,332,23801,1,8,0:0:0:0:
172,317,23968,1,0,1:0:0:0:
98,354,24134,2,0,L|6:341,1,89.9999972534181,4|0,0:0|3:0,0:0:0:0:
17,249,24468,2,0,L|63:243,3,44.999998626709,8|0|8|0,0:0|1:0|0:0|1:0,0:0:0:0:
110,231,24801,6,0,P|154:195|79:166,1,134.999995880127,4|0,3:1|3:0,0:0:0:0:
58,143,25134,2,0,B|50:119|18:101|18:101|50:108|74:125,1,89.9999972534181,10|0,0:0|0:0,0:0:0:0:
144,64,25468,2,0,L|240:59,1,89.9999972534181,2|0,0:0|3:0,0:0:0:0:
292,151,25801,2,0,B|396:197|361:92|481:156,1,179.999994506836,10|0,0:0|3:0,0:0:0:0:
417,241,26301,1,2,0:0:0:0:
494,329,26468,1,10,0:0:0:0:
397,315,26634,2,0,L|294:320,1,89.9999972534181
205,364,26968,2,0,B|178:320|130:308|130:308|91:351|27:344,1,179.999994506836,2|0,3:2|0:0,0:0:0:0:
12,268,27468,6,0,B|2:219|13:183|90:203|29:255,1,134.999995880127,4|0,3:2|3:0,0:0:0:0:
55,255,27801,2,0,P|17:184|22:169,1,89.9999972534181,10|0,0:0|0:0,0:0:0:0:
63,91,28134,2,0,L|166:109,1,89.9999972534181,2|0,0:0|3:0,0:0:0:0:
111,188,28468,2,0,L|215:206,1,89.9999972534181,10|0,0:0|0:0,0:0:0:0:
153,276,28801,5,4,3:0:0:0:
345,154,29134,1,8,0:0:0:0:
372,150,29218,1,8,0:0:0:0:
398,147,29301,1,8,0:0:0:0:
424,144,29384,1,8,0:0:0:0:
451,141,29468,1,2,1:2:0:0:
502,63,29634,2,0,B|485:30|485:30|444:70,2,78.7499975967408,0|8|8,1:0|0:3|0:3,0:0:0:0:
451,141,30134,6,0,B|414:131|395:105|395:105|363:118|331:96|331:96|300:123|244:125,1,202.499993820191,4|0,3:1|0:0,0:0:0:0:
67,274,31134,2,0,B|88:270|103:247|103:247|123:252|143:241|143:241|163:258|196:262,1,134.999995880127
261,327,31634,2,0,B|261:281|261:281|267:261|267:261|260:239|260:239|260:171,1,134.999995880127
139,166,32134,1,2,0:0:0:0:
139,166,32301,2,0,P|106:111|18:82,1,134.999995880127,0|8,0:0|0:0,0:0:0:0:
117,17,32801,6,0,L|242:35,1,112.5,4|8,3:0|0:0,0:0:0:0:
270,38,33134,1,0,0:0:0:0:
385,15,33301,1,0,3:0:0:0:
355,113,33468,2,0,L|349:209,1,75,8|0,0:0|0:0,0:0:0:0:
448,244,33801,2,0,P|488:281|502:355,1,112.5,4|0,3:0|3:0,0:0:0:0:
472,372,34134,2,0,B|454:351|423:354|423:354|437:360|447:375,1,75,0|0,0:0|3:0,0:0:0:0:
364,292,34468,2,0,L|265:307,1,75,8|8,0:0|0:0,0:0:0:0:
176,365,34801,6,0,L|52:344,1,112.5,4|0,3:2|3:0,0:0:0:0:
23,336,35134,2,0,B|13:297|13:297|44:253,1,75,2|2,0:0|3:2,0:0:0:0:
164,212,35468,2,0,B|184:240|184:240|174:279,1,75,10|2,0:0|0:0,0:0:0:0:
85,206,35801,1,2,3:2:0:0:
117,129,35968,1,0,1:0:0:0:
109,130,36051,1,0,3:0:0:0:
101,131,36134,1,2,1:2:0:0:
3,78,36301,2,0,B|40:79|40:79|62:43|102:37|102:37|168:46,1,150,2|2,3:2|1:2,0:0:0:0:
243,95,36801,6,0,B|265:135|259:192|259:192|273:170|273:140,1,150,4|10,3:0|0:0,0:0:0:0:
357,89,37301,1,2,3:2:0:0:
438,119,37468,2,0,L|443:28,1,75,8|0,0:0|3:0,0:0:0:0:
357,89,37801,2,0,L|351:216,1,112.5,0|0,3:0|3:0,0:0:0:0:
349,235,38134,1,8,0:0:0:0:
452,276,38301,2,0,P|490:292|503:344,2,75,2|8|0,3:2|0:0|1:0,0:0:0:0:
349,235,38801,2,0,P|317:275|234:268,1,112.5,4|0,3:2|3:0,0:0:0:0:
219,266,39134,2,0,B|201:248|206:220|206:220|217:228|219:247,1,75,10|2,0:0|3:2,0:0:0:0:
172,335,39468,2,0,L|67:342,1,75,10|2,0:0|0:0,0:0:0:0:
18,277,39801,5,2,3:2:0:0:
103,248,39968,1,10,0:0:0:0:
104,240,40051,1,0,3:0:0:0:
105,232,40134,1,2,0:0:0:0:
30,174,40301,2,0,B|-22:123|14:57|80:99,1,150,2|0,3:2|0:0,0:0:0:0:
182,111,40801,5,4,3:0:0:0:
147,11,40968,1,0,0:0:0:0:
243,49,41134,2,0,L|337:61,1,75,8|2,0:0|0:0,0:0:0:0:
437,69,41468,2,0,P|458:59|443:44,3,37.5,0|10|0|0,3:0|0:0|0:0|0:0,0:0:0:0:
411,38,41801,2,0,L|432:174,1,112.5,2|0,3:2|3:0,0:0:0:0:
434,189,42134,1,10,0:0:0:0:
502,294,42301,1,2,0:0:0:0:
391,257,42468,2,0,L|302:256,1,75,2|0,3:2|0:0,0:0:0:0:
235,326,42801,6,0,B|183:354|183:354|109:333,1,134.999995880127,4|2,3:1|3:2,0:0:0:0:
63,321,43134,2,0,B|21:309|21:309|47:359,1,89.9999972534181,8|2,0:0|0:0,0:0:0:0:
138,256,43467,2,0,B|172:196|101:194|152:118,1,134.999995880127,2|0,3:2|0:0,0:0:0:0:
129,98,43801,1,2,3:2:0:0:
87,31,43967,2,0,L|35:39,2,44.999998626709,2|2|10,0:0|3:2|0:0,0:0:0:0:
41,141,44301,1,2,0:0:0:0:
140,101,44467,2,0,B|179:97|201:72|201:72|223:111|290:113,1,134.999995880127,10|8,0:0|0:0,0:0:0:0:
306,99,44801,6,0,B|346:90|382:115|382:115|403:81|451:75,1,150,4|8,3:2|0:0,0:0:0:0:
473,168,45301,2,0,L|459:222,2,37.5,0|0|0,0:0|0:0|3:0,0:0:0:0:
377,205,45634,2,0,B|384:260|384:260|393:275|393:275|392:291|392:291|402:364,1,150,0|8,3:0|0:0,0:0:0:0:
302,363,46134,2,0,P|262:340|199:342,1,75,0|0,0:0|3:0,0:0:0:0:
128,320,46467,2,0,B|101:368|39:366|39:366|52:311,1,150,2|8,3:2|0:0,0:0:0:0:
38,232,46967,1,0,0:0:0:0:
117,184,47134,2,0,L|205:191,2,75,0|2|0,3:0|3:2|0:0,0:0:0:0:
64,119,47634,1,8,0:0:0:0:
67,112,47717,1,0,3:0:0:0:
70,105,47800,1,0,0:0:0:0:
50,25,47967,1,0,3:0:0:0:
149,60,48134,6,0,B|225:102|221:18|308:70,1,150,4|8,3:2|0:0,0:0:0:0:
300,162,48634,2,0,P|272:176|276:140,1,75,0|0,0:0|3:0,0:0:0:0:
379,105,48967,2,0,P|420:100|472:69,1,75,2|0,3:2|0:0,0:0:0:0:
497,177,49300,1,8,0:0:0:0:
417,215,49467,2,0,L|407:303,1,75,0|0,0:0|3:0,0:0:0:0:
311,364,49800,2,0,P|232:351|247:276,1,150,2|8,3:2|0:0,0:0:0:0:
143,229,50300,2,0,B|101:235|90:243|90:243|63:234|42:230|42:230|18:241|-11:248,2,150,0|0|8,0:0|3:0|0:0,0:0:0:0:
189,146,51134,2,0,P|219:104|203:66,1,75
126,26,51466,6,0,B|56:26|56:26|119:79,1,134.999995880127,4|0,3:0|0:0,0:0:0:0:
136,84,51799,1,2,0:0:0:0:
93,160,51966,1,10,0:0:0:0:
145,230,52132,2,0,L|121:329,1,89.9999972534181,2|2,0:0|0:0,0:0:0:0:
246,369,52466,2,0,B|311:358|311:358|323:359|323:359|338:352|338:352|401:340,1,134.999995880127,4|0,3:2|0:0,0:0:0:0:
433,335,52799,2,0,B|472:362|472:362|428:380,1,89.9999972534181,2|2,0:0|3:2,0:0:0:0:
327,280,53132,2,0,B|287:263|287:263|326:236,1,89.9999972534181,2|0,3:2|1:0,0:0:0:0:
435,214,53466,6,0,L|446:121,2,84.3749974250794,4|0|0,3:0|0:0|0:0,0:0:0:0:
393,274,54049,2,0,L|469:328,2,84.3749974250794
361,248,54549,6,0,L|226:264,1,112.5,12|4,0:0|3:2,0:0:0:0:
151,136,54966,2,0,L|286:120,1,112.5,12|12,0:0|0:0,0:0:0:0:
172,47,55465,1,12,0:0:0:0:
339,112,55715,1,12,0:0:0:0:
203,219,55965,1,4,1:0:0:0:
190,211,56465,6,0,B|160:174|113:169|113:169|160:165|191:192,1,150
249,261,56958,2,0,B|296:253|296:253|326:257|326:257|351:244|351:244|410:233,1,150,4|8,3:0|0:0,0:0:0:0:
487,257,57458,1,2,3:2:0:0:
489,264,57541,1,8,0:0:0:0:
491,271,57624,1,2,0:0:0:0:
510,171,57791,1,0,0:0:0:0:
430,137,57958,2,0,P|379:129|326:68,1,112.5,2|0,3:2|1:0,0:0:0:0:
314,40,58291,2,0,P|305:29|293:53,3,37.5,10|8|10|8,0:0|0:0|0:0|0:0,0:0:0:0:
248,75,58624,2,0,L|172:82,1,75,8|8,0:3|0:3,0:0:0:0:
68,22,58958,6,0,L|59:147,1,112.5,4|0,3:0|3:0,0:0:0:0:
55,170,59291,1,8,0:0:0:0:
14,293,59458,1,0,3:0:0:0:
90,240,59624,2,0,L|184:251,1,75,8|0,0:0|0:0,0:0:0:0:
223,347,59958,2,0,B|246:309|292:296|292:296|317:330|364:337,1,150,4|2,3:2|3:2,0:0:0:0:
402,238,60458,2,0,B|369:214|369:214|367:260,2,75,10|0|10,0:0|3:0|0:0,0:0:0:0:
486,303,60957,6,0,P|501:248|484:160,1,112.5,4|0,3:0|0:0,0:0:0:0:
477,161,61291,1,0,3:0:0:0:
402,238,61457,2,0,B|370:236|370:236|348:239|348:239|331:233|331:233|263:229,1,112.5,10|0,0:0|1:0,0:0:0:0:
235,224,61791,2,0,B|154:187|172:275|79:211,1,150,4|2,3:2|0:0,0:0:0:0:
1,246,62291,1,2,3:2:0:0:
30,155,62457,1,8,0:0:0:0:
31,147,62541,1,8,0:0:0:0:
32,139,62624,1,4,3:0:0:0:
305,68,62957,5,0,0:0:0:0:
228,38,63124,2,0,L|215:133,2,75,2|8|8,3:2|0:0|0:3,0:0:0:0:
305,68,63624,2,0,L|311:228,1,150,4|0,3:0|3:0,0:0:0:0:
265,320,64124,1,8,0:0:0:0:
272,321,64207,1,8,0:0:0:0:
279,322,64291,1,0,3:0:0:0:
364,349,64457,1,8,0:0:0:0:
375,262,64624,2,0,B|421:165|328:90|241:99|176:202|195:294|286:303|284:201|236:174|202:165,1,375,8|2,0:0|0:0,0:0:0:0:
155,183,65624,5,4,0:0:0:0:
359,127,65957,1,0,0:0:0:0:
334,326,66290,1,0,0:0:0:0:
145,194,66624,2,0,B|101:216|68:198|68:198|89:135,1,134.999995880127
65,48,67124,2,0,L|-18:30,2,67.4999979400635
104,287,67790,2,0,B|148:280|148:280|171:281|171:281|185:270|185:270|240:263,1,134.999995880127
126,364,68290,6,0,P|83:367|32:306,1,112.5,0|0,3:0|3:0,0:0:0:0:
26,284,68624,1,12,0:0:0:0:
92,208,68790,2,0,P|142:206|179:297,2,150,0|12|10,3:0|0:0|0:0,0:0:0:0:
19,137,69624,2,0,B|41:95|51:43|51:43|39:60,1,112.5,8|0,0:0|3:0,0:0:0:0:
28,66,69957,1,2,1:2:0:0:
121,115,70124,2,0,L|208:122,1,75,2|12,1:2|0:0,0:0:0:0:
308,82,70457,2,0,B|330:46|379:42|379:42|416:68|463:56,1,150,10|12,0:0|0:0,0:0:0:0:
497,146,70957,6,0,L|459:293,1,134.999995880127,4|0,3:1|3:0,0:0:0:0:
456,304,71290,2,0,B|471:349|471:349|514:326,1,89.9999972534181,10|0,0:0|0:0,0:0:0:0:
390,237,71624,2,0,L|285:257,1,89.9999972534181,2|0,0:0|3:0,0:0:0:0:
262,347,71957,2,0,P|215:304|141:275,1,134.999995880127,10|0,0:0|1:0,0:0:0:0:
124,273,72290,2,0,L|101:364,1,89.9999972534181,4|0,3:2|0:0,0:0:0:0:
5,329,72624,1,10,0:0:0:0:
50,246,72790,1,0,0:0:0:0:
41,242,72873,1,8,0:0:0:0:
32,238,72957,1,2,0:0:0:0:
103,182,73123,1,0,3:0:0:0:
20,127,73290,2,0,L|8:38,1,89.9999972534181,10|0,0:0|0:0,0:0:0:0:
124,85,73623,6,0,B|176:79|176:79|195:83|195:83|210:71|210:71|253:66,1,134.999995880127,4|0,3:0|3:0,0:0:0:0:
305,58,73957,2,0,P|326:109|290:133,1,89.9999972534181,8|0,0:0|0:0,0:0:0:0:
176,209,74290,2,0,P|209:165|248:184,1,89.9999972534181,2|0,0:0|3:0,0:0:0:0:
370,244,74623,2,0,P|315:236|312:193,1,89.9999972534181,10|0,0:0|3:0,0:0:0:0:
454,178,74957,2,0,L|446:275,1,89.9999972534181,4|0,3:2|0:0,0:0:0:0:
453,273,75207,1,0,3:0:0:0:
459,279,75290,2,0,L|472:122,1,134.999995880127,8|8,0:0|0:0,0:0:0:0:
475,101,75623,2,0,B|501:66|501:66|508:120,1,89.9999972534181,4|0,0:0|3:0,0:0:0:0:
382,169,75957,2,0,L|281:177,1,89.9999972534181,8|8,0:0|0:0,0:0:0:0:
206,115,76290,6,0,P|163:67|101:110,1,134.999995880127,4|0,3:1|3:0,0:0:0:0:
85,131,76623,2,0,P|56:151|8:120,1,89.9999972534181,10|0,0:0|0:0,0:0:0:0:
139,192,76957,2,0,L|146:298,1,89.9999972534181,2|0,3:2|3:0,0:0:0:0:
94,367,77290,2,0,P|127:332|225:338,1,134.999995880127,10|0,0:0|0:0,0:0:0:0:
255,349,77623,1,8,0:0:0:0:
267,196,77873,6,0,B|262:173|235:142|235:142|261:123|279:101|279:101|248:69|248:31,1,187.5,4|8,3:2|0:0,0:0:0:0:
184,221,78623,1,8,0:0:0:0:
163,242,78707,1,0,1:0:0:0:
135,252,78790,1,0,1:0:0:0:
105,252,78873,1,0,1:0:0:0:
76,240,78957,1,4,3:0:0:0:
332,216,79290,2,0,L|455:208,1,112.5,10|0,0:0|1:0,0:0:0:0:
490,203,79623,2,0,P|507:246|499:300,1,75,2|0,3:2|0:0,0:0:0:0:
444,208,79957,2,0,P|468:153|454:85,1,112.5,10|0,0:0|1:0,0:0:0:0:
441,53,80290,6,0,P|428:29|461:48,1,75,8|8,0:3|0:3,0:0:0:0:
370,121,80623,2,0,L|276:111,1,75,2|0,1:2|1:0,0:0:0:0:
234,200,80957,2,0,L|146:198,1,75,10|8,0:0|0:0,0:0:0:0:
255,296,81290,2,0,L|255:340,3,37.5,2|0|0|0,1:2|1:0|1:0|1:0,0:0:0:0:
302,363,81623,6,0,B|336:347|336:347|329:291,1,75,10|8,0:0|0:0,0:0:0:0:
308,189,81957,2,0,L|224:201,1,75,0|0,1:0|1:0,0:0:0:0:
111,259,82290,2,0,B|64:201|64:201|106:133,1,150,4|0,3:1|1:0,0:0:0:0:
159,198,82790,1,8,0:0:0:0:
380,201,83123,1,0,1:0:0:0:
306,187,83290,2,0,B|248:192|248:192|234:198|234:198|218:193|218:193|133:200,1,150,0|0,3:0|1:0,0:0:0:0:
275,270,83790,2,0,B|286:284|309:287|309:287|326:276|338:241,2,75,8|0|0,0:0|1:0|1:0,0:0:0:0:
182,319,84290,6,0,P|137:309|63:332,1,112.5,4|2,3:0|0:0,0:0:0:0:
47,348,84623,1,2,1:2:0:0:
15,247,84790,2,0,L|26:162,2,75,10|0|0,0:0|1:0|1:0,0:0:0:0:
113,203,85290,2,0,L|136:42,1,150,4|8,3:2|0:0,0:0:0:0:
41,38,85790,2,0,P|21:49|63:66,2,75,2|8|8,1:2|0:3|0:3,0:0:0:0:
134,54,86290,6,0,B|170:54|205:77|205:77|242:56|296:59,1,150,4|0,3:0|1:0,0:0:0:0:
352,122,86790,2,0,L|356:226,2,75,4|0|0,3:2|1:0|1:0,0:0:0:0:
446,133,87290,2,0,L|456:291,1,150,4|0,3:2|3:0,0:0:0:0:
390,361,87790,1,4,3:2:0:0:
360,356,87873,1,0,0:0:0:0:
330,351,87957,1,0,1:0:0:0:
300,347,88040,1,0,0:0:0:0:
270,343,88123,1,0,3:0:0:0:
159,328,88290,6,0,L|50:348,1,89.9999972534181,12|0,0:0|0:0,0:0:0:0:
37,349,88540,2,0,L|56:198,1,134.999995880127,12|12,0:0|0:0,0:0:0:0:
7,92,88957,1,12,0:0:0:0:
253,144,89290,5,12,0:0:0:0:
123,162,89540,1,12,0:0:0:0:
253,144,89790,2,0,B|306:138|306:138|301:185|301:185|303:191|303:191|290:283,1,179.999994506836,4|0,1:0|0:0,0:0:0:0:
