osu file format v14

[General]
AudioFilename: asphyxia.mp3
AudioLeadIn: 0
PreviewTime: 131998
Countdown: 0
SampleSet: Normal
StackLeniency: 0.6
Mode: 0
LetterboxInBreaks: 0
WidescreenStoryboard: 1

[Editor]
Bookmarks: 15144,28305,50368,88180,105635,123089,133998,171835
DistanceSpacing: 1.5
BeatDivisor: 4
GridSize: 4
TimelineZoom: 2.550003

[Metadata]
Title:asphyxia
TitleUnicode:asphyxia
Artist:Co shu Nie
ArtistUnicode:Cö shu Nie
Creator:Gillstar
Version:neon's insane feat. pug
Source:東京喰種トーキョーグール:re
Tags:tokyo ghoul re 東京喰種トーキョーグール:re deca impurepug sparhten semaphore fser m3gb3g neonlights amity fixxis kowari anime japanese
BeatmapID:1923650
BeatmapSetID:895512

[Difficulty]
HPDrainRate:5
CircleSize:3.8
OverallDifficulty:7
ApproachRate:9
SliderMultiplier:1.8
SliderTickRate:1

[Events]
//Background and Video events
0,0,"61800997_p0_master1200.jpg",0,0
//Break Periods
//Storyboard Layer 0 (Background)
//Storyboard Layer 1 (Fail)
//Storyboard Layer 2 (Pass)
//Storyboard Layer 3 (Foreground)
//Storyboard Sound Samples

[TimingPoints]
278,512.820512820513,4,2,1,40,1,0
5682,540.540540540541,4,2,1,40,1,0
6507,588.235294117647,4,2,1,40,1,0
8858,392.156862745098,4,2,2,60,1,0
9032,382.165605095541,4,2,1,30,1,0
9477,384.615384615385,4,2,1,30,1,0
10450,368.098159509202,4,2,1,30,1,0
10843,375,4,2,1,30,1,0
11218,397.350993377483,4,2,1,30,1,0
12026,397.350993377483,4,2,1,30,1,0
12622,419.58041958042,4,2,1,30,1,0
13582,384.615384615385,4,2,1,30,1,0
14370,387.096774193548,4,2,1,30,1,0
15144,387.096774193548,4,1,2,40,1,0
15144,-83.3333333333333,4,1,2,40,0,0
26950,-100,4,2,2,50,0,0
27531,-100,4,2,1,50,0,0
28305,387.096774193548,4,2,2,40,1,0
39143,387.096774193548,3,2,2,40,1,0
50368,363.636363636364,3,1,2,50,1,1
50368,-83.3333333333333,3,1,2,50,0,1
52368,363.636363636364,3,1,2,50,1,1
52368,-83.3333333333333,3,1,2,50,0,1
56549,363.636363636364,3,1,2,50,1,1
56549,-100,3,1,2,50,0,1
58730,-83.3333333333333,3,1,2,50,0,1
60730,363.636363636364,3,1,2,50,1,1
60730,-83.3333333333333,3,1,2,50,0,1
64911,363.636363636364,3,1,2,50,1,1
64911,-83.3333333333333,3,1,2,50,0,1
66001,-83.3333333333333,3,1,2,50,0,1
66729,-83.3333333333333,3,1,2,50,0,1
69092,363.636363636364,3,1,2,50,1,1
69092,-83.3333333333333,3,1,2,50,0,1
73273,363.636363636364,3,1,2,50,1,1
75454,-83.3333333333333,3,1,2,50,0,1
77454,363.636363636364,3,1,2,50,1,1
77454,-83.3333333333333,3,1,2,50,0,1
81635,363.636363636364,3,1,2,50,1,1
81635,-83.3333333333333,3,1,2,50,0,1
82680,-100,3,1,2,5,0,1
82725,-83.3333333333333,3,1,2,50,0,1
83453,-83.3333333333333,3,1,2,50,0,1
83816,-83.3333333333333,3,1,2,50,0,0
83862,-83.3333333333333,3,1,2,50,0,0
84544,-83.3333333333333,3,1,2,50,0,0
84953,-83.3333333333333,3,1,2,5,0,0
85271,-83.3333333333333,3,1,2,50,0,0
85998,-83.3333333333333,3,1,2,50,0,1
88180,-83.3333333333333,3,1,2,50,0,0
89271,-83.3333333333333,3,1,2,50,0,0
89635,-83.3333333333333,3,2,2,50,0,0
90362,-83.3333333333333,3,2,2,50,0,0
92544,-83.3333333333333,3,2,2,50,0,0
95816,-83.3333333333333,3,2,2,50,0,0
96907,-83.3333333333333,3,2,2,50,0,0
99089,-83.3333333333333,3,2,2,50,0,0
100180,-83.3333333333333,3,2,2,50,0,0
101271,-83.3333333333333,3,2,2,50,0,0
103453,-100,3,2,2,50,0,0
106362,-100,3,2,2,50,0,0
120907,-100,3,2,2,50,0,0
123089,-100,3,1,2,50,0,0
123816,-100,3,1,2,50,0,0
124725,-100,3,1,2,50,0,0
126362,-100,3,2,2,50,0,0
127453,-100,3,1,2,50,0,0
129635,-100,3,1,2,50,0,0
129998,-100,3,2,2,50,0,0
133998,-83.3333333333333,3,1,2,50,0,1
135998,363.636363636364,3,1,2,50,1,1
135998,-83.3333333333333,3,1,2,50,0,1
140179,363.636363636364,3,1,2,50,1,1
142360,-83.3333333333333,3,1,2,50,0,1
144360,363.636363636364,3,1,2,50,1,1
144360,-83.3333333333333,3,1,2,50,0,1
148541,363.636363636364,3,1,2,50,1,1
148541,-83.3333333333333,3,1,2,50,0,1
152722,363.636363636364,3,1,2,50,1,1
152722,-83.3333333333333,3,1,2,50,0,1
156903,363.636363636364,3,1,2,50,1,1
159084,-83.3333333333333,3,1,2,50,0,1
161084,363.636363636364,3,1,2,50,1,1
161084,-83.3333333333333,3,1,2,50,0,1
165265,363.636363636364,3,1,2,50,1,1
165265,-83.3333333333333,3,1,2,50,0,1
166355,-100,3,2,2,50,0,1
166745,363.636363636364,3,2,2,50,1,0
167456,363.636363636364,3,2,2,50,1,0
167456,-83.3333333333333,3,2,2,50,0,0
169637,-83.3333333333333,3,1,2,50,0,1
170728,-83.3333333333333,3,1,2,50,0,1
170865,-83.3333333333333,3,1,2,5,0,1
170910,-83.3333333333333,3,1,2,50,0,1
171456,-83.3333333333333,3,1,2,50,0,1
171835,363.636363636364,3,2,2,50,1,0
173653,425.531914893617,3,2,1,50,1,0

[Colours]
Combo1 : 213,106,0
Combo2 : 219,13,44

[HitObjects]
65,119,278,5,2,0:0:0:0:
65,119,534,2,0,P|128:83|167:103,2,90,0|0|0,0:0|0:0|0:0,0:0:0:0:
0,183,1303,2,0,L|9:292,1,90,2|0,0:0|0:0,0:0:0:0:
17,380,1816,1,0,0:0:0:0:
98,309,2072,5,0,0:0:0:0:
120,323,2201,1,0,0:0:0:0:
145,331,2329,2,0,L|249:321,2,90,2|0|0,0:0|0:0|0:0,0:0:0:0:
165,224,3098,1,0,0:0:0:0:
353,117,3611,6,0,L|342:233,1,90,0|0,0:0|0:0,0:0:0:0:
445,244,4124,2,0,P|399:208|334:287,1,180,0|0,0:0|0:0,0:0:0:0:
237,231,4893,1,0,0:0:0:0:
253,337,5149,1,0,0:0:0:0:
54,259,5682,6,0,P|45:215|61:173,2,90,2|2|2,0:0|0:0|0:0,0:0:0:0:
256,192,6507,12,6,8858,0:0:0:0:
237,89,9477,5,2,0:0:0:0:
223,196,9669,2,0,P|165:169|129:270,1,180,2|2,0:0|0:0,0:0:0:0:
304,40,10450,6,0,B|321:72|321:72|313:163,1,90,2|0,0:0|0:0,0:0:0:0:
304,245,10843,2,0,P|360:225|399:243,1,90,2|0,0:0|0:0,0:0:0:0:
470,263,11218,2,0,L|459:386,2,120,2|2|0,0:0|0:0|0:0,0:0:0:0:
336,129,12026,5,2,0:0:0:0:
399,57,12224,2,0,L|406:24,2,22.5,2|0|2,0:0|0:0|0:0,0:0:0:0:
304,245,12622,5,2,0:0:0:0:
228,168,12831,2,0,P|170:141|122:216,1,150,2|2,0:0|0:0,0:0:0:0:
198,16,13582,5,2,0:0:0:0:
287,77,13774,1,2,0:0:0:0:
287,77,13870,1,0,0:0:0:0:
287,77,13966,2,0,L|293:151,1,45,2|0,0:0|0:0,0:0:0:0:
36,211,14370,5,2,0:0:0:0:
16,104,14563,1,2,0:0:0:0:
120,133,14757,2,0,P|168:128|179:132,1,45,0|0,0:0|0:0,0:0:0:0:
228,168,14950,2,0,P|276:173|287:169,1,45,0|0,0:0|0:0,0:0:0:0:
350,151,15144,6,0,L|338:279,1,107.999996704102,6|8,0:0|0:0,0:0:0:0:
333,367,15531,1,0,0:0:0:0:
333,367,15627,1,8,0:0:0:0:
333,367,15724,1,2,0:0:0:0:
172,292,15918,1,12,0:0:0:0:
164,128,16111,1,8,0:0:0:0:
172,292,16305,1,6,0:0:0:0:
402,239,16692,6,0,L|246:252,1,107.999996704102,6|0,0:0|0:0,0:0:0:0:
222,224,16982,2,0,P|160:208|100:247,1,107.999996704102,2|0,0:0|0:0,0:0:0:0:
73,284,17273,1,4,0:0:0:0:
11,170,17466,6,0,L|0:53,1,107.999996704102,6|6,0:0|0:0,0:0:0:0:
129,91,17853,2,0,P|165:86|199:99,1,53.9999983520508,8|0,0:0|0:0,0:0:0:0:
236,37,18047,2,0,P|269:50|291:77,1,53.9999983520508,0|0,0:0|0:0,0:0:0:0:
355,81,18240,6,0,L|366:214,1,107.999996704102,6|8,0:0|0:0,0:0:0:0:
491,263,18627,2,0,P|511:214|545:192,2,53.9999983520508,0|8|8,0:0|0:0|0:0,0:0:0:0:
368,351,19014,2,0,L|222:338,1,107.999996704102,12|0,0:0|0:0,0:0:0:0:
112,301,19402,2,0,P|169:240|246:294,1,161.999995056153,12|0,0:0|0:0,0:0:0:0:
232,265,19789,6,0,L|219:124,1,107.999996704102,6|0,0:0|0:0,0:0:0:0:
256,89,20079,1,2,0:0:0:0:
37,148,20369,1,4,0:0:0:0:
137,65,20563,5,6,0:0:0:0:
137,65,20660,1,0,0:0:0:0:
137,65,20756,1,2,0:0:0:0:
177,182,20950,1,8,0:0:0:0:
202,171,21046,1,0,0:0:0:0:
228,173,21143,1,8,0:0:0:0:
251,188,21240,1,0,0:0:0:0:
264,211,21337,6,0,L|253:332,1,107.999996704102,6|6,0:0|0:0,0:0:0:0:
383,312,21724,2,0,P|403:361|437:383,2,53.9999983520508,8|0|4,0:0|0:0|0:0,0:0:0:0:
441,178,22111,2,0,P|393:208|315:163,1,107.999996704102,2|4,0:0|0:0,0:0:0:0:
294,78,22498,2,0,L|144:66,1,107.999996704102,8|4,0:0|0:0,0:0:0:0:
54,56,22885,6,0,P|90:98|73:165,1,107.999996704102,2|4,0:0|0:0,0:0:0:0:
50,211,23175,2,0,P|112:195|172:234,1,107.999996704102,0|2,0:0|0:0,0:0:0:0:
212,256,23466,1,4,0:0:0:0:
225,374,23660,2,0,L|293:367,1,53.9999983520508,2|8,0:0|0:0,0:0:0:0:
325,258,23950,1,0,0:0:0:0:
337,245,24047,2,0,L|480:257,1,107.999996704102,12|4,0:0|0:0,0:0:0:0:
342,160,24434,6,0,L|333:52,1,107.999996704102,6|0,0:0|0:0,0:0:0:0:
219,115,24821,2,0,L|227:222,1,107.999996704102,8|4,0:0|0:0,0:0:0:0:
118,292,25208,1,2,0:0:0:0:
104,162,25402,1,4,0:0:0:0:
96,34,25595,2,0,P|157:70|210:8,1,161.999995056153,8|8,0:0|0:0,0:0:0:0:
209,11,25982,6,0,B|200:44|200:44|227:145,1,107.999996704102,6|8,0:0|0:0,0:0:0:0:
226,141,26273,1,8,0:0:0:0:
405,65,26563,1,8,0:0:0:0:
405,65,26756,2,0,L|391:217,1,107.999996704102,6|0,0:0|0:0,0:0:0:0:
272,214,27143,2,0,P|334:242|304:314,1,135,2|2,0:0|0:0,0:0:0:0:
278,330,27531,5,0,0:0:0:0:
127,271,27821,5,0,0:0:0:0:
8,32,28305,5,2,0:0:0:0:
170,50,28595,2,0,L|160:224,1,135,2|0,0:0|0:0,0:0:0:0:
88,104,29079,5,2,0:0:0:0:
269,116,29369,2,0,L|259:290,1,135,2|0,0:0|0:0,0:0:0:0:
184,172,29853,5,2,0:0:0:0:
367,183,30143,2,0,L|357:357,1,135,2|0,0:0|0:0,0:0:0:0:
288,360,30627,1,2,0:0:0:0:
150,261,30821,6,0,P|128:377|17:335,1,270,0|2,0:0|0:0,0:0:0:0:
26,226,31595,1,0,0:0:0:0:
45,120,31788,2,0,L|53:210,1,90,0|0,0:0|0:0,0:0:0:0:
150,261,32175,1,2,0:0:0:0:
192,48,32563,1,0,0:0:0:0:
223,154,32756,6,0,P|252:172|328:154,1,90,4|2,0:0|0:0,0:0:0:0:
306,169,33143,1,4,0:0:0:0:
463,213,33434,1,0,0:0:0:0:
338,262,33724,1,2,0:0:0:0:
418,302,34014,1,2,0:0:0:0:
362,359,34304,1,4,0:0:0:0:
264,312,34498,5,2,0:0:0:0:
115,375,34788,2,0,L|125:201,1,135,2|0,0:0|0:0,0:0:0:0:
59,152,35272,5,2,0:0:0:0:
208,89,35562,2,0,L|198:263,1,135,2|0,0:0|0:0,0:0:0:0:
264,312,36046,5,2,0:0:0:0:
413,375,36336,2,0,L|403:201,1,135,2|0,0:0|0:0,0:0:0:0:
467,150,36821,5,2,0:0:0:0:
318,87,37111,2,0,L|328:261,1,135,2|0,0:0|0:0,0:0:0:0:
264,312,37595,5,2,0:0:0:0:
195,228,37788,2,0,L|189:315,1,45,0|2,0:0|0:0,0:0:0:0:
111,301,38079,1,8,0:0:0:0:
111,301,38175,1,8,0:0:0:0:
90,80,38563,5,2,0:0:0:0:
103,186,38756,1,2,0:0:0:0:
103,186,38950,1,6,0:0:0:0:
209,157,39143,6,0,L|200:268,1,90,0|0,0:0|0:0,0:0:0:0:
292,188,39530,2,0,L|299:299,1,90,0|0,0:0|0:0,0:0:0:0:
381,208,39917,2,0,L|398:318,1,90,0|0,0:0|0:0,0:0:0:0:
474,222,40304,6,0,P|460:155|345:119,1,180,6|6,0:0|0:0,0:0:0:0:
148,119,41078,1,6,0:0:0:0:
177,221,41272,2,0,L|229:216,1,45,0|0,0:0|0:0,0:0:0:0:
257,258,41465,6,0,P|347:234|360:306,2,180,6|4|2,0:0|0:0|0:0,0:0:0:0:
174,327,42433,1,8,0:0:0:0:
174,327,42530,1,8,0:0:0:0:
174,327,42626,6,0,P|84:351|71:279,2,180,6|6|8,0:0|0:0|0:0,0:0:0:0:
363,223,43788,6,0,L|380:37,2,180,6|2|6,0:0|0:0|0:0,0:0:0:0:
175,253,44755,1,8,0:0:0:0:
175,253,44852,1,8,0:0:0:0:
175,253,44949,6,0,P|239:229|263:236,1,90,6|0,0:0|0:0,0:0:0:0:
355,278,45336,1,12,0:0:0:0:
437,208,45530,1,8,0:0:0:0:
437,208,45627,1,8,0:0:0:0:
437,208,45724,2,0,P|413:144|420:120,1,90,2|0,0:0|0:0,0:0:0:0:
332,59,46110,5,6,0:0:0:0:
109,105,46497,2,0,L|118:207,1,90,8|4,0:0|0:0,0:0:0:0:
222,166,46884,2,0,L|213:267,1,90,2|0,0:0|0:0,0:0:0:0:
119,309,47272,5,12,0:0:0:0:
215,356,47465,1,4,0:0:0:0:
297,286,47659,2,0,P|354:258|412:275,1,90,6|8,0:0|0:0,0:0:0:0:
475,308,48046,1,2,0:0:0:0:
467,200,48239,1,8,0:0:0:0:
467,200,48336,1,8,0:0:0:0:
467,200,48433,6,0,L|458:98,1,90,6|0,0:0|0:0,0:0:0:0:
459,110,48723,2,0,P|421:141|339:109,1,135,6|12,0:0|0:0,0:0:0:0:
248,47,49207,1,8,0:0:0:0:
248,47,49304,1,8,0:0:0:0:
248,47,49401,6,0,L|239:148,1,90,6|0,0:0|0:0,0:0:0:0:
240,136,49691,2,0,P|202:105|118:143,1,135,6|12,0:0|0:0,0:0:0:0:
312,272,50368,6,0,P|356:345|438:305,2,161.999995056153,6|0|2,0:0|0:0|0:0,0:0:0:0:
143,346,51095,2,0,L|35:355,1,107.999996704102,12|8,0:0|0:0,0:0:0:0:
78,197,51458,6,0,P|83:108|-12:74,1,161.999995056153,6|2,0:0|0:0,0:0:0:0:
207,150,52004,2,0,P|274:156|327:147,1,107.999996704102,6|2,0:0|0:0,0:0:0:0:
449,112,52368,6,0,L|437:349,1,215.999993408203,6|0,0:0|0:0,0:0:0:0:
331,251,52913,2,0,P|240:276|276:163,1,215.999993408203,6|8,0:0|0:0,0:0:0:0:
344,96,53458,5,6,0:0:0:0:
354,226,53640,1,0,0:0:0:0:
367,355,53822,1,12,0:0:0:0:
236,309,54004,5,2,0:0:0:0:
124,252,54186,1,12,0:0:0:0:
124,252,54277,1,0,0:0:0:0:
124,252,54368,1,2,0:0:0:0:
12,196,54549,6,0,L|0:66,2,107.999996704102,6|8|0,0:0|0:0|0:0,0:0:0:0:
176,48,55095,1,6,0:0:0:0:
164,305,55458,2,0,L|296:293,1,107.999996704102,8|6,0:0|0:0,0:0:0:0:
476,170,56004,2,0,P|414:179|349:140,1,107.999996704102,8|6,0:0|0:0,0:0:0:0:
225,26,56368,1,8,0:0:0:0:
235,38,56549,6,0,L|247:177,1,135,6|8,0:0|0:0,0:0:0:0:
154,305,57094,2,0,P|161:227|166:165,1,135,6|8,0:0|0:0,0:0:0:0:
78,33,57639,6,0,L|90:172,1,135,6|12,0:0|0:0,0:0:0:0:
1,308,58185,2,0,L|13:168,1,135,6|0,0:0|0:0,0:0:0:0:
192,98,58730,6,0,P|293:92|292:191,1,215.999993408203,6|0,0:0|0:0,0:0:0:0:
178,237,59276,2,0,L|70:227,2,107.999996704102,6|8|8,0:0|0:0|0:0,0:0:0:0:
301,276,59821,6,0,P|373:255|468:298,1,161.999995056153,6|2,0:0|0:0,0:0:0:0:
304,156,60367,2,0,P|275:81|356:76,1,161.999995056153,6|0,0:0|0:0,0:0:0:0:
337,62,60730,6,0,L|108:81,1,215.999993408203,6|0,0:0|0:0,0:0:0:0:
54,191,61275,2,0,P|89:299|170:235,1,215.999993408203,6|2,0:0|0:0,0:0:0:0:
178,125,61820,5,12,0:0:0:0:
304,156,62002,1,0,0:0:0:0:
430,188,62184,1,12,0:0:0:0:
394,63,62366,5,2,0:0:0:0:
304,156,62548,1,12,0:0:0:0:
213,249,62730,1,2,0:0:0:0:
11,221,62911,6,0,L|1:113,2,107.999996704102,6|8|0,0:0|0:0|0:0,0:0:0:0:
127,317,63457,1,6,0:0:0:0:
150,168,63639,1,12,0:0:0:0:
175,33,63821,1,8,0:0:0:0:
175,33,64002,2,0,P|287:47|277:138,1,215.999993408203,6|8,0:0|0:0,0:0:0:0:
183,232,64548,6,0,P|200:291|172:345,2,107.999996704102,6|12|6,0:0|0:0|0:0,0:0:0:0:
311,280,65092,1,8,0:0:0:0:
311,280,65183,1,2,0:0:0:0:
311,280,65274,1,8,0:0:0:0:
438,277,65456,1,8,0:0:0:0:
495,160,65638,1,0,0:0:0:0:
447,43,65820,1,8,0:0:0:0:
447,43,66001,6,0,P|367:37|400:152,1,215.999993408203,6|8,0:0|0:0,0:0:0:0:
438,277,66547,2,0,L|430:405,2,107.999996704102,12|8|8,0:0|0:0|0:0,0:0:0:0:
360,118,67092,6,0,B|330:157|330:157|353:309,2,161.999995056153,6|2|2,0:0|0:0|0:0,0:0:0:0:
374,135,67820,1,12,0:0:0:0:
232,32,68001,1,8,0:0:0:0:
228,52,68183,2,0,P|205:157|138:89,1,215.999993408203,6|0,0:0|0:0,0:0:0:0:
1,83,68729,2,0,L|12:213,1,107.999996704102,6|2,0:0|0:0,0:0:0:0:
148,230,69092,6,0,P|157:326|253:316,1,215.999993408203,6|0,0:0|0:0,0:0:0:0:
375,272,69637,2,0,B|395:105|395:105|363:38,1,215.999993408203,6|8,0:0|0:0,0:0:0:0:
263,128,70182,5,6,0:0:0:0:
137,159,70364,1,0,0:0:0:0:
11,191,70546,1,12,0:0:0:0:
49,67,70728,5,2,0:0:0:0:
137,159,70910,1,12,0:0:0:0:
227,252,71092,1,2,0:0:0:0:
391,224,71273,6,0,P|423:282|417:331,2,107.999996704102,6|8|0,0:0|0:0|0:0,0:0:0:0:
263,128,71819,1,6,0:0:0:0:
216,380,72182,2,0,L|205:262,1,107.999996704102,8|6,0:0|0:0,0:0:0:0:
94,183,72546,1,8,0:0:0:0:
94,183,72637,1,0,0:0:0:0:
94,183,72728,1,8,0:0:0:0:
111,56,72910,2,0,P|188:34|221:122,1,161.999995056153,6|0,0:0|0:0,0:0:0:0:
227,93,73273,6,0,B|259:73|259:73|253:194,1,135,6|8,0:0|0:0,0:0:0:0:
400,192,73818,2,0,P|356:228|390:296,1,135,6|8,0:0|0:0,0:0:0:0:
258,328,74363,6,0,L|109:316,1,135,6|8,0:0|0:0,0:0:0:0:
11,191,74909,2,0,P|66:112|141:167,1,180,6|0,0:0|0:0,0:0:0:0:
199,257,75454,6,0,P|339:295|375:153,2,323.999990112305,6|6|6,0:0|0:0|0:0,0:0:0:0:
180,120,76727,1,8,0:0:0:0:
180,120,76818,1,2,0:0:0:0:
180,120,76909,1,0,0:0:0:0:
304,36,77091,2,0,L|315:166,1,107.999996704102,6|8,0:0|0:0,0:0:0:0:
424,244,77454,6,0,P|386:333|297:293,1,215.999993408203,6|0,0:0|0:0,0:0:0:0:
216,160,77999,2,0,P|127:120|89:209,1,215.999993408203,6|2,0:0|0:0,0:0:0:0:
56,60,78544,5,12,0:0:0:0:
63,189,78726,1,0,0:0:0:0:
70,318,78908,1,12,0:0:0:0:
185,258,79090,5,2,0:0:0:0:
304,207,79272,1,12,0:0:0:0:
304,207,79363,1,0,0:0:0:0:
304,207,79454,1,2,0:0:0:0:
418,146,79635,6,0,P|434:96|412:48,2,107.999996704102,6|8|0,0:0|0:0|0:0,0:0:0:0:
304,207,80181,1,6,0:0:0:0:
176,43,80544,2,0,L|187:170,1,107.999996704102,8|6,0:0|0:0,0:0:0:0:
28,292,80908,1,8,0:0:0:0:
15,274,81090,2,0,L|26:146,1,107.999996704102,8|6,0:0|0:0,0:0:0:0:
95,56,81454,6,0,L|106:183,1,107.999996704102,12|6,0:0|0:0,0:0:0:0:
247,216,81816,1,8,0:0:0:0:
247,216,81907,1,2,0:0:0:0:
247,216,81998,1,8,0:0:0:0:
278,359,82180,1,8,0:0:0:0:
389,284,82362,1,0,0:0:0:0:
389,284,82453,1,8,0:0:0:0:
389,284,82544,1,8,0:0:0:0:
420,86,82725,5,6,0:0:0:0:
299,38,82907,1,8,0:0:0:0:
315,166,83089,1,8,0:0:0:0:
405,43,83271,5,12,0:0:0:0:
276,61,83453,1,8,0:0:0:0:
354,164,83635,1,8,0:0:0:0:
231,203,83816,5,0,0:0:0:0:
95,190,85998,6,0,L|79:8,2,161.999995056153,6|2|2,0:0|0:0|0:0,0:0:0:0:
216,360,86725,2,0,L|205:236,1,107.999996704102,12|8,0:0|0:0,0:0:0:0:
298,172,87089,2,0,P|389:137|404:251,1,215.999993408203,6|8,0:0|0:0,0:0:0:0:
440,368,87635,5,8,0:0:0:0:
322,314,87816,1,8,0:0:0:0:
207,253,87998,1,8,0:0:0:0:
93,190,88180,6,0,L|80:297,1,107.999996704102,6|2,0:0|0:0,0:0:0:0:
207,253,88544,2,0,L|219:145,1,107.999996704102,12|0,0:0|0:0,0:0:0:0:
339,96,88907,2,0,L|326:203,1,107.999996704102,0|8,0:0|0:0,0:0:0:0:
322,314,89271,6,0,P|412:323|441:209,2,215.999993408203,6|8|8,0:0|0:0|0:0,0:0:0:0:
176,99,90362,5,6,0:0:0:0:
361,157,90635,1,6,0:0:0:0:
216,220,90907,1,6,0:0:0:0:
320,273,91180,1,6,0:0:0:0:
256,99,91453,5,6,0:1:0:0:
71,157,91726,1,6,0:0:0:0:
216,220,91998,1,6,0:0:0:0:
112,273,92271,1,6,0:0:0:0:
146,81,92544,6,0,P|102:46|23:60,2,107.999996704102,6|0|4,0:1|0:0|0:0,0:0:0:0:
263,136,93089,2,0,P|315:115|342:39,2,107.999996704102,2|12|0,0:0|0:0|0:0,0:0:0:0:
155,209,93635,2,0,P|120:288|227:333,2,215.999993408203,2|4|12,0:0|0:0|0:0,0:0:0:0:
347,35,94725,6,0,L|335:166,1,107.999996704102,6|2,0:0|0:0,0:0:0:0:
292,265,95089,2,0,L|297:323,2,53.9999983520508,12|2|0,0:0|0:0|0:0,0:0:0:0:
209,163,95453,2,0,P|142:149|83:197,1,107.999996704102,12|0,0:0|0:0,0:0:0:0:
2,240,95816,6,0,L|11:352,1,107.999996704102,6|8,0:0|0:0,0:0:0:0:
136,383,96180,2,0,L|243:373,1,107.999996704102,6|8,0:0|0:0,0:0:0:0:
362,319,96544,1,8,0:0:0:0:
459,79,96907,6,0,B|348:47|348:152|224:79,1,215.999993408203,6|6,0:0|0:0,0:0:0:0:
116,26,97453,1,8,0:0:0:0:
116,26,97635,2,0,P|160:92|143:132,1,107.999996704102,8|4,0:0|0:0,0:0:0:0:
54,197,97998,2,0,B|9:143|9:143|35:-20,2,215.999993408203,6|6|8,0:0|0:0|0:0,0:0:0:0:
128,302,98907,1,2,0:0:0:0:
17,370,99089,6,0,P|68:331|183:364,1,161.999995056153,6|6,0:0|0:0,0:0:0:0:
249,169,99635,2,0,P|308:193|337:309,1,161.999995056153,6|6,0:0|0:0,0:0:0:0:
468,376,100180,5,6,0:0:0:0:
464,268,100362,1,8,0:0:0:0:
460,156,100544,1,0,0:0:0:0:
456,40,100725,2,0,P|353:107|241:59,1,215.999993408203,6|2,0:0|0:0,0:0:0:0:
155,12,101271,6,0,B|198:144|100:97|136:217,1,215.999993408203,6|0,0:0|0:0,0:0:0:0:
190,334,101816,1,2,0:0:0:0:
190,334,101998,2,0,P|99:319|65:349,1,107.999996704102,12|4,0:0|0:0,0:0:0:0:
6,223,102362,2,0,P|86:228|139:141,1,161.999995056153,6|2,0:0|0:0,0:0:0:0:
139,141,102725,1,6,0:0:0:0:
32,40,102907,6,0,B|204:24|204:24|247:45,1,215.999993408203,2|4,0:0|0:0,0:0:0:0:
344,89,103453,1,4,0:0:0:0:
344,89,103635,2,0,P|365:140|476:101,1,180,2|0,0:0|0:0,0:0:0:0:
424,23,104180,1,12,0:0:0:0:
256,192,104544,12,4,105635,0:0:0:0:
313,186,105998,5,8,0:0:0:0:
313,186,106362,1,8,0:0:0:0:
161,34,106725,5,8,0:0:0:0:
79,201,107089,1,8,0:0:0:0:
32,109,107271,1,0,0:0:0:0:
32,109,107453,2,0,P|102:95|137:124,1,90,8|0,0:0|0:0,0:0:0:0:
181,186,107816,2,0,P|266:215|339:171,1,180,4|8,0:0|0:0,0:0:0:0:
400,82,108362,1,0,0:0:0:0:
463,169,108544,2,0,L|450:311,1,90,8|0,0:0|0:0,0:0:0:0:
386,342,108907,6,0,P|336:320|295:335,1,90,8|0,0:0|0:0,0:0:0:0:
208,380,109271,1,8,0:0:0:0:
118,319,109453,1,0,0:0:0:0:
118,319,109635,6,0,P|146:285|147:241,1,90,8|0,0:0|0:0,0:0:0:0:
123,135,109998,2,0,P|169:202|270:147,1,180,4|8,0:0|0:0,0:0:0:0:
323,96,110544,1,0,0:0:0:0:
323,96,110725,2,0,L|427:105,1,90,8|0,0:0|0:0,0:0:0:0:
482,187,111089,5,8,0:0:0:0:
362,367,111453,1,8,0:0:0:0:
254,180,111816,1,8,0:0:0:0:
53,260,112180,6,0,P|27:308|136:344,2,180,4|8|8,0:0|0:0|0:0,0:0:0:0:
254,180,113271,6,0,P|280:132|171:96,1,180,12|0,0:0|0:0,0:0:0:0:
254,180,113816,6,0,P|280:132|171:96,1,180,2|0,0:0|0:0,0:0:0:0:
72,188,114362,5,4,0:0:0:0:
222,379,114726,1,8,0:0:0:0:
260,277,114908,1,0,0:0:0:0:
260,277,115090,2,0,P|330:263|365:292,1,90,8|0,0:0|0:0,0:0:0:0:
418,346,115453,6,0,P|389:261|433:188,1,180,8|8,0:0|0:0,0:0:0:0:
509,111,115999,1,0,0:0:0:0:
414,58,116181,2,0,L|272:71,1,90,8|0,0:0|0:0,0:0:0:0:
175,29,116544,6,0,P|204:62|205:107,1,90,4|0,0:0|0:0,0:0:0:0:
76,104,116907,1,8,0:0:0:0:
96,220,117271,2,0,L|211:209,1,90,8|0,0:0|0:0,0:0:0:0:
239,130,117635,6,0,P|320:107|370:175,1,180,8|8,0:0|0:0,0:0:0:0:
455,247,118181,1,2,0:0:0:0:
455,247,118362,2,0,L|446:351,1,90,8|8,0:0|0:0,0:0:0:0:
349,383,118726,5,4,0:0:0:0:
297,176,119090,1,8,0:0:0:0:
144,328,119453,1,8,0:0:0:0:
358,349,119816,5,12,0:0:0:0:
254,163,120180,1,12,0:0:0:0:
146,349,120543,1,12,0:0:0:0:
344,262,120907,6,0,L|359:82,1,180,12|4,0:0|0:0,0:0:0:0:
265,28,121453,2,0,P|187:13|187:92,1,180,2|2,0:0|0:0,0:0:0:0:
266,166,121998,1,12,0:0:0:0:
52,196,122362,1,12,0:0:0:0:
266,166,122725,1,12,0:0:0:0:
187,367,123089,6,0,L|177:255,1,90,6|8,0:0|0:0,0:0:0:0:
138,176,123453,2,0,P|126:132|145:84,1,90,0|8,0:0|0:0,0:0:0:0:
229,31,123816,2,0,L|340:40,1,90,6|0,0:0|0:0,0:0:0:0:
421,72,124180,6,0,P|360:72|323:126,1,90,6|0,0:0|0:0,0:0:0:0:
251,152,124544,2,0,L|258:241,1,90,12|2,0:0|0:0,0:0:0:0:
355,286,124907,2,0,P|367:330|348:378,1,90,12|0,0:0|0:0,0:0:0:0:
245,379,125271,5,6,0:0:0:0:
70,251,125635,2,0,L|60:160,2,60,6|0|0,0:0|0:0|0:0,0:0:0:0:
83,358,125998,1,6,0:0:0:0:
158,155,126362,6,0,P|200:141|242:153,1,90,6|0,0:0|0:0,0:0:0:0:
335,210,126726,2,0,L|424:202,1,90,12|2,0:0|0:0,0:0:0:0:
491,116,127089,1,12,0:0:0:0:
474,331,127453,6,0,P|434:368|329:295,2,180,6|6|6,0:0|0:0|0:0,0:0:0:0:
485,223,128362,1,8,0:0:0:0:
402,153,128544,2,0,B|415:17|415:17|373:64,2,180,6|12|12,0:0|0:0|0:0,0:0:0:0:
388,260,129453,1,0,0:0:0:0:
296,188,129635,6,0,P|248:164|196:192,2,90,12|0|8,0:0|0:0|0:0,0:0:0:0:
160,240,130180,1,8,0:0:0:0:
226,348,130362,2,0,L|316:340,1,90,8|8,0:0|0:0,0:0:0:0:
360,220,130725,5,8,0:0:0:0:
351,175,130815,1,8,0:0:0:0:
357,131,130906,1,8,0:0:0:0:
376,91,130997,1,8,0:0:0:0:
408,64,131089,2,0,P|451:60|482:45,3,45,8|8|8|8,0:0|0:0|0:0|0:0,0:0:0:0:
364,48,131453,5,8,0:0:0:0:
319,39,131543,1,8,0:0:0:0:
275,45,131634,1,8,0:0:0:0:
235,64,131725,1,8,0:0:0:0:
456,280,133998,6,0,P|439:195|324:253,1,215.999993408203,6|0,0:0|0:0,0:0:0:0:
281,333,134544,2,0,P|187:360|158:267,1,215.999993408203,2|0,0:0|0:0,0:0:0:0:
223,155,135089,6,0,P|228:66|192:31,2,107.999996704102,6|0|4,0:0|0:0|0:0,0:0:0:0:
158,267,135635,1,0,0:0:0:0:
97,96,135816,1,8,0:0:0:0:
117,64,135907,1,8,0:0:0:0:
134,32,135998,6,0,L|370:11,1,215.999993408203,6|0,0:0|0:0,0:0:0:0:
471,57,136543,2,0,P|462:151|371:126,1,215.999993408203,2|2,0:0|0:0,0:0:0:0:
260,58,137088,5,12,0:0:0:0:
270,188,137270,1,0,0:0:0:0:
283,317,137452,1,4,0:0:0:0:
386,238,137634,5,2,0:0:0:0:
270,188,137816,1,0,0:0:0:0:
151,135,137998,1,0,0:0:0:0:
33,82,138179,6,0,P|-1:167|21:212,2,107.999996704102,6|0|0,0:0|0:0|0:0,0:0:0:0:
164,156,138725,2,0,L|296:144,1,107.999996704102,2|4,0:0|0:0,0:0:0:0:
320,36,139088,1,2,0:0:0:0:
436,252,139270,2,0,L|304:240,1,107.999996704102,12|2,0:0|0:0,0:0:0:0:
228,232,139634,1,12,0:0:0:0:
416,152,139816,1,2,0:0:0:0:
312,60,139998,1,8,0:0:0:0:
312,60,140179,6,0,L|324:199,1,135,6|2,0:0|0:0,0:0:0:0:
216,366,140724,2,0,L|228:226,1,135,12|2,0:0|0:0,0:0:0:0:
116,36,141269,2,0,L|128:176,1,135,6|2,0:0|0:0,0:0:0:0:
16,364,141815,2,0,L|28:224,1,135,6|0,0:0|0:0,0:0:0:0:
356,68,142360,6,0,P|340:163|245:147,1,215.999993408203,6|0,0:0|0:0,0:0:0:0:
128,60,142906,1,2,0:0:0:0:
140,84,143088,2,0,L|151:211,1,107.999996704102,0|0,0:0|0:0,0:0:0:0:
165,322,143451,6,0,P|237:301|357:343,1,161.999995056153,12|0,0:0|0:0,0:0:0:0:
320,318,143815,1,4,0:0:0:0:
469,369,143997,2,0,P|403:337|437:274,1,161.999995056153,0|8,0:0|0:0,0:0:0:0:
437,274,144360,6,0,B|474:291|474:291|457:80,1,215.999993408203,6|0,0:0|0:0,0:0:0:0:
355,39,144905,2,0,P|259:23|250:119,1,215.999993408203,2|2,0:0|0:0,0:0:0:0:
352,200,145450,5,12,0:0:0:0:
226,228,145632,1,0,0:0:0:0:
99,254,145814,1,0,0:0:0:0:
139,133,145996,5,2,0:0:0:0:
226,228,146178,1,12,0:0:0:0:
312,325,146360,1,0,0:0:0:0:
440,292,146541,6,0,P|476:330|462:405,2,107.999996704102,6|0|0,0:0|0:0|0:0,0:0:0:0:
352,200,147087,1,2,0:0:0:0:
144,348,147451,1,2,0:0:0:0:
143,348,147632,6,0,P|46:357|35:260,1,215.999993408203,12|12,0:0|0:0,0:0:0:0:
106,166,148178,2,0,P|118:103|76:59,2,107.999996704102,0|8|6,0:0|0:0|0:0,0:0:0:0:
35,259,148722,1,8,0:0:0:0:
276,224,148904,2,0,P|260:208|148:236,2,107.999996704102,0|6|8,0:0|0:0|0:0,0:0:0:0:
398,330,149450,5,8,0:0:0:0:
398,330,149631,2,0,P|478:336|445:221,1,215.999993408203,6|0,0:0|0:0,0:0:0:0:
370,126,150177,2,0,L|381:-1,2,107.999996704102,8|8|2,0:0|0:0|0:0,0:0:0:0:
276,224,150722,6,0,P|292:319|264:363,2,107.999996704102,6|8|0,0:0|0:0|0:0,0:0:0:0:
150,267,151268,2,0,B|115:219|55:219|55:219|115:219|148:165,1,215.999993408203,2|8,0:0|0:0,0:0:0:0:
263,76,151813,6,0,P|172:43|124:63,2,107.999996704102,6|8|0,0:0|0:0|0:0,0:0:0:0:
435,19,152359,2,0,L|424:149,1,107.999996704102,6|2,0:0|0:0,0:0:0:0:
508,237,152722,6,0,P|499:333|403:323,1,215.999993408203,6|0,0:0|0:0,0:0:0:0:
279,280,153267,2,0,B|259:113|259:113|291:46,1,215.999993408203,6|8,0:0|0:0,0:0:0:0:
403,31,153812,5,6,0:0:0:0:
389,160,153994,1,0,0:0:0:0:
377,289,154176,1,12,0:0:0:0:
506,219,154358,5,2,0:0:0:0:
389,160,154540,1,12,0:0:0:0:
272,105,154722,1,0,0:0:0:0:
140,208,154903,6,0,P|169:252|169:305,2,107.999996704102,6|8|0,0:0|0:0|0:0,0:0:0:0:
253,231,155449,1,6,0:0:0:0:
126,96,155631,1,8,0:0:0:0:
282,0,155812,2,0,L|268:117,1,107.999996704102,8|6,0:0|0:0,0:0:0:0:
253,231,156176,1,8,0:0:0:0:
240,368,156358,1,8,0:0:0:0:
240,368,156540,2,0,P|195:306|123:330,1,161.999995056153,6|0,0:0|0:0,0:0:0:0:
123,329,156903,6,0,B|91:349|91:349|97:228,1,135,6|8,0:0|0:0,0:0:0:0:
230,143,157448,2,0,B|262:122|262:122|256:243,1,135,6|8,0:0|0:0,0:0:0:0:
123,329,157993,6,0,P|55:322|49:265,1,135,6|12,0:0|0:0,0:0:0:0:
118,117,158539,2,0,L|326:135,1,180,6|0,0:0|0:0,0:0:0:0:
380,240,159084,6,0,P|374:294|424:381,2,107.999996704102,6|8|0,0:0|0:0|0:0,0:0:0:0:
472,280,159630,1,6,0:0:0:0:
392,136,159812,1,8,0:0:0:0:
284,272,159993,1,8,0:0:0:0:
200,92,160175,1,6,0:0:0:0:
107,235,160357,1,8,0:0:0:0:
107,235,160448,1,2,0:0:0:0:
107,235,160539,1,0,0:0:0:0:
20,25,160721,2,0,L|31:155,1,107.999996704102,6|8,0:0|0:0,0:0:0:0:
107,235,161084,6,0,P|145:324|234:284,1,215.999993408203,6|0,0:0|0:0,0:0:0:0:
326,39,161629,2,0,P|386:23|442:91,2,107.999996704102,6|8|2,0:0|0:0|0:0,0:0:0:0:
242,125,162174,5,12,0:0:0:0:
235,254,162356,1,0,0:0:0:0:
228,383,162538,1,12,0:0:0:0:
106,248,162720,5,2,0:0:0:0:
235,254,162902,1,12,0:0:0:0:
364,261,163084,1,0,0:0:0:0:
430,143,163265,6,0,P|446:93|424:45,2,107.999996704102,6|8|0,0:0|0:0|0:0,0:0:0:0:
364,261,163811,1,6,0:0:0:0:
162,26,164174,1,8,0:0:0:0:
176,43,164356,2,0,L|187:170,1,107.999996704102,6|8,0:0|0:0,0:0:0:0:
23,354,164720,2,0,L|34:226,1,107.999996704102,8|6,0:0|0:0,0:0:0:0:
103,136,165084,6,0,L|114:263,1,107.999996704102,12|6,0:0|0:0,0:0:0:0:
188,68,165446,2,0,L|194:-11,2,53.9999983520508,8|0|8,0:0|0:0|0:0,0:0:0:0:
252,184,165810,1,8,0:0:0:0:
188,300,165992,2,0,L|194:379,2,53.9999983520508,0|8|8,0:0|0:0|0:0,0:0:0:0:
103,136,166355,5,0,0:0:0:0:
103,136,167456,5,6,0:0:0:0:
121,263,167637,1,0,0:0:0:0:
223,182,167819,1,8,0:0:0:0:
223,182,168001,2,0,P|280:147|328:273,1,215.999993408203,2|2,0:0|0:0,0:0:0:0:
266,348,168546,5,12,0:0:0:0:
56,195,168910,1,4,0:0:0:0:
56,195,169092,1,8,0:0:0:0:
272,51,169456,1,2,0:0:0:0:
360,144,169637,6,0,P|247:227|196:96,1,323.999990112305,6|8,0:0|0:0,0:0:0:0:
272,345,170546,1,8,0:0:0:0:
162,275,170728,6,0,P|49:191|4:323,1,323.999990112305,6|12,0:0|0:0,0:0:0:0:
300,170,171835,6,0,L|309:60,2,90,4|0|0,0:0|0:0|0:0,0:0:0:0:
291,277,172380,1,0,0:0:0:0:
132,130,172744,1,0,0:0:0:0:
132,130,172925,5,0,0:0:0:0:
53,331,173289,1,0,0:0:0:0:
155,365,173471,1,0,0:0:0:0:
229,310,173653,2,0,L|337:319,2,90,0|0|0,0:0|0:0|0:0,0:0:0:0:
