osu file format v14

[General]
AudioFilename: asphyxia.mp3
AudioLeadIn: 0
PreviewTime: 131998
Countdown: 0
SampleSet: Soft
StackLeniency: 0.2
Mode: 0
LetterboxInBreaks: 0
WidescreenStoryboard: 1

[Editor]
Bookmarks: 15144,50368,105635,123089,133998,160903
DistanceSpacing: 1.4
BeatDivisor: 8
GridSize: 32
TimelineZoom: 1.8

[Metadata]
Title:asphyxia
TitleUnicode:asphyxia
Artist:Co shu Nie
ArtistUnicode:Cö shu Nie
Creator:Gillstar
Version:imparhten's another
Source:東京喰種トーキョーグール:re
Tags:tokyo ghoul re 東京喰種トーキョーグール:re deca impurepug sparhten semaphore fser m3gb3g neonlights amity fixxis kowari anime japanese
BeatmapID:1883717
BeatmapSetID:895512

[Difficulty]
HPDrainRate:5
CircleSize:4
OverallDifficulty:8
ApproachRate:9
SliderMultiplier:2.5
SliderTickRate:1

[Events]
//Background and Video events
0,0,"61800997_p0_master1200.jpg",0,0
//Break Periods
//Storyboard Layer 0 (Background)
//Storyboard Layer 1 (Fail)
//Storyboard Layer 2 (Pass)
//Storyboard Layer 3 (Foreground)
//Storyboard Sound Samples

[TimingPoints]
278,512.820512820513,4,2,1,30,1,0
278,-333.333333333333,4,2,1,30,0,0
5682,540.540540540541,4,2,1,30,1,0
5682,-333.333333333333,4,2,1,30,0,0
6222,-250,4,2,1,30,0,0
6425,-250,4,2,1,5,0,0
6507,588.235294117647,4,2,1,50,1,0
8858,392.156862745098,4,2,1,50,1,0
9032,382.165605095541,4,2,1,35,1,0
9032,-166.666666666667,4,2,1,35,0,0
9477,384.615384615385,4,2,1,35,1,0
9477,-200,4,2,1,35,0,0
10450,368.098159509202,4,2,1,35,1,0
10634,-133.333333333333,4,2,1,35,0,0
10843,375,4,2,1,35,1,0
10936,-100,4,2,1,45,0,0
11218,397.350993377483,4,2,1,35,1,0
11218,-300,4,2,1,35,0,0
11516,-300,4,2,1,5,0,0
11615,-300,4,2,1,55,0,0
11913,-300,4,2,1,5,0,0
12026,397.350993377483,4,2,1,35,1,0
12224,-166.666666666667,4,2,1,35,0,0
12622,419.58041958042,4,2,1,35,1,0
12622,-200,4,2,1,35,0,0
13582,384.615384615385,4,2,1,35,1,0
13774,-133.333333333333,4,2,1,35,0,0
13966,-100,4,2,1,35,0,0
14062,-100,4,2,1,45,0,0
14370,387.096774193548,4,2,1,35,1,0
14757,-83.3333333333333,4,2,1,20,0,0
14950,-83.3333333333333,4,2,1,60,0,0
15144,387.096774193548,4,2,1,70,1,0
15144,-83.3333333333333,4,2,1,70,0,0
16305,-100,4,2,1,70,0,0
18240,-83.3333333333333,4,2,1,70,0,0
19402,-100,4,2,1,70,0,0
21337,-83.3333333333333,4,2,1,70,0,0
22498,-100,4,2,1,70,0,0
24434,-83.3333333333333,4,2,1,70,0,0
27531,-125,4,2,1,60,0,0
27821,-100,4,2,1,60,0,0
28305,387.096774193548,4,2,1,60,1,0
28305,-125,4,2,1,50,0,0
38563,-125,4,2,1,40,0,0
39143,387.096774193548,3,2,1,40,1,0
39143,-250,3,2,1,40,0,0
40304,-142.857142857143,3,2,1,40,0,0
40691,-111.111111111111,3,2,1,50,0,0
41078,-90.9090909090909,3,2,1,60,0,0
41465,-125,3,2,1,60,0,0
48433,-83.3333333333333,3,2,1,70,0,0
50368,363.636363636364,3,2,1,80,1,1
52368,363.636363636364,3,2,1,80,1,1
56549,363.636363636364,3,2,1,80,1,1
56549,-200,3,2,1,80,0,1
56821,-100,3,2,1,80,0,1
57094,-200,3,2,1,80,0,1
57366,-100,3,2,1,80,0,1
57639,-200,3,2,1,80,0,1
57911,-100,3,2,1,80,0,1
58185,-200,3,2,1,80,0,1
58457,-100,3,2,1,80,0,1
60730,363.636363636364,3,2,1,80,1,1
64911,363.636363636364,3,2,1,80,1,1
64911,-66.6666666666667,3,2,1,80,0,1
65183,-100,3,2,1,80,0,1
66001,-80,3,2,1,90,0,1
67092,-100,3,2,1,80,0,1
69092,363.636363636364,3,2,1,80,1,1
73273,363.636363636364,3,2,1,80,1,1
73273,-200,3,2,1,80,0,1
73545,-100,3,2,1,80,0,1
73818,-200,3,2,1,80,0,1
74090,-100,3,2,1,80,0,1
74363,-200,3,2,1,80,0,1
74635,-100,3,2,1,80,0,1
74909,-200,3,2,1,80,0,1
75181,-100,3,2,1,80,0,1
77454,363.636363636364,3,2,1,80,1,1
81635,363.636363636364,3,2,1,80,1,1
82725,-71.4285714285714,3,2,1,90,0,1
83816,-250,3,2,1,50,0,0
85998,-100,3,2,1,80,0,1
87635,-83.3333333333333,3,2,1,90,0,1
88180,-100,3,2,1,80,0,0
92544,-125,3,2,1,60,0,0
95816,-100,3,2,1,60,0,0
96544,-125,3,2,1,60,0,0
96907,-100,3,2,1,70,0,0
97271,-95.2380952380952,3,2,1,70,0,0
97453,-100,3,2,1,70,0,0
101271,-125,3,2,1,60,0,0
103453,-166.666666666667,3,2,1,60,0,0
104544,-100,3,2,1,60,0,0
104907,-83.3333333333333,3,2,1,60,0,0
105271,-100,3,2,1,60,0,0
105635,-125,3,2,1,50,0,0
107725,-125,3,2,1,5,0,0
107816,-125,3,2,1,50,0,0
112089,-125,3,2,1,5,0,0
112180,-125,3,2,1,50,0,0
113544,-125,3,2,1,5,0,0
113635,-125,3,2,1,50,0,0
118998,-125,3,2,1,5,0,0
119089,-125,3,2,1,50,0,0
119362,-125,3,2,1,5,0,0
119453,-125,3,2,1,50,0,0
119725,-125,3,2,1,5,0,0
119816,-100,3,2,1,60,0,0
120089,-100,3,2,1,5,0,0
120180,-100,3,2,1,60,0,0
120453,-100,3,2,1,5,0,0
120544,-100,3,2,1,60,0,0
120816,-100,3,2,1,5,0,0
120907,-83.3333333333333,3,2,1,60,0,0
123089,-83.3333333333333,3,2,1,75,0,1
123816,-100,3,2,1,75,0,1
127089,-83.3333333333333,3,2,1,75,0,1
128544,-100,3,2,1,75,0,1
128907,-74.0740740740741,3,2,1,75,0,1
129635,-83.3333333333333,3,2,1,75,0,1
129998,-83.3333333333333,3,2,1,80,0,1
130725,-83.3333333333333,3,2,1,85,0,1
131271,-83.3333333333333,3,2,1,95,0,1
131998,-333.333333333333,3,2,1,30,0,0
132907,-250,3,2,1,30,0,0
133180,-250,3,2,1,5,0,0
133271,-250,3,2,1,30,0,0
133544,-250,3,2,1,5,0,0
133635,-250,3,2,1,30,0,0
133998,-83.3333333333333,3,2,1,75,0,1
134544,-100,3,2,1,75,0,1
135453,-83.3333333333333,3,2,1,75,0,1
135998,363.636363636364,3,2,1,75,1,1
135998,-83.3333333333333,3,2,1,75,0,1
136543,-100,3,2,1,75,0,1
137088,-83.3333333333333,3,2,1,75,0,1
140179,363.636363636364,3,2,1,75,1,1
140179,-250,3,2,1,75,0,1
140450,-83.3333333333333,3,2,1,75,0,1
140724,-250,3,2,1,75,0,1
140996,-83.3333333333333,3,2,1,75,0,1
141269,-166.666666666667,3,2,1,75,0,1
141451,-71.4285714285714,3,2,1,75,0,1
142360,-83.3333333333333,3,2,1,75,0,1
142906,-100,3,2,1,75,0,1
143451,-83.3333333333333,3,2,1,75,0,1
144360,363.636363636364,3,2,1,75,1,1
144360,-83.3333333333333,3,2,1,75,0,1
144905,-100,3,2,1,75,0,1
146541,-83.3333333333333,3,2,1,75,0,1
147632,-500,3,2,1,75,0,1
147996,-83.3333333333333,3,2,1,75,0,1
148541,363.636363636364,3,2,1,75,1,1
148541,-250,3,2,1,75,0,1
148813,-83.3333333333333,3,2,1,75,0,1
149086,-250,3,2,1,75,0,1
149358,-83.3333333333333,3,2,1,75,0,1
150722,-83.3333333333333,3,2,1,80,0,1
151222,-100,3,2,1,80,0,1
151813,-250,3,2,1,80,0,1
152086,-83.3333333333333,3,2,1,80,0,1
152722,363.636363636364,3,2,1,80,1,1
152722,-83.3333333333333,3,2,1,80,0,1
156540,-71.4285714285714,3,2,1,80,0,1
156722,-62.5,3,2,1,80,0,1
156903,363.636363636364,3,2,1,80,1,1
156903,-250,3,2,1,80,0,1
157175,-83.3333333333333,3,2,1,80,0,1
157448,-333.333333333333,3,2,1,80,0,1
157721,-83.3333333333333,3,2,1,80,0,1
157993,-500,3,2,1,80,0,1
158266,-83.3333333333333,3,2,1,80,0,1
158539,-250,3,2,1,80,0,1
158903,-83.3333333333333,3,2,1,80,0,1
161084,363.636363636364,3,2,1,80,1,1
161084,-83.3333333333333,3,2,1,80,0,1
165265,363.636363636364,3,2,1,80,1,1
165265,-100,3,2,1,80,0,1
166745,363.636363636364,3,2,1,45,1,0
166745,-166.666666666667,3,2,1,45,0,0
167456,363.636363636364,3,2,1,60,1,0
167456,-90.9090909090909,3,2,1,60,0,0
169637,-71.4285714285714,3,2,1,85,0,1
170728,-71.4285714285714,3,2,1,85,0,1
171456,-71.4285714285714,3,2,1,85,0,1
171835,363.636363636364,3,2,1,60,1,0
171835,-200,3,2,1,45,0,0
172380,-400,3,2,1,45,0,0
172925,-400,3,2,1,60,0,0
173289,-400,3,2,1,45,0,0
173471,-400,3,2,1,55,0,0
173653,425.531914893617,3,2,1,45,1,0
173653,-500,3,2,1,45,0,0
174078,-500,3,2,1,15,0,0

[Colours]
Combo1 : 213,106,0
Combo2 : 219,13,44

[HitObjects]
323,122,278,5,0,0:0:0:0:
323,122,534,2,0,P|341:113|361:112,2,37.4999988555909,2|2|2,0:0|0:0|0:0,0:0:0:0:
351,192,1303,6,0,P|369:198|384:212,1,37.4999988555909,2|2,0:0|0:0,0:0:0:0:
323,261,1816,6,0,P|331:279|331:299,1,37.4999988555909,2|2,0:0|0:0,0:0:0:0:
319,257,2201,1,2,0:0:0:0:
323,261,2329,2,0,P|331:279|331:299,1,37.4999988555909,2|2,0:0|0:0,0:0:0:0:
254,289,2842,6,0,P|246:307|232:322,1,37.4999988555909,2|2,0:0|0:0,0:0:0:0:
184,261,3354,5,0,0:0:0:0:
184,261,3611,2,0,P|165:269|145:269,2,37.4999988555909,2|2|2,0:0|0:0|0:0,0:0:0:0:
156,191,4380,6,0,P|137:183|121:170,1,37.4999988555909,2|2,0:0|0:0,0:0:0:0:
184,122,4893,6,0,P|175:103|174:82,1,37.4999988555909,2|2,0:0|0:0,0:0:0:0:
254,94,5406,5,0,0:0:0:0:
254,94,5682,2,0,P|261:74|274:59,1,37.4999988555909,2|2,0:0|0:0,0:0:0:0:
323,122,6222,6,0,P|341:113|361:112,1,37.5,2|0,0:0|0:0,0:0:0:0:
358,112,6507,1,2,0:0:0:0:
256,192,6654,12,4,8858,3:1:0:0:
256,192,9032,6,0,L|256:155,3,24.9999992370606,2|2|2|2,0:0|0:0|0:0|0:0,0:0:0:0:
308,269,9477,1,2,0:0:0:0:
312,273,9669,2,0,L|445:255,1,125,2|2,0:0|0:0,0:0:0:0:
439,260,10450,5,2,0:0:0:0:
468,351,10634,2,0,P|436:345|397:353,1,46.8750017881394,2|2,0:0|0:0,0:0:0:0:
332,373,10843,2,0,P|300:379|261:371,1,62.5,2|2,0:0|0:0,0:0:0:0:
270,374,11218,6,0,P|301:378|332:373,1,62.5,2|0,0:0|0:0,0:0:0:0:
328,270,11615,2,0,P|297:265|266:271,1,62.5,2|0,0:0|0:0,0:0:0:0:
189,318,12026,5,2,0:0:0:0:
160,325,12125,1,2,0:0:0:0:
138,310,12224,2,0,L|112:310,2,18.7499994277954,2|2|2,0:0|0:0|0:0,0:0:0:0:
179,218,12622,1,2,0:0:0:0:
183,222,12831,2,0,L|292:207,1,104.166666666667,2|2,0:0|0:0,0:0:0:0:
286,207,13582,5,2,0:0:0:0:
367,261,13774,2,0,P|380:212|366:176,1,46.8750017881394,2|2,0:0|0:0,0:0:0:0:
433,120,13966,2,0,P|426:81|442:34,1,62.5,2|2,0:0|0:0,0:0:0:0:
429,58,14370,6,0,P|425:88|432:119,1,62.5,2|0,0:0|0:0,0:0:0:0:
329,158,14563,2,0,P|353:176|383:185,1,62.5,2|0,0:0|0:0,0:0:0:0:
503,250,14757,5,2,0:0:0:0:
453,233,14853,1,0,0:0:0:0:
414,268,14950,1,2,0:0:0:0:
375,303,15047,1,2,0:0:0:0:
332,277,15144,6,0,P|293:298|251:295,1,74.9999977111817,4|0,3:1|0:0,0:0:0:0:
180,262,15337,1,2,1:2:0:0:
180,262,15434,2,0,P|217:264|274:365,1,149.999995422363,2|0,3:2|0:0,0:0:0:0:
189,343,15724,1,2,1:2:0:0:
122,187,15918,1,2,3:2:0:0:
122,187,16014,1,8,0:3:0:0:
122,187,16111,1,8,0:3:0:0:
0,254,16305,2,0,B|70:244|70:244|111:266|111:266|204:250,1,187.5,2|0,1:2|0:0,0:0:0:0:
275,238,16692,6,0,P|245:184|263:117,1,125,6|0,3:2|3:0,0:0:0:0:
320,55,16982,2,0,P|349:107|335:179,1,125,2|0,0:1|3:0,0:0:0:0:
275,238,17273,2,0,B|254:222|239:187|247:154|247:154|207:129,1,125,2|0,0:0|3:0,0:0:0:0:
129,41,17563,2,0,P|184:50|249:-3,1,125,2|2,0:1|3:2,0:0:0:0:
320,55,17853,5,2,1:2:0:0:
400,38,17982,5,0,1:0:0:0:
470,81,18111,5,0,1:0:0:0:
454,98,18240,6,0,P|464:141|450:180,1,74.9999977111817,4|0,3:1|0:0,0:0:0:0:
381,246,18433,1,2,1:2:0:0:
381,246,18530,2,0,P|392:210|506:181,1,149.999995422363,2|0,3:2|0:0,0:0:0:0:
468,253,18821,1,2,1:2:0:0:
288,194,19014,1,2,3:2:0:0:
288,194,19111,1,8,0:3:0:0:
288,194,19208,1,8,0:3:0:0:
381,246,19402,2,0,B|291:244|313:321|185:289,1,187.5,2|0,1:2|0:0,0:0:0:0:
171,284,19789,6,0,B|136:265|136:265|125:180,1,125,6|8,3:2|0:3,0:0:0:0:
104,66,20079,2,0,B|139:85|139:85|149:169,1,125,2|0,3:1|3:0,0:0:0:0:
171,284,20369,1,2,0:0:0:0:
283,193,20563,2,0,P|253:200|222:200,3,62.5,2|2|2|2,3:2|0:0|3:2|0:0,0:0:0:0:
353,143,20950,1,0,1:0:0:0:
362,159,21047,1,0,1:0:0:0:
366,177,21143,1,0,1:0:0:0:
368,195,21240,1,0,1:0:0:0:
368,211,21337,6,0,P|403:221|429:248,1,74.9999977111817,4|0,3:1|0:0,0:0:0:0:
484,298,21531,1,2,1:2:0:0:
484,298,21627,2,0,P|450:280|446:169,1,149.999995422363,2|0,3:2|2:0,2:0:0:0:
512,219,21918,1,2,1:2:0:0:
345,319,22111,1,2,3:2:0:0:
345,319,22208,1,8,0:3:0:0:
345,319,22305,1,8,0:3:0:0:
265,150,22498,2,0,B|302:187|299:235|299:235|251:262|246:338,1,187.5,2|0,1:2|0:0,0:0:0:0:
264,379,22885,6,0,P|230:350|139:367,1,125,6|0,3:2|3:0,0:0:0:0:
44,333,23176,2,0,P|94:367|154:356,1,125,2|0,0:1|3:0,0:0:0:0:
264,379,23466,2,0,P|249:307|187:271,1,125,2|0,0:0|3:0,0:0:0:0:
197,310,23756,1,10,0:3:0:0:
163,325,23853,1,2,3:2:0:0:
126,309,23950,1,2,0:0:0:0:
114,280,24047,2,0,B|162:176|85:181|124:89,1,187.5,2|0,1:2|0:0,0:0:0:0:
121,72,24434,6,0,P|156:77|191:64,1,74.9999977111817,4|0,3:1|0:0,0:0:0:0:
267,25,24627,1,2,1:2:0:0:
267,25,24724,2,0,P|205:49|182:145,1,149.999995422363,2|0,3:2|0:0,0:0:0:0:
264,114,25014,1,2,1:2:0:0:
218,267,25208,2,0,P|260:254|296:256,1,74.9999977111817,2|0,3:2|0:0,0:0:0:0:
381,342,25402,2,0,P|343:342|308:329,1,74.9999977111817,2|0,3:2|0:0,0:0:0:0:
375,253,25595,2,0,L|387:179,1,74.9999977111817,0|0,1:2|3:0,0:0:0:0:
463,118,25789,2,0,L|476:192,1,74.9999977111817,2|0,0:0|0:0,0:0:0:0:
375,253,25982,6,0,P|318:251|317:336,1,149.999995422363,4|0,3:1|1:0,0:0:0:0:
308,328,26273,1,8,0:3:0:0:
308,328,26369,1,8,3:3:0:0:
171,362,26563,1,2,0:0:0:0:
152,193,26756,1,2,3:2:0:0:
152,193,26853,1,8,0:3:0:0:
152,193,26950,1,0,1:0:0:0:
81,252,27143,1,8,0:3:0:0:
111,273,27239,1,8,0:3:0:0:
148,281,27336,1,8,0:3:0:0:
184,275,27433,1,8,0:3:0:0:
216,259,27531,6,0,P|270:255|281:262,2,50,6|0|2,3:2|0:0|0:0,0:0:0:0:
184,275,27821,2,0,L|171:210,1,62.5,2|0,0:0|0:0,0:0:0:0:
147,206,28014,2,0,L|134:141,2,62.5,2|2|0,0:0|0:0|0:0,0:0:0:0:
72,97,28305,6,0,P|133:145|214:125,1,150,6|0,3:2|3:0,0:0:0:0:
200,134,28692,2,0,P|256:111|303:126,1,100,2|0,0:0|0:0,0:0:0:0:
397,202,29079,2,0,B|370:214|370:214|342:199|342:199|291:235|238:196,1,150,2|0,3:2|3:0,0:0:0:0:
85,186,29466,2,0,P|143:206|165:322,1,150,2|0,0:0|0:0,0:0:0:0:
186,372,29853,6,0,P|231:357|248:267,1,100,2|0,3:2|0:0,0:0:0:0:
176,283,30143,2,0,P|131:298|114:388,1,100,2|0,3:2|0:0,0:0:0:0:
256,313,30434,2,0,P|307:337|368:325,1,100,2|0,0:0|3:0,0:0:0:0:
446,365,30821,1,2,0:0:0:0:
446,365,30917,2,0,P|458:285|462:201,1,150,0|0,3:0|0:0,0:0:0:0:
512,169,31401,6,0,P|442:188|388:140,1,150,2|0,3:2|3:0,0:0:0:0:
383,116,31788,1,2,0:0:0:0:
242,54,31982,1,2,0:0:0:0:
242,54,32175,2,0,L|246:96,2,25,2|2|2,0:0|0:0|0:0,0:0:0:0:
204,209,32466,2,0,B|197:153|197:153,1,50,0|2,3:0|0:0,0:0:0:0:
208,156,32756,6,0,L|222:264,1,100,2|0,0:0|3:0,0:0:0:0:
341,287,33143,2,0,L|336:336,2,50,2|0|0,0:0|3:0|0:0,0:0:0:0:
341,287,33434,2,0,P|291:295|246:277,1,100,2|0,0:0|0:0,0:0:0:0:
204,209,33724,2,0,P|257:199|299:219,1,100,2|0,3:2|0:0,0:0:0:0:
341,287,34014,2,0,P|375:240|369:191,1,100,2|0,3:2|0:0,0:0:0:0:
372,200,34304,1,2,0:0:0:0:
308,48,34498,6,0,B|223:33|247:93|149:72,1,150,6|0,3:2|3:0,0:0:0:0:
165,75,34885,2,0,P|207:87|224:189,1,150,2|0,0:0|0:0,0:0:0:0:
218,262,35272,2,0,P|176:250|159:148,1,150,2|0,3:2|3:0,0:0:0:0:
230,180,35659,2,0,P|318:168|398:167,1,150,2|0,0:0|0:0,0:0:0:0:
416,53,36046,6,0,B|367:73|367:73|352:123|388:182,1,150,2|0,3:2|3:0,0:0:0:0:
484,225,36434,2,0,P|465:172|456:119,1,100,2|0,0:0|0:0,0:0:0:0:
484,225,36821,2,0,P|426:273|364:232,1,150,2|0,3:2|3:0,0:0:0:0:
267,92,37304,2,0,P|254:148|249:251,1,150,2|0,0:0|3:0,0:0:0:0:
249,240,37885,5,0,3:0:0:0:
311,156,38079,5,0,1:0:0:0:
267,92,38175,1,0,1:0:0:0:
405,252,38563,5,12,3:3:0:0:
269,339,38756,5,8,3:3:0:0:
125,286,38950,5,0,3:0:0:0:
50,177,39143,6,0,P|75:192|101:192,1,50,2|0,0:0|0:0,0:0:0:0:
87,146,39530,2,0,P|61:160|48:182,1,50,2|0,0:0|0:0,0:0:0:0:
96,193,39917,2,0,P|96:163|83:141,1,50,2|0,0:0|0:0,0:0:0:0:
381,220,40304,6,0,P|369:266|338:297,1,87.499997329712,4|0,3:1|0:0,0:0:0:0:
274,224,40594,1,8,0:3:0:0:
274,224,40691,2,0,P|331:207|385:221,1,112.499996566773,4|0,3:2|0:0,0:0:0:0:
347,299,40981,1,8,0:3:0:0:
347,299,41078,2,0,P|284:248|267:174,1,137.500004196167,4|2,3:2|0:0,0:0:0:0:
334,77,41465,6,0,P|285:96|228:83,1,100,4|0,3:1|1:0,0:0:0:0:
98,157,41852,2,0,P|146:150|192:168,1,100,2|0,0:0|1:0,0:0:0:0:
258,221,42239,2,0,P|250:272|247:333,1,100,2|0,3:2|1:0,0:0:0:0:
253,329,42530,1,0,1:0:0:0:
253,329,42626,6,0,B|349:297|329:401|461:350,1,200,2|2,3:2|3:2,0:0:0:0:
399,281,43207,1,0,3:0:0:0:
399,280,43401,2,0,P|365:229|426:231,1,150,2|0,1:2|0:0,0:0:0:0:
426,231,43788,2,0,P|465:213|460:148,1,100,2|0,3:2|3:0,0:0:0:0:
431,90,44175,1,2,0:0:0:0:
431,90,44368,2,0,P|389:113|387:160,1,100,2|0,1:2|3:0,0:0:0:0:
312,232,44755,1,0,1:0:0:0:
312,232,44852,1,0,1:0:0:0:
312,232,44949,6,0,P|305:171|284:123,1,100,6|8,3:2|0:3,0:0:0:0:
253,59,45239,1,0,1:0:0:0:
253,59,45336,2,0,P|210:107|207:146,1,100,2|0,3:2|1:0,0:0:0:0:
244,216,45626,1,0,1:0:0:0:
244,216,45723,2,0,P|287:168|290:129,1,100,2|0,3:2|1:0,0:0:0:0:
93,252,46110,6,0,P|43:278|117:267,1,200,6|2,3:2|3:2,0:0:0:0:
93,252,46691,2,0,P|37:235|-10:265,1,100,2|0,0:0|3:0,0:0:0:0:
372,252,47272,6,0,P|422:226|348:237,1,200,2|2,3:2|3:2,0:0:0:0:
376,257,47755,1,0,0:0:0:0:
376,257,47852,2,0,P|432:274|479:244,1,100,8|2,0:3|3:2,0:0:0:0:
420,107,48239,1,0,1:0:0:0:
420,107,48336,1,0,1:0:0:0:
420,107,48433,6,0,L|423:26,1,74.9999977111817,4|2,3:1|0:1,0:0:0:0:
255,116,48723,6,0,L|255:191,1,74.9999977111817,6|2,3:2|0:1,0:0:0:0:
92,107,49013,6,0,L|89:26,1,74.9999977111817,6|2,3:2|0:1,0:0:0:0:
89,32,49207,1,0,1:0:0:0:
89,32,49304,1,0,1:0:0:0:
184,151,49401,6,0,P|165:182|173:218,1,74.9999977111817,6|2,3:2|0:1,0:0:0:0:
338,218,49691,6,0,P|346:182|327:151,1,74.9999977111817,2|2,3:2|0:1,0:0:0:0:
256,336,49981,5,0,1:0:0:0:
146,21,50368,6,0,P|169:88|145:122,1,62.5,4|0,3:1|0:0,0:0:0:0:
48,117,50549,1,0,1:0:0:0:
48,117,50640,2,0,P|25:50|49:16,1,62.5,0|0,3:0|0:0,0:0:0:0:
177,208,50822,1,0,1:0:0:0:
177,208,50913,2,0,P|171:238|67:247,2,125,2|2|2,3:2|1:2|1:2,0:0:0:0:
335,208,51458,6,0,P|341:238|445:247,1,125,6|2,3:2|1:2,0:0:0:0:
310,164,51731,2,0,P|300:237|363:290,1,125,0|0,3:0|1:0,0:0:0:0:
392,136,52004,1,2,3:2:0:0:
462,348,52186,1,2,1:2:0:0:
242,289,52368,6,0,P|191:276|144:305,1,62.5,4|0,3:1|0:0,0:0:0:0:
134,188,52549,1,0,1:0:0:0:
134,188,52640,2,0,P|105:232|118:286,1,62.5,0|0,3:0|0:0,0:0:0:0:
17,276,52822,1,0,1:0:0:0:
17,276,52913,2,0,P|47:323|134:317,2,125,2|2|2,3:2|1:2|1:2,0:0:0:0:
38,192,53368,1,0,1:0:0:0:
104,240,53458,6,0,B|175:228|179:319|273:303,1,187.5,6|0,3:2|0:0,0:0:0:0:
271,303,53822,2,0,L|261:233,1,62.5,2|0,1:1|0:0,0:0:0:0:
269,79,54004,2,0,L|302:294,1,187.5,0|0,3:0|0:0,0:0:0:0:
297,264,54368,2,0,P|332:256|388:292,1,62.5,2|0,1:1|0:0,0:0:0:0:
466,330,54549,5,4,3:1:0:0:
362,143,54731,1,2,1:2:0:0:
365,158,54821,1,0,3:0:0:0:
369,173,54912,1,2,1:2:0:0:
432,81,55095,2,0,P|357:47|275:157,1,187.5,6|0,3:2|0:0,0:0:0:0:
278,103,55458,2,0,P|313:107|345:78,1,62.5,2|0,1:2|0:0,0:0:0:0:
471,25,55640,6,0,L|438:240,1,187.5,6|0,3:2|0:0,0:0:0:0:
442,210,56004,2,0,P|407:202|351:238,1,62.5,2|0,1:2|0:0,0:0:0:0:
249,384,56186,2,0,L|301:279,1,62.5,6|0,3:2|0:0,0:0:0:0:
248,190,56368,2,0,L|312:287,1,62.5,2|0,1:2|0:0,0:0:0:0:
416,287,56549,6,0,L|299:294,1,62.5,4|0,3:1|0:0,0:0:0:0:
353,290,56821,2,0,P|383:318|390:359,1,62.5,0|0,1:0|0:0,0:0:0:0:
385,113,57094,2,0,L|268:106,1,62.5,2|0,3:2|0:0,0:0:0:0:
322,109,57367,2,0,P|348:140|350:181,1,62.5,0|0,1:0|0:0,0:0:0:0:
223,232,57639,2,0,L|106:239,1,62.5,0|0,3:2|0:0,0:0:0:0:
160,235,57912,2,0,P|190:207|197:166,1,62.5,0|0,1:0|0:0,0:0:0:0:
81,150,58185,2,0,L|-36:143,1,62.5,2|4,3:2|0:3,0:0:0:0:
7,159,58458,1,0,1:0:0:0:
18,146,58549,2,0,L|81:150,1,62.5,8|8,0:3|0:3,0:0:0:0:
223,232,58730,6,0,L|106:239,1,62.5,4|0,3:1|0:0,0:0:0:0:
78,305,58912,1,0,1:0:0:0:
78,305,59003,2,0,L|-4:310,1,62.5,0|0,3:0|0:0,0:0:0:0:
160,235,59185,1,0,0:0:0:0:
160,235,59276,2,0,L|327:225,2,125,2|2|2,3:2|1:2|1:2,0:0:0:0:
343,313,59821,6,0,P|313:307|304:203,1,125,6|2,3:2|1:2,0:0:0:0:
387,338,60094,2,0,P|314:348|261:285,1,125,0|0,3:0|1:0,0:0:0:0:
421,266,60367,1,2,3:2:0:0:
287,138,60549,1,2,1:2:0:0:
256,141,60639,1,2,1:2:0:0:
228,155,60730,6,0,P|249:178|293:189,1,62.5,4|0,3:1|0:0,0:0:0:0:
368,257,60911,1,0,1:0:0:0:
368,257,61002,2,0,P|396:244|416:210,1,62.5,0|0,3:0|0:0,0:0:0:0:
507,155,61184,1,0,1:0:0:0:
507,155,61275,2,0,P|506:121|402:100,1,125,2|0,3:2|1:2,0:0:0:0:
312,159,61548,1,0,0:0:0:0:
312,159,61639,2,0,P|343:157|370:143,1,62.5,2|0,1:2|0:0,0:0:0:0:
378,2,61820,6,0,B|316:10|322:73|322:73|386:165,1,187.5,6|0,3:2|0:0,0:0:0:0:
371,143,62184,2,0,P|343:157|313:157,1,62.5,2|0,1:1|0:0,0:0:0:0:
180,145,62366,6,0,P|260:191|353:187,1,187.5,0|0,3:0|0:0,0:0:0:0:
352,187,62730,2,0,L|387:238,1,62.5,2|0,1:1|0:0,0:0:0:0:
446,315,62911,5,4,3:1:0:0:
217,269,63093,1,2,1:2:0:0:
232,266,63183,1,0,3:0:0:0:
247,264,63274,1,2,1:2:0:0:
200,367,63457,2,0,P|197:274|111:282,1,187.5,6|0,3:2|0:0,0:0:0:0:
120,272,63820,2,0,P|166:283|206:264,1,62.5,2|0,1:2|0:0,0:0:0:0:
290,130,64002,6,0,L|309:321,1,187.5,6|0,3:2|0:0,0:0:0:0:
308,316,64366,2,0,P|353:326|393:307,1,62.5,2|0,1:2|0:0,0:0:0:0:
471,354,64548,2,0,P|481:308|462:268,1,62.5,2|0,3:2|0:0,0:0:0:0:
509,191,64730,2,0,P|463:180|423:199,1,62.5,2|0,1:2|0:0,0:0:0:0:
320,170,64911,6,0,B|331:194|357:194|357:194|396:142|379:77|283:55,1,187.500007152558,4|0,3:1|1:0,0:0:0:0:
257,52,65183,1,0,1:0:0:0:
257,52,65274,1,0,1:0:0:0:
192,240,65456,6,0,P|157:252|99:228,1,62.5,6|0,3:0|0:0,0:0:0:0:
42,127,65638,2,0,P|68:148|84:178,1,62.5,6|0,3:0|0:0,0:0:0:0:
105,328,65820,5,0,1:0:0:0:
183,359,65911,1,0,1:0:0:0:
261,334,66001,2,0,P|230:331|180:363,1,78.125,6|0,3:1|0:0,0:0:0:0:
351,270,66183,2,0,P|337:242|292:211,1,78.125,2|0,1:0|0:0,0:0:0:0:
454,318,66365,2,0,P|471:292|477:235,1,78.125,2|0,1:0|0:0,0:0:0:0:
223,58,66547,6,0,P|229:88|266:133,1,78.125,6|0,3:2|0:0,0:0:0:0:
396,31,66729,2,0,P|372:51|348:104,1,78.125,2|0,1:2|0:0,0:0:0:0:
512,138,66911,2,0,P|481:131|420:150,1,78.125,2|0,1:2|0:0,0:0:0:0:
351,270,67092,6,0,P|382:265|418:283,1,62.5,4|0,3:1|0:0,0:0:0:0:
512,327,67274,1,0,1:0:0:0:
512,327,67365,2,0,P|492:302|491:263,1,62.5,0|0,3:0|0:0,0:0:0:0:
481,160,67547,1,0,1:0:0:0:
481,160,67638,2,0,B|441:189|441:189|330:161,2,125,2|2|2,3:2|1:2|1:2,0:0:0:0:
173,53,68183,6,0,P|238:50|286:115,1,125,6|0,3:2|1:0,0:0:0:0:
201,204,68456,2,0,P|164:162|206:125,1,125,0|0,3:0|1:0,0:0:0:0:
343,144,68729,1,2,3:2:0:0:
270,310,68911,1,2,1:2:0:0:
74,249,69092,6,0,P|125:258|156:304,1,62.5,4|0,3:1|0:0,0:0:0:0:
218,207,69273,1,0,1:0:0:0:
218,207,69364,2,0,P|225:259|191:302,1,62.5,0|0,3:0|0:0,0:0:0:0:
287,351,69546,1,0,1:0:0:0:
286,351,69637,2,0,P|223:373|164:341,2,125,2|2|2,3:2|1:2|1:2,0:0:0:0:
318,268,70092,1,0,1:0:0:0:
396,306,70182,6,0,P|451:297|483:251,1,62.5,6|0,3:2|0:0,0:0:0:0:
344,176,70364,2,0,P|324:228|348:278,1,62.5,2|0,0:0|0:0,0:0:0:0:
479,202,70546,2,0,P|443:158|387:154,1,62.5,2|0,1:1|0:0,0:0:0:0:
291,47,70728,6,0,B|382:31|363:133|460:114,1,187.5,0|0,3:2|0:0,0:0:0:0:
454,115,71092,2,0,P|403:102|356:112,1,62.5,2|0,1:1|0:0,0:0:0:0:
243,142,71273,5,4,3:1:0:0:
446,17,71455,1,2,1:2:0:0:
431,10,71545,1,0,3:0:0:0:
416,7,71636,1,2,1:2:0:0:
354,206,71819,6,0,P|432:207|445:103,1,187.5,6|0,3:2|0:0,0:0:0:0:
453,114,72182,2,0,P|438:137|444:195,1,62.5,2|0,1:2|0:0,0:0:0:0:
478,336,72364,6,0,B|413:325|413:325|351:348|351:348|266:336,1,187.5,6|0,3:2|0:0,0:0:0:0:
296,340,72728,2,0,P|311:317|305:259,1,62.5,2|0,1:2|0:0,0:0:0:0:
220,150,72910,1,6,3:2:0:0:
260,194,73000,1,0,0:0:0:0:
321,193,73091,1,0,0:0:0:0:
359,147,73182,1,0,0:0:0:0:
349,86,73273,6,0,L|287:81,1,62.5,4|0,3:1|0:0,0:0:0:0:
286,80,73545,2,0,B|289:79|342:90|364:26,1,62.5,0|0,1:0|0:0,0:0:0:0:
198,200,73818,2,0,L|260:194,1,62.5,2|0,3:2|0:0,0:0:0:0:
260,194,74091,2,0,B|257:196|204:191|189:257,1,62.5,0|0,1:0|0:0,0:0:0:0:
105,88,74363,2,0,L|167:93,1,62.5,0|0,3:2|0:0,0:0:0:0:
167,93,74636,2,0,B|164:90|111:95|96:29,1,62.5,0|0,1:0|0:0,0:0:0:0:
0,183,74909,2,0,L|62:177,1,62.5,2|4,3:2|0:3,0:0:0:0:
84,155,75182,1,0,1:2:0:0:
62,176,75273,1,8,0:3:0:0:
95,209,75363,1,8,0:3:0:0:
86,281,75454,6,0,L|154:288,1,62.5,4|0,3:1|0:0,0:0:0:0:
256,320,75636,1,0,1:0:0:0:
256,320,75727,2,0,L|256:248,1,62.5,0|0,3:0|0:0,0:0:0:0:
363,286,75909,1,0,1:0:0:0:
363,286,76000,2,0,L|500:275,2,125,2|2|0,3:2|1:2|1:1,0:0:0:0:
395,31,76545,6,0,P|330:28|287:86,1,125,6|0,3:2|1:0,0:0:0:0:
371,180,76818,2,0,P|407:137|364:101,1,125,0|0,3:0|1:0,0:0:0:0:
214,118,77091,1,2,3:2:0:0:
363,286,77273,1,2,1:2:0:0:
220,364,77454,6,0,P|243:297|219:263,1,62.5,4|0,3:1|0:0,0:0:0:0:
122,268,77635,1,0,1:0:0:0:
122,268,77726,2,0,P|99:335|123:369,1,62.5,0|0,3:0|0:0,0:0:0:0:
251,177,77908,1,0,1:0:0:0:
251,177,77999,2,0,P|245:147|141:138,2,125,2|2|2,3:2|1:2|1:2,0:0:0:0:
415,257,78544,6,0,B|319:236|349:325|244:303,1,187.5,4|0,3:2|0:0,0:0:0:0:
243,303,78908,2,0,P|239:263|192:245,1,62.5,2|0,1:1|0:0,0:0:0:0:
90,274,79090,6,0,P|158:332|243:303,1,187.5,0|0,3:0|0:0,0:0:0:0:
243,303,79454,2,0,P|204:314|195:364,1,62.5,2|0,1:1|0:0,0:0:0:0:
398,343,79635,5,4,3:1:0:0:
184,208,79817,1,2,1:2:0:0:
181,223,79907,1,0,3:0:0:0:
178,238,79998,1,2,1:2:0:0:
117,143,80181,2,0,P|202:113|271:172,1,187.5,6|0,3:2|0:0,0:0:0:0:
271,172,80544,2,0,B|340:187|340:187,1,62.5,2|0,1:2|0:0,0:0:0:0:
502,92,80726,6,0,B|469:128|469:128|326:96,1,187.5,6|0,3:2|0:0,0:0:0:0:
333,97,81090,2,0,P|386:113|412:162,1,62.5,2|0,1:2|0:0,0:0:0:0:
333,286,81272,2,0,P|279:269|253:220,1,62.5,2|0,3:2|0:0,0:0:0:0:
234,129,81454,2,0,L|218:60,1,62.5,2|0,1:2|0:0,0:0:0:0:
433,260,81635,6,0,L|449:329,1,62.5,4|0,3:1|0:0,0:0:0:0:
509,219,81816,1,0,1:2:0:0:
509,219,81907,2,0,P|471:179|368:199,1,125,4|0,3:0|0:0,0:0:0:0:
348,320,82180,5,0,1:0:0:0:
330,308,82270,1,0,1:0:0:0:
318,291,82361,1,0,1:0:0:0:
313,271,82452,1,8,0:3:0:0:
314,250,82543,1,8,0:3:0:0:
323,231,82634,1,8,0:3:0:0:
339,217,82725,6,0,P|389:186|385:138,1,87.499997329712,6|0,3:1|0:0,0:0:0:0:
192,251,82907,2,0,P|194:310|238:330,1,87.499997329712,2|0,1:1|0:0,0:0:0:0:
236,107,83089,2,0,P|184:79|144:107,1,87.499997329712,2|0,1:1|0:0,0:0:0:0:
213,325,83271,6,0,P|186:293|192:251,1,87.499997329712,6|0,3:1|0:0,0:0:0:0:
392,161,83453,2,0,P|378:201|339:217,1,87.499997329712,2|0,1:1|0:0,0:0:0:0:
161,88,83635,2,0,P|203:81|236:107,1,87.499997329712,2|0,1:1|0:0,0:0:0:0:
256,192,83816,5,2,0:0:0:0:
256,192,84180,1,2,0:0:0:0:
260,196,84362,2,0,L|160:190,1,100,2|0,0:0|0:0,0:0:0:0:
159,200,84907,2,0,L|258:205,1,100,2|0,0:0|0:0,0:0:0:0:
311,286,85453,2,0,L|410:280,1,100,2|0,0:0|0:0,0:0:0:0:
471,155,85998,6,0,L|484:233,1,62.5,4|0,3:1|0:0,0:0:0:0:
383,105,86180,1,0,1:0:0:0:
383,105,86271,2,0,L|370:183,1,62.5,0|0,3:0|0:0,0:0:0:0:
311,286,86453,1,0,1:0:0:0:
326,269,86544,2,0,P|247:231|203:257,2,125,2|2|2,1:2|3:2|1:2,0:0:0:0:
133,354,87089,5,12,3:0:0:0:
93,330,87179,1,8,3:0:0:0:
75,287,87270,1,8,3:0:0:0:
86,242,87361,1,8,3:0:0:0:
96,197,87453,1,0,1:0:0:0:
79,154,87544,1,0,1:0:0:0:
39,130,87635,6,0,P|62:176|104:175,1,74.9999977111817,2|0,1:1|0:0,0:0:0:0:
198,218,87816,2,0,P|263:186|267:126,1,74.9999977111817,2|0,1:1|0:0,0:0:0:0:
341,99,87998,2,0,P|332:38|275:-4,1,74.9999977111817,2|0,1:1|0:0,0:0:0:0:
165,49,88180,6,0,B|151:69|151:69|250:83,1,125,4|0,3:1|1:0,0:0:0:0:
419,155,88544,1,0,3:0:0:0:
368,189,88634,1,0,1:0:0:0:
307,184,88725,1,0,1:0:0:0:
261,143,88816,1,0,1:0:0:0:
250,82,88907,2,0,P|259:53|278:28,1,62.5,2|0,1:1|0:0,0:0:0:0:
440,97,89089,2,0,P|434:128|419:155,1,62.5,2|0,1:2|0:0,0:0:0:0:
273,272,89271,6,0,B|336:263|336:263|386:300|386:300|448:291,1,187.5,4|0,3:1|0:0,0:0:0:0:
455,308,89635,2,0,B|393:317,1,62.5,2|0,1:2|0:0,0:0:0:0:
310,369,89816,2,0,B|248:378,1,62.5,0|0,1:0|0:0,0:0:0:0:
126,258,89998,2,0,B|182:237|182:237|143:388,1,187.5,2|0,3:2|0:0,0:0:0:0:
150,360,90362,6,0,B|88:369,1,62.5,6|0,3:2|0:0,0:0:0:0:
14,249,90544,1,0,1:0:0:0:
14,249,90635,2,0,P|87:245|101:174,1,125,2|0,3:2|1:0,0:0:0:0:
108,112,90907,6,0,P|154:124|183:158,1,62.5,2|0,3:2|0:0,0:0:0:0:
29,67,91089,1,0,1:0:0:0:
29,67,91180,2,0,P|62:33|150:33,1,125,2|0,3:2|1:0,0:0:0:0:
281,38,91453,6,0,L|223:61,1,62.5,6|0,3:2|0:0,0:0:0:0:
255,157,91635,1,0,1:0:0:0:
255,157,91725,2,0,L|372:110,1,125,2|0,3:2|1:0,0:0:0:0:
429,38,91998,6,0,P|402:22|372:18,1,62.5,2|0,3:2|0:0,0:0:0:0:
433,187,92180,1,0,1:0:0:0:
433,187,92271,2,0,P|444:143|512:113,1,125,2|0,3:2|1:0,0:0:0:0:
512,113,92544,6,0,B|551:172|518:229|486:247,1,150,4|2,3:1|0:0,0:0:0:0:
433,187,92998,1,2,0:0:0:0:
433,187,93089,1,2,3:2:0:0:
366,347,93271,1,2,1:2:0:0:
454,319,93453,1,2,0:0:0:0:
242,283,93635,5,2,3:2:0:0:
242,283,93725,2,0,B|315:304|311:233|388:257,1,150,0|0,1:0|3:0,0:0:0:0:
454,319,94180,1,2,3:2:0:0:
366,347,94362,2,0,P|315:326|310:273,1,100,0|0,1:0|0:0,0:0:0:0:
250,195,94725,6,0,B|188:192|165:241|165:241|129:281|77:263,1,200,2|10,3:2|0:3,0:0:0:0:
77,263,95180,1,2,3:2:0:0:
77,263,95271,1,10,0:3:0:0:
66,348,95453,2,0,P|140:347|206:311,1,150,2|0,1:2|0:0,0:0:0:0:
198,250,95816,6,0,L|209:333,1,62.5,4|0,3:2|0:0,0:0:0:0:
315,369,95998,1,2,1:2:0:0:
310,338,96088,1,2,0:0:0:0:
306,307,96180,2,0,P|344:296|395:331,1,62.5,2|0,3:2|0:0,0:0:0:0:
491,349,96362,2,0,P|462:321|467:259,1,62.5,2|0,1:2|0:0,0:0:0:0:
435,168,96544,2,0,P|447:195|429:165,1,150,2|0,0:0|0:0,0:0:0:0:
429,247,96907,6,0,P|403:245|366:211,1,62.5,4|0,3:1|0:0,0:0:0:0:
273,227,97089,2,0,P|261:203|272:154,1,62.5,10|0,0:3|0:0,0:0:0:0:
220,68,97271,2,0,P|234:45|286:30,1,65.624997997284,10|0,3:3|0:0,0:0:0:0:
433,110,97453,2,0,L|335:95,1,62.5,2|0,1:2|0:0,0:0:0:0:
220,68,97635,2,0,B|241:94|277:91|277:91|293:55|269:29|269:29|236:31|218:69,1,187.5,2|0,0:0|0:0,0:0:0:0:
138,101,97998,6,0,P|196:154|332:162,1,187.5,4|0,3:2|0:0,0:0:0:0:
391,142,98362,2,0,L|402:216,1,62.5,2|0,3:1|0:0,0:0:0:0:
465,310,98544,1,0,0:0:0:0:
473,301,98635,1,0,0:0:0:0:
481,292,98725,2,0,L|491:231,1,62.5,2|4,3:1|0:3,0:0:0:0:
400,203,98907,2,0,L|391:142,1,62.5,2|0,0:2|0:0,0:0:0:0:
388,49,99089,6,0,P|334:67|298:150,1,125,4|0,3:1|1:0,0:0:0:0:
220,171,99362,2,0,P|262:208|352:198,1,125,6|0,3:2|1:0,0:0:0:0:
410,255,99635,2,0,P|421:199|367:126,1,125,2|0,3:1|1:0,0:0:0:0:
388,49,99907,2,0,P|334:67|298:150,1,125,6|0,3:2|1:0,0:0:0:0:
333,240,100180,6,0,P|296:245|259:238,1,62.5,4|0,3:1|0:0,0:0:0:0:
190,183,100362,1,2,1:2:0:0:
190,183,100453,2,0,P|177:147|176:110,1,62.5,2|0,3:2|0:0,0:0:0:0:
32,181,100635,5,2,0:0:0:0:
32,181,100725,2,0,P|62:186|93:183,1,62.5,2|0,3:1|0:0,0:0:0:0:
175,123,100907,1,0,1:0:0:0:
183,74,100997,1,0,3:0:0:0:
215,36,101089,1,12,0:3:0:0:
262,20,101179,1,12,0:3:0:0:
310,30,101271,6,0,P|378:51|450:29,1,100,4|0,3:1|0:0,0:0:0:0:
435,37,101544,1,2,3:2:0:0:
274,116,101816,1,0,3:0:0:0:
435,37,101998,1,0,1:0:0:0:
451,28,102180,1,2,0:0:0:0:
371,102,102362,5,2,3:2:0:0:
371,102,102453,2,0,P|434:130|494:106,1,100,0|0,1:0|3:0,0:0:0:0:
462,125,102725,2,0,L|478:200,1,50,0|0,3:0|0:0,0:0:0:0:
352,260,102907,2,0,P|412:241|430:355,1,200,2|2,3:2|0:0,0:0:0:0:
269,316,103453,6,0,B|208:284|171:330|167:334|123:390|62:350,1,224.999993133545,2|2,3:2|0:0,0:0:0:0:
63,350,104180,1,0,1:0:0:0:
51,368,104544,6,0,P|87:380|151:364,1,62.5,4|0,3:1|0:0,0:0:0:0:
130,263,104725,2,0,P|94:251|30:267,1,62.5,0|0,1:0|0:0,0:0:0:0:
288,316,104907,6,0,P|252:328|215:326,1,74.9999977111817,2|0,3:1|0:0,0:0:0:0:
198,194,105089,2,0,P|234:182|271:184,1,74.9999977111817,0|0,1:0|1:0,0:0:0:0:
427,292,105271,5,0,1:0:0:0:
456,237,105362,1,4,1:3:0:0:
452,200,105453,1,4,1:3:0:0:
441,184,105544,1,2,1:2:0:0:
428,178,105635,6,0,P|390:121|459:160,1,200,4|8,3:1|0:0,0:0:0:0:
428,178,106180,2,0,B|320:145|353:243|224:200,1,200,0|0,3:0|3:0,0:0:0:0:
44,97,106725,1,8,0:0:0:0:
44,97,106907,2,0,P|106:117|160:102,1,100
258,8,107271,1,2,3:2:0:0:
258,8,107453,2,0,P|227:78|257:153,1,150,10|0,0:0|0:0,0:0:0:0:
384,90,107816,6,0,P|308:91|370:48,1,200,6|8,3:2|0:0,0:0:0:0:
447,135,108362,1,0,3:2:0:0:
447,135,108544,2,0,P|399:185|341:195,1,100,0|0,0:0|3:2,0:0:0:0:
129,284,108907,2,0,P|178:250|340:376,1,300,8|2,0:0|3:2,0:0:0:0:
230,338,109635,2,0,P|249:267|228:225,1,100,10|0,0:0|3:2,0:0:0:0:
58,187,109998,6,0,B|179:168|129:270|279:238,1,200,6|8,3:2|0:0,0:0:0:0:
241,243,110544,2,0,P|232:168|200:146,1,100,0|0,3:2|0:0,0:0:0:0:
78,278,110907,1,2,3:2:0:0:
78,278,111089,6,0,P|81:332|126:375,1,100,10|0,0:0|0:0,0:0:0:0:
282,364,111453,2,0,P|327:346|376:355,1,100,2|0,0:0|3:2,0:0:0:0:
377,356,111816,2,0,P|349:287|397:236,1,150,10|0,0:0|0:0,0:0:0:0:
442,133,112180,6,0,P|429:217|325:218,1,200,6|8,3:2|0:0,0:0:0:0:
298,157,112725,1,0,3:2:0:0:
298,157,112907,2,0,P|246:160|166:177,1,100,0|0,0:0|3:2,0:0:0:0:
78,266,113271,6,0,P|113:207|38:124,1,150,12|0,1:2|0:0,0:0:0:0:
36,121,113635,1,0,0:0:0:0:
36,121,113816,2,0,B|74:122|100:157|100:157|140:132,1,100,4|8,0:3|0:0,0:0:0:0:
195,71,114180,1,8,0:3:0:0:
195,71,114271,1,8,0:3:0:0:
195,71,114362,6,0,B|222:64|251:89|251:89|206:157|239:246,1,200,4|8,3:2|0:0,0:0:0:0:
231,221,114907,2,0,P|279:229|333:193,1,100,0|0,3:2|0:0,0:0:0:0:
370,137,115271,1,0,3:2:0:0:
459,249,115453,2,0,B|343:233|382:320|252:303,1,200,8|0,0:0|0:0,0:0:0:0:
168,229,115998,1,2,3:2:0:0:
161,319,116180,1,10,0:0:0:0:
168,229,116362,1,2,0:0:0:0:
187,140,116544,6,0,P|98:173|86:268,1,200,6|8,3:2|0:0,0:0:0:0:
187,140,117089,2,0,P|121:136|87:94,1,100,0|0,3:2|0:0,0:0:0:0:
161,62,117453,1,0,3:2:0:0:
320,145,117635,1,8,0:0:0:0:
320,145,117816,2,0,P|275:165|253:209,1,100
325,332,118180,1,2,3:2:0:0:
421,286,118362,1,10,0:0:0:0:
334,227,118544,1,2,0:0:0:0:
242,260,118725,6,0,P|252:187|225:119,1,150,14|0,3:2|0:0,0:0:0:0:
110,203,119089,2,0,P|171:133|229:118,1,150,2|0,0:0|0:0,0:0:0:0:
242,260,119453,2,0,P|151:241|107:199,1,150,2|0,0:0|0:0,0:0:0:0:
234,101,119816,6,0,P|271:215|254:293,1,187.5,10|0,0:0|0:0,0:0:0:0:
92,211,120180,2,0,P|167:265|261:280,1,187.5,2|0,0:0|0:0,0:0:0:0:
234,100,120544,2,0,P|149:138|91:211,1,187.5,2|0,0:0|0:0,0:0:0:0:
344,127,120907,6,0,P|228:184|127:31,1,299.999990844727,4|2,3:1|0:0,0:0:0:0:
344,126,121453,2,0,P|252:20|123:76,1,299.999990844727,6|2,3:2|3:2,0:0:0:0:
397,238,121998,6,0,P|278:235|231:247,1,149.999995422363,2|0,1:2|0:0,0:0:0:0:
458,259,122362,2,0,P|342:231|293:233,1,149.999995422363,2|0,1:2|0:0,0:0:0:0:
512,291,122725,2,0,P|404:239|356:231,1,149.999995422363,2|8,1:2|0:3,0:0:0:0:
299,216,122998,1,8,0:3:0:0:
244,279,123089,6,0,P|212:290|145:272,1,74.9999977111817,4|0,3:1|0:0,0:0:0:0:
28,271,123271,1,0,1:0:0:0:
51,242,123361,1,8,0:3:0:0:
87,233,123453,2,0,L|81:314,1,74.9999977111817,2|0,3:2|0:0,0:0:0:0:
166,361,123635,2,0,L|171:286,1,74.9999977111817,2|0,1:2|0:0,0:0:0:0:
57,163,123816,2,0,B|50:240|50:240|56:265|56:265|47:348,1,187.5,2|8,3:2|0:3,0:0:0:0:
47,349,124180,6,0,P|100:314|171:344,1,125,6|0,3:2|0:0,0:0:0:0:
255,272,124453,1,8,0:3:0:0:
255,272,124544,2,0,P|198:244|188:167,1,125,2|0,3:2|3:0,0:0:0:0:
84,132,124816,1,8,0:3:0:0:
84,132,124907,2,0,P|88:194|26:241,1,125,0|0,1:0|0:0,0:0:0:0:
84,132,125271,6,0,P|80:70|142:23,1,125,4|0,3:1|1:0,0:0:0:0:
231,151,125635,6,0,P|186:188|138:189,1,83.3333333333333,2|2,3:2|0:0,0:0:0:0:
83,169,125877,1,10,0:3:0:0:
54,94,125998,2,0,P|83:27|171:4,1,125,2|0,3:2|1:2,0:0:0:0:
283,53,126362,6,0,B|195:60|195:60|151:110,1,125,6|8,3:2|0:3,0:0:0:0:
192,200,126635,1,0,3:0:0:0:
192,200,126725,2,0,L|252:124,1,62.5,10|0,0:3|0:0,0:0:0:0:
283,53,126907,2,0,L|318:142,1,62.5,2|0,3:2|0:0,0:0:0:0:
364,205,127089,2,0,B|264:176|272:278|135:223,1,224.999993133545,2|0,1:2|0:0,0:0:0:0:
148,245,127453,6,0,B|271:294|263:192|363:221,1,224.999993133545,4|0,3:1|0:0,0:0:0:0:
457,262,127816,1,0,1:0:0:0:
457,90,127998,1,0,1:0:0:0:
432,115,128088,1,8,0:3:0:0:
440,150,128179,1,0,3:0:0:0:
359,18,128362,1,10,0:3:0:0:
210,134,128544,6,0,P|240:80|190:0,1,125,6|0,3:2|0:0,0:0:0:0:
56,75,128816,1,0,3:0:0:0:
56,75,128907,2,0,B|36:111|36:111|163:69,1,168.75000064373,0|2,1:0|0:0,0:0:0:0:
158,71,129271,5,0,1:0:0:0:
256,208,129453,5,0,1:0:0:0:
353,71,129635,5,4,3:1:0:0:
353,71,129998,5,0,1:0:0:0:
358,124,130089,1,0,1:0:0:0:
411,135,130180,1,0,1:0:0:0:
437,88,130271,1,0,1:0:0:0:
401,48,130362,1,0,1:0:0:0:
332,70,130453,2,0,P|291:56|274:21,1,74.9999977111817,0|8,1:0|0:3,0:0:0:0:
177,124,130635,5,0,1:0:0:0:
177,124,130725,1,0,1:0:0:0:
177,124,130816,2,0,P|218:138|235:173,1,74.9999977111817,0|8,1:0|0:3,0:0:0:0:
170,243,130998,1,0,1:0:0:0:
163,260,131089,1,0,1:0:0:0:
157,275,131180,1,0,1:0:0:0:
151,289,131271,5,2,1:2:0:0:
101,266,131361,5,2,1:2:0:0:
67,219,131452,5,2,1:2:0:0:
58,160,131543,5,2,1:2:0:0:
84,87,131634,5,2,1:2:0:0:
150,35,131725,5,2,1:2:0:0:
233,29,131816,5,2,0:0:0:0:
233,29,132180,2,0,L|240:65,2,37.4999988555909,2|2|2,0:0|0:0|0:0,0:0:0:0:
275,127,132725,1,2,0:0:0:0:
279,131,132907,6,0,L|264:220,1,75,2|0,0:0|0:0,0:0:0:0:
244,230,133271,6,0,L|257:327,1,75,2|0,0:0|0:0,0:0:0:0:
256,321,133635,5,2,0:0:0:0:
135,115,133998,6,0,P|101:135|83:178,1,74.9999977111817,4|0,3:1|0:0,0:0:0:0:
193,280,134180,1,0,1:0:0:0:
193,280,134271,2,0,P|227:260|245:217,1,74.9999977111817,0|0,3:0|0:0,0:0:0:0:
163,199,134453,1,8,0:3:0:0:
163,199,134544,2,0,B|302:164|264:305|406:243,1,250,2|0,3:2|3:0,0:0:0:0:
439,140,134998,1,8,0:3:0:0:
439,140,135089,6,2,P|394:200|394:257,1,125,2|2,1:2|0:0,0:0:0:0:
407,121,135453,2,2,P|353:191|353:259,1,149.999995422363,2|2,3:2|3:2,0:0:0:0:
319,211,135816,1,0,1:0:0:0:
326,150,135907,1,0,1:0:0:0:
366,101,135998,6,0,P|281:132|201:67,1,149.999995422363,4|0,3:1|0:0,0:0:0:0:
126,56,136270,2,0,L|120:146,1,74.9999977111817,0|2,3:0|0:0,0:0:0:0:
140,270,136543,2,0,L|149:122,2,125,2|0|0,3:2|0:0|3:0,0:0:0:0:
256,320,137088,6,0,P|285:342|322:350,1,74.9999977111817,2|0,1:2|0:0,0:0:0:0:
287,236,137270,2,0,P|320:219|344:191,1,74.9999977111817,10|0,0:3|0:0,0:0:0:0:
217,181,137452,2,0,P|224:144|217:108,1,74.9999977111817,2|0,0:1|0:0,0:0:0:0:
76,53,137634,1,12,3:3:0:0:
128,144,137816,1,8,3:3:0:0:
71,283,137998,1,2,3:1:0:0:
216,107,138179,6,0,P|224:144|217:181,1,74.9999977111817,4|0,3:1|0:0,0:0:0:0:
344,190,138361,2,0,P|320:218|287:236,1,74.9999977111817,10|0,0:3|3:0,0:0:0:0:
322,349,138543,2,0,P|285:342|256:320,1,74.9999977111817,10|0,0:3|0:0,0:0:0:0:
171,257,138725,2,0,P|314:302|327:164,1,299.999990844727,2|2,3:2|3:2,0:0:0:0:
281,117,139270,6,0,B|267:86|267:86|380:107,1,149.999995422363,2|0,1:2|3:0,0:0:0:0:
343,189,139634,1,0,1:0:0:0:
385,82,139816,1,2,1:2:0:0:
329,71,139906,1,2,1:2:0:0:
274,61,139998,1,2,1:2:0:0:
78,66,140179,6,0,P|105:56|131:69,1,50,4|0,3:1|0:0,0:0:0:0:
72,113,140451,2,0,P|103:94|124:63,1,74.9999977111817,2|0,3:2|0:0,0:0:0:0:
209,184,140724,2,0,P|182:174|156:187,1,50,6|0,3:2|0:0,0:0:0:0:
214,230,140997,2,0,P|182:211|162:181,1,74.9999977111817,2|0,3:2|0:0,0:0:0:0:
19,268,141270,2,0,P|53:255|86:271,1,74.9999977111817,2|0,3:1|0:0,0:0:0:0:
19,322,141542,2,0,P|59:304|85:270,1,87.499997329712,2|0,3:2|0:0,0:0:0:0:
21,323,141815,2,0,B|56:317|78:285|78:285|135:318|212:307,1,174.999994659424,6|0,3:2|0:3,0:0:0:0:
297,280,142088,1,8,0:3:0:0:
293,305,142179,1,8,0:3:0:0:
305,320,142269,1,8,0:3:0:0:
314,323,142360,6,0,P|342:286|341:245,1,74.9999977111817,4|0,3:1|0:0,0:0:0:0:
273,157,142542,2,0,P|248:184|242:221,1,74.9999977111817,8|0,0:3|3:0,0:0:0:0:
365,137,142724,2,0,P|359:100|334:72,1,74.9999977111817,8|0,0:3|0:0,0:0:0:0:
316,76,142906,2,0,P|271:97|178:82,1,125,2|0,3:2|0:0,0:0:0:0:
247,5,143269,1,2,3:2:0:0:
197,91,143451,6,0,P|127:67|58:92,2,149.999995422363,2|0|2,1:2|0:0|0:0,0:0:0:0:
182,261,143997,1,2,3:2:0:0:
129,155,144179,1,0,1:0:0:0:
127,173,144269,1,0,1:0:0:0:
125,192,144360,6,0,P|97:274|136:341,1,149.999995422363,4|0,3:1|0:0,0:0:0:0:
245,324,144632,1,0,3:0:0:0:
245,324,144723,2,0,P|268:270|257:223,1,74.9999977111817,8|0,0:3|0:0,0:0:0:0:
225,175,144905,2,0,P|295:265|395:208,1,250,2|2,3:2|3:2,0:0:0:0:
483,207,145450,6,0,P|412:116|313:174,1,250,2|2,1:2|0:1,0:0:0:0:
313,174,145905,1,8,0:3:0:0:
313,174,145996,1,8,0:3:0:0:
220,56,146178,2,0,B|231:80|231:80|217:145|217:145|226:182,1,125,8|2,3:3|0:1,0:0:0:0:
84,330,146541,6,0,P|60:303|26:286,1,74.9999977111817,4|0,3:1|0:0,0:0:0:0:
132,215,146723,2,0,P|97:204|60:206,1,74.9999977111817,10|0,0:3|3:0,0:0:0:0:
89,102,146905,2,0,P|53:109|22:129,1,74.9999977111817,10|0,0:3|0:0,0:0:0:0:
60,206,147087,2,0,B|96:196|131:214|131:214|168:240|217:225,1,149.999995422363,2|2,3:2|0:0,0:0:0:0:
335,179,147450,2,0,P|306:217|303:253,1,74.9999977111817,2|8,3:2|0:3,0:0:0:0:
400,306,147632,6,0,L|394:267,1,37.5,2|0,1:2|0:0,0:0:0:0:
438,60,147996,6,0,P|466:82|484:115,1,74.9999977111817,2|0,1:2|0:0,0:0:0:0:
364,111,148178,2,0,P|356:147|335:177,1,74.9999977111817,0|0,3:0|0:0,0:0:0:0:
293,58,148360,2,0,P|259:74|222:76,1,74.9999977111817,0|8,1:0|0:3,0:0:0:0:
118,152,148541,6,0,P|145:142|171:155,1,50,4|0,3:1|0:0,0:0:0:0:
112,199,148813,2,0,P|143:180|164:149,1,74.9999977111817,2|0,3:2|0:0,0:0:0:0:
313,223,149086,2,0,P|286:213|260:226,1,50,6|0,3:2|1:0,0:0:0:0:
318,270,149359,2,0,P|287:251|267:220,1,74.9999977111817,2|8,3:2|0:3,0:0:0:0:
419,237,149541,1,8,0:3:0:0:
419,237,149631,6,0,P|438:180|430:148,1,74.9999977111817,4|0,3:2|0:0,0:0:0:0:
359,79,149813,1,0,1:0:0:0:
359,79,149904,1,0,1:0:0:0:
359,79,149995,2,0,P|300:90|276:113,1,74.9999977111817,6|0,3:2|0:0,0:0:0:0:
266,219,150177,2,0,P|207:207|183:184,1,74.9999977111817,2|8,1:2|0:3,0:0:0:0:
196,199,150359,1,0,3:0:0:0:
236,175,150449,1,12,3:3:0:0:
282,173,150540,1,8,3:3:0:0:
323,195,150631,1,0,1:0:0:0:
347,235,150722,6,0,B|338:270|338:270|344:324,1,74.9999977111817,4|0,3:1|0:0,0:0:0:0:
473,363,150904,1,0,1:0:0:0:
473,363,150995,2,0,B|477:324|477:324|468:289,1,74.9999977111817,0|0,3:0|0:0,0:0:0:0:
231,322,151177,1,0,1:0:0:0:
231,322,151268,2,0,B|276:310|331:320|331:320|362:291|362:291|415:300|468:288,1,250,2|2,3:2|1:2,0:0:0:0:
418,131,151722,1,8,0:3:0:0:
418,131,151813,6,0,L|417:183,1,50,6|0,3:2|1:0,0:0:0:0:
428,206,152086,2,0,L|427:103,1,74.9999977111817,0|2,3:0|0:0,0:0:0:0:
273,106,152268,1,0,1:0:0:0:
273,106,152359,2,0,L|273:3,2,74.9999977111817,2|0|0,3:2|0:0|1:2,0:0:0:0:
183,196,152631,1,8,0:3:0:0:
183,196,152722,6,0,B|98:184|115:254|19:222,1,149.999995422363,4|0,3:1|1:0,0:0:0:0:
41,228,152994,2,0,P|89:256|102:299,1,74.9999977111817,0|0,3:0|0:0,0:0:0:0:
213,317,153176,1,0,1:2:0:0:
213,317,153267,2,0,P|179:202|333:190,1,299.999990844727,2|2,3:2|1:2,0:0:0:0:
245,232,153812,6,0,P|217:210|199:177,1,74.9999977111817,6|0,3:2|0:0,0:0:0:0:
321,176,153994,2,0,P|329:140|350:110,1,74.9999977111817,10|0,0:3|0:0,0:0:0:0:
397,235,154176,2,0,P|431:219|468:217,2,74.9999977111817,2|0|0,0:1|0:0|3:0,0:0:0:0:
330,341,154449,1,0,0:0:0:0:
330,341,154540,2,0,L|324:261,2,74.9999977111817,2|10|2,1:2|0:3|0:1,0:0:0:0:
137,332,154903,6,0,P|148:294|131:235,1,74.9999977111817,4|0,3:1|0:0,0:0:0:0:
24,146,155085,2,0,P|51:174|111:189,1,74.9999977111817,2|0,1:2|3:0,0:0:0:0:
241,141,155267,2,0,P|202:150|159:194,1,74.9999977111817,2|8,1:2|0:3,0:0:0:0:
137,332,155449,6,0,B|158:297|140:251|140:251|98:258|79:306,1,149.999995422363,6|2,3:2|0:0,0:0:0:0:
88,287,155812,2,0,P|119:303|172:288,1,74.9999977111817,2|8,1:2|0:3,0:0:0:0:
227,329,155994,2,0,P|183:256|249:137,1,224.999993133545,4|0,3:1|0:0,0:0:0:0:
380,248,156358,2,0,P|301:256|275:277,1,74.9999977111817,2|0,1:2|0:0,0:0:0:0:
380,248,156540,2,0,P|301:235|271:248,1,87.499997329712,6|0,3:2|0:0,0:0:0:0:
380,248,156722,2,0,P|307:215|274:220,1,100,2|0,1:2|0:0,0:0:0:0:
156,140,156903,6,0,P|113:161|91:160,1,50,4|0,3:1|0:0,0:0:0:0:
152,102,157175,2,0,P|123:125|112:161,1,74.9999977111817,0|0,1:2|0:0,0:0:0:0:
255,202,157448,2,0,P|282:215|297:214,1,37.4999988555909,6|0,3:2|0:0,0:0:0:0:
248,157,157721,2,0,P|277:180|289:216,1,74.9999977111817,2|0,1:2|0:0,0:0:0:0:
151,305,157993,2,0,P|130:315|119:314,1,25,2|0,3:1|0:0,0:0:0:0:
169,257,158266,2,0,P|140:280|129:316,1,74.9999977111817,0|0,1:2|0:0,0:0:0:0:
342,270,158539,2,0,P|299:291|277:290,2,50,6|4|8,3:2|0:3|0:3,0:0:0:0:
349,277,158993,1,8,0:3:0:0:
348,276,159084,6,0,L|352:201,1,74.9999977111817,4|0,3:1|0:0,0:0:0:0:
463,191,159266,1,0,1:0:0:0:
463,191,159357,2,0,L|459:117,1,74.9999977111817,0|0,3:2|0:0,0:0:0:0:
456,340,159539,1,0,1:0:0:0:
456,340,159630,2,0,P|377:279|237:397,1,299.999990844727,2|10,3:2|0:3,0:0:0:0:
238,264,160084,1,8,0:3:0:0:
238,264,160175,6,0,P|316:285|353:265,1,74.9999977111817,4|0,3:2|0:0,0:0:0:0:
185,164,160357,1,0,1:0:0:0:
179,155,160448,2,0,P|101:176|64:156,1,74.9999977111817,0|0,3:0|0:0,0:0:0:0:
264,69,160630,1,0,1:0:0:0:
276,46,160721,2,0,P|354:67|391:47,1,74.9999977111817,0|0,3:0|0:0,0:0:0:0:
169,0,160903,2,0,P|131:3|100:22,1,74.9999977111817,0|0,1:0|1:0,0:0:0:0:
405,96,161084,6,0,P|330:180|345:69,1,299.999990844727,4|2,3:1|0:0,0:0:0:0:
349,73,161538,1,0,1:0:0:0:
349,73,161629,2,0,P|328:153|260:148,1,149.999995422363,2|10,3:2|0:3,0:0:0:0:
190,43,161993,1,2,0:0:0:0:
124,158,162174,6,0,P|96:180|78:213,1,74.9999977111817,6|0,3:2|0:0,0:0:0:0:
198,209,162356,2,0,P|206:245|227:275,1,74.9999977111817,10|0,0:3|3:0,0:0:0:0:
269,156,162538,2,0,P|303:172|340:174,1,74.9999977111817,2|0,0:1|0:0,0:0:0:0:
78,214,162720,2,0,P|95:181|124:157,1,74.9999977111817,2|0,3:2|0:0,0:0:0:0:
228,276,162902,2,0,P|206:245|198:209,2,74.9999977111817,0|0|2,1:0|3:0|0:1,0:0:0:0:
345,246,163265,6,0,P|335:210|339:173,1,74.9999977111817,4|0,3:1|0:0,0:0:0:0:
431,215,163447,2,0,P|435:251|425:287,1,74.9999977111817,2|0,1:2|3:0,0:0:0:0:
339,173,163629,1,2,1:2:0:0:
431,215,163811,2,0,P|424:293|373:346,1,149.999995422363,6|0,3:2|1:0,0:0:0:0:
279,304,164174,1,10,0:3:0:0:
279,304,164265,1,8,0:3:0:0:
279,304,164356,6,0,B|220:269|174:267|174:267|187:306,1,149.999995422363,4|0,3:1|1:0,0:0:0:0:
224,380,164720,1,2,0:0:0:0:
68,155,164902,1,2,3:2:0:0:
29,263,165084,1,10,0:3:0:0:
261,196,165265,2,0,B|125:186|156:282|20:261,2,250,4|0|0,3:1|1:0|1:0,0:0:0:0:
261,196,166083,1,8,0:3:0:0:
261,196,166174,1,8,0:3:0:0:
357,98,166355,1,2,0:0:0:0:
357,98,166745,6,0,L|362:148,1,37.4999988555909,2|2,0:0|0:0,0:0:0:0:
417,190,166926,1,2,0:0:0:0:
354,269,167108,1,2,0:0:0:0:
365,292,167290,1,2,0:0:0:0:
370,283,167456,6,0,P|293:286|213:317,1,137.500004196167,4|2,3:1|0:0,0:0:0:0:
107,343,167819,1,2,1:2:0:0:
107,343,168001,2,0,P|122:275|105:177,1,137.500004196167,0|0,3:0|1:0,0:0:0:0:
58,76,168365,1,2,3:2:0:0:
58,76,168546,6,0,P|120:117|222:107,1,137.500004196167,2|0,1:2|0:0,0:0:0:0:
262,177,168910,1,2,3:2:0:0:
342,76,169092,1,10,0:3:0:0:
358,82,169183,1,8,0:3:0:0:
346,91,169274,1,2,3:2:0:0:
442,185,169456,1,2,3:2:0:0:
435,198,169546,1,0,3:0:0:0:
440,217,169637,6,0,L|464:312,2,87.499997329712,4|0|0,3:1|0:0|1:0,0:0:0:0:
345,241,169910,1,8,0:3:0:0:
332,257,170001,1,8,0:3:0:0:
312,264,170092,1,8,0:3:0:0:
276,293,170183,1,0,1:0:0:0:
255,278,170274,1,0,1:0:0:0:
213,265,170365,1,0,1:0:0:0:
175,289,170456,1,8,0:3:0:0:
159,290,170546,2,0,P|118:300|48:298,1,87.499997329712,10|2,0:3|0:0,0:0:0:0:
14,369,170728,5,4,3:1:0:0:
115,209,170910,1,2,1:2:0:0:
13,88,171092,1,2,1:2:0:0:
196,62,171274,2,0,L|217:188,1,87.499997329712,2|0,1:1|0:0,0:0:0:0:
290,11,171456,2,0,L|277:138,1,87.499997329712,2|0,1:1|0:0,0:0:0:0:
376,85,171637,2,0,L|331:204,1,87.499997329712,2|0,1:1|0:3,0:3:0:0:
271,202,171835,6,0,L|264:273,1,62.5,2|2,0:0|0:0,0:0:0:0:
256,349,172198,1,2,0:0:0:0:
251,210,172380,2,0,L|245:273,1,62.5,2|2,0:0|0:0,0:0:0:0:
271,202,172925,2,0,L|265:265,1,62.5,2|2,0:0|0:0,0:0:0:0:
284,220,173471,1,2,0:0:0:0:
241,314,173653,1,2,0:0:0:0:
311,384,173865,6,0,L|309:359,1,25,2|0,0:0|0:0,0:0:0:0:
