osu file format v14

[General]
AudioFilename: asphyxia.mp3
AudioLeadIn: 0
PreviewTime: 131998
Countdown: 0
SampleSet: Normal
StackLeniency: 0.4
Mode: 0
LetterboxInBreaks: 0
WidescreenStoryboard: 1

[Editor]
Bookmarks: 21337,39143,50368,67092,83816,105635,123089,133998,150722
DistanceSpacing: 1.2
BeatDivisor: 4
GridSize: 32
TimelineZoom: 1.8

[Metadata]
Title:asphyxia
TitleUnicode:asphyxia
Artist:Co shu Nie
ArtistUnicode:Cö shu Nie
Creator:Gillstar
Version:fixari's hard
Source:東京喰種トーキョーグール:re
Tags:tokyo ghoul re 東京喰種トーキョーグール:re deca impurepug sparhten semaphore fser m3gb3g neonlights amity fixxis kowari anime japanese
BeatmapID:1968904
BeatmapSetID:895512

[Difficulty]
HPDrainRate:5
CircleSize:3.6
OverallDifficulty:5.8
ApproachRate:8
SliderMultiplier:2
SliderTickRate:1

[Events]
//Background and Video events
0,0,"61800997_p0_master1200.jpg",0,0
//Break Periods
2,9058,14394
//Storyboard Layer 0 (Background)
//Storyboard Layer 1 (Fail)
//Storyboard Layer 2 (Pass)
//Storyboard Layer 3 (Foreground)
//Storyboard Sound Samples

[TimingPoints]
278,512.820512820513,4,2,1,40,1,0
278,-250,4,2,1,40,0,0
5682,540.540540540541,4,2,1,40,1,0
5682,-250,4,2,1,40,0,0
6507,588.235294117647,4,2,1,40,1,0
8858,392.156862745098,4,2,2,60,1,0
9032,382.165605095541,4,2,1,30,1,0
9477,384.615384615385,4,2,1,30,1,0
10450,368.098159509202,4,2,1,30,1,0
10843,375,4,2,1,30,1,0
11218,397.350993377483,4,2,1,30,1,0
12026,397.350993377483,4,2,1,30,1,0
12622,419.58041958042,4,2,1,30,1,0
13582,384.615384615385,4,2,1,30,1,0
14370,387.096774193548,4,2,1,30,1,0
15144,387.096774193548,4,1,2,40,1,0
15144,-125,4,1,2,40,0,0
26950,-125,4,2,2,50,0,0
27143,-125,4,2,2,50,0,0
27531,-125,4,2,1,50,0,0
28305,387.096774193548,4,2,2,40,1,0
28305,-142.857142857143,4,2,2,40,0,0
29079,-142.857142857143,4,2,2,40,0,0
39143,387.096774193548,3,2,2,40,1,0
39143,-166.666666666667,3,2,2,40,0,0
40304,-166.666666666667,3,2,2,50,0,0
49981,-100,3,1,2,50,0,0
50368,363.636363636364,3,1,2,50,1,1
50368,-125,3,1,2,50,0,1
52368,363.636363636364,3,1,2,50,1,1
52368,-125,3,1,2,50,0,1
56549,363.636363636364,3,1,2,50,1,1
56549,-125,3,1,2,50,0,1
60730,363.636363636364,3,1,2,50,1,1
60730,-125,3,1,2,50,0,1
64911,363.636363636364,3,1,2,50,1,1
64911,-125,3,1,2,50,0,1
69092,363.636363636364,3,1,2,50,1,1
69092,-125,3,1,2,50,0,1
73273,363.636363636364,3,1,2,50,1,1
73273,-125,3,1,2,50,0,1
77454,363.636363636364,3,1,2,50,1,1
77454,-125,3,1,2,50,0,1
81635,363.636363636364,3,1,2,50,1,1
81635,-125,3,1,2,50,0,1
82680,-100,3,1,2,5,0,1
82725,-125,3,1,2,50,0,1
83816,-125,3,1,2,50,0,0
84953,-125,3,1,2,5,0,0
85271,-125,3,1,2,50,0,0
89635,-125,3,2,2,50,0,0
105635,-166.666666666667,3,2,2,50,0,0
120907,-125,3,2,2,50,0,0
123089,-125,3,1,2,50,0,0
126362,-125,3,2,2,50,0,0
127453,-125,3,1,2,50,0,0
129998,-125,3,2,2,50,0,0
133998,-125,3,1,2,50,0,1
135998,363.636363636364,3,1,2,50,1,1
135998,-125,3,1,2,50,0,1
140179,363.636363636364,3,1,2,50,1,1
140179,-125,3,1,2,50,0,1
144360,363.636363636364,3,1,2,50,1,1
144360,-125,3,1,2,50,0,1
148541,363.636363636364,3,1,2,50,1,1
148541,-125,3,1,2,50,0,1
152722,363.636363636364,3,1,2,50,1,1
152722,-125,3,1,2,50,0,1
156903,363.636363636364,3,1,2,50,1,1
156903,-125,3,1,2,50,0,1
161084,363.636363636364,3,1,2,50,1,1
161084,-125,3,1,2,50,0,1
165265,363.636363636364,3,1,2,50,1,1
165265,-125,3,1,2,50,0,1
166355,-100,3,2,2,50,0,1
166745,363.636363636364,3,2,2,50,1,0
167456,363.636363636364,3,2,2,50,1,0
167456,-142.857142857143,3,2,2,50,0,0
169637,-142.857142857143,3,1,2,50,0,0
170865,-142.857142857143,3,1,2,5,0,0
170910,-142.857142857143,3,1,2,50,0,0
171835,363.636363636364,3,2,2,50,1,0
173653,425.531914893617,3,2,1,50,1,0
173653,-142.857142857143,3,2,1,50,0,0

[Colours]
Combo1 : 213,106,0
Combo2 : 219,13,44

[HitObjects]
33,22,278,6,0,L|39:69,3,40,2|0|0|0,0:0|0:0|0:0|0:0,0:0:0:0:
106,120,1303,2,0,L|100:159,3,40,2|0|0|0,0:0|0:0|0:0|0:0,0:0:0:0:
39,229,2329,2,0,L|44:268,3,40,2|0|0|0,0:0|0:0|0:0|0:0,0:0:0:0:
111,318,3354,2,0,L|105:357,3,40,2|0|0|0,0:0|0:0|0:0|0:0,0:0:0:0:
179,262,4380,6,0,P|199:259|225:262,3,40,2|0|0|0,0:0|0:0|0:0|0:0,0:0:0:0:
108,214,5406,5,2,0:0:0:0:
162,114,5952,1,2,0:0:0:0:
107,26,6507,5,2,0:0:0:0:
256,192,6654,12,6,8858,0:0:0:0:
433,37,15144,6,0,L|447:124,1,80,6|8,0:0|0:0,0:0:0:0:
415,201,15531,1,0,0:0:0:0:
471,273,15724,1,2,0:0:0:0:
416,342,15918,2,0,P|379:335|331:348,1,80,12|8,0:0|0:0,0:0:0:0:
274,259,16305,2,0,P|242:280|218:323,1,80,6|4,0:0|0:0,0:0:0:0:
133,367,16692,6,0,L|121:285,1,80,6|0,0:0|0:0,0:0:0:0:
35,251,17079,2,0,L|46:171,1,80,8|4,0:0|0:0,0:0:0:0:
120,48,17466,2,0,P|120:99|136:143,1,80,6|6,0:0|0:0,0:0:0:0:
183,198,17853,2,0,P|227:223|273:231,1,80,8|0,0:0|0:0,0:0:0:0:
346,162,18240,6,0,L|356:251,1,80,6|8,0:0|0:0,0:0:0:0:
421,310,18627,1,0,0:0:0:0:
327,345,18821,1,8,0:0:0:0:
232,318,19014,2,0,P|191:319|144:348,1,80,12|0,0:0|0:0,0:0:0:0:
59,345,19402,2,0,P|78:308|77:253,1,80,12|0,0:0|0:0,0:0:0:0:
46,189,19789,6,0,L|55:98,1,80,6|0,0:0|0:0,0:0:0:0:
145,56,20176,2,0,L|136:147,1,80,12|4,0:0|0:0,0:0:0:0:
186,208,20563,1,6,0:0:0:0:
186,208,20756,1,2,0:0:0:0:
149,291,20950,1,8,0:0:0:0:
149,291,21143,1,8,0:0:0:0:
215,357,21337,6,0,L|304:361,1,80,6|6,0:0|0:0,0:0:0:0:
369,308,21724,1,8,0:0:0:0:
330,225,21918,1,4,0:0:0:0:
394,160,22111,2,0,P|437:149|490:153,1,80,2|4,0:0|0:0,0:0:0:0:
330,100,22498,2,0,P|287:89|234:93,1,80,8|4,0:0|0:0,0:0:0:0:
218,177,22885,6,0,L|120:181,1,80,2|4,0:0|0:0,0:0:0:0:
36,190,23273,2,0,P|62:231|68:287,1,80,8|4,0:0|0:0,0:0:0:0:
85,101,23660,2,0,L|95:13,1,80,2|0,0:0|0:0,0:0:0:0:
196,15,24047,2,0,L|205:94,1,80,12|4,0:0|0:0,0:0:0:0:
223,187,24434,6,0,P|266:203|312:203,1,80,6|0,0:0|0:0,0:0:0:0:
376,148,24821,1,8,0:0:0:0:
353,59,25014,1,4,0:0:0:0:
432,6,25208,2,0,P|476:-3|519:1,1,80,2|4,0:0|0:0,0:0:0:0:
512,101,25595,2,0,P|472:102|433:94,1,80,8|0,0:0|0:0,0:0:0:0:
353,59,25982,6,0,L|256:57,1,80,6|8,0:0|0:0,0:0:0:0:
225,150,26369,2,0,L|322:148,1,80,6|8,0:0|0:0,0:0:0:0:
395,187,26756,1,6,0:0:0:0:
395,187,26950,1,0,0:0:0:0:
344,264,27143,2,0,L|346:310,3,40,2|2|2|2,0:0|0:0|0:0|0:0,0:0:0:0:
345,335,27531,6,0,P|301:320|250:328,1,80,0|0,0:0|0:0,0:0:0:0:
242,339,27821,2,0,P|198:354|147:346,2,80,0|0|0,0:0|0:0|0:0,0:0:0:0:
253,316,28305,5,2,0:0:0:0:
255,202,28595,2,0,L|257:77,1,104.999996795654,2|0,0:0|0:0,0:0:0:0:
159,119,29079,1,2,0:0:0:0:
114,14,29369,2,0,P|161:1|235:39,1,104.999996795654,2|0,0:0|0:0,0:0:0:0:
256,97,29853,5,2,0:0:0:0:
343,175,30143,2,0,P|402:183|459:155,1,104.999996795654,2|0,0:0|0:0,0:0:0:0:
387,99,30627,1,2,0:0:0:0:
267,119,30917,2,0,B|252:170|252:170|273:248,1,104.999996795654,2|0,0:0|0:0,0:0:0:0:
337,292,31401,5,2,0:0:0:0:
249,368,31692,2,0,L|139:357,1,104.999996795654,2|0,0:0|0:0,0:0:0:0:
37,340,32175,1,2,0:0:0:0:
103,246,32466,2,0,P|110:190|63:135,1,104.999996795654,2|4,0:0|0:0,0:0:0:0:
6,98,32950,5,2,0:0:0:0:
99,29,33240,2,0,L|212:23,1,104.999996795654,2|0,0:0|0:0,0:0:0:0:
241,116,33724,1,2,0:0:0:0:
334,183,34014,2,0,P|354:134|336:68,1,104.999996795654,2|4,0:0|0:0,0:0:0:0:
241,116,34498,6,0,L|244:232,1,104.999996795654,2|2,0:0|0:0,0:0:0:0:
242,251,34885,2,0,P|206:270|161:268,1,69.9999978637696,0|0,0:0|0:0,0:0:0:0:
109,207,35272,2,0,P|68:194|4:215,1,104.999996795654,2|2,0:0|0:0,0:0:0:0:
8,242,35659,2,0,L|9:327,1,69.9999978637696,0|0,0:0|0:0,0:0:0:0:
109,376,36046,6,0,L|109:306,1,69.9999978637696,2|0,0:0|0:0,0:0:0:0:
109,207,36434,2,0,L|108:137,1,69.9999978637696,0|0,0:0|0:0,0:0:0:0:
112,38,36821,2,0,P|166:17|228:26,1,104.999996795654,2|2,0:0|0:0,0:0:0:0:
236,42,37208,2,0,P|270:54|311:51,1,69.9999978637696,0|0,0:0|0:0,0:0:0:0:
408,20,37595,6,0,L|401:146|401:146,1,104.999996795654,2|2,0:0|0:0,0:0:0:0:
395,230,38079,2,0,L|391:272,1,34.9999989318848,8|8,0:0|0:0,0:0:0:0:
384,359,38369,2,0,L|303:344,1,69.9999978637696,0|2,0:0|0:0,0:0:0:0:
222,318,38756,1,2,0:0:0:0:
222,318,38950,1,6,0:0:0:0:
138,354,39143,6,0,P|83:324|7:331,2,119.999996337891,0|0|0,0:0|0:0|0:0,0:0:0:0:
195,208,40304,6,0,B|176:168|176:168|188:104,1,89.9999972534181,6|0,0:0|0:0,0:0:0:0:
173,112,40691,2,0,B|198:75|198:75|259:53,1,89.9999972534181,6|0,0:0|0:0,0:0:0:0:
243,47,41078,2,0,B|287:50|287:50|336:92,1,89.9999972534181,6|0,0:0|0:0,0:0:0:0:
341,71,41465,5,6,0:0:0:0:
425,47,41659,1,2,0:0:0:0:
511,21,41852,2,0,L|505:105,1,59.9999981689454,4|8,0:0|0:0,0:0:0:0:
454,146,42239,2,0,L|448:230,1,59.9999981689454,2|8,0:0|0:0,0:0:0:0:
370,268,42626,6,0,P|343:243|310:235,1,59.9999981689454,6|0,0:0|0:0,0:0:0:0:
235,242,43013,2,0,P|199:252|176:277,1,59.9999981689454,6|2,0:0|0:0,0:0:0:0:
125,330,43401,1,8,0:0:0:0:
125,330,43594,1,0,0:0:0:0:
43,269,43788,6,0,B|31:235|31:235|46:194,2,59.9999981689454,6|0|2,0:0|0:0|0:0,0:0:0:0:
130,210,44368,2,0,B|142:176|142:176|127:135,2,59.9999981689454,12|6|8,0:0|0:0|0:0,0:0:0:0:
222,237,44949,6,0,P|296:232|335:242,1,89.9999972534181,6|2,0:0|0:0,0:0:0:0:
313,210,45336,2,0,P|379:242|408:270,1,89.9999972534181,12|8,0:0|0:0,0:0:0:0:
410,247,45723,2,0,P|451:308|462:347,1,89.9999972534181,2|0,0:0|0:0,0:0:0:0:
478,328,46110,6,0,L|487:197,1,119.999996337891,6|8,0:0|0:0,0:0:0:0:
405,150,46691,2,0,L|396:19,1,119.999996337891,4|0,0:0|0:0,0:0:0:0:
308,44,47272,5,12,0:0:0:0:
196,31,47659,1,6,0:0:0:0:
84,18,48046,1,2,0:0:0:0:
13,119,48433,6,0,B|21:158|21:158|18:166|18:166|30:231,2,89.9999972534181,6|6|12,0:0|0:0|0:0,0:0:0:0:
190,196,49401,2,0,B|182:235|182:235|184:243|184:243|173:308,2,89.9999972534181,6|6|12,0:0|0:0|0:0,0:0:0:0:
219,44,50368,6,0,L|307:40,1,80,6|8,0:0|0:0,0:0:0:0:
368,96,50731,1,0,0:0:0:0:
443,48,50913,2,0,P|456:97|440:143,1,80,2|12,0:0|0:0,0:0:0:0:
395,201,51277,1,8,0:0:0:0:
436,284,51458,2,0,P|372:292|318:243,2,120,6|2|6,0:0|0:0|0:0,0:0:0:0:
255,316,52368,6,0,P|239:265|265:197,1,120,6|2,0:0|0:0,0:0:0:0:
335,96,52913,1,6,0:0:0:0:
259,44,53095,2,0,L|257:-3,3,40,12|0|8|8,0:0|0:0|0:0|0:0,0:0:0:0:
242,63,53458,6,0,P|194:85|142:80,1,80,6|0,0:0|0:0,0:0:0:0:
90,37,53822,1,12,0:0:0:0:
24,106,54004,1,2,0:0:0:0:
41,198,54186,2,0,B|134:184|115:242|221:216,1,160,12|6,0:0|0:0,0:0:0:0:
262,158,54731,5,8,0:0:0:0:
350,201,54913,1,0,0:0:0:0:
350,201,55095,2,0,P|370:257|303:356,1,160,6|8,0:0|0:0,0:0:0:0:
238,365,55640,2,0,B|327:343|327:343|411:363,1,160,6|8,0:0|0:0,0:0:0:0:
480,384,56186,2,0,L|474:296,1,80,6|8,0:0|0:0,0:0:0:0:
461,202,56549,6,0,B|377:194|377:194|319:224|319:224|222:212,1,240,6|6,0:0|0:0,0:0:0:0:
449,102,57639,2,0,B|365:94|365:94|307:124|307:124|218:113,1,240,6|6,0:0|0:0,0:0:0:0:
127,66,58367,2,0,L|133:12,3,40,2|0|0|0,0:0|0:0|0:0|0:0,0:0:0:0:
106,88,58730,6,0,L|111:181,1,80,6|8,0:0|0:0,0:0:0:0:
46,245,59094,1,0,0:0:0:0:
98,326,59276,2,0,P|144:343|183:328,1,80,6|8,0:0|0:0,0:0:0:0:
223,261,59639,1,8,0:0:0:0:
311,222,59821,2,0,P|321:280|289:338,2,120,6|2|6,0:0|0:0|0:0,0:0:0:0:
244,76,60730,6,0,P|300:63|377:81,1,120,6|2,0:0|0:0,0:0:0:0:
414,184,61275,1,6,0:0:0:0:
393,276,61457,2,0,L|451:284,3,40,8|0|2|0,0:0|0:0|0:0|0:0,0:0:0:0:
366,293,61820,6,0,L|275:299,1,80,12|0,0:0|0:0,0:0:0:0:
221,226,62184,1,12,0:0:0:0:
136,270,62366,1,2,0:0:0:0:
51,220,62548,2,0,P|38:156|100:81,1,160,12|6,0:0|0:0,0:0:0:0:
185,118,63093,5,8,0:0:0:0:
267,78,63275,1,0,0:0:0:0:
267,78,63457,2,0,B|318:57|318:57|437:84,1,160,6|8,0:0|0:0,0:0:0:0:
501,134,64002,2,0,P|460:111|356:152,1,160,6|8,0:0|0:0,0:0:0:0:
328,245,64548,2,0,L|425:259,1,80,6|12,0:0|0:0,0:0:0:0:
258,309,64911,6,0,L|249:356,8,40,6|0|8|2|8|0|8|8|0,0:0|0:0|0:0|0:0|0:0|0:0|0:0|0:0|0:0,0:0:0:0:
215,227,65820,1,8,0:0:0:0:
257,146,66001,6,0,P|210:136|163:155,2,80,6|8|8,0:0|0:0|0:0,0:0:0:0:
325,212,66547,2,0,P|372:222|419:203,2,80,12|8|8,0:0|0:0|0:0,0:0:0:0:
279,291,67092,6,0,L|263:370,1,80,6|8,0:0|0:0,0:0:0:0:
180,372,67456,1,0,0:0:0:0:
125,295,67638,2,0,P|77:283|26:296,1,80,2|12,0:0|0:0,0:0:0:0:
77,374,68001,1,8,0:0:0:0:
201,248,68183,2,0,P|158:217|62:204,2,120,6|2|6,0:0|0:0|0:0,0:0:0:0:
322,153,69092,6,0,L|453:132,1,120,6|2,0:0|0:0,0:0:0:0:
511,238,69637,1,6,0:0:0:0:
435,314,69819,2,0,L|430:362,3,40,12|0|8|8,0:0|0:0|0:0|0:0,0:0:0:0:
433,280,70182,6,0,P|389:274|346:293,1,80,6|0,0:0|0:0,0:0:0:0:
285,333,70546,1,12,0:0:0:0:
201,299,70728,1,2,0:0:0:0:
125,334,70910,2,0,P|166:279|136:200,1,160,12|6,0:0|0:0,0:0:0:0:
61,153,71455,5,8,0:0:0:0:
113,79,71637,1,0,0:0:0:0:
50,17,71819,2,0,B|110:35|110:35|218:14,1,160,6|8,0:0|0:0,0:0:0:0:
300,32,72364,2,0,P|282:88|327:183,1,160,6|8,0:0|0:0,0:0:0:0:
400,225,72910,2,0,L|394:317,1,80,6|8,0:0|0:0,0:0:0:0:
461,359,73273,6,0,B|354:299|323:394|213:368,1,240,6|6,0:0|0:0,0:0:0:0:
34,275,74363,2,0,B|141:215|172:310|282:284,1,240,6|6,0:0|0:0,0:0:0:0:
325,222,75091,2,0,L|389:206,3,40,2|0|0|0,0:0|0:0|0:0|0:0,0:0:0:0:
253,158,75454,6,0,P|247:110|270:63,1,80,6|8,0:0|0:0,0:0:0:0:
306,13,75818,1,0,0:0:0:0:
382,58,76000,2,0,L|380:147,1,80,6|8,0:0|0:0,0:0:0:0:
325,222,76363,1,8,0:0:0:0:
460,108,76545,2,0,L|458:260,2,120,6|2|6,0:0|0:0|0:0,0:0:0:0:
306,13,77454,6,0,P|235:14|174:44,1,120,6|2,0:0|0:0,0:0:0:0:
120,168,77999,1,6,0:0:0:0:
55,107,78181,2,0,L|61:68,3,40,8|0|2|0,0:0|0:0|0:0|0:0,0:0:0:0:
80,98,78544,6,0,P|130:87|174:105,1,80,12|0,0:0|0:0,0:0:0:0:
238,140,78908,1,12,0:0:0:0:
323,98,79090,1,2,0:0:0:0:
412,140,79272,2,0,P|392:212|430:313,1,160,12|6,0:0|0:0,0:0:0:0:
483,351,79817,5,8,0:0:0:0:
388,372,79999,1,0,0:0:0:0:
388,372,80181,2,0,L|199:350,1,160,6|8,0:0|0:0,0:0:0:0:
144,364,80726,2,0,P|196:342|218:228,1,160,6|8,0:0|0:0,0:0:0:0:
159,187,81272,2,0,L|67:207,1,80,6|12,0:0|0:0,0:0:0:0:
37,294,81635,6,0,L|95:301,8,40,6|0|8|2|8|0|8|8|0,0:0|0:0|0:0|0:0|0:0|0:0|0:0|0:0|0:0,0:0:0:0:
0,218,82544,1,8,0:0:0:0:
42,120,82725,6,0,B|42:81|42:81|38:72|38:72|37:34,2,80,6|8|8,0:0|0:0|0:0,0:0:0:0:
125,89,83271,2,0,B|125:50|125:50|129:41|129:41|130:3,2,80,12|8|8,0:0|0:0|0:0,0:0:0:0:
181,160,83816,5,0,0:0:0:0:
272,105,85998,6,0,B|269:156|269:156|261:173|261:173|261:242,2,120,6|2|2,0:0|0:0|0:0,0:0:0:0:
293,16,86725,2,0,L|380:22,1,80,12|8,0:0|0:0,0:0:0:0:
426,103,87089,5,6,0:0:0:0:
361,167,87271,1,8,0:0:0:0:
361,167,87362,1,0,0:0:0:0:
361,167,87453,1,8,0:0:0:0:
411,244,87635,2,0,L|416:338,2,80,8|8|8,0:0|0:0|0:0,0:0:0:0:
361,167,88180,6,0,P|319:157|271:166,1,80,6|2,0:0|0:0,0:0:0:0:
206,271,88544,2,0,B|214:222|214:222|195:179|195:179|203:102,1,160,12|0,0:0|0:0,0:0:0:0:
223,24,89089,1,8,0:0:0:0:
223,24,89271,2,0,B|142:42|142:42|51:18,2,160,6|8|8,0:0|0:0|0:0,0:0:0:0:
380,19,90362,6,0,P|404:59|384:139,1,120,6|6,0:0|0:0,0:0:0:0:
287,208,90907,2,0,P|263:248|283:328,1,120,6|6,0:0|0:0,0:0:0:0:
405,351,91453,5,6,0:1:0:0:
416,231,91725,1,6,0:0:0:0:
296,220,91998,1,6,0:0:0:0:
300,319,92180,2,0,L|289:366,3,40,8|6|0|2,0:0|0:0|0:0|0:0,0:0:0:0:
255,352,92544,6,0,L|158:340,1,80,6|0,0:1|0:0,0:0:0:0:
141,339,92816,2,0,B|156:283|156:283|136:243|136:243|151:177,1,160,2|0,0:0|0:0,0:0:0:0:
155,158,93271,2,0,P|109:145|69:155,1,80,12|0,0:0|0:0,0:0:0:0:
43,69,93635,2,0,P|97:57|211:90,1,160,2|4,0:0|0:0,0:0:0:0:
279,144,94180,2,0,P|327:140|287:63,1,160,2|0,0:0|0:0,0:0:0:0:
197,80,94725,6,0,B|196:139|196:139|176:169|176:169|176:238,1,160,6|12,0:0|0:0,0:0:0:0:
100,293,95271,1,0,0:0:0:0:
154,368,95453,2,0,P|203:369|254:343,1,80,12|0,0:0|0:0,0:0:0:0:
284,280,95816,2,0,L|279:188,1,80,6|8,0:0|0:0,0:0:0:0:
379,301,96180,2,0,L|374:380,1,80,6|8,0:0|0:0,0:0:0:0:
463,265,96544,2,0,B|457:224|457:224|467:192|467:192|461:130,1,120,8|2,0:0|0:0,0:0:0:0:
451,117,96907,6,0,P|414:106|361:123,1,80,6|8,0:0|0:0,0:0:0:0:
290,169,97271,2,0,P|251:177|213:166,1,80,6|8,0:0|0:0,0:0:0:0:
156,89,97635,2,0,L|154:42,3,40,8|8|4|0,0:0|0:0|0:0|0:0,0:0:0:0:
150,19,97998,2,0,P|95:12|72:23,1,80,6|0,0:0|0:0,0:0:0:0:
23,101,98362,2,0,L|24:187,1,80,6|8,0:0|0:0,0:0:0:0:
85,265,98725,2,0,L|84:308,3,40,8|2|2|2,0:0|0:0|0:0|0:0,0:0:0:0:
107,234,99089,6,0,P|155:217|233:243,1,120,6|6,0:0|0:0,0:0:0:0:
306,326,99635,1,6,0:0:0:0:
399,243,99907,1,6,0:0:0:0:
318,138,100180,2,0,L|317:11,1,120,6|6,0:0|0:0,0:0:0:0:
450,15,100725,2,0,L|450:134,1,120,6|6,0:0|0:0,0:0:0:0:
451,168,101089,1,2,0:0:0:0:
451,168,101180,1,2,0:0:0:0:
451,168,101271,6,0,L|460:298,2,120,6|2|2,0:0|0:0|0:0,0:0:0:0:
373,98,101998,1,12,0:0:0:0:
295,153,102180,1,4,0:0:0:0:
215,100,102362,2,0,P|157:73|53:110,1,160,6|6,0:0|0:0,0:0:0:0:
26,195,102907,2,0,B|91:198|91:198|118:218|118:218|188:222,1,160,2|4,0:0|0:0,0:0:0:0:
266,176,103453,2,0,P|212:223|225:320,1,160,4|4,0:0|0:0,0:0:0:0:
307,350,103998,1,0,0:0:0:0:
386,291,104180,2,0,L|476:291,1,80,12|0,0:0|0:0,0:0:0:0:
481,193,104544,6,0,B|370:192|370:192|306:166,1,160,6|6,0:0|0:0,0:0:0:0:
291,83,105089,1,8,0:0:0:0:
291,83,105180,1,8,0:0:0:0:
291,83,105271,2,0,L|289:31,3,40,8|2|2|2,0:0|0:0|0:0|0:0,0:0:0:0:
277,19,105635,6,0,L|141:37,3,119.999996337891,4|8|8|8,0:0|0:0|0:0|0:0,0:0:0:0:
18,162,107271,1,0,0:0:0:0:
62,240,107453,2,0,L|52:310,1,59.9999981689454,8|0,0:0|0:0,0:0:0:0:
115,365,107816,6,0,P|159:338|208:338,1,89.9999972534181,4|0,0:0|0:0,0:0:0:0:
212,351,108180,2,0,L|292:334,1,59.9999981689454,8|0,0:0|0:0,0:0:0:0:
325,266,108544,2,0,L|245:249,1,59.9999981689454,8|0,0:0|0:0,0:0:0:0:
189,195,108907,2,0,P|218:145|292:133,1,119.999996337891,8|8,0:0|0:0,0:0:0:0:
359,85,109453,5,0,0:0:0:0:
436,142,109635,2,0,L|510:133,1,59.9999981689454,8|0,0:0|0:0,0:0:0:0:
491,223,109998,2,0,B|488:272|488:272|477:290|477:290|474:339,2,119.999996337891,4|8|8,0:0|0:0|0:0,0:0:0:0:
400,231,110907,1,0,0:0:0:0:
311,246,111089,2,0,L|237:237,1,59.9999981689454,8|0,0:0|0:0,0:0:0:0:
184,292,111453,2,0,L|138:233,1,59.9999981689454,8|0,0:0|0:0,0:0:0:0:
52,254,111816,2,0,L|61:180,1,59.9999981689454,8|2,0:0|0:0,0:0:0:0:
119,116,112180,6,0,P|158:138|216:140,1,89.9999972534181,4|0,0:0|0:0,0:0:0:0:
222,135,112544,2,0,P|254:122|283:126,1,59.9999981689454,8|0,0:0|0:0,0:0:0:0:
306,52,112907,2,0,P|337:65|355:88,1,59.9999981689454,8|0,0:0|0:0,0:0:0:0:
396,151,113271,6,0,P|396:98|436:30,1,119.999996337891,12|0,0:0|0:0,0:0:0:0:
508,27,113816,2,0,L|505:75,2,29.9999990844727,2|0|0,0:0|0:0|0:0,0:0:0:0:
434,47,114180,1,0,0:0:0:0:
434,47,114271,1,0,0:0:0:0:
434,47,114362,6,0,L|301:38,3,119.999996337891,4|8|8|8,0:0|0:0|0:0|0:0,0:0:0:0:
123,153,115998,1,0,0:0:0:0:
98,68,116180,2,0,P|111:27|126:6,1,59.9999981689454,8|0,0:0|0:0,0:0:0:0:
206,17,116544,6,0,L|221:120,1,89.9999972534181,4|0,0:0|0:0,0:0:0:0:
224,126,116907,2,0,L|213:190,1,59.9999981689454,8|0,0:0|0:0,0:0:0:0:
251,267,117271,2,0,L|197:304,1,59.9999981689454,8|0,0:0|0:0,0:0:0:0:
129,343,117635,2,0,P|182:337|264:369,1,119.999996337891,8|8,0:0|0:0,0:0:0:0:
330,339,118180,5,2,0:0:0:0:
414,364,118362,2,0,L|421:285,1,59.9999981689454,8|8,0:0|0:0,0:0:0:0:
461,221,118725,6,0,P|456:183|463:153,1,59.9999981689454,4|0,0:0|0:0,0:0:0:0:
380,129,119089,2,0,P|403:98|429:82,1,59.9999981689454,8|2,0:0|0:0,0:0:0:0:
391,10,119453,2,0,P|429:4|459:12,1,59.9999981689454,8|2,0:0|0:0,0:0:0:0:
321,64,119816,6,0,L|251:50,1,59.9999981689454,12|0,0:0|0:0,0:0:0:0:
199,112,120180,2,0,L|159:52,1,59.9999981689454,12|0,0:0|0:0,0:0:0:0:
70,87,120544,2,0,L|84:16,1,59.9999981689454,12|0,0:0|0:0,0:0:0:0:
118,166,120907,6,0,P|115:239|23:297,1,160,12|4,0:0|0:0,0:0:0:0:
23,369,121453,2,0,P|74:320|184:320,1,160,2|2,0:0|0:0,0:0:0:0:
253,317,121998,6,0,P|280:349|325:366,1,80,12|0,0:0|0:0,0:0:0:0:
331,210,122362,2,0,P|327:251|347:295,1,80,12|0,0:0|0:0,0:0:0:0:
460,181,122725,2,0,P|428:208|411:253,1,80,12|8,0:0|0:0,0:0:0:0:
420,336,123089,5,6,0:0:0:0:
331,210,123453,2,0,P|287:198|241:205,1,80,0|8,0:0|0:0,0:0:0:0:
189,283,123816,1,6,0:0:0:0:
121,205,123998,1,0,0:0:0:0:
121,205,124089,1,0,0:0:0:0:
121,205,124180,6,0,L|117:119,1,80,6|0,0:0|0:0,0:0:0:0:
200,69,124544,1,12,0:0:0:0:
286,118,124725,1,2,0:0:0:0:
375,78,124907,2,0,L|366:213,1,120,12|0,0:0|0:0,0:0:0:0:
361,229,125271,6,0,P|313:244|268:239,1,80,6|8,0:0|0:0,0:0:0:0:
205,193,125635,1,6,0:0:0:0:
205,193,125816,1,8,0:0:0:0:
113,239,125998,1,6,0:0:0:0:
23,207,126180,1,8,0:0:0:0:
23,207,126271,1,8,0:0:0:0:
23,207,126362,6,0,L|27:310,1,80,6|0,0:0|0:0,0:0:0:0:
132,248,126725,2,0,L|128:351,1,80,12|2,0:0|0:0,0:0:0:0:
244,365,127089,2,0,B|227:330|227:330|227:247,1,120,12|2,0:0|0:0,0:0:0:0:
230,223,127453,6,0,P|269:210|313:220,1,80,6|8,0:0|0:0,0:0:0:0:
385,274,127816,2,0,P|424:280|461:267,1,80,6|8,0:0|0:0,0:0:0:0:
480,175,128180,2,0,L|481:127,3,40,6|0|8|8,0:0|0:0|0:0|0:0,0:0:0:0:
476,106,128544,2,0,P|435:79|347:104,1,120,6|2,0:0|0:0,0:0:0:0:
347,110,128907,2,0,P|308:128|251:117,1,80,12|2,0:0|0:0,0:0:0:0:
193,62,129271,1,12,0:0:0:0:
85,179,129635,6,0,B|84:241|84:241|101:268|101:268|97:336,1,160,12|8,0:0|0:0,0:0:0:0:
179,381,130180,1,8,0:0:0:0:
250,318,130362,2,0,P|292:306|332:315,1,80,8|8,0:0|0:0,0:0:0:0:
406,369,130725,5,8,0:0:0:0:
406,369,130816,1,8,0:0:0:0:
406,369,130907,1,8,0:0:0:0:
413,267,131089,2,0,L|412:212,3,40,8|8|8|8,0:0|0:0|0:0|0:0,0:0:0:0:
392,209,131453,2,0,L|381:153,3,40,8|8|8|8,0:0|0:0|0:0|0:0,0:0:0:0:
451,333,133998,6,0,L|313:346,2,120,6|6|2,0:0|0:0|0:0,0:0:0:0:
411,131,135089,2,0,P|356:122|314:98,1,80,6|0,0:0|0:0,0:0:0:0:
279,184,135453,2,0,P|246:138|233:92,1,80,4|0,0:0|0:0,0:0:0:0:
274,34,135816,1,8,0:0:0:0:
274,34,135907,1,8,0:0:0:0:
274,34,135998,6,0,L|393:22,2,120,6|6|2,0:0|0:0|0:0,0:0:0:0:
60,60,136907,1,2,0:0:0:0:
124,127,137089,2,0,P|93:199|10:226,1,160,12|4,0:0|0:0,0:0:0:0:
20,323,137635,2,0,L|117:357,2,80,2|0|0,0:0|0:0|0:0,0:0:0:0:
20,226,138180,6,0,L|154:214,2,120,6|6|2,0:0|0:0|0:0,0:0:0:0:
147,83,139089,1,2,0:0:0:0:
147,83,139271,1,12,0:0:0:0:
224,137,139453,6,0,L|310:118,1,80,2|12,0:0|0:0,0:0:0:0:
365,53,139816,1,2,0:0:0:0:
399,147,139998,1,8,0:0:0:0:
399,147,140089,1,8,0:0:0:0:
399,147,140179,6,0,B|399:207|399:207|411:236|411:236|386:282,2,120,6|2|12,0:0|0:0|0:0,0:0:0:0:
298,259,140997,1,2,0:0:0:0:
512,290,141269,2,0,B|460:320|460:320|440:344|440:344|388:346,2,120,6|2|6,0:0|0:0|0:0,0:0:0:0:
486,183,141997,2,0,L|483:129,3,40,12|0|2|2,0:0|0:0|0:0|0:0,0:0:0:0:
457,168,142360,6,0,P|429:110|418:45,2,120,6|6|2,0:0|0:0|0:0,0:0:0:0:
370,297,143269,1,0,0:0:0:0:
370,297,143451,2,0,P|315:265|196:244,1,160,12|4,0:0|0:0,0:0:0:0:
129,251,143997,1,0,0:0:0:0:
73,318,144179,1,8,0:0:0:0:
73,318,144269,1,8,0:0:0:0:
73,318,144360,6,0,P|86:256|70:175,2,120,6|6|2,0:0|0:0|0:0,0:0:0:0:
224,206,145269,1,2,0:0:0:0:
224,206,145450,2,0,L|206:41,1,160,12|0,0:0|0:0,0:0:0:0:
289,10,145996,1,2,0:0:0:0:
370,62,146178,2,0,L|471:44,1,80,12|0,0:0|0:0,0:0:0:0:
498,171,146541,6,0,P|440:154|377:156,2,120,6|6|2,0:0|0:0|0:0,0:0:0:0:
497,280,147269,2,0,L|483:364,1,80,0|2,0:0|0:0,0:0:0:0:
387,356,147632,2,0,B|314:322|294:389|199:366,1,160,12|12,0:0|0:0,0:0:0:0:
151,329,148178,1,0,0:0:0:0:
65,360,148360,1,8,0:0:0:0:
65,360,148450,1,8,0:0:0:0:
65,360,148541,6,0,L|52:225,2,120,6|6|6,0:0|0:0|0:0,0:0:0:0:
151,329,149268,1,8,0:0:0:0:
196,251,149450,1,8,0:0:0:0:
196,251,149631,6,0,P|201:200|171:130,1,120,6|8,0:0|0:0,0:0:0:0:
158,103,149995,2,0,P|199:132|275:141,1,120,0|8,0:0|0:0,0:0:0:0:
299,157,150359,2,0,P|252:178|206:239,1,120,8|2,0:0|0:0,0:0:0:0:
194,253,150722,6,0,L|190:348,1,80,6|8,0:0|0:0,0:0:0:0:
193,358,150995,2,0,P|234:375|275:363,1,80,2|8,0:0|0:0,0:0:0:0:
286,342,151268,2,0,P|321:325|360:332,1,80,2|12,0:0|0:0,0:0:0:0:
452,369,151631,1,8,0:0:0:0:
452,369,151722,1,8,0:0:0:0:
452,369,151813,2,0,B|454:312|454:312|444:292|444:292|445:222,1,120,6|2,0:0|0:0,0:0:0:0:
451,125,152359,2,0,P|404:114|367:122,1,80,6|2,0:0|0:0,0:0:0:0:
327,213,152722,6,0,L|328:319,1,80,6|8,0:0|0:0,0:0:0:0:
326,323,152994,2,0,P|285:335|241:324,1,80,2|8,0:0|0:0,0:0:0:0:
223,310,153267,2,0,P|183:303|146:315,1,80,6|12,0:0|0:0,0:0:0:0:
56,369,153631,1,8,0:0:0:0:
56,369,153722,1,8,0:0:0:0:
56,369,153812,2,0,L|68:267,1,80,6|0,0:0|0:0,0:0:0:0:
38,182,154176,5,12,0:0:0:0:
38,182,154358,1,2,0:0:0:0:
144,204,154540,1,12,0:0:0:0:
206,124,154722,1,0,0:0:0:0:
175,28,154903,6,0,L|261:27,1,80,6|8,0:0|0:0,0:0:0:0:
338,92,155267,1,0,0:0:0:0:
443,50,155449,2,0,P|457:93|446:144,1,80,6|8,0:0|0:0,0:0:0:0:
394,206,155812,1,8,0:0:0:0:
464,298,155994,2,0,L|294:295,1,160,6|8,0:0|0:0,0:0:0:0:
206,262,156540,2,0,L|121:267,1,80,6|8,0:0|0:0,0:0:0:0:
34,261,156903,5,6,0:0:0:0:
12,160,157084,1,0,0:0:0:0:
12,160,157175,1,8,0:0:0:0:
12,160,157266,1,0,0:0:0:0:
65,65,157448,2,0,P|139:48|197:84,1,120,6|8,0:0|0:0,0:0:0:0:
261,203,157993,5,6,0:0:0:0:
197,280,158175,1,0,0:0:0:0:
197,280,158266,1,12,0:0:0:0:
197,280,158357,1,0,0:0:0:0:
246,365,158539,2,0,P|294:379|340:372,1,80,6|2,0:0|0:0,0:0:0:0:
398,306,158903,1,0,0:0:0:0:
384,195,159084,6,0,L|381:113,1,80,6|8,0:0|0:0,0:0:0:0:
374,76,159357,2,0,P|331:59|289:73,1,80,6|8,0:0|0:0,0:0:0:0:
273,92,159630,2,0,P|230:109|188:95,1,80,6|8,0:0|0:0,0:0:0:0:
105,54,159993,1,8,0:0:0:0:
105,54,160084,1,8,0:0:0:0:
105,54,160175,2,0,B|99:102|99:102|108:127|108:127|106:198,1,120,6|2,0:0|0:0,0:0:0:0:
117,300,160721,2,0,P|161:306|203:286,1,80,6|8,0:0|0:0,0:0:0:0:
228,199,161084,6,0,L|231:118,1,80,6|8,0:0|0:0,0:0:0:0:
238,77,161356,2,0,P|283:64|326:78,1,80,2|8,0:0|0:0,0:0:0:0:
341,95,161629,2,0,P|386:108|429:94,1,80,6|8,0:0|0:0,0:0:0:0:
500,52,161993,1,2,0:0:0:0:
500,52,162084,1,0,0:0:0:0:
500,52,162174,2,0,L|491:220,1,160,12|12,0:0|0:0,0:0:0:0:
436,291,162720,2,0,P|390:302|356:287,1,80,2|12,0:0|0:0,0:0:0:0:
339,198,163084,1,0,0:0:0:0:
339,198,163174,1,0,0:0:0:0:
339,198,163265,6,0,L|246:196,2,80,6|8|0,0:0|0:0|0:0,0:0:0:0:
405,123,163811,2,0,P|418:78|401:37,1,80,6|12,0:0|0:0,0:0:0:0:
311,14,164174,1,8,0:0:0:0:
230,73,164356,2,0,B|162:73|162:73|139:91|139:91|67:89,1,160,6|8,0:0|0:0,0:0:0:0:
8,164,164902,2,0,P|-2:217|11:245,1,80,6|12,0:0|0:0,0:0:0:0:
92,289,165265,5,6,0:0:0:0:
175,247,165446,1,8,0:0:0:0:
175,247,165537,1,0,0:0:0:0:
175,247,165628,1,8,0:0:0:0:
252,305,165810,2,0,L|260:387,1,80,8|0,0:0|0:0,0:0:0:0:
336,338,166174,1,8,0:0:0:0:
429,364,166355,5,0,0:0:0:0:
341,101,167456,6,0,P|291:92|255:105,2,69.9999978637696,6|0|8,0:0|0:0|0:0,0:0:0:0:
419,167,168001,2,0,L|418:316,1,139.999995727539,2|2,0:0|0:0,0:0:0:0:
344,361,168546,2,0,P|301:369|266:353,1,69.9999978637696,12|2,0:0|0:0,0:0:0:0:
261,342,168819,1,2,0:0:0:0:
261,342,168910,2,0,P|219:328|188:329,1,69.9999978637696,4|8,0:0|0:0,0:0:0:0:
103,350,169274,2,0,L|100:388,2,34.9999989318848,2|2|2,0:0|0:0|0:0,0:0:0:0:
55,268,169637,6,0,L|57:174,1,69.9999978637696,6|8,0:0|0:0,0:0:0:0:
53,176,169910,1,8,0:0:0:0:
53,176,170001,1,6,0:0:0:0:
68,82,170183,2,0,P|100:69|139:77,1,69.9999978637696,8|0,0:0|0:0,0:0:0:0:
214,143,170546,1,8,0:0:0:0:
214,143,170728,2,0,L|212:222,2,69.9999978637696,6|12|12,0:0|0:0|0:0,0:0:0:0:
291,91,171274,2,0,L|289:21,2,69.9999978637696,12|12|12,0:0|0:0|0:0,0:0:0:0:
371,140,171835,5,4,0:0:0:0:
371,140,172925,1,0,0:0:0:0:
371,140,173653,2,0,L|373:210,1,69.9999978637696,0|0,0:0|0:0,0:0:0:0:
