osu file format v14

[General]
AudioFilename: asphyxia.mp3
AudioLeadIn: 0
PreviewTime: 131998
Countdown: 0
SampleSet: Soft
StackLeniency: 0.2
Mode: 0
LetterboxInBreaks: 0
WidescreenStoryboard: 1

[Editor]
Bookmarks: 15144,28305,50368,88180,105635,123089,133998,171835
DistanceSpacing: 0.5
BeatDivisor: 4
GridSize: 4
TimelineZoom: 4.699997

[Metadata]
Title:asphyxia
TitleUnicode:asphyxia
Artist:Co shu Nie
ArtistUnicode:Cö shu Nie
Creator:Gillstar
Version:deca's extra
Source:東京喰種トーキョーグール:re
Tags:tokyo ghoul re 東京喰種トーキョーグール:re deca impurepug sparhten semaphore fser m3gb3g neonlights amity fixxis kowari anime japanese
BeatmapID:1935880
BeatmapSetID:895512

[Difficulty]
HPDrainRate:5
CircleSize:4.1
OverallDifficulty:8.5
ApproachRate:9.6
SliderMultiplier:2.4
SliderTickRate:1

[Events]
//Background and Video events
0,0,"kaneki.jpg",0,0
//Break Periods
2,132016,133428
//Storyboard Layer 0 (Background)
//Storyboard Layer 1 (Fail)
//Storyboard Layer 2 (Pass)
//Storyboard Layer 3 (Foreground)
//Storyboard Sound Samples

[TimingPoints]
278,512.820512820513,4,2,1,40,1,0
278,-166.666666666667,4,2,1,40,0,0
5682,540.540540540541,4,2,1,40,1,0
5682,-166.666666666667,4,2,1,40,0,0
6507,588.235294117647,4,2,1,40,1,0
8858,392.156862745098,4,2,2,60,1,0
9032,382.165605095541,4,2,1,30,1,0
9477,384.615384615385,4,2,1,30,1,0
9477,-166.666666666667,4,2,1,30,0,0
10450,368.098159509202,4,2,1,30,1,0
10450,-166.666666666667,4,2,1,30,0,0
10843,375,4,2,1,30,1,0
10843,-166.666666666667,4,2,1,30,0,0
11218,397.350993377483,4,2,1,30,1,0
11218,-166.666666666667,4,2,1,30,0,0
12026,397.350993377483,4,2,1,30,1,0
12026,-166.666666666667,4,2,1,30,0,0
12622,419.58041958042,4,2,1,30,1,0
12622,-166.666666666667,4,2,1,30,0,0
13582,384.615384615385,4,2,1,30,1,0
13582,-166.666666666667,4,2,1,30,0,0
14370,387.096774193548,4,2,1,30,1,0
15144,387.096774193548,4,1,2,40,1,0
15144,-76.9230769230769,4,1,2,40,0,0
17853,-71.4285714285714,4,1,2,40,0,0
18240,-76.9230769230769,4,1,2,40,0,0
26950,-76.9230769230769,4,2,2,50,0,0
27143,-200,4,2,2,50,0,0
27531,-200,4,2,1,50,0,0
28305,387.096774193548,4,2,2,40,1,0
32369,-200,4,2,2,40,0,0
34498,-142.857142857143,4,2,2,40,0,0
39143,387.096774193548,3,2,2,40,1,0
40304,-200,3,2,2,50,0,0
42626,-142.857142857143,3,2,2,50,0,0
49981,-142.857142857143,3,1,2,50,0,0
50368,363.636363636364,3,1,2,50,1,0
50368,-71.4285714285714,3,1,2,50,0,0
52368,363.636363636364,3,1,2,50,1,0
52368,-71.4285714285714,3,1,2,50,0,0
56549,363.636363636364,3,1,2,50,1,0
56549,-71.4285714285714,3,1,2,50,0,0
60730,363.636363636364,3,1,2,50,1,0
60730,-71.4285714285714,3,1,2,50,0,0
64911,363.636363636364,3,1,2,50,1,0
64911,-71.4285714285714,3,1,2,50,0,0
69092,363.636363636364,3,1,2,50,1,0
69092,-71.4285714285714,3,1,2,50,0,0
73273,363.636363636364,3,1,2,50,1,0
73273,-71.4285714285714,3,1,2,50,0,0
76545,-71.4285714285714,3,1,2,50,0,0
77454,363.636363636364,3,1,2,50,1,0
77454,-71.4285714285714,3,1,2,50,0,0
81635,363.636363636364,3,1,2,50,1,0
81635,-71.4285714285714,3,1,2,50,0,0
82680,-100,3,1,2,5,0,0
82725,-71.4285714285714,3,1,2,50,0,0
83862,-100,3,1,2,50,0,0
84544,-100,3,1,2,50,0,0
84953,-100,3,1,2,5,0,0
85271,-100,3,1,2,50,0,0
85998,-71.4285714285714,3,1,2,50,0,0
88180,-200,3,1,2,50,0,0
88544,-200,3,1,2,50,0,1
89271,-200,3,1,2,50,0,0
89635,-200,3,2,2,50,0,1
90362,-66.6666666666667,3,2,2,50,0,1
92544,-200,3,2,2,50,0,0
92816,-66.6666666666667,3,2,2,50,0,1
93635,-200,3,2,2,50,0,0
94725,-66.6666666666667,3,2,2,50,0,1
95453,-200,3,2,2,50,0,0
95816,-66.6666666666667,3,2,2,50,0,1
96907,-83.3333333333333,3,2,2,50,0,0
99089,-83.3333333333333,3,2,2,50,0,1
101271,-125,3,2,2,50,0,0
105635,-166.666666666667,3,2,2,50,0,0
120907,-166.666666666667,3,2,2,50,0,0
123089,-83.3333333333333,3,1,2,50,0,0
126362,-100,3,2,2,50,0,0
127089,-200,3,2,2,50,0,0
127453,-100,3,1,2,50,0,0
128544,-76.9230769230769,3,1,2,50,0,0
129635,-200,3,1,2,50,0,1
129998,-200,3,2,2,50,0,1
131816,-83.3333333333333,3,2,2,50,0,0
133998,-71.4285714285714,3,1,2,50,0,0
135998,363.636363636364,3,1,2,50,1,0
135998,-71.4285714285714,3,1,2,50,0,0
137634,-83.3333333333333,3,1,2,50,0,0
138179,-71.4285714285714,3,1,2,50,0,0
140179,363.636363636364,3,1,2,50,1,0
140179,-71.4285714285714,3,1,2,50,0,0
144360,363.636363636364,3,1,2,50,1,0
144360,-71.4285714285714,3,1,2,50,0,0
148541,363.636363636364,3,1,2,50,1,0
148541,-71.4285714285714,3,1,2,50,0,0
152722,363.636363636364,3,1,2,50,1,0
152722,-71.4285714285714,3,1,2,50,0,0
156903,363.636363636364,3,1,2,50,1,0
156903,-71.4285714285714,3,1,2,50,0,0
161084,363.636363636364,3,1,2,50,1,0
161084,-71.4285714285714,3,1,2,50,0,0
165265,363.636363636364,3,1,2,50,1,0
165265,-71.4285714285714,3,1,2,50,0,0
166355,-142.857142857143,3,2,2,50,0,0
166745,363.636363636364,3,2,2,50,1,0
167456,363.636363636364,3,2,2,50,1,0
167456,-125,3,2,2,50,0,0
169637,-71.4285714285714,3,1,2,50,0,0
170865,-71.4285714285714,3,1,2,5,0,0
170910,-71.4285714285714,3,1,2,50,0,0
171835,363.636363636364,3,2,2,50,1,0
173653,425.531914893617,3,2,1,50,1,0

[Colours]
Combo1 : 80,119,152
Combo2 : 180,202,207

[HitObjects]
100,212,278,6,0,B|185:208|154:279|249:274,1,143.999995605469,2|0,0:0|0:0,0:0:0:0:
332,130,1303,2,0,P|285:116|231:196,1,143.999995605469,2|0,0:0|0:0,0:0:0:0:
310,356,2329,2,0,P|312:310|321:202,1,143.999995605469,2|0,0:0|0:0,0:0:0:0:
144,185,3354,2,0,P|150:256|153:328,1,143.999995605469,2|0,0:0|0:0,0:0:0:0:
399,310,4380,6,0,P|461:306|474:224,1,143.999995605469,2|0,0:0|0:0,0:0:0:0:
316,140,5406,2,0,P|319:188|318:234,1,71.9999978027344,2|0,0:0|0:0,0:0:0:0:
434,166,5952,2,0,P|434:130|436:94,1,71.9999978027344,2|2,0:0|0:0,0:0:0:0:
324,28,6507,5,2,0:0:0:0:
256,192,6654,12,6,8858,0:0:0:0:
150,148,9477,5,2,0:0:0:0:
168,171,9669,2,0,P|225:187|289:123,1,143.999995605469,2|2,0:0|0:0,0:0:0:0:
184,47,10450,1,2,0:0:0:0:
75,56,10634,2,0,L|45:59,2,17.9999994506836,0|0|2,0:0|0:0|0:0,0:0:0:0:
185,37,10843,2,0,P|238:52|278:56,1,71.9999978027344,2|0,0:0|0:0,0:0:0:0:
192,129,11218,6,0,P|181:190|179:252,1,107.999996704102,2|0,0:0|0:0,0:0:0:0:
266,207,11615,1,0,0:0:0:0:
274,224,11714,2,0,P|322:241|360:238,1,71.9999978027344,2|0,0:0|0:0,0:0:0:0:
342,90,12026,5,2,0:0:0:0:
342,90,12125,1,0,0:0:0:0:
342,90,12224,2,0,L|339:115,2,17.9999994506836,2|0|2,0:0|0:0|0:0,0:0:0:0:
423,121,12622,1,2,0:0:0:0:
376,278,12831,2,0,P|313:275|240:283,1,119.999996337891,2|2,0:0|0:0,0:0:0:0:
116,322,13582,2,0,P|115:283|110:232,1,71.9999978027344,2|2,0:0|0:0,0:0:0:0:
225,185,13966,2,0,P|222:220|221:256,1,71.9999978027344,2|0,0:0|0:0,0:0:0:0:
348,188,14370,5,2,0:0:0:0:
371,197,14563,1,2,0:0:0:0:
407,100,14757,5,0,0:0:0:0:
384,109,14853,1,0,0:0:0:0:
348,14,14950,5,0,0:0:0:0:
371,23,15046,1,0,0:0:0:0:
454,1,15144,6,0,P|449:50|447:110,1,77.9999964294435,6|0,0:0|0:0,0:0:0:0:
366,278,15337,2,0,P|364:243|356:194,1,77.9999964294435,8|6,0:0|0:0,0:0:0:0:
490,285,15531,1,0,0:0:0:0:
487,297,15627,1,8,0:0:0:0:
485,310,15724,1,2,0:0:0:0:
484,323,15821,1,0,0:0:0:0:
427,380,15918,6,0,P|375:383|330:370,1,77.9999964294435,12|0,0:0|0:0,0:0:0:0:
267,290,16111,2,0,P|305:283|344:287,1,77.9999964294435,8|8,0:0|0:0,0:0:0:0:
224,157,16305,2,0,B|216:219|216:219|192:255|192:255|185:317,1,155.999992858887,6|4,0:0|0:0,0:0:0:0:
0,168,16595,1,0,0:0:0:0:
20,146,16692,2,0,P|72:123|134:213,1,155.999992858887,6|0,0:0|0:0,0:0:0:0:
341,119,16982,2,0,P|289:96|227:186,1,155.999992858887,2|0,0:0|0:0,0:0:0:0:
88,47,17273,2,0,P|132:56|168:80,1,77.9999964294435,4|8,0:0|0:0,0:0:0:0:
311,199,17466,5,6,0:0:0:0:
332,204,17563,2,0,P|377:196|407:167,1,77.9999964294435,0|6,0:0|0:0,0:0:0:0:
435,80,17756,1,0,0:0:0:0:
487,150,17853,2,0,P|483:196|478:273,2,111.999996582031,8|8|8,0:0|0:0|0:0,0:0:0:0:
394,3,18240,6,0,P|368:27|350:90,1,77.9999964294435,6|0,0:0|0:0,0:0:0:0:
159,72,18434,2,0,P|186:98|201:134,1,77.9999964294435,8|2,0:0|0:0,0:0:0:0:
170,250,18627,5,0,0:0:0:0:
152,266,18724,1,8,0:0:0:0:
135,248,18821,1,8,0:0:0:0:
153,232,18918,1,2,0:0:0:0:
150,351,19014,6,0,P|99:354|62:356,1,77.9999964294435,12|0,0:0|0:0,0:0:0:0:
35,265,19208,2,0,P|73:267|112:269,1,77.9999964294435,0|2,0:0|0:0,0:0:0:0:
222,129,19402,2,0,P|141:124|90:195,1,155.999992858887,12|0,0:0|0:0,0:0:0:0:
292,384,19692,1,0,0:0:0:0:
289,351,19789,2,0,P|283:280|266:170,1,155.999992858887,6|0,0:0|0:0,0:0:0:0:
403,384,20079,2,0,P|409:313|426:203,1,155.999992858887,2|0,0:0|0:0,0:0:0:0:
435,123,20369,2,0,P|382:134|344:139,1,77.9999964294435,4|8,0:0|0:0,0:0:0:0:
119,199,20563,6,0,P|114:135|112:116,1,77.9999964294435,6|0,0:0|0:0,0:0:0:0:
287,0,20756,2,0,P|283:38|280:77,1,77.9999964294435,2|0,0:0|0:0,0:0:0:0:
206,284,20950,5,8,0:0:0:0:
197,248,21047,1,0,0:0:0:0:
249,189,21143,1,8,0:0:0:0:
253,155,21240,1,0,0:0:0:0:
195,75,21337,6,0,P|198:113|201:152,1,77.9999964294435,6|0,0:0|0:0,0:0:0:0:
334,251,21531,2,0,P|336:212|340:173,1,77.9999964294435,6|0,0:0|0:0,0:0:0:0:
346,20,21724,5,8,0:0:0:0:
326,23,21820,1,0,0:0:0:0:
307,25,21917,1,4,0:0:0:0:
288,27,22014,1,0,0:0:0:0:
203,0,22111,6,0,P|206:38|209:77,1,77.9999964294435,2|0,0:0|0:0,0:0:0:0:
99,106,22305,2,0,P|101:67|105:28,1,77.9999964294435,4|0,0:0|0:0,0:0:0:0:
0,182,22498,2,0,B|88:165|62:235|157:225,1,155.999992858887,8|4,0:0|0:0,0:0:0:0:
335,189,22789,5,0,0:0:0:0:
326,167,22885,2,0,P|252:125|157:150,1,155.999992858887,2|4,0:0|0:0,0:0:0:0:
364,73,23176,2,0,P|438:31|533:56,1,155.999992858887,0|2,0:0|0:0,0:0:0:0:
415,244,23466,2,0,P|420:193|428:151,1,77.9999964294435,4|0,0:0|0:0,0:0:0:0:
253,229,23660,6,0,P|259:308|262:411,1,155.999992858887,2|0,0:0|0:0,0:0:0:0:
95,221,23950,1,0,0:0:0:0:
27,296,24047,2,0,B|117:283|89:358|212:339,1,155.999992858887,12|4,0:0|0:0,0:0:0:0:
300,161,24337,5,0,0:0:0:0:
217,139,24434,2,0,P|169:144|126:144,1,77.9999964294435,6|0,0:0|0:0,0:0:0:0:
338,85,24627,2,0,P|376:122|388:163,1,77.9999964294435,0|2,0:0|0:0,0:0:0:0:
457,263,24821,5,8,0:0:0:0:
452,251,24918,1,0,0:0:0:0:
464,215,25014,2,0,P|463:162|463:123,1,77.9999964294435,4|0,0:0|0:0,0:0:0:0:
280,337,25208,6,0,P|278:298|274:259,1,77.9999964294435,2|0,0:0|0:0,0:0:0:0:
381,384,25402,2,0,P|382:345|386:306,1,77.9999964294435,4|0,0:0|0:0,0:0:0:0:
197,300,25595,2,0,B|110:285|124:352|39:339,1,155.999992858887,8|0,0:0|0:0,0:0:0:0:
0,139,25885,5,8,0:0:0:0:
70,90,25982,2,0,P|121:131|132:252,1,155.999992858887,6|8,0:0|0:0,0:0:0:0:
344,85,26273,2,0,P|282:106|230:216,1,155.999992858887,8|0,0:0|0:0,0:0:0:0:
128,26,26563,2,0,P|174:50|198:77,1,77.9999964294435,8|8,0:0|0:0,0:0:0:0:
278,273,26756,5,6,0:0:0:0:
355,244,26853,2,0,P|359:186|358:145,1,77.9999964294435,0|0,0:0|0:0,0:0:0:0:
290,296,27047,5,0,0:0:0:0:
367,267,27144,2,0,P|371:209|370:168,1,90,2|2,0:0|0:0,0:0:0:0:
370,127,27531,5,0,0:0:0:0:
86,279,27821,1,0,0:0:0:0:
90,283,28305,5,2,0:0:0:0:
138,350,28595,1,2,0:0:0:0:
100,265,29079,5,2,0:0:0:0:
148,332,29369,1,2,0:0:0:0:
110,247,29853,5,2,0:0:0:0:
158,314,30143,1,2,0:0:0:0:
120,229,30627,5,2,0:0:0:0:
168,296,30917,1,2,0:0:0:0:
130,211,31401,5,2,0:0:0:0:
178,278,31691,1,2,0:0:0:0:
140,193,32175,5,2,0:0:0:0:
188,260,32465,1,2,0:0:0:0:
150,175,32950,2,0,P|158:136|161:112,1,60,2|4,0:0|0:0,0:0:0:0:
198,242,33240,2,0,P|220:215|234:189,1,60,2|0,0:0|0:0,0:0:0:0:
361,259,33724,6,0,P|353:220|350:196,1,60,2|0,0:0|0:0,0:0:0:0:
313,326,34014,2,0,P|291:299|276:273,1,60,2|0,0:0|0:0,0:0:0:0:
429,201,34498,6,0,P|488:209|552:198,1,83.9999974365235,2|0,0:0|0:0,0:0:0:0:
441,97,34788,2,0,P|381:113|345:177,1,125.999996154785,2|0,0:0|0:0,0:0:0:0:
193,97,35272,6,0,P|245:96|296:89,1,83.9999974365235,2|0,0:0|0:0,0:0:0:0:
134,163,35563,2,0,P|183:176|269:182,1,125.999996154785,2|0,0:0|0:0,0:0:0:0:
15,344,36046,6,0,P|14:310|7:242,1,83.9999974365235,2|0,0:0|0:0,0:0:0:0:
96,369,36337,2,0,P|154:358|229:360,1,125.999996154785,2|0,0:0|0:0,0:0:0:0:
308,278,36821,6,0,P|256:280|219:277,1,83.9999974365235,2|0,0:0|0:0,0:0:0:0:
261,182,37111,2,0,P|320:179|379:241,1,125.999996154785,2|0,0:0|0:0,0:0:0:0:
490,42,37595,6,0,P|426:53|379:53,1,83.9999974365235,2|0,0:0|0:0,0:0:0:0:
416,134,37885,2,0,P|450:134|465:136,1,41.9999987182618,2|0,0:0|0:0,0:0:0:0:
272,66,38079,5,8,0:0:0:0:
257,178,38175,1,8,0:0:0:0:
106,115,38563,5,2,0:0:0:0:
191,88,38756,1,2,0:0:0:0:
162,230,38950,1,6,0:0:0:0:
140,224,39143,5,0,0:0:0:0:
252,192,39530,1,0,0:0:0:0:
223,304,39917,1,0,0:0:0:0:
144,228,40304,6,0,P|198:216|238:202,1,90,6|0,0:0|0:0,0:0:0:0:
256,196,40691,6,0,P|239:248|231:290,1,90,6|0,0:0|0:0,0:0:0:0:
227,308,41078,6,0,P|189:267|157:239,1,90,6|0,0:0|0:0,0:0:0:0:
59,88,41465,5,6,0:0:0:0:
188,132,41659,1,2,0:0:0:0:
76,270,41852,1,4,0:0:0:0:
49,71,42046,1,8,0:0:0:0:
256,196,42239,5,2,0:0:0:0:
269,82,42433,1,8,0:0:0:0:
274,95,42530,1,8,0:0:0:0:
294,114,42626,2,0,P|338:133|375:142,1,83.9999974365235,6|0,0:0|0:0,0:0:0:0:
443,0,43013,2,0,P|404:28|378:56,1,83.9999974365235,6|2,0:0|0:0,0:0:0:0:
467,186,43401,2,0,P|461:138|450:101,1,83.9999974365235,8|0,0:0|0:0,0:0:0:0:
352,313,43788,6,0,P|349:276|344:223,1,83.9999974365235,6|0,0:0|0:0,0:0:0:0:
460,325,44175,1,2,0:0:0:0:
271,365,44368,2,0,P|268:328|263:275,1,83.9999974365235,12|6,0:0|0:0,0:0:0:0:
127,213,44755,5,8,0:0:0:0:
123,226,44852,1,8,0:0:0:0:
109,257,44949,2,0,P|126:287|193:329,1,83.9999974365235,6|0,0:0|0:0,0:0:0:0:
36,205,45239,1,2,0:0:0:0:
26,225,45336,2,0,P|18:262|35:335,1,83.9999974365235,12|8,0:0|0:0,0:0:0:0:
224,256,45626,5,8,0:0:0:0:
234,233,45723,2,0,L|238:180,3,41.9999987182618,2|0|0|0,0:0|0:0|0:0|0:0,0:0:0:0:
323,271,46110,6,0,P|360:276|433:278,1,83.9999974365235,6|0,0:0|0:0,0:0:0:0:
487,181,46497,1,8,0:0:0:0:
324,101,46691,2,0,P|329:158|331:219,2,83.9999974365235,4|2|0,0:0|0:0|0:0,0:0:0:0:
344,362,47272,6,0,P|307:367|234:369,1,83.9999974365235,12|4,0:0|0:0,0:0:0:0:
128,367,47659,5,6,0:0:0:0:
128,353,47755,1,0,0:0:0:0:
128,339,47852,1,8,0:0:0:0:
128,325,47949,1,8,0:0:0:0:
155,301,48046,2,0,P|160:255|162:202,1,83.9999974365235,2|8,0:0|0:0,0:0:0:0:
157,22,48433,5,6,0:0:0:0:
379,148,48723,1,6,0:0:0:0:
136,208,49013,1,12,0:0:0:0:
184,11,49401,5,6,0:0:0:0:
365,199,49691,1,6,0:0:0:0:
107,238,49981,1,12,0:0:0:0:
111,242,50368,6,0,P|110:200|108:158,1,83.9999974365235,6|0,0:0|0:0,0:0:0:0:
183,285,50549,1,8,0:0:0:0:
261,219,50640,2,0,B|356:210|324:286|434:285,1,167.999994873047,0|8,0:0|0:0,0:0:0:0:
404,107,50913,6,0,P|406:148|406:190,1,83.9999974365235,2|0,0:0|0:0,0:0:0:0:
498,304,51095,2,0,P|499:251|502:206,1,83.9999974365235,12|0,0:0|0:0,0:0:0:0:
452,38,51277,5,8,0:0:0:0:
416,18,51368,1,8,0:0:0:0:
328,69,51458,2,0,P|246:77|145:73,1,167.999994873047,6|8,0:0|0:0,0:0:0:0:
32,56,51731,5,2,0:0:0:0:
83,113,51822,1,0,0:0:0:0:
37,164,51913,1,8,0:0:0:0:
66,200,52004,1,6,0:0:0:0:
48,236,52095,1,0,0:0:0:0:
56,262,52186,1,2,0:0:0:0:
51,281,52277,1,0,0:0:0:0:
67,362,52368,6,0,B|119:342|140:283|140:283|149:312|174:330,1,167.999994873047,6|8,0:0|0:0,0:0:0:0:
327,384,52640,2,0,P|328:331|331:286,1,83.9999974365235,2|0,0:0|0:0,0:0:0:0:
288,129,52822,1,8,0:0:0:0:
211,164,52913,2,0,P|213:205|213:247,1,83.9999974365235,6|0,0:0|0:0,0:0:0:0:
416,299,53095,5,12,0:0:0:0:
406,280,53186,1,0,0:0:0:0:
441,201,53277,1,8,0:0:0:0:
442,184,53368,1,8,0:0:0:0:
382,122,53458,6,0,P|427:93|528:153,1,167.999994873047,6|0,0:0|0:0,0:0:0:0:
321,55,53731,1,2,0:0:0:0:
288,129,53822,2,0,P|236:134|194:134,1,83.9999974365235,12|0,0:0|0:0,0:0:0:0:
138,37,54004,2,0,P|179:41|221:42,1,83.9999974365235,2|0,0:0|0:0,0:0:0:0:
99,107,54186,5,12,0:0:0:0:
85,123,54277,1,0,0:0:0:0:
101,137,54368,1,2,0:0:0:0:
115,120,54458,1,0,0:0:0:0:
10,160,54549,6,0,P|50:199|84:239,1,83.9999974365235,6|0,0:0|0:0,0:0:0:0:
65,383,54731,2,0,P|79:327|96:278,1,83.9999974365235,8|2,0:0|0:0,0:0:0:0:
231,224,54913,2,0,P|176:239|124:248,1,83.9999974365235,0|8,0:0|0:0,0:0:0:0:
221,42,55095,6,0,P|278:79|306:190,1,167.999994873047,6|8,0:0|0:0,0:0:0:0:
397,79,55368,1,0,0:0:0:0:
410,157,55458,2,0,P|426:206|458:249,1,83.9999974365235,8|8,0:0|0:0,0:0:0:0:
461,6,55640,6,0,B|362:-1|408:77|280:56,1,167.999994873047,6|8,0:0|0:0,0:0:0:0:
140,0,55913,1,0,0:0:0:0:
174,70,56004,2,0,P|179:122|179:164,1,83.9999974365235,8|0,0:0|0:0,0:0:0:0:
70,275,56186,6,0,P|69:233|64:191,1,83.9999974365235,6|0,0:0|0:0,0:0:0:0:
201,322,56368,2,0,P|201:280|206:238,1,83.9999974365235,8|0,0:0|0:0,0:0:0:0:
460,286,56549,6,0,P|385:304|292:294,1,167.999994873047,6|0,0:0|0:0,0:0:0:0:
328,163,56821,1,8,0:0:0:0:
408,134,56912,2,0,P|412:175|413:217,1,83.9999974365235,0|0,0:0|0:0,0:0:0:0:
251,135,57094,6,0,P|263:79|376:45,1,167.999994873047,6|0,0:0|0:0,0:0:0:0:
326,181,57367,1,8,0:0:0:0:
255,217,57458,2,0,P|196:214|159:206,1,83.9999974365235,0|0,0:0|0:0,0:0:0:0:
65,117,57639,6,0,P|73:198|77:295,1,167.999994873047,6|0,0:0|0:0,0:0:0:0:
159,225,57912,1,12,0:0:0:0:
177,306,58003,2,0,P|202:342|259:373,1,83.9999974365235,0|0,0:0|0:0,0:0:0:0:
440,247,58185,6,0,B|343:235|371:315|256:293,1,167.999994873047,6|2,0:0|0:0,0:0:0:0:
233,171,58458,1,0,0:0:0:0:
298,122,58549,2,0,P|317:164|311:207,1,83.9999974365235,0|0,0:0|0:0,0:0:0:0:
55,234,58730,6,0,P|103:214|147:219,1,83.9999974365235,6|0,0:0|0:0,0:0:0:0:
230,384,58912,1,8,0:0:0:0:
309,368,59003,2,0,P|309:267|315:174,1,167.999994873047,6|8,0:0|0:0,0:0:0:0:
476,53,59276,6,0,P|476:103|484:159,1,83.9999974365235,6|0,0:0|0:0,0:0:0:0:
398,261,59458,2,0,P|402:219|401:177,1,83.9999974365235,8|0,0:0|0:0,0:0:0:0:
304,100,59639,5,8,0:0:0:0:
313,63,59730,1,8,0:0:0:0:
217,0,59821,2,0,P|221:83|220:167,1,167.999994873047,6|8,0:0|0:0,0:0:0:0:
60,206,60094,1,2,0:0:0:0:
40,195,60185,2,0,P|42:147|47:98,1,83.9999974365235,0|8,0:0|0:0,0:0:0:0:
138,158,60367,2,0,P|136:206|131:255,1,83.9999974365235,6|0,0:0|0:0,0:0:0:0:
24,349,60549,5,8,0:0:0:0:
56,325,60639,1,0,0:0:0:0:
148,369,60730,6,0,P|194:374|245:369,1,83.9999974365235,6|0,0:0|0:0,0:0:0:0:
286,304,60911,1,8,0:0:0:0:
362,334,61002,2,0,P|371:233|371:144,1,167.999994873047,2|8,0:0|0:0,0:0:0:0:
130,72,61275,6,0,B|213:58|205:137|304:122,1,167.999994873047,6|8,0:0|0:0,0:0:0:0:
397,65,61548,1,0,0:0:0:0:
343,0,61639,2,0,P|299:11|267:41,1,83.9999974365235,2|0,0:0|0:0,0:0:0:0:
271,238,61820,6,0,P|338:230|397:142,1,167.999994873047,12|0,0:0|0:0,0:0:0:0:
261,144,62093,1,0,0:0:0:0:
192,192,62184,2,0,P|117:201|0:191,1,167.999994873047,12|2,0:0|0:0,0:0:0:0:
165,11,62457,1,0,0:0:0:0:
177,25,62548,2,0,P|185:69|187:115,1,83.9999974365235,12|0,0:0|0:0,0:0:0:0:
275,152,62730,2,0,P|277:110|285:68,1,83.9999974365235,2|0,0:0|0:0,0:0:0:0:
477,294,62911,6,0,P|437:303|386:291,1,83.9999974365235,6|0,0:0|0:0,0:0:0:0:
471,144,63093,2,0,P|498:174|513:224,1,83.9999974365235,8|2,0:0|0:0,0:0:0:0:
344,224,63275,2,0,P|356:184|392:146,1,83.9999974365235,0|8,0:0|0:0,0:0:0:0:
474,312,63457,6,0,B|390:337|393:281|310:315,1,167.999994873047,6|12,0:0|0:0,0:0:0:0:
203,379,63730,1,0,0:0:0:0:
147,322,63820,2,0,P|142:276|141:218,1,83.9999974365235,8|8,0:0|0:0,0:0:0:0:
293,60,64002,6,0,P|277:120|157:152,1,167.999994873047,6|8,0:0|0:0,0:0:0:0:
98,19,64275,1,0,0:0:0:0:
140,0,64366,2,0,P|191:14|216:36,1,83.9999974365235,8|0,0:0|0:0,0:0:0:0:
31,192,64548,6,0,P|31:142|23:86,1,83.9999974365235,6|0,0:0|0:0,0:0:0:0:
140,238,64730,2,0,P|140:188|148:132,1,83.9999974365235,12|0,0:0|0:0,0:0:0:0:
0,281,64911,6,0,B|93:262|72:344|171:330,1,167.999994873047,6|8,0:0|0:0,0:0:0:0:
286,225,65183,2,0,P|207:197|129:259,1,167.999994873047,2|0,0:0|0:0,0:0:0:0:
241,364,65456,1,8,0:0:0:0:
259,360,65547,1,8,0:0:0:0:
278,357,65638,1,0,0:0:0:0:
297,353,65729,1,8,0:0:0:0:
379,374,65820,6,0,P|381:325|388:278,1,83.9999974365235,8|0,0:0|0:0,0:0:0:0:
308,66,66001,6,0,P|314:141|317:277,2,167.999994873047,6|8|8,0:0|0:0|0:0,0:0:0:0:
422,31,66456,1,0,0:0:0:0:
502,95,66547,2,0,P|505:53|511:11,1,83.9999974365235,12|0,0:0|0:0,0:0:0:0:
327,116,66729,2,0,P|323:74|317:32,1,83.9999974365235,8|0,0:0|0:0,0:0:0:0:
472,170,66911,2,0,P|475:128|481:86,1,83.9999974365235,8|0,0:0|0:0,0:0:0:0:
194,106,67092,6,0,P|138:117|107:115,1,83.9999974365235,6|0,0:0|0:0,0:0:0:0:
35,26,67274,1,8,0:0:0:0:
16,110,67365,2,0,P|18:158|23:198,1,83.9999974365235,2|0,0:0|0:0,0:0:0:0:
20,11,67547,5,8,0:0:0:0:
1,95,67638,2,0,P|2:148|20:276,1,167.999994873047,2|12,0:0|0:0,0:0:0:0:
105,201,67911,1,0,0:0:0:0:
119,224,68001,2,0,P|159:243|207:246,1,83.9999974365235,8|8,0:0|0:0,0:0:0:0:
312,70,68183,6,0,P|239:78|179:176,1,167.999994873047,6|8,0:0|0:0,0:0:0:0:
386,224,68456,2,0,P|399:188|407:123,1,83.9999974365235,2|0,0:0|0:0,0:0:0:0:
293,196,68638,1,8,0:0:0:0:
317,271,68729,2,0,P|341:300|393:339,1,83.9999974365235,6|0,0:0|0:0,0:0:0:0:
291,185,68911,5,2,0:0:0:0:
261,176,69001,1,0,0:0:0:0:
188,255,69092,2,0,P|131:268|12:261,1,167.999994873047,6|8,0:0|0:0,0:0:0:0:
137,88,69364,2,0,P|149:127|153:189,1,83.9999974365235,2|0,0:0|0:0,0:0:0:0:
90,16,69546,5,8,0:0:0:0:
151,73,69637,2,0,P|163:112|167:174,1,83.9999974365235,6|0,0:0|0:0,0:0:0:0:
31,182,69819,2,0,P|35:140|47:100,1,83.9999974365235,12|0,0:0|0:0,0:0:0:0:
223,27,70001,5,8,0:0:0:0:
246,33,70092,1,8,0:0:0:0:
339,12,70182,2,0,P|336:54|332:116,1,83.9999974365235,6|0,0:0|0:0,0:0:0:0:
237,214,70364,2,0,P|274:195|330:168,1,83.9999974365235,0|2,0:0|0:0,0:0:0:0:
462,201,70546,2,0,P|427:177|375:142,1,83.9999974365235,12|0,0:0|0:0,0:0:0:0:
214,133,70728,5,2,0:0:0:0:
174,152,70818,1,0,0:0:0:0:
146,186,70909,1,12,0:0:0:0:
134,228,71000,1,0,0:0:0:0:
138,272,71091,1,2,0:0:0:0:
160,310,71182,1,0,0:0:0:0:
238,362,71273,6,0,P|283:347|339:347,1,83.9999974365235,6|0,0:0|0:0,0:0:0:0:
478,287,71455,2,0,P|433:272|377:272,1,83.9999974365235,8|2,0:0|0:0,0:0:0:0:
237,214,71637,2,0,P|282:199|338:199,1,83.9999974365235,0|0,0:0|0:0,0:0:0:0:
482,168,71819,6,0,P|486:88|495:-12,1,167.999994873047,6|8,0:0|0:0,0:0:0:0:
377,23,72092,1,0,0:0:0:0:
377,103,72182,2,0,P|328:113|273:112,1,83.9999974365235,8|8,0:0|0:0,0:0:0:0:
97,16,72364,6,0,P|166:34|203:144,2,167.999994873047,6|8|8,0:0|0:0|0:0,0:0:0:0:
2,95,72819,1,0,0:0:0:0:
54,184,72910,2,0,P|62:268|63:376,1,167.999994873047,6|8,0:0|0:0,0:0:0:0:
156,241,73182,1,0,0:0:0:0:
215,305,73273,6,0,P|280:319|380:314,1,167.999994873047,6|0,0:0|0:0,0:0:0:0:
357,135,73545,1,8,0:0:0:0:
276,151,73636,2,0,P|266:211|264:267,1,83.9999974365235,0|0,0:0|0:0,0:0:0:0:
452,139,73818,6,0,P|445:65|350:-10,1,167.999994873047,6|0,0:0|0:0,0:0:0:0:
356,158,74091,1,8,0:0:0:0:
416,219,74182,2,0,B|460:235|460:235|522:227,1,83.9999974365235,0|0,0:0|0:0,0:0:0:0:
215,305,74363,6,0,B|112:283|141:371|17:327,1,167.999994873047,6|0,0:0|0:0,0:0:0:0:
17,235,74636,1,8,0:0:0:0:
83,169,74727,2,0,P|94:219|88:267,1,83.9999974365235,0|0,0:0|0:0,0:0:0:0:
204,203,74909,2,0,P|202:161|212:120,1,83.9999974365235,6|0,0:0|0:0,0:0:0:0:
342,19,75091,5,2,0:0:0:0:
409,56,75182,1,0,0:0:0:0:
370,125,75273,1,0,0:0:0:0:
302,86,75363,1,0,0:0:0:0:
423,47,75454,6,0,P|418:127|416:249,1,167.999994873047,6|8,0:0|0:0,0:0:0:0:
294,266,75727,2,0,P|292:182|286:98,1,167.999994873047,6|8,0:0|0:0,0:0:0:0:
193,294,76000,6,0,B|102:288|111:355|15:337,1,167.999994873047,6|8,0:0|0:0,0:0:0:0:
6,206,76273,1,0,0:0:0:0:
76,151,76363,2,0,B|88:193|88:193|80:256,1,83.9999974365235,8|8,0:0|0:0,0:0:0:0:
0,50,76545,6,0,P|79:61|191:55,1,167.999994873047,6|8,0:0|0:0,0:0:0:0:
353,0,76818,2,0,P|291:-5|257:99,1,167.999994873047,2|8,0:0|0:0,0:0:0:0:
405,136,77091,2,0,P|414:96|415:47,1,83.9999974365235,6|0,0:0|0:0,0:0:0:0:
298,143,77272,1,8,0:0:0:0:
308,166,77363,1,0,0:0:0:0:
377,227,77454,6,0,P|446:225|511:145,1,167.999994873047,6|8,0:0|0:0,0:0:0:0:
296,187,77726,2,0,P|288:225|288:301,1,83.9999974365235,2|0,0:0|0:0,0:0:0:0:
168,366,77908,1,8,0:0:0:0:
165,284,77999,2,0,P|162:242|154:200,1,83.9999974365235,6|0,0:0|0:0,0:0:0:0:
77,129,78181,2,0,P|68:170|66:212,1,83.9999974365235,8|0,0:0|0:0,0:0:0:0:
207,102,78363,5,2,0:0:0:0:
234,93,78454,1,0,0:0:0:0:
308,166,78544,2,0,B|405:161|370:240|476:233,1,167.999994873047,12|0,0:0|0:0,0:0:0:0:
512,106,78817,1,0,0:0:0:0:
436,42,78908,2,0,P|432:97|432:145,1,83.9999974365235,12|0,0:0|0:0,0:0:0:0:
315,84,79090,2,0,P|314:42|310:0,1,83.9999974365235,2|0,0:0|0:0,0:0:0:0:
183,27,79272,2,0,P|184:68|184:110,1,83.9999974365235,12|0,0:0|0:0,0:0:0:0:
208,184,79454,1,2,0:0:0:0:
116,255,79544,5,0,0:0:0:0:
116,255,79635,2,0,P|161:256|223:274,1,83.9999974365235,6|0,0:0|0:0,0:0:0:0:
324,154,79817,2,0,P|300:192|254:237,1,83.9999974365235,8|2,0:0|0:0,0:0:0:0:
308,384,79999,2,0,P|286:344|270:281,1,83.9999974365235,0|8,0:0|0:0,0:0:0:0:
307,71,80181,6,0,P|372:83|419:193,1,167.999994873047,6|12,0:0|0:0,0:0:0:0:
353,281,80454,1,0,0:0:0:0:
274,307,80544,2,0,P|269:243|275:208,1,83.9999974365235,8|8,0:0|0:0,0:0:0:0:
463,160,80726,6,0,P|458:236|457:347,1,167.999994873047,6|8,0:0|0:0,0:0:0:0:
288,384,80999,1,0,0:0:0:0:
257,314,81090,2,0,P|252:250|258:215,1,83.9999974365235,8|0,0:0|0:0,0:0:0:0:
58,368,81272,6,0,P|50:324|35:276,1,83.9999974365235,6|0,0:0|0:0,0:0:0:0:
164,384,81454,2,0,P|164:339|170:289,1,83.9999974365235,12|0,0:0|0:0,0:0:0:0:
40,102,81635,6,0,B|129:95|103:179|200:183,1,167.999994873047,6|8,0:0|0:0,0:0:0:0:
306,59,81907,1,2,0:0:0:0:
208,17,81998,2,0,P|202:62|207:110,1,83.9999974365235,8|0,0:0|0:0,0:0:0:0:
321,155,82180,5,8,0:0:0:0:
331,184,82271,1,8,0:0:0:0:
274,238,82362,1,0,0:0:0:0:
275,265,82453,1,8,0:0:0:0:
355,295,82544,6,0,P|405:304|440:318,1,83.9999974365235,8|0,0:0|0:0,0:0:0:0:
246,352,82725,6,0,P|165:361|70:350,2,167.999994873047,6|8|8,0:0|0:0|0:0,0:0:0:0:
277,156,83180,1,0,0:0:0:0:
243,150,83271,6,0,P|240:99|235:59,1,83.9999974365235,12|0,0:0|0:0,0:0:0:0:
421,186,83453,2,0,P|424:135|429:95,1,83.9999974365235,8|0,0:0|0:0,0:0:0:0:
203,218,83635,2,0,P|200:167|195:127,1,83.9999974365235,8|0,0:0|0:0,0:0:0:0:
340,292,83816,5,0,0:0:0:0:
339,309,84907,1,0,0:0:0:0:
338,326,85998,6,0,P|344:277|356:231,1,83.9999974365235,6|0,0:0|0:0,0:0:0:0:
260,120,86180,1,8,0:0:0:0:
192,191,86271,2,0,B|105:162|107:241|2:212,1,167.999994873047,2|8,0:0|0:0,0:0:0:0:
0,49,86544,1,2,0:0:0:0:
14,59,86635,2,0,P|54:98|63:141,1,83.9999974365235,0|12,0:0|0:0,0:0:0:0:
175,89,86816,1,0,0:0:0:0:
185,74,86907,2,0,P|211:41|249:25,1,83.9999974365235,8|8,0:0|0:0,0:0:0:0:
368,213,87089,2,0,P|309:211|258:206,1,83.9999974365235,6|0,0:0|0:0,0:0:0:0:
386,74,87271,5,8,0:0:0:0:
411,82,87361,1,0,0:0:0:0:
476,145,87453,2,0,P|470:204|472:252,1,83.9999974365235,8|0,0:0|0:0,0:0:0:0:
359,304,87635,2,0,P|358:262|353:220,1,83.9999974365235,8|0,0:0|0:0,0:0:0:0:
132,157,87816,5,8,0:0:0:0:
79,216,87907,1,0,0:0:0:0:
139,269,87998,1,8,0:0:0:0:
191,209,88089,1,0,0:0:0:0:
59,209,88180,6,0,P|62:271|61:308,1,90,6|0,0:0|0:0,0:0:0:0:
53,384,88544,5,12,0:0:0:0:
79,369,88634,1,0,0:0:0:0:
110,367,88725,1,0,0:0:0:0:
139,376,88816,1,8,0:0:0:0:
201,323,88907,5,0,0:0:0:0:
267,352,88997,1,0,0:0:0:0:
339,348,89088,1,8,0:0:0:0:
402,311,89179,1,0,0:0:0:0:
482,380,89271,6,0,P|483:335|489:281,1,90,6|0,0:0|0:0,0:0:0:0:
509,154,89635,5,8,0:0:0:0:
480,143,89725,1,8,0:0:0:0:
469,172,89816,1,8,0:0:0:0:
498,183,89907,1,8,0:0:0:0:
502,57,89998,5,8,0:0:0:0:
422,64,90088,1,8,0:0:0:0:
371,124,90179,1,8,0:0:0:0:
377,204,90270,1,8,0:0:0:0:
460,263,90362,6,0,P|461:105|462:71,1,180.000006866455,6|8,0:0|0:0,0:0:0:0:
288,110,90635,2,0,P|289:199|289:289,1,180.000006866455,6|8,0:0|0:0,0:0:0:0:
477,277,90907,6,0,P|478:119|479:85,1,180.000006866455,6|8,0:0|0:0,0:0:0:0:
305,124,91180,2,0,P|306:213|306:303,1,180.000006866455,6|8,0:0|0:0,0:0:0:0:
80,116,91453,6,0,P|130:122|189:123,1,90.0000034332277,6|0,0:1|0:0,0:0:0:0:
218,254,91635,1,8,0:0:0:0:
153,311,91725,2,0,P|108:305|64:304,1,90.0000034332277,6|0,0:0|0:0,0:0:0:0:
7,159,91907,5,8,0:0:0:0:
71,101,91998,2,0,P|115:106|160:108,1,90.0000034332277,6|0,0:0|0:0,0:0:0:0:
207,235,92180,5,8,0:0:0:0:
144,296,92271,6,0,P|94:290|35:289,2,90.0000034332277,6|0|2,0:0|0:0|0:0,0:0:0:0:
196,213,92544,6,0,P|248:216|273:216,1,60,6|0,0:1|0:0,0:0:0:0:
363,96,92816,6,0,P|313:113|286:166,1,90.0000034332277,2|4,0:0|0:0,0:0:0:0:
360,300,92998,1,0,0:0:0:0:
443,278,93089,6,0,P|420:237|375:212,1,90.0000034332277,2|0,0:0|0:0,0:0:0:0:
334,384,93271,2,0,P|381:384|425:358,1,90.0000034332277,12|0,0:0|0:0,0:0:0:0:
296,236,93453,2,0,P|271:276|272:327,1,90.0000034332277,0|0,0:0|0:0,0:0:0:0:
460,274,93635,5,2,0:0:0:0:
445,238,93725,2,0,P|417:210|384:197,1,60,12|2,0:0|0:0,0:0:0:0:
262,106,93998,5,4,0:0:0:0:
281,73,94089,1,0,0:0:0:0:
178,6,94180,2,0,P|180:30|180:53,1,30,2|0,0:0|0:0,0:0:0:0:
85,116,94362,2,0,P|131:117|175:119,1,90,12|0,0:0|0:0,0:0:0:0:
255,139,94725,6,0,P|246:194|243:255,1,90.0000034332277,6|0,0:0|0:0,0:0:0:0:
55,198,94907,2,0,P|1:156|-12:120,1,90.0000034332277,2|0,0:0|0:0,0:0:0:0:
180,35,95089,1,12,0:0:0:0:
161,105,95180,1,2,0:0:0:0:
237,146,95271,2,0,P|228:201|225:262,1,90.0000034332277,0|0,0:0|0:0,0:0:0:0:
394,245,95453,6,0,P|372:192|333:164,1,90,12|0,0:0|0:0,0:0:0:0:
353,346,95816,6,0,P|402:348|454:352,1,90.0000034332277,6|0,0:0|0:0,0:0:0:0:
455,153,95998,2,0,P|410:154|365:157,1,90.0000034332277,8|0,0:0|0:0,0:0:0:0:
341,363,96180,2,0,P|385:364|430:367,1,90.0000034332277,6|0,0:0|0:0,0:0:0:0:
312,255,96362,6,0,B|276:288|276:288|261:342,1,90.0000034332277,8|8,0:0|0:0,0:0:0:0:
78,362,96544,5,8,0:0:0:0:
86,282,96635,1,2,0:0:0:0:
135,232,96725,1,2,0:0:0:0:
166,220,96816,1,2,0:0:0:0:
199,228,96907,6,0,P|147:256|45:236,1,143.999995605469,6|8,0:0|0:0,0:0:0:0:
200,132,97180,1,0,0:0:0:0:
225,148,97271,2,0,P|260:163|308:170,1,71.9999978027344,6|0,0:0|0:0,0:0:0:0:
309,16,97453,2,0,B|289:52|289:52|290:106,1,71.9999978027344,8|0,0:0|0:0,0:0:0:0:
385,123,97635,1,8,0:0:0:0:
395,112,97725,1,8,0:0:0:0:
385,102,97816,1,4,0:0:0:0:
374,112,97907,1,0,0:0:0:0:
427,186,97998,6,0,P|433:97|439:33,1,143.999995605469,6|0,0:0|0:0,0:0:0:0:
293,169,98271,1,0,0:0:0:0:
311,188,98362,2,0,P|317:259|322:331,1,143.999995605469,6|8,0:0|0:0,0:0:0:0:
473,356,98635,5,8,0:0:0:0:
456,333,98725,2,0,P|398:311|299:351,1,143.999995605469,8|2,0:0|0:0,0:0:0:0:
227,244,98998,1,2,0:0:0:0:
153,323,99089,6,0,P|98:347|16:336,1,143.999995605469,6|8,0:0|0:0,0:0:0:0:
209,235,99362,2,0,P|257:270|289:346,1,143.999995605469,6|8,0:0|0:0,0:0:0:0:
119,225,99635,2,0,P|125:165|175:99,1,143.999995605469,6|8,0:0|0:0,0:0:0:0:
308,60,99907,1,6,0:0:0:0:
315,80,99998,1,0,0:0:0:0:
294,155,100089,1,8,0:0:0:0:
311,176,100180,2,0,P|308:223|308:276,1,71.9999978027344,6|0,0:0|0:0,0:0:0:0:
128,240,100362,5,8,0:0:0:0:
93,325,100453,2,0,P|27:318|-27:261,1,143.999995605469,6|8,0:0|0:0,0:0:0:0:
67,102,100725,2,0,P|72:146|71:196,1,71.9999978027344,6|0,0:0|0:0,0:0:0:0:
198,190,100907,5,8,0:0:0:0:
201,172,100998,1,6,0:0:0:0:
166,104,101089,1,2,0:0:0:0:
161,85,101180,1,2,0:0:0:0:
200,9,101271,6,0,P|197:92|196:177,2,143.999995605469,6|2|2,0:0|0:0|0:0,0:0:0:0:
288,98,101907,1,0,0:0:0:0:
296,114,101998,2,0,P|331:129|359:134,1,48,12|0,0:0|0:0,0:0:0:0:
404,33,102180,2,0,P|369:48|341:53,1,48,4|0,0:0|0:0,0:0:0:0:
424,260,102362,6,0,P|422:188|420:116,2,143.999995605469,6|2|2,0:0|0:0|0:0,0:0:0:0:
319,227,102998,1,0,0:0:0:0:
310,211,103089,2,0,P|274:197|246:193,1,48,12|0,0:0|0:0,0:0:0:0:
205,296,103271,2,0,P|239:279|267:273,1,48,4|0,0:0|0:0,0:0:0:0:
130,370,103453,6,0,P|127:331|123:307,1,48,4|0,0:0|0:0,0:0:0:0:
30,267,103635,2,0,P|27:290|25:314,1,48,2|0,0:0|0:0,0:0:0:0:
135,241,103816,1,4,0:0:0:0:
128,213,103907,2,0,P|125:189|123:165,1,48,2|0,0:0|0:0,0:0:0:0:
162,83,104089,1,2,0:0:0:0:
217,143,104180,6,0,P|269:161|366:154,1,144,12|8,0:0|0:0,0:0:0:0:
356,28,104544,6,0,P|353:52|345:87,1,48,6|0,0:0|0:0,0:0:0:0:
443,59,104725,2,0,P|446:83|454:118,1,48,8|0,0:0|0:0,0:0:0:0:
333,30,104907,2,0,P|330:54|322:89,1,48,6|0,0:0|0:0,0:0:0:0:
347,176,105089,5,8,0:0:0:0:
392,214,105180,1,8,0:0:0:0:
353,255,105271,1,8,0:0:0:0:
376,272,105362,1,2,0:0:0:0:
358,306,105453,1,2,0:0:0:0:
365,331,105544,1,2,0:0:0:0:
369,350,105635,6,0,P|368:249|369:179,2,143.999995605469,4|8|8,0:0|0:0|0:0,0:0:0:0:
279,299,106725,2,0,P|235:292|140:330,1,143.999995605469,8|8,0:0|0:0,0:0:0:0:
93,257,107271,1,0,0:0:0:0:
11,337,107453,2,0,P|8:271|4:241,1,71.9999978027344,8|0,0:0|0:0,0:0:0:0:
128,105,107816,6,0,P|121:159|119:264,1,143.999995605469,4|8,0:0|0:0,0:0:0:0:
228,175,108362,1,0,0:0:0:0:
323,270,108544,1,8,0:0:0:0:
228,144,108725,1,0,0:0:0:0:
355,185,108907,2,0,P|413:189|496:159,1,143.999995605469,8|8,0:0|0:0,0:0:0:0:
369,86,109453,5,0,0:0:0:0:
337,175,109635,1,8,0:0:0:0:
305,265,109816,1,0,0:0:0:0:
424,295,109998,6,0,P|415:233|333:181,2,143.999995605469,4|8|8,0:0|0:0|0:0,0:0:0:0:
473,172,110907,1,0,0:0:0:0:
293,276,111089,6,0,P|241:279|202:279,1,71.9999978027344,8|0,0:0|0:0,0:0:0:0:
191,189,111453,2,0,P|243:192|282:192,1,71.9999978027344,8|0,0:0|0:0,0:0:0:0:
293,102,111816,2,0,P|241:105|202:105,1,71.9999978027344,8|2,0:0|0:0,0:0:0:0:
401,23,112180,5,4,0:0:0:0:
318,100,112362,1,0,0:0:0:0:
410,149,112544,1,8,0:0:0:0:
315,210,112725,1,0,0:0:0:0:
421,274,112907,1,8,0:0:0:0:
298,356,113089,1,0,0:0:0:0:
367,35,113271,6,0,P|361:107|356:179,1,143.999995605469,12|0,0:0|0:0,0:0:0:0:
274,88,113816,1,2,0:0:0:0:
216,192,113998,1,0,0:0:0:0:
145,75,114180,2,0,P|146:103|145:131,1,35.9999989013672,0|0,0:0|0:0,0:0:0:0:
70,150,114362,2,0,B|155:137|127:205|223:199,1,143.999995605469,4|8,0:0|0:0,0:0:0:0:
274,109,114907,1,0,0:0:0:0:
274,239,115089,1,8,0:0:0:0:
393,183,115271,1,0,0:0:0:0:
273,86,115453,6,0,P|335:97|432:92,1,143.999995605469,8|8,0:0|0:0,0:0:0:0:
501,15,115998,1,0,0:0:0:0:
450,118,116180,1,8,0:0:0:0:
512,213,116362,1,0,0:0:0:0:
408,354,116544,6,0,P|406:276|400:192,2,143.999995605469,4|8|8,0:0|0:0|0:0,0:0:0:0:
312,254,117453,1,0,0:0:0:0:
257,320,117635,2,0,P|207:331|103:331,1,143.999995605469,8|8,0:0|0:0,0:0:0:0:
42,276,118180,1,2,0:0:0:0:
198,222,118362,1,8,0:0:0:0:
152,106,118544,1,8,0:0:0:0:
274,31,118725,6,0,P|259:82|246:113,1,71.9999978027344,4|0,0:0|0:0,0:0:0:0:
355,122,119089,2,0,P|316:158|289:179,1,71.9999978027344,8|2,0:0|0:0,0:0:0:0:
379,241,119453,2,0,P|327:253|293:257,1,71.9999978027344,8|2,0:0|0:0,0:0:0:0:
40,186,119816,6,0,P|44:229|46:273,1,71.9999978027344,12|0,0:0|0:0,0:0:0:0:
104,127,120180,2,0,P|128:162|152:199,1,71.9999978027344,12|0,0:0|0:0,0:0:0:0:
130,45,120544,2,0,P|169:63|208:83,1,71.9999978027344,12|0,0:0|0:0,0:0:0:0:
364,103,120907,6,0,B|275:94|313:163|208:158,1,143.999995605469,12|4,0:0|0:0,0:0:0:0:
374,328,121453,2,0,P|361:268|358:174,1,143.999995605469,2|2,0:0|0:0,0:0:0:0:
474,176,121998,5,12,0:0:0:0:
273,283,122180,1,0,0:0:0:0:
476,307,122362,5,12,0:0:0:0:
270,154,122544,1,0,0:0:0:0:
495,164,122725,5,12,0:0:0:0:
259,298,122907,1,8,0:0:0:0:
489,325,123089,6,0,P|410:310|327:318,1,143.999995605469,6|8,0:0|0:0,0:0:0:0:
282,176,123362,1,0,0:0:0:0:
351,213,123453,2,0,P|398:224|437:224,1,71.9999978027344,0|0,0:0|0:0,0:0:0:0:
378,64,123635,2,0,P|356:104|351:136,1,71.9999978027344,8|0,0:0|0:0,0:0:0:0:
158,85,123816,6,0,P|187:143|202:233,1,143.999995605469,6|0,0:0|0:0,0:0:0:0:
26,330,124089,1,0,0:0:0:0:
44,234,124180,2,0,B|134:236|82:310|210:299,1,143.999995605469,6|0,0:0|0:0,0:0:0:0:
318,312,124453,1,0,0:0:0:0:
334,299,124544,2,0,P|338:219|344:128,2,143.999995605469,12|2|12,0:0|0:0|0:0,0:0:0:0:
318,312,125271,6,0,P|370:307|395:312,1,71.9999978027344,6|0,0:0|0:0,0:0:0:0:
248,259,125453,2,0,P|288:228|314:217,1,71.9999978027344,8|0,0:0|0:0,0:0:0:0:
197,347,125635,5,6,0:0:0:0:
184,329,125725,1,0,0:0:0:0:
164,277,125816,2,0,P|159:231|160:197,1,71.9999978027344,8|0,0:0|0:0,0:0:0:0:
313,75,125998,2,0,P|311:148|306:227,1,143.999995605469,6|8,0:0|0:0,0:0:0:0:
172,101,126271,5,8,0:0:0:0:
100,144,126362,2,0,P|44:153|-4:89,1,120,6|0,0:0|0:0,0:0:0:0:
135,22,126635,1,0,0:0:0:0:
175,88,126725,2,0,P|177:134|176:172,1,60,12|0,0:0|0:0,0:0:0:0:
277,231,126907,2,0,P|277:195|279:171,1,60,2|0,0:0|0:0,0:0:0:0:
298,58,127089,6,0,P|343:67|393:68,1,90,12|2,0:0|0:0,0:0:0:0:
475,158,127453,6,0,P|477:121|479:90,1,60,6|0,0:0|0:0,0:0:0:0:
374,214,127635,2,0,P|372:177|370:146,1,60,8|0,0:0|0:0,0:0:0:0:
486,176,127816,6,0,P|488:139|490:108,1,60,6|0,0:0|0:0,0:0:0:0:
364,228,127998,2,0,P|362:191|360:160,1,60,8|0,0:0|0:0,0:0:0:0:
497,194,128180,6,0,P|499:157|501:126,1,60,6|0,0:0|0:0,0:0:0:0:
403,312,128362,2,0,P|360:320|326:313,1,60,8|8,0:0|0:0,0:0:0:0:
178,242,128544,6,0,P|228:232|276:247,1,77.9999964294435,6|0,0:0|0:0,0:0:0:0:
260,340,128725,2,0,P|210:350|162:335,1,77.9999964294435,0|2,0:0|0:0,0:0:0:0:
175,226,128907,6,0,P|225:216|273:231,1,77.9999964294435,12|0,0:0|0:0,0:0:0:0:
258,352,129089,2,0,P|208:362|160:347,1,77.9999964294435,2|0,0:0|0:0,0:0:0:0:
172,210,129271,6,0,P|222:200|270:215,1,77.9999964294435,12|0,0:0|0:0,0:0:0:0:
93,357,129453,2,0,P|89:308|84:274,1,77.9999964294435,0|0,0:0|0:0,0:0:0:0:
16,122,129635,6,0,P|11:195|4:238,1,90,12|0,0:0|0:0,0:0:0:0:
120,143,129998,5,8,0:0:0:0:
117,122,130088,1,8,0:0:0:0:
116,101,130179,1,8,0:0:0:0:
115,80,130270,1,8,0:0:0:0:
226,100,130362,5,8,0:0:0:0:
226,123,130453,1,8,0:0:0:0:
201,121,130544,1,8,0:0:0:0:
201,97,130635,1,8,0:0:0:0:
292,41,130725,5,8,0:0:0:0:
311,78,130816,1,8,0:0:0:0:
317,119,130907,1,8,0:0:0:0:
305,159,130998,1,8,0:0:0:0:
251,216,131089,5,8,0:0:0:0:
226,261,131179,1,8,0:0:0:0:
235,311,131270,1,8,0:0:0:0:
273,346,131361,1,8,0:0:0:0:
361,356,131453,5,8,0:0:0:0:
398,291,131544,5,8,0:0:0:0:
376,211,131635,5,8,0:0:0:0:
426,144,131725,5,8,0:0:0:0:
405,60,131816,5,0,0:0:0:0:
395,59,133998,6,0,P|316:51|206:27,1,167.999994873047,6|0,0:0|0:0,0:0:0:0:
131,0,134271,1,6,0:0:0:0:
165,82,134362,2,0,P|173:128|174:177,1,83.9999974365235,0|0,0:0|0:0,0:0:0:0:
0,244,134544,2,0,P|2:194|96:128,2,167.999994873047,2|0|0,0:0|0:0|0:0,0:0:0:0:
132,384,134998,5,0,0:0:0:0:
202,338,135089,2,0,P|205:286|210:249,1,83.9999974365235,6|0,0:0|0:0,0:0:0:0:
53,330,135271,2,0,P|83:363|131:379,1,83.9999974365235,0|0,0:0|0:0,0:0:0:0:
116,203,135453,2,0,P|121:244|123:286,1,83.9999974365235,4|0,0:0|0:0,0:0:0:0:
280,201,135635,2,0,B|366:188|353:268|446:261,1,167.999994873047,0|8,0:0|0:0,0:0:0:0:
504,84,135907,5,8,0:0:0:0:
421,0,135998,2,0,P|420:50|424:186,1,167.999994873047,6|0,0:0|0:0,0:0:0:0:
336,44,136270,1,6,0:0:0:0:
275,106,136361,2,0,P|220:112|182:109,1,83.9999974365235,0|0,0:0|0:0,0:0:0:0:
0,0,136543,6,0,P|67:15|109:114,2,167.999994873047,2|4|2,0:0|0:0|0:0,0:0:0:0:
0,235,136998,1,0,0:0:0:0:
76,179,137088,2,0,P|137:177|179:181,1,83.9999974365235,12|0,0:0|0:0,0:0:0:0:
283,129,137270,2,0,P|254:182|229:217,1,83.9999974365235,0|0,0:0|0:0,0:0:0:0:
221,332,137452,2,0,P|197:296|178:259,1,83.9999974365235,4|0,0:0|0:0,0:0:0:0:
95,160,137634,6,0,P|130:165|165:172,1,71.9999978027344,2|0,0:0|0:0,0:0:0:0:
288,155,137816,2,0,P|266:183|242:209,1,71.9999978027344,0|0,0:0|0:0,0:0:0:0:
195,324,137998,2,0,P|181:291|171:257,1,71.9999978027344,0|0,0:0|0:0,0:0:0:0:
466,251,138179,6,0,P|436:221|386:212,1,83.9999974365235,6|0,0:0|0:0,0:0:0:0:
395,384,138361,2,0,P|435:373|468:334,1,83.9999974365235,0|6,0:0|0:0,0:0:0:0:
315,256,138543,2,0,P|304:296|321:344,1,83.9999974365235,0|0,0:0|0:0,0:0:0:0:
479,262,138725,2,0,P|483:170|488:84,1,167.999994873047,2|4,0:0|0:0,0:0:0:0:
376,166,138998,1,0,0:0:0:0:
318,110,139088,2,0,P|252:92|226:91,1,83.9999974365235,2|0,0:0|0:0,0:0:0:0:
176,261,139270,6,0,P|243:264|262:154,1,167.999994873047,12|2,0:0|0:0,0:0:0:0:
125,154,139543,1,0,0:0:0:0:
90,225,139634,2,0,P|94:276|99:313,1,83.9999974365235,12|0,0:0|0:0,0:0:0:0:
324,384,139816,6,0,P|329:342|332:300,1,83.9999974365235,2|0,0:0|0:0,0:0:0:0:
187,384,139998,2,0,P|181:342|178:300,1,83.9999974365235,8|8,0:0|0:0,0:0:0:0:
205,107,140179,6,0,B|305:97|262:185|395:167,1,167.999994873047,6|0,0:0|0:0,0:0:0:0:
506,47,140451,1,2,0:0:0:0:
434,83,140542,2,0,P|434:127|441:178,1,83.9999974365235,0|0,0:0|0:0,0:0:0:0:
348,253,140724,6,0,P|413:253|517:222,1,167.999994873047,12|0,0:0|0:0,0:0:0:0:
507,27,140997,1,2,0:0:0:0:
432,0,141088,2,0,P|388:0|337:7,1,83.9999974365235,0|0,0:0|0:0,0:0:0:0:
152,184,141269,6,0,P|105:138|119:11,1,167.999994873047,6|0,0:0|0:0,0:0:0:0:
231,115,141542,1,2,0:0:0:0:
234,197,141633,2,0,P|226:242|223:304,1,83.9999974365235,0|0,0:0|0:0,0:0:0:0:
502,299,141815,6,0,P|461:284|413:284,1,83.9999974365235,6|0,0:0|0:0,0:0:0:0:
260,353,141997,1,12,0:0:0:0:
239,358,142087,1,0,0:0:0:0:
165,384,142179,1,2,0:0:0:0:
144,379,142269,1,2,0:0:0:0:
36,381,142360,6,0,P|32:328|27:287,1,83.9999974365235,6|0,0:0|0:0,0:0:0:0:
216,128,142542,2,0,P|213:201|109:238,1,167.999994873047,0|0,0:0|0:0,0:0:0:0:
17,118,142815,1,0,0:0:0:0:
87,61,142906,2,0,B|179:45|154:123|258:104,1,167.999994873047,2|0,0:0|0:0,0:0:0:0:
394,36,143179,1,0,0:0:0:0:
314,0,143269,2,0,P|319:45|322:95,1,83.9999974365235,0|0,0:0|0:0,0:0:0:0:
333,365,143451,6,0,B|371:328|381:257|381:257|407:282|428:287,2,167.999994873047,12|0|4,0:0|0:0|0:0,0:0:0:0:
267,239,143906,1,0,0:0:0:0:
220,305,143997,2,0,P|163:311|124:313,1,83.9999974365235,0|0,0:0|0:0,0:0:0:0:
79,177,144179,1,8,0:0:0:0:
99,192,144269,1,8,0:0:0:0:
56,284,144360,6,0,P|54:200|49:116,1,167.999994873047,6|0,0:0|0:0,0:0:0:0:
245,136,144632,2,0,P|238:188|235:236,1,83.9999974365235,6|0,0:0|0:0,0:0:0:0:
156,92,144814,1,0,0:0:0:0:
237,51,144905,2,0,B|321:36|307:126|404:108,1,167.999994873047,2|0,0:0|0:0,0:0:0:0:
500,14,145178,1,0,0:0:0:0:
468,96,145269,2,0,P|468:152|472:205,1,83.9999974365235,2|0,0:0|0:0,0:0:0:0:
286,285,145450,6,0,P|348:262|475:320,1,167.999994873047,12|0,0:0|0:0,0:0:0:0:
235,219,145723,1,0,0:0:0:0:
204,315,145814,2,0,P|142:292|15:350,1,167.999994873047,0|2,0:0|0:0,0:0:0:0:
22,158,146087,1,0,0:0:0:0:
97,199,146178,2,0,P|155:205|274:198,1,167.999994873047,12|0,0:0|0:0,0:0:0:0:
435,109,146450,5,0,0:0:0:0:
351,78,146541,2,0,P|353:133|378:175,1,83.9999974365235,6|0,0:0|0:0,0:0:0:0:
503,51,146723,2,0,P|454:25|405:25,1,83.9999974365235,0|6,0:0|0:0,0:0:0:0:
450,196,146905,2,0,P|496:166|520:124,1,83.9999974365235,0|0,0:0|0:0,0:0:0:0:
340,56,147087,2,0,P|337:114|396:242,1,167.999994873047,2|0,0:0|0:0,0:0:0:0:
481,316,147360,1,0,0:0:0:0:
414,362,147450,2,0,P|366:369|317:372,1,83.9999974365235,2|0,0:0|0:0,0:0:0:0:
217,178,147632,6,0,B|309:153|287:226|381:214,1,167.999994873047,12|0,0:0|0:0,0:0:0:0:
191,334,147905,1,0,0:0:0:0:
130,272,147996,2,0,P|132:225|130:173,1,83.9999974365235,12|0,0:0|0:0,0:0:0:0:
0,89,148178,6,0,P|38:90|91:133,1,83.9999974365235,0|0,0:0|0:0,0:0:0:0:
135,35,148360,1,8,0:0:0:0:
142,52,148450,1,8,0:0:0:0:
226,10,148541,2,0,P|222:74|216:189,1,167.999994873047,6|8,0:0|0:0,0:0:0:0:
406,192,148813,6,0,P|403:150|403:108,1,83.9999974365235,6|0,0:0|0:0,0:0:0:0:
307,231,148995,1,8,0:0:0:0:
322,253,149086,2,0,P|375:273|425:273,1,83.9999974365235,6|0,0:0|0:0,0:0:0:0:
325,132,149268,5,8,0:0:0:0:
307,143,149359,1,0,0:0:0:0:
226,209,149450,2,0,P|226:250|223:292,1,83.9999974365235,8|8,0:0|0:0,0:0:0:0:
16,289,149631,6,0,B|98:282|79:355|163:352,2,167.999994873047,6|2|0,0:0|0:0|0:0,0:0:0:0:
101,106,150086,1,0,0:0:0:0:
146,178,150177,2,0,P|142:232|145:286,1,83.9999974365235,8|8,0:0|0:0,0:0:0:0:
17,125,150359,2,0,P|21:179|18:233,1,83.9999974365235,8|2,0:0|0:0,0:0:0:0:
167,167,150541,2,0,P|163:221|166:275,1,83.9999974365235,2|2,0:0|0:0,0:0:0:0:
399,194,150722,6,0,P|392:128|386:97,1,83.9999974365235,6|0,0:0|0:0,0:0:0:0:
457,279,150904,5,8,0:0:0:0:
385,320,150995,2,0,P|334:322|291:316,1,83.9999974365235,2|0,0:0|0:0,0:0:0:0:
459,298,151177,5,8,0:0:0:0:
387,339,151268,2,0,P|336:341|293:335,1,83.9999974365235,2|0,0:0|0:0,0:0:0:0:
286,180,151450,5,12,0:0:0:0:
307,183,151541,1,0,0:0:0:0:
276,97,151631,1,8,0:0:0:0:
256,106,151722,1,8,0:0:0:0:
281,6,151813,6,0,P|341:22|385:133,1,167.999994873047,6|8,0:0|0:0,0:0:0:0:
470,74,152086,1,2,0:0:0:0:
512,149,152177,2,0,P|505:194|506:254,1,83.9999974365235,0|8,0:0|0:0,0:0:0:0:
272,16,152359,6,0,P|332:32|376:143,1,167.999994873047,6|2,0:0|0:0,0:0:0:0:
461,84,152632,1,0,0:0:0:0:
421,216,152722,6,0,B|320:192|352:284|231:266,1,167.999994873047,6|8,0:0|0:0,0:0:0:0:
138,184,152994,1,2,0:0:0:0:
163,186,153085,2,0,P|220:188|262:188,1,83.9999974365235,0|8,0:0|0:0,0:0:0:0:
69,280,153267,2,0,P|64:228|57:188,1,83.9999974365235,6|0,0:0|0:0,0:0:0:0:
176,350,153449,2,0,P|181:298|188:258,1,83.9999974365235,12|0,0:0|0:0,0:0:0:0:
147,51,153631,5,8,0:0:0:0:
167,59,153722,1,8,0:0:0:0:
247,41,153812,2,0,P|201:82|188:121,1,83.9999974365235,6|0,0:0|0:0,0:0:0:0:
350,77,153994,2,0,P|336:16|308:-13,1,83.9999974365235,0|0,0:0|0:0,0:0:0:0:
267,148,154176,2,0,P|324:166|366:157,1,83.9999974365235,12|0,0:0|0:0,0:0:0:0:
443,89,154358,6,0,P|438:139|438:191,1,83.9999974365235,2|0,0:0|0:0,0:0:0:0:
494,238,154540,1,12,0:0:0:0:
496,259,154631,1,0,0:0:0:0:
452,329,154722,2,0,P|402:324|350:324,1,83.9999974365235,0|0,0:0|0:0,0:0:0:0:
204,384,154903,6,0,P|233:334|250:300,1,83.9999974365235,6|0,0:0|0:0,0:0:0:0:
164,166,155085,2,0,P|191:216|212:248,1,83.9999974365235,8|2,0:0|0:0,0:0:0:0:
372,241,155267,2,0,P|314:240|276:241,1,83.9999974365235,0|8,0:0|0:0,0:0:0:0:
96,222,155449,2,0,P|68:166|117:68,1,167.999994873047,6|8,0:0|0:0,0:0:0:0:
270,163,155722,5,0,0:0:0:0:
341,113,155812,2,0,P|343:75|350:26,1,83.9999974365235,8|8,0:0|0:0,0:0:0:0:
186,0,155994,2,0,P|190:101|192:190,1,167.999994873047,6|8,0:0|0:0,0:0:0:0:
66,296,156267,1,0,0:0:0:0:
96,222,156358,2,0,P|139:240|174:287,1,83.9999974365235,8|0,0:0|0:0,0:0:0:0:
348,286,156540,6,0,P|349:244|351:202,1,83.9999974365235,6|0,0:0|0:0,0:0:0:0:
199,94,156722,2,0,P|202:145|203:185,1,83.9999974365235,8|0,0:0|0:0,0:0:0:0:
289,351,156903,6,0,P|366:371|444:329,1,167.999994873047,6|0,0:0|0:0,0:0:0:0:
270,221,157175,1,8,0:0:0:0:
201,268,157266,2,0,P|204:319|205:359,1,83.9999974365235,0|0,0:0|0:0,0:0:0:0:
376,196,157448,6,0,P|375:133|382:5,1,167.999994873047,6|0,0:0|0:0,0:0:0:0:
261,199,157721,1,8,0:0:0:0:
219,131,157812,2,0,P|164:123|126:125,1,83.9999974365235,0|0,0:0|0:0,0:0:0:0:
20,308,157993,6,0,P|70:299|119:178,1,167.999994873047,6|0,0:0|0:0,0:0:0:0:
66,68,158266,1,12,0:0:0:0:
2,126,158357,2,0,P|4:175|4:216,1,83.9999974365235,0|0,0:0|0:0,0:0:0:0:
198,351,158539,6,0,P|198:309|200:267,1,83.9999974365235,6|0,0:0|0:0,0:0:0:0:
331,164,158721,1,2,0:0:0:0:
368,230,158812,1,0,0:0:0:0:
298,268,158903,1,0,0:0:0:0:
261,199,158993,1,0,0:0:0:0:
389,240,159084,6,0,P|390:281|390:323,1,83.9999974365235,6|0,0:0|0:0,0:0:0:0:
491,223,159266,1,8,0:0:0:0:
412,152,159357,2,0,P|371:134|231:193,1,167.999994873047,6|8,0:0|0:0,0:0:0:0:
109,269,159630,5,6,0:0:0:0:
76,276,159720,1,0,0:0:0:0:
47,261,159811,1,8,0:0:0:0:
35,230,159902,1,0,0:0:0:0:
46,199,159993,1,8,0:0:0:0:
74,183,160084,1,8,0:0:0:0:
135,280,160175,6,0,P|89:301|31:298,1,83.9999974365235,6|0,0:0|0:0,0:0:0:0:
189,190,160357,5,8,0:0:0:0:
163,279,160448,2,0,P|126:314|71:331,1,83.9999974365235,2|0,0:0|0:0,0:0:0:0:
182,175,160630,5,8,0:0:0:0:
188,268,160721,2,0,P|165:313|119:348,1,83.9999974365235,6|0,0:0|0:0,0:0:0:0:
170,163,160902,5,8,0:0:0:0:
207,249,160993,1,0,0:0:0:0:
285,228,161084,6,0,P|294:162|296:124,1,83.9999974365235,6|0,0:0|0:0,0:0:0:0:
301,30,161265,1,8,0:0:0:0:
366,94,161356,2,0,P|422:127|522:104,1,167.999994873047,2|8,0:0|0:0,0:0:0:0:
235,84,161629,6,0,B|142:76|170:144|72:139,1,167.999994873047,6|8,0:0|0:0,0:0:0:0:
0,74,161902,1,0,0:0:0:0:
37,0,161993,2,0,B|75:19|75:19|98:65,1,83.9999974365235,2|0,0:0|0:0,0:0:0:0:
11,233,162174,6,0,P|77:242|103:260,1,83.9999974365235,12|0,0:0|0:0,0:0:0:0:
232,293,162356,2,0,P|166:302|140:320,1,83.9999974365235,0|0,0:0|0:0,0:0:0:0:
0,354,162538,2,0,P|66:363|92:381,1,83.9999974365235,12|0,0:0|0:0,0:0:0:0:
16,214,162720,6,0,P|82:223|108:241,1,83.9999974365235,2|0,0:0|0:0,0:0:0:0:
237,274,162902,2,0,P|171:283|145:301,1,83.9999974365235,12|0,0:0|0:0,0:0:0:0:
5,335,163084,2,0,P|71:344|97:362,1,83.9999974365235,0|0,0:0|0:0,0:0:0:0:
317,383,163265,6,0,P|322:316|326:283,1,83.9999974365235,6|0,0:0|0:0,0:0:0:0:
234,164,163447,2,0,P|289:201|316:221,1,83.9999974365235,8|2,0:0|0:0,0:0:0:0:
465,201,163629,2,0,P|404:230|373:243,1,83.9999974365235,0|8,0:0|0:0,0:0:0:0:
158,115,163811,6,0,P|210:82|317:103,1,167.999994873047,6|12,0:0|0:0,0:0:0:0:
163,235,164084,1,0,0:0:0:0:
82,197,164174,2,0,P|74:137|73:96,1,83.9999974365235,8|8,0:0|0:0,0:0:0:0:
13,319,164356,6,0,B|105:307|80:385|180:378,1,167.999994873047,6|8,0:0|0:0,0:0:0:0:
265,359,164629,1,0,0:0:0:0:
241,259,164720,2,0,P|197:270|158:316,1,83.9999974365235,8|0,0:0|0:0,0:0:0:0:
395,319,164902,6,0,P|397:258|402:222,1,83.9999974365235,6|0,0:0|0:0,0:0:0:0:
287,350,165084,2,0,P|285:289|280:253,1,83.9999974365235,12|0,0:0|0:0,0:0:0:0:
214,92,165265,6,0,P|272:99|323:208,2,167.999994873047,6|8|8,0:0|0:0|0:0,0:0:0:0:
92,212,165719,1,0,0:0:0:0:
157,253,165810,2,0,P|219:261|246:258,1,83.9999974365235,8|8,0:0|0:0,0:0:0:0:
326,186,165992,5,0,0:0:0:0:
330,164,166083,1,8,0:0:0:0:
396,122,166174,1,8,0:0:0:0:
388,91,166265,1,0,0:0:0:0:
345,25,166355,6,0,B|108:11|239:218|-5:217,1,432,0|0,0:0|0:0,0:0:0:0:
186,168,167456,6,0,P|189:239|188:283,2,96,6|0|8,0:0|0:0|0:0,0:0:0:0:
281,233,168001,1,2,0:0:0:0:
349,150,168183,1,8,0:0:0:0:
328,313,168365,1,2,0:0:0:0:
449,189,168546,6,0,P|390:185|337:172,1,96,12|2,0:0|0:0,0:0:0:0:
304,70,168819,1,2,0:0:0:0:
315,57,168910,1,4,0:0:0:0:
162,56,169092,5,8,0:0:0:0:
164,75,169182,1,0,0:0:0:0:
166,94,169273,1,2,0:0:0:0:
167,113,169364,1,2,0:0:0:0:
129,177,169456,1,2,0:0:0:0:
158,246,169546,1,2,0:0:0:0:
111,311,169637,6,0,P|112:249|111:218,1,83.9999974365235,6|0,0:0|0:0,0:0:0:0:
17,272,169819,5,8,0:0:0:0:
95,318,169910,2,0,P|96:256|95:225,2,83.9999974365235,8|6|0,0:0|0:0|0:0,0:0:0:0:
272,384,170183,1,8,0:0:0:0:
309,318,170274,1,8,0:0:0:0:
239,280,170365,1,0,0:0:0:0:
202,349,170455,1,8,0:0:0:0:
330,310,170546,6,0,P|331:269|331:227,1,83.9999974365235,8|0,0:0|0:0,0:0:0:0:
456,19,170728,2,0,P|463:110|470:222,2,167.999994873047,6|12|12,0:0|0:0|0:0,0:0:0:0:
249,107,171183,1,0,0:0:0:0:
216,93,171274,2,0,P|210:32|206:-4,1,83.9999974365235,12|0,0:0|0:0,0:0:0:0:
343,158,171456,2,0,P|349:97|353:61,1,83.9999974365235,12|0,0:0|0:0,0:0:0:0:
180,160,171637,2,0,P|174:99|170:63,1,83.9999974365235,12|0,0:0|0:0,0:0:0:0:
331,254,171835,5,4,0:0:0:0:
322,276,172925,1,0,0:0:0:0:
313,298,173865,1,0,0:0:0:0:
