osu file format v14

[General]
AudioFilename: asphyxia.mp3
AudioLeadIn: 0
PreviewTime: 131998
Countdown: 0
SampleSet: Normal
StackLeniency: 0.2
Mode: 0
LetterboxInBreaks: 0
WidescreenStoryboard: 1

[Editor]
Bookmarks: 15144,28305,50368,88180,105635,123089,133998,148541,171835
DistanceSpacing: 1.2
BeatDivisor: 4
GridSize: 4
TimelineZoom: 2

[Metadata]
Title:asphyxia
TitleUnicode:asphyxia
Artist:Co shu Nie
ArtistUnicode:Cö shu Nie
Creator:Gillstar
Version:collab advanced
Source:東京喰種トーキョーグール:re
Tags:tokyo ghoul re 東京喰種トーキョーグール:re deca impurepug sparhten semaphore fser m3gb3g neonlights amity fixxis kowari anime japanese
BeatmapID:1917305
BeatmapSetID:895512

[Difficulty]
HPDrainRate:4
CircleSize:3
OverallDifficulty:4
ApproachRate:6
SliderMultiplier:1.5
SliderTickRate:1

[Events]
//Background and Video events
0,0,"61800997_p0_master1200.jpg",0,0
//Break Periods
2,9058,14094
//Storyboard Layer 0 (Background)
//Storyboard Layer 1 (Fail)
//Storyboard Layer 2 (Pass)
//Storyboard Layer 3 (Foreground)
//Storyboard Sound Samples

[TimingPoints]
278,512.820512820513,4,2,1,40,1,0
5682,540.540540540541,4,2,1,40,1,0
6507,588.235294117647,4,2,1,40,1,0
8858,392.156862745098,4,2,2,60,1,0
9032,382.165605095541,4,2,1,30,1,0
9477,384.615384615385,4,2,1,30,1,0
10450,368.098159509202,4,2,1,30,1,0
10843,375,4,2,1,30,1,0
11218,397.350993377483,4,2,1,30,1,0
12026,397.350993377483,4,2,1,30,1,0
12622,419.58041958042,4,2,1,30,1,0
13582,384.615384615385,4,2,1,30,1,0
14370,387.096774193548,4,2,1,30,1,0
15144,387.096774193548,4,1,2,40,1,0
15144,-100,4,1,2,40,0,0
26950,-100,4,2,2,50,0,0
27531,-100,4,2,1,50,0,0
28305,387.096774193548,4,2,2,40,1,0
39143,387.096774193548,3,2,2,40,1,0
50368,363.636363636364,3,1,2,50,1,1
52368,363.636363636364,3,1,2,50,1,1
56549,363.636363636364,3,1,2,50,1,1
60730,363.636363636364,3,1,2,50,1,1
64911,363.636363636364,3,1,2,50,1,1
69092,363.636363636364,3,1,2,50,1,1
73273,363.636363636364,3,1,2,50,1,1
77454,363.636363636364,3,1,2,50,1,1
81635,363.636363636364,3,1,2,50,1,1
83816,-100,3,1,2,50,0,0
83862,-100,3,1,2,50,0,0
84544,-100,3,1,2,50,0,0
84953,-100,3,1,2,5,0,0
85271,-100,3,1,2,50,0,0
89635,-100,3,2,2,50,0,0
123089,-100,3,1,2,50,0,0
126362,-100,3,2,2,50,0,0
127453,-100,3,1,2,50,0,0
129998,-100,3,2,2,50,0,0
133998,-100,3,1,2,50,0,0
135998,363.636363636364,3,1,2,50,1,1
140179,363.636363636364,3,1,2,50,1,1
144360,363.636363636364,3,1,2,50,1,1
148541,363.636363636364,3,1,2,50,1,1
152722,363.636363636364,3,1,2,50,1,1
156903,363.636363636364,3,1,2,50,1,1
161084,363.636363636364,3,1,2,50,1,1
165265,363.636363636364,3,1,2,50,1,1
166355,-100,3,2,2,50,0,1
166745,363.636363636364,3,2,2,50,1,0
167456,363.636363636364,3,2,2,50,1,0
171835,363.636363636364,3,2,2,50,1,0
173653,425.531914893617,3,2,1,50,1,0

[Colours]
Combo1 : 213,106,0
Combo2 : 219,13,44

[HitObjects]
59,46,278,6,0,P|127:130|132:274,1,225,2|0,0:0|0:0,0:0:0:0:
86,315,1303,2,0,P|199:342|302:275,1,225,2|0,0:0|0:0,0:0:0:0:
364,342,2329,2,0,P|389:273|506:161,1,225,2|0,0:0|0:0,0:0:0:0:
483,77,3354,2,0,L|266:162,1,225,2|0,0:0|0:0,0:0:0:0:
183,167,4380,2,0,P|165:236|248:374,1,225,2|0,0:0|0:0,0:0:0:0:
323,371,5406,1,2,0:0:0:0:
418,218,5952,1,2,0:0:0:0:
297,98,6507,1,2,0:0:0:0:
256,192,6654,12,6,8858,0:0:0:0:
180,37,15144,6,0,P|186:104|142:204,1,150,6|0,0:0|0:0,0:0:0:0:
86,233,15724,1,2,0:0:0:0:
76,322,15918,2,0,P|128:312|181:319,1,75,12|8,0:0|0:0,0:0:0:0:
227,266,16305,2,0,P|273:291|311:330,1,75,6|4,0:0|0:0,0:0:0:0:
374,338,16692,6,0,P|379:301|468:216,1,150,6|8,0:0|0:0,0:0:0:0:
447,130,17273,1,4,0:0:0:0:
353,119,17466,6,0,P|345:82|340:45,1,75,6|6,0:0|0:0,0:0:0:0:
260,88,17853,2,0,L|236:43,2,50,8|8|8,0:0|0:0|0:0,0:0:0:0:
247,146,18240,6,0,P|176:168|107:235,1,150,6|0,0:0|0:0,0:0:0:0:
29,228,18821,1,8,0:0:0:0:
39,138,19014,2,0,L|15:66,1,75,12|0,0:0|0:0,0:0:0:0:
105,73,19402,2,0,L|127:1,1,75,12|0,0:0|0:0,0:0:0:0:
206,43,19789,6,0,P|217:91|319:146,1,150,6|12,0:0|0:0,0:0:0:0:
363,87,20369,1,4,0:0:0:0:
445,128,20563,6,0,P|458:180|464:226,1,75,6|2,0:0|0:0,0:0:0:0:
454,289,20950,2,0,L|401:278,3,37.5,8|0|8|0,0:0|0:0|0:0|0:0,0:0:0:0:
381,309,21337,6,0,P|284:300|257:232,1,150,6|8,0:0|0:0,0:0:0:0:
226,178,21918,1,4,0:0:0:0:
136,182,22111,2,0,P|152:232|156:274,1,75,2|4,0:0|0:0,0:0:0:0:
191,336,22498,2,0,P|136:362|106:390,1,75,8|4,0:0|0:0,0:0:0:0:
37,350,22885,6,0,P|57:292|36:187,1,150,2|8,0:0|0:0,0:0:0:0:
62,116,23466,1,4,0:0:0:0:
127,53,23660,2,0,B|177:88|199:127,1,75,2|0,0:0|0:0,0:0:0:0:
262,61,24047,2,0,B|277:119|269:163,1,75,12|4,0:0|0:0,0:0:0:0:
251,222,24434,6,0,P|329:246|384:302,1,150,6|8,0:0|0:0,0:0:0:0:
449,345,25014,1,4,0:0:0:0:
485,262,25208,2,0,L|434:184,1,75,2|4,0:0|0:0,0:0:0:0:
359,167,25595,2,0,L|410:89,1,75,8|0,0:0|0:0,0:0:0:0:
464,40,25982,6,0,P|388:17|314:55,1,150,6|6,0:0|0:0,0:0:0:0:
256,100,26563,1,8,0:0:0:0:
169,77,26756,2,0,P|95:84|44:24,2,150,6|2|0,0:0|0:0|0:0,0:0:0:0:
456,284,28305,6,0,P|441:192|436:122,1,150,2|0,0:0|0:0,0:0:0:0:
290,30,29079,1,2,0:0:0:0:
195,182,29466,1,0,0:0:0:0:
261,349,29853,6,0,L|123:340,1,112.5,2|2,0:0|0:0,0:0:0:0:
29,277,30434,1,0,0:0:0:0:
29,97,30821,2,0,L|180:92,1,150,0|0,0:0|0:0,0:0:0:0:
254,44,31401,6,0,P|333:79|304:148,1,150,2|0,0:0|0:0,0:0:0:0:
240,160,31982,1,0,0:0:0:0:
369,362,32756,6,0,P|406:291|492:262,2,150,4|4|0,0:0|0:0|0:0,0:0:0:0:
280,346,33724,2,0,P|211:325|153:347,2,112.5,2|2|4,0:0|0:0|0:0,0:0:0:0:
314,265,34498,6,0,P|318:189|304:113,1,150,2|0,0:0|0:0,0:0:0:0:
143,36,35272,1,2,0:0:0:0:
91,208,35659,1,0,0:0:0:0:
214,338,36046,6,0,P|330:332|359:292,1,150,2|0,0:0|0:0,0:0:0:0:
399,140,36821,1,2,0:0:0:0:
240,54,37208,1,0,0:0:0:0:
132,198,37595,6,0,P|187:250|269:247,1,150,2|0,0:0|0:0,0:0:0:0:
339,211,38175,1,8,0:0:0:0:
384,36,38563,2,0,L|484:11,2,75,2|2|6,0:0|0:0|0:0,0:0:0:0:
296,54,39143,5,0,0:0:0:0:
416,186,39530,1,0,0:0:0:0:
323,335,39917,1,0,0:0:0:0:
149,286,40304,6,0,P|58:320|9:363,2,150,6|6|6,0:0|0:0|0:0,0:0:0:0:
326,253,41465,6,0,P|395:269|453:189,1,150,6|4,0:0|0:0,0:0:0:0:
436,129,42046,1,8,0:0:0:0:
368,69,42239,2,0,L|273:48,1,75,2|8,0:0|0:0,0:0:0:0:
273,140,42626,2,0,L|199:156,1,75,6|0,0:0|0:0,0:0:0:0:
130,97,43013,2,0,P|111:49|94:16,2,75,6|2|8,0:0|0:0|0:0,0:0:0:0:
16,235,43788,6,0,P|92:275|98:337,1,150,6|2,0:0|0:0,0:0:0:0:
191,325,44368,2,0,P|260:347|321:309,1,150,12|8,0:0|0:0,0:0:0:0:
411,311,44949,1,6,0:0:0:0:
493,150,45336,1,12,0:0:0:0:
347,44,45723,1,2,0:0:0:0:
185,122,46110,6,0,P|192:197|170:282,1,150,6|8,0:0|0:0,0:0:0:0:
94,309,46691,2,0,P|72:240|18:173,1,150,4|0,0:0|0:0,0:0:0:0:
17,90,47272,6,0,P|76:50|180:55,1,150,12|6,0:0|0:0,0:0:0:0:
239,79,47852,1,8,0:0:0:0:
327,60,48046,2,0,P|373:64|412:91,1,75,2|8,0:0|0:0,0:0:0:0:
456,145,48433,6,0,P|480:90|493:28,2,112.5,6|6|12,0:0|0:0|0:0,0:0:0:0:
281,190,49401,2,0,P|225:168|172:133,2,112.5,6|6|12,0:0|0:0|0:0,0:0:0:0:
465,242,50368,6,0,P|403:302|381:373,1,150,6|0,0:0|0:0,0:0:0:0:
297,331,50913,1,2,0:0:0:0:
214,294,51095,2,0,P|202:328|191:381,1,75,12|8,0:0|0:0,0:0:0:0:
103,371,51458,2,0,P|95:296|56:227,1,150,6|0,0:0|0:0,0:0:0:0:
61,140,52004,1,6,0:0:0:0:
200,25,52368,6,0,P|211:85|210:194,1,150,6|0,0:0|0:0,0:0:0:0:
253,275,52913,2,0,P|333:281|402:221,1,150,6|8,0:0|0:0,0:0:0:0:
472,211,53458,1,6,0:0:0:0:
386,52,53822,1,12,0:0:0:0:
214,107,54186,1,12,0:0:0:0:
151,275,54549,6,0,L|127:376,2,75,6|8|0,0:0|0:0|0:0,0:0:0:0:
87,206,55095,2,0,P|57:147|106:63,1,150,6|8,0:0|0:0,0:0:0:0:
151,10,55640,2,0,P|182:75|152:141,1,150,6|8,0:0|0:0,0:0:0:0:
198,218,56186,1,6,0:0:0:0:
243,295,56368,1,8,0:0:0:0:
329,319,56549,6,0,L|468:294,2,112.5,6|8|6,0:0|0:0|0:0,0:0:0:0:
205,78,57639,2,0,L|66:53,2,112.5,6|12|6,0:0|0:0|0:0,0:0:0:0:
472,159,58730,6,0,P|396:175|364:255,1,150,6|0,0:0|0:0,0:0:0:0:
377,325,59276,2,0,P|284:348|221:330,1,150,6|8,0:0|0:0,0:0:0:0:
191,255,59821,2,0,B|114:283|114:283|37:232,1,150,6|0,0:0|0:0,0:0:0:0:
17,164,60367,1,6,0:0:0:0:
138,31,60730,6,0,P|207:63|262:129,1,150,6|0,0:0|0:0,0:0:0:0:
283,203,61275,2,0,P|348:230|450:197,1,150,6|2,0:0|0:0,0:0:0:0:
469,137,61820,1,12,0:0:0:0:
319,37,62184,2,0,L|210:54,2,75,12|2|12,0:0|0:0|0:0,0:0:0:0:
399,198,62911,6,0,P|415:240|423:298,2,75,6|8|0,0:0|0:0|0:0,0:0:0:0:
352,120,63457,2,0,L|168:143,1,150,6|8,0:0|0:0,0:0:0:0:
151,212,64002,2,0,P|87:161|79:89,1,150,6|8,0:0|0:0,0:0:0:0:
121,17,64548,1,6,0:0:0:0:
210,10,64730,1,12,0:0:0:0:
284,60,64911,6,0,P|370:86|394:161,1,150,6|8,0:0|0:0,0:0:0:0:
426,219,65456,1,8,0:0:0:0:
319,351,65820,1,8,0:0:0:0:
245,300,66001,2,0,P|171:294|80:316,1,150,6|8,0:0|0:0,0:0:0:0:
20,260,66547,1,12,0:0:0:0:
74,188,66729,1,8,0:0:0:0:
55,99,66911,1,8,0:0:0:0:
125,43,67092,6,0,L|290:58,1,150,6|0,0:0|0:0,0:0:0:0:
364,51,67638,2,0,B|393:125|393:125|349:208,1,150,2|8,0:0|0:0,0:0:0:0:
270,195,68183,2,0,P|264:255|325:341,1,150,6|0,0:0|0:0,0:0:0:0:
389,368,68729,1,6,0:0:0:0:
504,227,69092,6,0,L|344:182,1,150,6|0,0:0|0:0,0:0:0:0:
328,101,69637,2,0,L|183:141,1,150,6|8,0:0|0:0,0:0:0:0:
93,136,70182,1,6,0:0:0:0:
48,310,70546,1,12,0:0:0:0:
223,350,70910,1,12,0:0:0:0:
364,238,71273,6,0,P|383:176|436:101,1,150,6|0,0:0|0:0,0:0:0:0:
371,37,71819,2,0,P|307:51|216:43,1,150,6|8,0:0|0:0,0:0:0:0:
185,126,72364,2,0,P|229:173|267:256,1,150,6|8,0:0|0:0,0:0:0:0:
229,332,72910,1,6,0:0:0:0:
394,262,73273,6,0,L|506:231,2,112.5,6|8|6,0:0|0:0|0:0,0:0:0:0:
129,315,74363,2,0,L|16:284,2,112.5,6|8|6,0:0|0:0|0:0,0:0:0:0:
359,174,75454,6,0,P|407:104|366:32,1,150,6|0,0:0|0:0,0:0:0:0:
297,62,76000,2,0,L|126:80,1,150,6|8,0:0|0:0,0:0:0:0:
83,141,76545,2,0,P|47:90|9:56,2,112.5,6|2|6,0:0|0:0|0:0,0:0:0:0:
235,236,77454,6,0,P|303:194|386:169,1,150,6|0,0:0|0:0,0:0:0:0:
459,170,77999,2,0,P|481:231|452:312,1,150,6|2,0:0|0:0,0:0:0:0:
373,349,78544,1,12,0:0:0:0:
193,331,78908,2,0,L|103:344,2,75,12|2|12,0:0|0:0|0:0,0:0:0:0:
329,212,79635,6,0,L|423:194,2,75,6|8|0,0:0|0:0|0:0,0:0:0:0:
238,216,80181,2,0,P|156:222|90:161,1,150,6|8,0:0|0:0,0:0:0:0:
53,109,80726,2,0,L|206:73,1,150,6|8,0:0|0:0,0:0:0:0:
275,26,81272,1,6,0:0:0:0:
359,57,81454,1,12,0:0:0:0:
448,49,81635,6,0,B|429:232|429:231,1,150,6|8,0:0|0:0,0:0:0:0:
420,287,82180,1,8,0:0:0:0:
252,353,82544,1,8,0:0:0:0:
241,264,82725,2,0,B|244:297|226:125,1,150,6|8,0:0|0:0,0:0:0:0:
204,38,83271,1,12,0:0:0:0:
113,38,83453,1,8,0:0:0:0:
56,107,83635,1,8,0:0:0:0:
77,194,83816,5,0,0:0:0:0:
379,50,85998,6,0,B|429:110|429:110|413:214,1,150,6|0,0:0|0:0,0:0:0:0:
358,248,86544,2,0,L|190:278,1,150,2|8,0:0|0:0,0:0:0:0:
120,266,87089,1,6,0:0:0:0:
58,200,87271,1,8,0:0:0:0:
124,139,87453,1,8,0:0:0:0:
72,65,87635,2,0,L|-31:90,2,75,8|8|8,0:0|0:0|0:0,0:0:0:0:
141,8,88180,6,0,L|287:42,1,150,6|12,0:0|0:0,0:0:0:0:
373,16,88725,1,0,0:0:0:0:
427,87,88907,2,0,L|409:160,1,75,0|8,0:0|0:0,0:0:0:0:
341,218,89271,6,0,P|352:275|442:340,2,150,6|8|8,0:0|0:0|0:0,0:0:0:0:
220,351,90362,6,0,P|232:292|201:242,2,112.5,6|6|6,0:0|0:0|0:0,0:0:0:0:
89,314,91180,1,6,0:0:0:0:
11,203,91453,6,0,P|-13:153|0:100,2,112.5,6|6|6,0:1|0:0|0:0,0:0:0:0:
126,133,92271,1,6,0:0:0:0:
240,62,92544,6,0,L|252:136,1,75,6|0,0:1|0:0,0:0:0:0:
212,216,92907,1,4,0:0:0:0:
263,355,93271,6,0,P|293:341|337:342,1,75,12|0,0:0|0:0,0:0:0:0:
427,347,93635,2,0,P|406:290|454:190,2,150,2|4|12,0:0|0:0|0:0,0:0:0:0:
340,189,94725,6,0,P|361:132|313:32,1,150,6|12,0:0|0:0,0:0:0:0:
250,14,95271,1,0,0:0:0:0:
180,71,95453,1,12,0:0:0:0:
113,201,95816,6,0,B|181:167|181:167|271:206,1,150,6|6,0:0|0:0,0:0:0:0:
298,272,96362,1,8,0:0:0:0:
249,348,96544,2,0,L|168:352,1,75,8|2,0:0|0:0,0:0:0:0:
86,384,96907,6,0,L|71:285,1,75,6|8,0:0|0:0,0:0:0:0:
0,258,97271,1,6,0:0:0:0:
67,90,97635,1,8,0:0:0:0:
245,68,97998,6,0,B|282:103|346:104|398:64,2,150,6|6|8,0:0|0:0|0:0,0:0:0:0:
171,16,98907,1,2,0:0:0:0:
144,102,99089,6,0,P|189:145|219:209,1,112.5,6|6,0:0|0:0,0:0:0:0:
204,326,99635,2,0,P|233:287|312:254,1,112.5,6|6,0:0|0:0,0:0:0:0:
421,285,100180,6,0,P|450:324|462:408,2,112.5,6|6|6,0:0|0:0|0:0,0:0:0:0:
407,15,101271,6,0,L|371:192,1,150,6|0,0:0|0:0,0:0:0:0:
290,136,101816,1,2,0:0:0:0:
118,81,102180,5,4,0:0:0:0:
59,12,102362,2,0,L|95:189,1,150,6|6,0:0|0:0,0:0:0:0:
34,230,102907,2,0,P|44:302|107:338,1,150,2|4,0:0|0:0,0:0:0:0:
193,311,103453,2,0,B|250:210|250:210|372:202,2,225,4|0|6,0:0|0:0|0:0,0:0:0:0:
380,121,105635,6,0,P|443:85|453:14,3,150,4|8|8|8,0:0|0:0|0:0|0:0,0:0:0:0:
194,93,107271,1,0,0:0:0:0:
194,93,107453,2,0,P|207:130|209:178,1,75,8|0,0:0|0:0,0:0:0:0:
123,139,107816,6,0,P|59:103|50:31,3,150,4|8|8|8,0:0|0:0|0:0|0:0,0:0:0:0:
27,302,109453,1,0,0:0:0:0:
27,302,109635,2,0,P|62:290|114:280,1,75,8|0,0:0|0:0,0:0:0:0:
187,299,109998,6,0,P|151:362|79:371,2,150,4|8|8,0:0|0:0|0:0,0:0:0:0:
263,238,110907,1,0,0:0:0:0:
333,294,111089,6,0,P|369:357|441:366,2,150,8|8|8,0:0|0:0|0:0,0:0:0:0:
385,220,111998,1,2,0:0:0:0:
468,252,112180,6,0,L|495:74,2,150,4|8|8,0:0|0:0|0:0,0:0:0:0:
335,129,113271,2,0,L|157:156,1,150,12|0,0:0|0:0,0:0:0:0:
110,104,113816,1,2,0:0:0:0:
110,104,113998,2,0,L|35:93,1,75,0|0,0:0|0:0,0:0:0:0:
72,198,114362,6,0,P|9:233|0:305,3,150,4|8|8|8,0:0|0:0|0:0|0:0,0:0:0:0:
260,231,115998,1,0,0:0:0:0:
260,231,116180,2,0,L|348:244,1,75,8|0,0:0|0:0,0:0:0:0:
418,209,116544,6,0,P|481:244|490:315,3,150,4|8|8|8,0:0|0:0|0:0|0:0,0:0:0:0:
273,153,118180,1,2,0:0:0:0:
273,153,118362,2,0,L|286:65,1,75,8|8,0:0|0:0,0:0:0:0:
359,29,118725,6,0,P|413:47|516:50,2,150,4|8|8,0:0|0:0|0:0,0:0:0:0:
191,94,119816,6,0,P|137:112|34:115,2,150,12|12|12,0:0|0:0|0:0,0:0:0:0:
332,205,120907,6,0,P|386:223|489:226,1,150,12|4,0:0|0:0,0:0:0:0:
464,325,121453,2,0,P|395:326|329:386,1,150,2|2,0:0|0:0,0:0:0:0:
247,355,121998,6,0,P|239:307|227:267,1,75,12|0,0:0|0:0,0:0:0:0:
142,296,122362,2,0,P|151:259|157:222,1,75,12|0,0:0|0:0,0:0:0:0:
84,169,122725,2,0,P|110:142|133:112,1,75,12|8,0:0|0:0,0:0:0:0:
174,32,123089,6,0,P|218:57|331:48,1,150,6|0,0:0|0:0,0:0:0:0:
393,10,123635,1,8,0:0:0:0:
455,74,123816,2,0,L|449:160,1,75,6|0,0:0|0:0,0:0:0:0:
399,224,124180,6,0,P|462:259|471:331,2,150,6|12|12,0:0|0:0|0:0,0:0:0:0:
231,290,125271,6,0,P|187:315|74:306,1,150,6|6,0:0|0:0,0:0:0:0:
28,247,125816,1,8,0:0:0:0:
28,247,125998,2,0,L|33:172,1,75,6|8,0:0|0:0,0:0:0:0:
78,93,126362,6,0,P|145:123|219:116,2,150,6|12|12,0:0|0:0|0:0,0:0:0:0:
248,35,127453,6,0,P|323:64|403:52,1,150,6|6,0:0|0:0,0:0:0:0:
454,120,127998,2,0,P|392:170|362:245,1,150,8|8,0:0|0:0,0:0:0:0:
276,255,128544,2,0,P|245:181|190:124,2,150,6|12|12,0:0|0:0|0:0,0:0:0:0:
215,321,129453,5,0,0:0:0:0:
124,324,129635,2,0,P|81:266|61:181,1,150,12|8,0:0|0:0,0:0:0:0:
38,104,130180,1,8,0:0:0:0:
100,39,130362,2,0,L|174:29,1,75,8|8,0:0|0:0,0:0:0:0:
252,74,130725,5,8,0:0:0:0:
153,225,131089,1,8,0:0:0:0:
330,258,131453,1,8,0:0:0:0:
433,111,131816,5,0,0:0:0:0:
450,133,133998,6,0,P|400:98|376:48,2,112.5,6|6|2,0:0|0:0|0:0,0:0:0:0:
388,303,134907,1,0,0:0:0:0:
310,349,135089,2,0,P|251:341|157:335,1,150,6|4,0:0|0:0,0:0:0:0:
95,272,135635,1,0,0:0:0:0:
128,188,135816,1,8,0:0:0:0:
69,119,135998,6,0,P|118:84|142:34,2,112.5,6|6|2,0:0|0:0|0:0,0:0:0:0:
244,77,136907,1,2,0:0:0:0:
321,31,137088,2,0,P|329:104|320:195,1,150,12|4,0:0|0:0,0:0:0:0:
245,226,137634,1,2,0:0:0:0:
169,275,137816,2,0,P|197:299|227:321,1,75,0|0,0:0|0:0,0:0:0:0:
308,360,138179,6,0,P|345:283|411:239,1,150,6|0,0:0|0:0,0:0:0:0:
482,221,138725,1,2,0:0:0:0:
398,61,139088,1,2,0:0:0:0:
309,42,139270,2,0,P|223:56|142:59,1,150,12|12,0:0|0:0,0:0:0:0:
75,26,139816,2,0,P|43:58|12:77,1,75,2|8,0:0|0:0,0:0:0:0:
90,126,140179,6,0,P|147:172|170:223,2,112.5,6|2|12,0:0|0:0|0:0,0:0:0:0:
300,294,141269,6,0,P|242:340|220:391,2,112.5,6|2|6,0:0|0:0|0:0,0:0:0:0:
450,133,142360,6,0,P|400:98|376:48,2,112.5,6|6|2,0:0|0:0|0:0,0:0:0:0:
424,311,143269,1,0,0:0:0:0:
337,337,143451,2,0,P|289:310|191:289,1,150,12|4,0:0|0:0,0:0:0:0:
106,287,143997,1,0,0:0:0:0:
117,200,144179,1,8,0:0:0:0:
59,131,144360,6,0,P|109:96|133:46,2,112.5,6|6|2,0:0|0:0|0:0,0:0:0:0:
236,101,145269,1,2,0:0:0:0:
259,189,145450,6,0,P|195:174|111:203,1,150,12|0,0:0|0:0,0:0:0:0:
62,272,145996,1,2,0:0:0:0:
129,331,146178,2,0,P|179:322|224:322,1,75,12|0,0:0|0:0,0:0:0:0:
288,349,146541,6,0,P|325:272|391:228,1,150,6|0,0:0|0:0,0:0:0:0:
458,271,147087,2,0,P|462:196|475:122,1,150,2|2,0:0|0:0,0:0:0:0:
429,44,147632,1,12,0:0:0:0:
265,119,147996,1,12,0:0:0:0:
222,47,148178,2,0,P|185:37|143:36,1,75,0|8,0:0|0:0,0:0:0:0:
58,42,148541,6,0,P|84:111|78:166,2,112.5,6|6|6,0:0|0:0|0:0,0:0:0:0:
6,214,149450,1,8,0:0:0:0:
39,297,149631,6,0,P|108:270|181:280,1,150,6|0,0:0|0:0,0:0:0:0:
234,353,150177,1,8,0:0:0:0:
305,298,150359,2,0,P|300:230|303:201,1,75,8|2,0:0|0:0,0:0:0:0:
229,167,150722,6,0,P|266:90|288:3,1,150,6|0,0:0|0:0,0:0:0:0:
358,79,151268,2,0,P|407:75|483:141,1,150,2|8,0:0|0:0,0:0:0:0:
417,199,151813,2,0,P|416:244|441:352,1,150,6|0,0:0|0:0,0:0:0:0:
351,370,152359,1,6,0:0:0:0:
181,311,152722,6,0,P|102:292|23:285,1,150,6|0,0:0|0:0,0:0:0:0:
33,195,153267,2,0,P|25:130|64:44,1,150,6|8,0:0|0:0,0:0:0:0:
143,76,153812,1,6,0:0:0:0:
225,39,153994,1,0,0:0:0:0:
307,74,154176,2,0,P|367:82|477:36,1,150,12|12,0:0|0:0,0:0:0:0:
511,123,154722,1,0,0:0:0:0:
460,196,154903,6,0,P|467:232|470:284,2,75,6|8|0,0:0|0:0|0:0,0:0:0:0:
380,239,155449,2,0,P|326:235|226:263,1,150,6|8,0:0|0:0,0:0:0:0:
200,342,155994,2,0,P|149:313|121:219,1,150,6|8,0:0|0:0,0:0:0:0:
36,194,156540,1,6,0:0:0:0:
8,108,156722,1,8,0:0:0:0:
64,38,156903,6,0,P|106:50|199:55,2,112.5,6|8|6,0:0|0:0|0:0,0:0:0:0:
315,134,157993,6,0,P|273:146|180:151,2,112.5,6|12|6,0:0|0:0|0:0,0:0:0:0:
465,34,158903,1,0,0:0:0:0:
417,109,159084,6,0,P|430:199|453:271,1,150,6|0,0:0|0:0,0:0:0:0:
411,338,159630,2,0,P|360:300|266:314,1,150,6|8,0:0|0:0,0:0:0:0:
195,345,160175,2,0,P|121:355|31:340,1,150,6|0,0:0|0:0,0:0:0:0:
13,260,160721,1,6,0:0:0:0:
36,81,161084,6,0,P|105:68|180:134,1,150,6|0,0:0|0:0,0:0:0:0:
235,169,161629,2,0,P|261:105|322:42,1,150,6|2,0:0|0:0,0:0:0:0:
404,56,162174,1,12,0:0:0:0:
473,113,162356,1,0,0:0:0:0:
446,205,162538,2,0,P|431:247|463:360,1,150,12|12,0:0|0:0,0:0:0:0:
274,324,163265,6,0,P|232:327|184:341,1,75,6|8,0:0|0:0,0:0:0:0:
115,302,163629,1,0,0:0:0:0:
33,340,163811,2,0,P|34:287|45:190,1,150,6|8,0:0|0:0,0:0:0:0:
39,100,164356,2,0,P|103:115|168:58,1,150,6|8,0:0|0:0,0:0:0:0:
247,28,164902,1,6,0:0:0:0:
334,49,165084,1,12,0:0:0:0:
419,21,165265,6,0,P|434:54|437:92,1,75,6|8,0:0|0:0,0:0:0:0:
382,173,165628,1,8,0:0:0:0:
439,242,165810,6,0,P|411:258|342:253,1,75,8|0,0:0|0:0,0:0:0:0:
295,208,166174,1,8,0:0:0:0:
212,243,166355,1,0,0:0:0:0:
28,165,167456,6,0,P|106:173|174:135,1,150,6|8,0:0|0:0,0:0:0:0:
211,62,168001,2,0,P|305:44|362:85,1,150,2|2,0:0|0:0,0:0:0:0:
425,115,168546,2,0,P|416:159|415:194,1,75,12|2,0:0|0:0,0:0:0:0:
467,262,168910,1,4,0:0:0:0:
445,349,169092,2,0,P|388:317|295:317,1,150,8|2,0:0|0:0,0:0:0:0:
220,346,169637,6,0,P|218:291|211:255,1,75,6|8,0:0|0:0,0:0:0:0:
148,210,170001,1,6,0:0:0:0:
111,127,170183,2,0,P|127:74|143:41,1,75,8|0,0:0|0:0,0:0:0:0:
219,22,170546,1,8,0:0:0:0:
308,29,170728,2,0,P|382:40|456:33,2,150,6|12|12,0:0|0:0|0:0,0:0:0:0:
297,216,171835,5,4,0:0:0:0:
198,183,172925,5,0,0:0:0:0:
118,255,173653,6,0,P|110:294|106:336,1,75,0|0,0:0|0:0,0:0:0:0:
