osu file format v14

[General]
AudioFilename: audio.mp3
AudioLeadIn: 0
PreviewTime: 215
Countdown: 0
SampleSet: Soft
StackLeniency: 0.7
Mode: 0
LetterboxInBreaks: 0
WidescreenStoryboard: 1

[Editor]
Bookmarks: 3815,71368,76822
DistanceSpacing: 3
BeatDivisor: 4
GridSize: 16
TimelineZoom: 1.6

[Metadata]
Title:ZETTAI ZETSUMEI (TV Size)
TitleUnicode:絶体絶命 (TV Size)
Artist:Co shu Nie
ArtistUnicode:Cö shu Nie
Creator:DJ Lucky
Version:Insane
Source:約束のネバーランド
Tags:yakusoku no neverland the promised Aeril Sakura Blossom Nao tomori Naotoshi Anime Japense Ending ED Hailie
BeatmapID:1972846
BeatmapSetID:908927

[Difficulty]
HPDrainRate:5
CircleSize:4
OverallDifficulty:8
ApproachRate:8.5
SliderMultiplier:1.7
SliderTickRate:1

[Events]
//Background and Video events
0,0,"C3lkCbCUMAAG7wl.jpg",0,0
Video,0,"na9bi6_x264_001.avi"
//Break Periods
//Storyboard Layer 0 (Background)
//Storyboard Layer 1 (Fail)
//Storyboard Layer 2 (Pass)
//Storyboard Layer 3 (Foreground)
//Storyboard Sound Samples

[TimingPoints]
215,419.58041958042,4,2,1,49,1,0
3152,-100,4,2,1,64,0,0
9445,-100,4,2,1,69,0,0
10284,-125,4,2,1,54,0,0
23711,-100,4,2,1,59,0,0
27068,-90.9090909090909,4,2,1,64,0,0
28746,-76.9230769230769,4,2,1,64,0,0
29166,-66.6666666666667,4,2,1,64,0,0
29585,-66.6666666666667,4,2,1,69,0,0
30424,-76.9230769230769,4,2,1,74,0,0
40494,-66.6666666666667,4,2,1,74,0,0
43012,-55.5555555555556,4,2,1,74,0,0
43851,-66.6666666666667,4,2,1,69,0,0
57277,-125,4,2,1,39,0,0
62103,-125,4,2,1,69,0,0
62312,-55.5555555555556,4,2,1,79,0,0
63991,-76.9230769230769,4,2,1,79,0,1
64201,-76.9230769230769,4,2,1,79,0,0
67347,-66.6666666666667,4,2,1,79,0,0
69865,-50,4,2,1,79,0,0
70704,-50,4,2,1,59,0,0
71019,-50,4,2,1,39,0,0
72382,-50,4,2,1,69,0,0
73221,-45.4545454545455,4,2,1,79,0,0
73431,-45.4545454545455,4,2,1,59,0,0
73641,-45.4545454545455,4,2,1,49,0,0
76368,-45.4545454545455,4,2,1,64,0,0
76578,419.58041958042,4,2,1,64,1,0
84969,-55.5555555555556,4,2,1,84,0,0
86228,-41.6666666666667,4,2,1,84,0,0

[Colours]
Combo1 : 128,64,64
Combo2 : 252,202,3
Combo3 : 255,157,111
Combo4 : 250,61,5

[HitObjects]
312,261,3152,5,14,0:2:0:0:
312,261,3256,1,8,0:2:0:0:
312,261,3361,1,8,0:2:0:0:
312,261,3466,1,8,0:2:0:0:
312,261,3571,2,0,P|362:301|396:328,1,85,6|0,3:2|0:2,0:0:0:0:
449,160,3886,6,0,P|456:109|462:53,1,85,8|10,0:2|0:2,0:0:0:0:
312,71,4305,1,8,2:2:0:0:
312,71,4410,2,0,P|306:159|302:195,1,85,2|0,3:2|3:2,0:0:0:0:
285,170,4725,1,2,0:2:0:0:
150,328,5040,1,10,0:2:0:0:
38,139,5249,6,0,L|71:87,3,42.5,2|2|2|0,3:2|2:2|2:2|2:2,0:0:0:0:
137,81,5669,2,0,L|169:133,3,42.5,2|0|2|8,3:2|0:2|3:2|0:0,0:0:0:0:
240,64,6089,1,2,3:2:0:0:
240,64,6194,2,0,P|279:130|336:190,1,127.5,0|8,0:2|0:2,0:0:0:0:
477,333,6718,1,8,0:2:0:0:
477,333,6823,1,8,0:2:0:0:
477,333,6928,6,0,P|390:333|329:336,1,127.5,6|10,3:2|0:2,0:0:0:0:
372,246,7347,2,0,P|284:246|254:246,1,85,0|0,0:0|3:2,0:0:0:0:
102,131,7767,2,0,P|105:199|107:245,1,85,2|0,3:2|3:2,0:0:0:0:
35,260,8082,2,0,P|41:323|42:378,1,85,2|0,0:2|0:2,0:0:0:0:
129,363,8396,1,8,0:2:0:0:
129,363,8501,1,8,0:2:0:0:
129,363,8606,5,6,3:2:0:0:
302,162,8816,1,0,3:2:0:0:
326,162,9131,1,8,0:3:0:0:
98,82,9445,1,6,3:2:0:0:
440,210,9865,1,14,2:2:0:0:
58,345,10284,6,0,L|21:222,2,102,6|2|2,3:2|3:2|3:2,0:0:0:0:
204,374,11124,1,2,3:2:0:0:
82,118,11438,1,2,3:2:0:0:
196,32,11753,2,0,L|191:98,1,34,2|0,3:2|0:2,0:0:0:0:
169,107,11963,2,0,P|194:198|206:268,1,136,2|0,3:2|0:0,0:0:0:0:
330,337,12592,1,8,0:2:0:0:
330,337,12697,1,8,0:2:0:0:
330,337,12802,2,0,P|334:288|340:200,1,136,2|2,3:2|0:2,0:0:0:0:
469,45,13641,5,2,3:2:0:0:
167,122,13956,1,2,3:2:0:0:
167,122,14061,2,0,P|102:109|73:103,1,68,0|2,0:0|3:2,0:0:0:0:
228,224,14480,2,0,P|286:226|356:233,1,102,10|8,0:2|0:2,0:0:0:0:
362,229,14900,2,0,P|359:158|346:76,1,136,2|2,3:2|3:2,0:0:0:0:
488,27,15529,2,0,B|461:92|461:92|476:169,1,136,2|8,3:2|0:2,0:0:0:0:
473,156,16054,1,8,0:2:0:0:
388,260,16159,2,0,L|383:352,1,68,2|0,3:2|0:2,0:0:0:0:
309,347,16473,2,0,L|317:294,4,34,0|10|0|0|0,0:0|0:2|3:2|3:2|3:2,0:0:0:0:
201,384,16998,6,0,L|188:252,1,102,6|2,3:2|3:2,0:0:0:0:
92,77,17627,2,0,L|81:138,1,34,2|0,3:2|0:0,0:0:0:0:
164,34,17837,2,0,P|216:64|246:77,1,68,2|0,3:2|0:2,0:0:0:0:
254,274,18256,2,0,P|220:278|187:284,1,68,2|0,0:2|3:0,0:0:0:0:
283,188,18676,6,0,P|353:205|406:215,1,102,2|2,3:2|3:2,0:0:0:0:
404,200,19096,1,2,0:2:0:0:
148,64,19305,1,8,0:2:0:0:
148,64,19410,1,8,0:2:0:0:
151,69,19515,2,0,P|139:163|131:217,1,136,2|8,3:2|0:2,0:0:0:0:
242,353,20145,1,10,2:2:0:0:
242,353,20354,2,0,L|206:285,1,68,2|0,3:2|0:0,0:0:0:0:
226,251,20669,2,0,L|201:217,1,34,0|0,3:2|0:0,0:0:0:0:
365,98,20984,1,2,3:2:0:0:
365,98,21194,2,0,P|404:163|429:205,1,102,2|0,3:2|3:2,0:0:0:0:
456,198,21613,2,0,L|489:240,1,34,0|0,0:0|0:0,0:0:0:0:
477,224,21823,1,2,3:2:0:0:
275,146,22033,6,0,P|221:102|131:91,1,136,2|0,3:2|0:0,0:0:0:0:
157,88,22662,1,8,0:2:0:0:
157,88,22767,1,8,0:2:0:0:
157,88,22872,1,0,3:2:0:0:
269,149,23082,5,2,3:2:0:0:
270,293,23291,1,14,0:2:0:0:
123,375,23501,1,4,0:3:0:0:
107,379,23606,1,4,0:3:0:0:
74,373,23711,6,0,L|49:189,1,170,6|0,3:2|0:2,0:0:0:0:
459,192,24550,2,0,L|485:3,1,170,6|0,3:2|0:2,0:0:0:0:
356,247,25389,2,0,L|381:359,1,85,6|2,3:2|0:2,0:0:0:0:
129,198,26228,2,0,L|105:8,1,170,6|2,3:2|0:2,0:0:0:0:
500,239,27068,5,6,3:2:0:0:
456,308,27277,2,0,L|459:361,1,46.7500014266968,8|8,0:2|0:2,0:0:0:0:
374,330,27487,2,0,P|334:373|264:378,1,93.5000028533936,2|8,3:2|0:2,0:0:0:0:
163,87,27907,2,0,P|226:107|301:168,1,140.25000428009,10|8,0:2|0:2,0:0:0:0:
377,164,28326,2,0,L|354:227,3,46.7500014266968,2|0|8|4,3:2|0:0|0:3|0:3,0:0:0:0:
224,349,28746,6,0,P|147:321|79:243,1,165.749992412568,6|0,3:2|0:0,0:0:0:0:
144,29,29166,2,0,P|208:51|295:140,1,191.250007295609,10|8,0:2|0:2,0:0:0:0:
258,284,29585,1,6,3:2:0:0:
258,284,29690,1,0,0:0:0:0:
258,284,29795,1,0,0:0:0:0:
258,284,29900,1,8,0:2:0:0:
258,284,30005,1,8,0:3:0:0:
258,284,30424,6,0,P|138:289|18:322,1,220.999989883423,6|8,3:2|0:2,0:0:0:0:
131,95,31054,1,10,0:2:0:0:
131,95,31263,2,0,P|191:100|260:108,1,110.499994941712,2|0,3:2|3:2,0:0:0:0:
282,85,31578,2,0,P|341:82|430:75,1,110.499994941712,2|0,3:2|0:0,0:0:0:0:
483,20,31893,1,2,0:2:0:0:
467,272,32103,6,0,P|394:234|342:148,2,165.749992412568,6|10|2,3:2|0:2|3:2,0:0:0:0:
148,296,32942,2,0,P|128:334|116:362,1,55.2499974708558,6|0,3:2|0:0,0:0:0:0:
63,285,33152,2,0,P|25:220|47:123,1,165.749992412568,2|2,0:2|3:2,0:0:0:0:
60,66,33571,1,0,0:2:0:0:
241,24,33781,2,0,B|283:86|221:162|297:255,1,220.999989883423,2|8,3:2|0:2,0:0:0:0:
46,363,34410,1,2,0:2:0:0:
46,363,34515,1,0,0:2:0:0:
46,363,34620,2,0,L|29:240,1,110.499994941712,2|2,3:2|3:2,0:0:0:0:
236,301,35040,1,10,0:2:0:0:
416,166,35249,1,2,0:2:0:0:
150,275,35459,6,0,P|151:327|151:383,2,73.6666632944744,2|8|8,3:2|0:0|0:0,0:0:0:0:
290,247,35879,2,0,L|303:326,2,73.6666632944744,10|0|0,0:2|0:0|0:0,0:0:0:0:
295,144,36298,2,0,P|371:164|535:181,1,220.999989883423,2|8,3:2|0:2,0:0:0:0:
196,44,37138,6,0,P|213:147|237:262,1,220.999989883423,6|8,3:2|0:2,0:0:0:0:
43,372,37767,2,0,P|35:294|22:234,1,110.499994941712,10|0,0:2|3:2,0:0:0:0:
266,105,38187,2,0,P|296:65|344:10,1,110.499994941712,2|8,3:2|0:2,0:0:0:0:
288,226,38606,2,0,B|166:208|199:288|31:265,1,220.999989883423,2|2,0:2|3:2,0:0:0:0:
75,269,39131,1,0,3:2:0:0:
75,269,39235,1,10,2:2:0:0:
367,224,39445,2,0,L|480:183,1,110.499994941712,10|0,2:2|3:2,0:0:0:0:
390,361,39865,1,2,0:2:0:0:
390,361,40075,2,0,P|333:357|259:360,1,110.499994941712,10|0,0:2|0:0,0:0:0:0:
54,374,40494,6,0,P|63:303|46:203,1,127.500004863739,6|0,3:2|0:0,0:0:0:0:
129,198,40809,2,0,P|149:133|200:12,1,191.250007295609,2|2,3:2|3:2,0:0:0:0:
394,36,41333,2,0,P|424:139|432:187,1,127.500004863739,6|0,3:2|0:0,0:0:0:0:
484,275,41648,2,0,P|385:258|255:260,1,191.250007295609,2|2,3:2|3:2,0:0:0:0:
83,114,42173,6,0,L|59:27,2,85.0000032424928,2|8|0,3:2|0:2|0:0,0:0:0:0:
131,89,42592,2,0,L|181:13,2,85.0000032424928,8|8|0,0:2|0:2|0:0,0:0:0:0:
259,63,43012,2,0,P|260:155|371:278,1,229.499992996216,6|0,3:2|0:0,0:0:0:0:
339,262,43431,1,10,0:2:0:0:
339,262,43536,1,8,0:2:0:0:
339,262,43641,1,10,0:2:0:0:
339,262,43746,1,8,0:2:0:0:
420,232,43851,6,0,L|431:95,1,127.500004863739,6|0,3:2|0:2,0:0:0:0:
183,42,44270,2,0,L|266:142,1,127.500004863739,2|0,3:2|0:2,0:0:0:0:
116,361,44690,2,0,P|123:288|127:208,1,127.500004863739,2|0,3:2|0:2,0:0:0:0:
368,35,45110,2,0,P|398:94|462:174,1,127.500004863739,2|2,3:2|0:2,0:0:0:0:
347,198,45529,6,0,P|309:130|263:65,1,127.500004863739,6|0,3:2|0:2,0:0:0:0:
69,223,45949,2,0,P|63:314|58:369,1,127.500004863739,2|0,3:2|0:2,0:0:0:0:
205,158,46368,2,0,P|186:74|165:7,1,127.500004863739,2|0,3:2|0:2,0:0:0:0:
144,249,46788,2,0,P|206:266|299:230,1,127.500004863739,10|8,0:2|0:2,0:0:0:0:
266,252,47103,1,8,0:2:0:0:
266,252,47208,6,0,P|318:287|386:341,1,127.500004863739,6|0,3:2|0:2,0:0:0:0:
434,61,47627,2,0,L|281:71,1,127.500004863739,2|0,3:2|0:2,0:0:0:0:
141,280,48047,2,0,L|276:249,1,127.500004863739,2|0,3:2|0:2,0:0:0:0:
35,259,48466,2,0,P|24:326|14:391,1,127.500004863739,2|0,3:2|0:2,0:0:0:0:
141,200,48886,6,0,P|138:136|134:70,1,127.500004863739,6|0,3:2|0:2,0:0:0:0:
299,245,49305,2,0,P|311:305|333:394,1,127.500004863739,2|0,3:2|0:2,0:0:0:0:
451,209,49725,2,0,L|382:222,2,63.7500024318696,2|8|0,3:2|0:2|0:2,0:0:0:0:
369,74,50145,2,0,P|414:85|543:97,1,127.500004863739,10|8,0:2|0:3,0:0:0:0:
370,325,50564,6,0,P|269:313|194:305,1,127.500004863739,6|0,3:2|0:2,0:0:0:0:
57,183,50984,2,0,P|129:195|226:212,1,127.500004863739,2|0,3:2|0:2,0:0:0:0:
402,126,51403,2,0,P|426:64|456:-13,1,127.500004863739,2|0,3:2|0:2,0:0:0:0:
269,203,51823,2,0,P|273:265|282:356,1,127.500004863739,2|0,3:2|0:2,0:0:0:0:
132,333,52242,6,0,L|145:248,2,63.7500024318696,6|8|0,3:2|0:0|0:2,0:0:0:0:
7,250,52662,2,0,P|29:335|39:402,1,127.500004863739,2|0,3:2|0:2,0:0:0:0:
217,185,53082,2,0,P|161:187|50:182,1,127.500004863739,2|0,3:2|0:2,0:0:0:0:
313,107,53501,2,0,P|339:182|395:225,1,127.500004863739,10|8,0:2|0:2,0:0:0:0:
373,213,53816,1,8,0:2:0:0:
373,213,53921,6,0,P|389:146|405:57,1,127.500004863739,6|0,3:2|0:2,0:0:0:0:
227,235,54340,2,0,P|235:307|241:376,1,127.500004863739,2|0,3:2|0:2,0:0:0:0:
238,133,54760,2,0,P|172:123|108:112,1,127.500004863739,2|8,3:2|0:3,0:0:0:0:
59,347,55180,2,0,L|141:344,3,63.7500024318696,4|4|4|4,0:3|0:3|0:3|0:3,0:0:0:0:
146,325,55599,6,0,L|235:322,1,63.7500024318696,6|0,3:2|0:0,0:0:0:0:
241,346,56019,2,0,L|388:345,1,127.500004863739,2|2,3:2|0:2,0:0:0:0:
152,224,56438,1,6,3:2:0:0:
361,179,56648,1,2,3:2:0:0:
114,55,56858,1,2,3:3:0:0:
76,121,57277,6,0,L|44:8,2,102,2|0|2,0:2|0:0|0:2,0:0:0:0:
160,255,58117,2,0,L|164:366,2,102,2|0|2,0:2|0:0|0:2,0:0:0:0:
364,131,58956,2,0,P|408:132|495:133,1,102,2|2,0:2|0:2,0:0:0:0:
430,346,59585,5,2,0:2:0:0:
430,346,59795,2,0,P|372:345|310:333,2,102,2|2|2,0:2|0:2|0:2,0:0:0:0:
350,241,60634,2,0,B|266:251|241:307|159:303,1,204,2|2,0:2|0:2,0:0:0:0:
68,258,61473,1,2,0:2:0:0:
131,170,61683,1,0,0:2:0:0:
38,88,61893,1,2,0:2:0:0:
314,29,62103,1,8,0:2:0:0:
314,29,62208,1,8,0:2:0:0:
314,29,62312,6,0,B|340:100|340:100|397:163,1,152.999995330811,6|8,3:2|0:2,0:0:0:0:
417,163,62627,1,8,0:2:0:0:
503,201,62732,2,0,L|513:361,1,152.999995330811,14|0,0:2|0:2,0:0:0:0:
157,302,63152,2,0,P|100:263|46:83,1,229.499992996216,6|0,3:1|3:2,0:0:0:0:
41,118,63571,1,8,0:2:0:0:
41,118,63676,1,8,0:2:0:0:
41,118,63781,1,8,0:2:0:0:
41,118,63886,1,8,0:2:0:0:
136,89,63991,6,0,P|186:42|365:42,1,220.999989883423,6|0,3:2|0:0,0:0:0:0:
508,190,64620,2,0,P|397:180|350:170,1,110.499994941712,10|2,0:2|3:2,0:0:0:0:
171,341,65040,1,0,0:2:0:0:
171,341,65145,2,0,P|233:338|312:335,1,110.499994941712,2|0,0:2|0:2,0:0:0:0:
325,312,65459,2,0,P|400:323|484:341,1,110.499994941712,2|0,3:2|3:2,0:0:0:0:
272,86,65879,2,0,P|183:96|109:102,1,110.499994941712,2|8,0:2|0:2,0:0:0:0:
39,312,66298,2,0,P|47:245|59:176,1,110.499994941712,10|0,0:2|3:2,0:0:0:0:
302,49,66718,2,0,L|305:128,1,55.2499974708558,2|0,3:2|0:2,0:0:0:0:
409,151,66928,2,0,P|413:226|421:300,1,110.499994941712,10|8,0:2|0:2,0:0:0:0:
134,363,67347,6,0,P|126:281|102:177,1,127.500004863739,6|0,3:2|0:2,0:0:0:0:
48,186,67662,2,0,P|111:76|167:22,1,191.250007295609,2|10,3:2|2:2,0:0:0:0:
366,165,68187,2,0,P|273:173|229:173,1,127.500004863739,6|0,3:2|3:2,0:0:0:0:
407,281,68501,2,0,P|309:275|200:278,1,191.250007295609,10|10,0:2|0:2,0:0:0:0:
91,182,69026,6,0,L|36:366,1,170.000006484986,6|8,3:2|0:2,0:0:0:0:
198,230,69445,1,0,3:2:0:0:
198,230,69585,2,0,L|176:117,1,85.0000032424928,2|0,3:2|3:2,0:0:0:0:
360,79,69865,2,0,P|311:235|457:363,1,340,6|8,3:2|0:3,0:0:0:0:
55,346,70704,5,6,3:2:0:0:
171,266,71019,1,2,0:2:0:0:
55,346,71333,1,2,0:2:0:0:
197,135,71543,5,2,0:2:0:0:
366,204,71858,1,2,0:2:0:0:
197,135,72173,1,2,0:2:0:0:
425,129,72382,2,0,L|394:53,5,56.6666666666667,10|10|10|10|8|0,0:2|0:2|0:2|0:2|0:0|0:0,0:0:0:0:
314,84,72802,2,0,L|242:73,5,56.6666666666667,0|8|10|10|8|0,3:2|3:2|0:2|0:2|0:0|0:0,0:0:0:0:
197,135,73221,6,0,P|101:205|33:378,1,280.500008560181,6|0,3:2|0:0,0:0:0:0:
450,66,76578,6,0,P|386:64|328:63,1,85,6|0,3:2|3:2,0:0:0:0:
296,30,76892,2,0,P|249:55|205:77,1,85,10|8,0:2|0:2,0:0:0:0:
79,184,77312,1,0,3:2:0:0:
79,184,77417,2,0,L|54:20,1,127.5,2|10,3:2|0:2,0:0:0:0:
144,82,77836,2,0,L|151:21,1,42.5,0|0,0:0|3:2,0:0:0:0:
233,67,78046,1,10,0:2:0:0:
369,169,78256,6,0,L|382:232,3,42.5,2|0|0|0,3:2|3:2|3:2|3:2,0:0:0:0:
364,300,78675,2,0,L|326:259,3,42.5,2|8|2|0,3:2|0:2|3:2|0:0,0:0:0:0:
306,277,79095,1,10,2:2:0:0:
186,349,79305,1,2,3:2:0:0:
76,173,79515,2,0,L|49:124,3,42.5,8|8|4|4,0:2|0:3|0:3|0:3,0:0:0:0:
138,117,79934,6,0,P|157:59|178:17,1,85,6|0,3:2|3:2,0:0:0:0:
236,47,80249,2,0,P|273:32|353:14,1,85,10|10,0:2|0:2,0:0:0:0:
270,211,80668,1,2,3:2:0:0:
270,211,80773,2,0,P|263:278|256:336,1,85,2|2,3:2|3:2,0:0:0:0:
157,310,81088,2,0,L|151:358,2,42.5,2|10|0,3:2|0:2|3:2,0:0:0:0:
71,329,81403,1,2,3:2:0:0:
62,107,81612,6,0,P|142:116|181:118,1,85,6|0,3:2|3:2,0:0:0:0:
321,66,82032,2,0,L|387:67,3,42.5,2|2|8|8,3:2|0:2|0:2|0:2,0:0:0:0:
406,48,82452,1,6,3:2:0:0:
410,259,82661,1,8,0:2:0:0:
410,259,82766,1,8,0:2:0:0:
410,259,82871,2,0,P|403:193|404:137,1,85,2|8,3:2|0:2,0:0:0:0:
319,240,83291,5,6,3:2:0:0:
102,333,83501,1,0,3:2:0:0:
102,333,83605,1,10,0:2:0:0:
46,166,83815,2,0,P|44:74|44:54,1,85,10|8,0:2|0:2,0:0:0:0:
161,42,84235,1,4,0:3:0:0:
161,42,84340,1,0,0:0:0:0:
161,42,84445,1,4,0:3:0:0:
161,42,84550,2,0,L|220:58,2,42.5,2|8|2,3:2|0:3|3:2,0:0:0:0:
222,136,84969,6,0,P|270:176|278:348,1,229.499992996216,6|0,3:2|0:0,0:0:0:0:
186,307,85389,2,0,P|101:304|4:195,1,229.499992996216,6|8,3:2|0:2,0:0:0:0:
72,132,85808,2,0,P|106:70|257:32,1,229.499992996216,6|8,3:2|0:0,0:0:0:0:
261,228,86228,2,0,B|517:185|304:48|275:64|168:229|408:314|511:246,1,509.999984436036,6|0,3:2|0:0,0:0:0:0:
