osu file format v14

[General]
AudioFilename: audio.mp3
AudioLeadIn: 0
PreviewTime: 30576
Countdown: 1
SampleSet: Soft
StackLeniency: 0.7
Mode: 0
LetterboxInBreaks: 0
WidescreenStoryboard: 0

[Editor]
Bookmarks: 472,3828,10541,23968,30681,44108,57534,64248,70122,70961,73478,76834,86904
DistanceSpacing: 0.9
BeatDivisor: 8
GridSize: 8
TimelineZoom: 1

[Metadata]
Title:Zettai Zetsumei
TitleUnicode:絶対絶命
Artist:Co shu Nie
ArtistUnicode:Cö shu Nie
Creator:[Mad]
Version:Life
Source:約束のネバーランド
Tags:yakusoku no the promised neverland
BeatmapID:1896843
BeatmapSetID:908960

[Difficulty]
HPDrainRate:4
CircleSize:4
OverallDifficulty:9.5
ApproachRate:9.6
SliderMultiplier:2
SliderTickRate:1

[Events]
//Background and Video events
0,0,"thumb-1920-967496.jpg",0,0
//Break Periods
//Storyboard Layer 0 (Background)
//Storyboard Layer 1 (Fail)
//Storyboard Layer 2 (Pass)
//Storyboard Layer 3 (Foreground)
//Storyboard Sound Samples

[TimingPoints]
472,419.58041958042,4,2,1,50,1,0
472,-100,4,2,1,50,0,0
3828,-40,4,2,1,50,0,1
9597,-40,4,2,1,50,0,0
9702,-33.3333333333333,4,2,1,50,0,1
10017,-33.3333333333333,4,2,1,50,0,0
10122,-40,4,2,1,50,0,1
10332,-40,4,2,1,50,0,0
10541,-100,4,2,1,50,0,0
30681,-33.3333333333333,4,2,1,50,0,1
36975,-33.3333333333333,4,2,1,50,0,0
37395,-33.3333333333333,4,2,1,50,0,1
43688,-33.3333333333333,4,2,1,50,0,0
44108,-50,4,2,1,50,0,0
62569,-33.3333333333333,4,2,1,50,0,1
70961,-50,4,2,1,50,0,0
72639,-33.3333333333333,4,2,1,50,0,1
73478,419.58041958042,4,2,1,50,1,0
76834,-40,4,2,1,50,0,1
86484,-40,4,2,1,50,0,0

[HitObjects]
316,142,472,5,0,0:0:0:0:
185,165,681,5,0,0:0:0:0:
198,184,786,1,0,0:0:0:0:
266,267,996,5,0,0:0:0:0:
279,248,1101,1,0,0:0:0:0:
242,92,1311,5,0,0:0:0:0:
181,269,1520,2,0,B|134:266|134:266|123:271|123:271|65:267,2,100
351,328,2150,5,0,0:0:0:0:
367,290,2255,1,0,0:0:0:0:
428,228,2360,5,0,0:0:0:0:
444,266,2465,1,0,0:0:0:0:
418,133,2569,5,0,0:0:0:0:
456,149,2674,1,0,0:0:0:0:
358,183,2779,5,0,0:0:0:0:
342,112,2884,1,0,0:0:0:0:
482,8,3094,5,0,0:0:0:0:
469,78,3199,1,0,0:0:0:0:
456,149,3304,1,0,0:0:0:0:
428,228,3409,5,0,0:0:0:0:
358,183,3513,1,0,0:0:0:0:
293,235,3618,1,0,0:0:0:0:
223,189,3723,1,0,0:0:0:0:
176,279,3828,6,0,P|133:230|216:85,1,250
286,91,4143,1,0,0:0:0:0:
323,306,4353,5,0,0:0:0:0:
282,364,4458,1,0,0:0:0:0:
251,300,4562,1,0,0:0:0:0:
438,104,4667,5,0,0:0:0:0:
459,185,4772,1,0,0:0:0:0:
375,205,4877,1,0,0:0:0:0:
354,124,4982,1,0,0:0:0:0:
214,43,5087,5,0,0:0:0:0:
192,124,5192,1,0,0:0:0:0:
276,142,5297,1,0,0:0:0:0:
298,61,5402,1,0,0:0:0:0:
113,127,5506,5,0,0:0:0:0:
126,199,5611,1,0,0:0:0:0:
271,168,5716,5,0,0:0:0:0:
258,240,5821,1,0,0:0:0:0:
101,115,5926,5,0,0:0:0:0:
121,218,6031,1,0,0:0:0:0:
212,79,6136,1,0,0:0:0:0:
136,234,6346,6,0,P|76:217|15:223,1,125
313,346,6555,2,0,P|375:352|435:335,1,125
404,156,6765,2,0,P|306:198|389:264,1,250
462,224,7080,1,0,0:0:0:0:
236,87,7185,6,0,B|222:55|188:35|188:35|231:48|281:36|281:36|325:21|368:36,1,250
443,58,7499,1,0,0:0:0:0:
232,227,7709,5,0,0:0:0:0:
307,248,7814,1,0,0:0:0:0:
362,194,7919,1,0,0:0:0:0:
78,242,8024,5,0,0:0:0:0:
97,316,8129,1,0,0:0:0:0:
157,259,8234,1,0,0:0:0:0:
137,184,8339,1,0,0:0:0:0:
333,180,8444,5,0,0:0:0:0:
313,254,8549,1,0,0:0:0:0:
256,198,8654,1,0,0:0:0:0:
275,123,8759,1,0,0:0:0:0:
405,87,8863,6,0,B|401:143|401:143|408:145|408:145|402:221,1,125
128,349,9073,5,0,0:0:0:0:
267,185,9178,1,0,0:0:0:0:
114,361,9387,5,0,0:0:0:0:
278,172,9492,1,0,0:0:0:0:
119,243,9597,1,0,0:0:0:0:
347,301,9702,2,0,B|394:315|414:357|414:357|392:283|417:208|417:208|446:135|406:87|406:87|342:75|292:139,1,450.000017166138
199,380,10122,6,0,B|207:332|207:332|203:307|203:307|213:252,1,125
168,117,10332,2,0,L|178:179,3,62.5
272,201,10541,5,0,0:0:0:0:
284,130,10856,1,0,0:0:0:0:
296,59,11171,1,0,0:0:0:0:
468,250,11381,5,0,0:0:0:0:
459,194,11696,1,0,0:0:0:0:
449,137,12011,1,0,0:0:0:0:
339,315,12220,5,0,0:0:0:0:
347,270,12535,1,0,0:0:0:0:
237,286,12849,5,0,0:0:0:0:
355,224,12954,1,0,0:0:0:0:
248,177,13059,5,0,0:0:0:0:
260,106,13374,1,0,0:0:0:0:
355,224,13689,1,0,0:0:0:0:
57,118,13898,5,0,0:0:0:0:
49,72,14213,1,0,0:0:0:0:
89,50,14527,1,0,0:0:0:0:
176,246,14737,5,0,0:0:0:0:
119,237,15052,1,0,0:0:0:0:
108,181,15366,1,0,0:0:0:0:
252,286,15576,5,0,0:0:0:0:
219,350,15891,1,0,0:0:0:0:
227,210,16206,5,0,0:0:0:0:
149,340,16311,1,0,0:0:0:0:
64,243,16416,6,0,L|166:261,1,100
257,125,16730,1,0,0:0:0:0:
235,119,16835,2,0,P|204:119|178:130,1,50
347,240,17045,1,0,0:0:0:0:
340,158,17150,1,0,0:0:0:0:
275,281,17255,5,0,0:0:0:0:
337,335,17569,1,0,0:0:0:0:
441,275,17884,1,0,0:0:0:0:
439,121,18094,5,0,0:0:0:0:
378,224,18409,1,0,0:0:0:0:
359,140,18723,1,0,0:0:0:0:
502,325,18933,5,0,0:0:0:0:
451,199,19248,1,0,0:0:0:0:
248,233,19562,5,0,0:0:0:0:
359,140,19667,1,0,0:0:0:0:
356,255,19772,6,0,B|349:296|349:296|354:304|354:304|344:367,2,100
247,122,20402,1,0,0:0:0:0:
111,282,20611,5,0,0:0:0:0:
150,158,20926,1,0,0:0:0:0:
23,186,21241,1,0,0:0:0:0:
203,339,21451,6,0,B|213:288|213:288|239:243|239:243|248:185,1,150
285,67,21870,2,0,B|297:138|297:138|320:163,1,100
492,315,22290,1,0,0:0:0:0:
415,115,22499,2,0,L|403:180,1,50
389,336,22919,5,0,0:0:0:0:
462,232,23024,1,0,0:0:0:0:
312,283,23129,1,0,0:0:0:0:
325,144,23339,5,0,0:0:0:0:
167,270,23548,5,0,0:0:0:0:
185,36,23758,5,0,0:0:0:0:
167,107,23863,1,0,0:0:0:0:
245,88,23968,2,0,B|281:99|317:88|317:88|362:74|398:91|398:91|364:155|401:228|401:228|381:201|340:186,1,350
330,269,24807,6,0,B|277:280|277:280|209:267,1,100
142,112,25227,1,0,0:0:0:0:
157,131,25646,6,0,B|181:188|161:231|161:231|142:276|164:332,1,200
350,325,26485,2,0,B|370:276|351:231|351:231|331:192|350:150,1,150
340,97,26905,2,0,P|312:166|225:205,1,150
80,189,27325,5,0,0:0:0:0:
221,274,27534,1,0,0:0:0:0:
248,230,27639,1,0,0:0:0:0:
352,310,27744,5,0,0:0:0:0:
325,354,27849,1,0,0:0:0:0:
277,352,27954,1,0,0:0:0:0:
304,308,28059,1,0,0:0:0:0:
404,207,28164,5,0,0:0:0:0:
431,251,28269,1,0,0:0:0:0:
479,249,28374,1,0,0:0:0:0:
452,205,28479,1,0,0:0:0:0:
271,115,28583,5,0,0:0:0:0:
298,159,28688,1,0,0:0:0:0:
348,146,28793,1,0,0:0:0:0:
351,94,28898,1,0,0:0:0:0:
292,36,29003,5,0,0:0:0:0:
115,227,29213,1,0,0:0:0:0:
123,279,29318,1,0,0:0:0:0:
208,244,29423,5,0,0:0:0:0:
216,192,29527,1,0,0:0:0:0:
197,141,29632,1,0,0:0:0:0:
205,89,29736,1,0,0:0:0:0:
51,141,29842,5,0,0:0:0:0:
115,227,29946,1,0,0:0:0:0:
216,192,30052,1,0,0:0:0:0:
280,277,30157,1,0,0:0:0:0:
380,242,30262,1,0,0:0:0:0:
390,258,30681,6,0,B|352:238|358:182|358:182|402:144|414:79|414:79|412:142|457:190,1,300.000011444092
219,295,30996,1,0,0:0:0:0:
280,215,31101,1,0,0:0:0:0:
265,369,31206,2,0,P|303:302|252:220,1,150.000005722046
95,134,31416,1,0,0:0:0:0:
56,210,31520,6,0,B|90:229|131:213|131:213|174:198|203:212,1,150.000005722046
265,8,31730,2,0,P|227:75|278:157,1,150.000005722046
443,202,31940,1,0,0:0:0:0:
397,349,32045,2,0,B|412:327|406:297|406:297|419:285|419:285|412:258|430:217|430:217|387:230|345:217|345:217|307:204|258:217,1,300.000011444092
111,55,32360,6,0,B|200:152|154:233|95:249|34:213|58:150,1,300.000011444092
304,43,32674,1,0,0:0:0:0:
211,4,32779,1,0,0:0:0:0:
301,130,32884,2,0,P|234:90|237:-5,1,150.000005722046
256,342,33094,1,0,0:0:0:0:
172,286,33199,6,0,B|181:232|181:232|167:216|167:216|178:137,1,150.000005722046
410,247,33409,2,0,B|419:300|419:300|438:311|438:311|454:388,1,150.000005722046
301,130,33618,1,0,0:0:0:0:
331,275,33723,2,0,B|321:221|321:221|335:205|335:205|325:137|325:137|397:69|514:144,1,300.000011444092
256,342,34038,6,0,B|189:368|135:341|135:341|85:315|25:342|25:342|59:327|90:284,1,300.000011444092
225,87,34353,1,0,0:0:0:0:
84,166,34458,1,0,0:0:0:0:
187,181,34562,1,0,0:0:0:0:
146,108,34667,2,0,P|77:84|15:121,1,150.000005722046
158,301,34877,6,0,P|96:338|28:315,1,150.000005722046
247,72,35087,2,0,B|308:48|308:48|336:55|336:55|400:34,1,150.000005722046
302,307,35297,2,0,B|251:265|251:265|242:238|242:238|192:192,1,150.000005722046
478,142,35506,2,0,B|467:206|467:206|447:227|447:227|433:294,1,150.000005722046
176,122,35716,5,0,0:0:0:0:
467,63,35856,1,0,0:0:0:0:
378,344,35996,1,0,0:0:0:0:
305,6,36136,5,0,0:0:0:0:
213,292,36276,1,0,0:0:0:0:
501,229,36416,1,0,0:0:0:0:
160,43,36555,6,0,B|150:98|150:98|154:106|154:106|137:204,1,150.000005722046
313,264,36765,1,0,0:0:0:0:
305,99,36870,2,0,B|314:154|314:154|310:162|310:162|327:260,1,150.000005722046
102,339,37080,1,0,0:0:0:0:
122,193,37184,1,0,0:0:0:0:
120,357,37290,1,0,0:0:0:0:
73,124,37395,6,0,B|114:105|154:120|154:120|188:133|225:120|225:120|245:233|245:233|206:208,1,300.000011444092
192,42,37709,1,0,0:0:0:0:
394,84,37814,1,0,0:0:0:0:
271,19,37919,2,0,P|306:82|377:96,1,150.000005722046
467,1,38129,1,0,0:0:0:0:
313,178,38234,6,0,P|289:246|326:308,1,150.000005722046
512,237,38444,2,0,B|478:256|437:240|437:240|394:225|365:239,1,150.000005722046
245,343,38653,1,0,0:0:0:0:
125,160,38758,2,0,P|197:266|55:299,1,300.000011444092
64,103,39073,6,0,B|44:131|11:140|11:140|43:208|11:258|11:258|-21:313|9:363,1,300.000011444092
245,343,39387,1,0,0:0:0:0:
117,243,39492,1,0,0:0:0:0:
160,358,39597,2,0,B|168:308|168:308|194:278|194:278|206:206,1,150.000005722046
88,29,39807,1,0,0:0:0:0:
24,175,39912,6,0,P|-13:112|10:44,1,150.000005722046
259,21,40122,1,0,0:0:0:0:
138,145,40227,1,0,0:0:0:0:
177,18,40332,2,0,B|185:67|185:67|211:97|211:97|223:169,1,150.000005722046
248,381,40541,1,0,0:0:0:0:
117,243,40646,1,0,0:0:0:0:
321,313,40751,6,0,P|344:244|307:182,1,150.000005722046
60,184,40961,2,0,P|37:253|74:315,1,150.000005722046
249,107,41171,2,0,B|203:87|203:87|104:106,1,150.000005722046
274,373,41381,2,0,B|174:391|174:391|129:372,1,150.000005722046
426,170,41590,6,0,B|443:208|428:247|428:247|412:281|424:315,1,150.000005722046
194,310,41800,2,0,B|177:272|192:233|192:233|208:199|196:165,1,150.000005722046
490,91,42010,2,0,B|430:80|430:80|394:57|394:57|348:49,1,150.000005722046
63,123,42220,2,0,B|122:112|122:112|158:89|158:89|204:81,1,150.000005722046
499,368,42430,5,0,0:0:0:0:
390,233,42569,1,0,0:0:0:0:
281,98,42709,1,0,0:0:0:0:
417,336,42849,5,0,0:0:0:0:
214,258,42988,1,0,0:0:0:0:
13,181,43128,1,0,0:0:0:0:
311,340,43269,6,0,B|231:353|231:353|153:342,1,150.000005722046
54,107,43478,2,0,B|122:97|122:97|202:110,1,150.000005722046
25,353,43688,1,0,0:0:0:0:
124,177,43793,1,0,0:0:0:0:
322,203,43898,1,0,0:0:0:0:
344,212,44108,6,0,B|301:153|339:118|331:62|331:62|376:97|425:81|454:148,1,300
411,319,44527,6,0,L|431:200,1,100
463,37,44737,1,0,0:0:0:0:
308,364,44947,6,0,L|287:245,1,100
256,82,45157,1,0,0:0:0:0:
220,342,45367,2,0,L|199:223,1,100
168,60,45577,1,0,0:0:0:0:
20,384,45786,6,0,L|40:265,1,100
72,102,45996,1,0,0:0:0:0:
108,362,46206,2,0,L|128:243,1,100
160,80,46416,1,0,0:0:0:0:
416,107,46625,6,0,L|297:127,1,100
134,159,46835,1,0,0:0:0:0:
489,292,47045,6,0,L|370:271,1,100
207,240,47255,1,0,0:0:0:0:
261,181,47360,1,0,0:0:0:0:
274,293,47465,6,0,P|170:316|130:205,1,200
220,19,47884,6,0,P|260:62|286:112,1,100
350,281,48094,1,0,0:0:0:0:
182,101,48304,6,0,P|142:144|116:194,1,100
52,363,48514,1,0,0:0:0:0:
14,53,48723,2,0,P|31:109|61:156,1,100
175,296,48933,1,0,0:0:0:0:
304,123,49143,6,0,P|286:179|256:226,1,100
190,22,49353,1,0,0:0:0:0:
375,203,49562,2,0,P|401:246|436:282,1,100
475,50,49772,1,0,0:0:0:0:
211,288,49982,5,0,0:0:0:0:
283,320,50087,1,0,0:0:0:0:
355,352,50192,1,0,0:0:0:0:
114,120,50402,1,0,0:0:0:0:
68,163,50506,1,0,0:0:0:0:
95,219,50611,1,0,0:0:0:0:
156,210,50716,1,0,0:0:0:0:
192,136,50821,6,0,L|306:115,1,100
493,81,51031,1,0,0:0:0:0:
175,221,51241,2,0,L|289:200,1,100
476,166,51451,1,0,0:0:0:0:
362,299,51660,6,0,L|247:278,1,100
61,244,51870,1,0,0:0:0:0:
379,384,52080,2,0,L|264:363,1,100
78,329,52290,1,0,0:0:0:0:
148,64,52499,5,0,0:0:0:0:
161,142,52604,1,0,0:0:0:0:
175,221,52709,1,0,0:0:0:0:
221,20,52919,2,0,L|241:134,1,100
276,321,53129,1,0,0:0:0:0:
482,68,53339,5,0,0:0:0:0:
469,146,53444,1,0,0:0:0:0:
462,226,53549,1,0,0:0:0:0:
397,77,53758,2,0,L|360:281,1,200
91,336,54073,1,0,0:0:0:0:
171,319,54178,6,0,P|184:274|171:215,1,100
96,40,54388,1,0,0:0:0:0:
289,192,54597,2,0,P|256:158|198:140,1,100
9,117,54807,1,0,0:0:0:0:
309,2,55017,6,0,P|322:47|309:105,1,100
171,319,55227,1,0,0:0:0:0:
108,277,55332,1,0,0:0:0:0:
128,204,55437,1,0,0:0:0:0:
203,200,55541,1,0,0:0:0:0:
230,271,55646,1,0,0:0:0:0:
305,267,55751,1,0,0:0:0:0:
341,359,55856,6,0,L|442:342,2,100
138,121,56276,6,0,L|37:104,2,100
373,150,56695,6,0,P|409:112|430:42,1,100
185,212,56905,2,0,P|199:262|250:315,1,100
221,19,57115,2,0,B|173:0|119:19|119:19|71:40|22:19,1,200
259,132,57534,5,0,0:0:0:0:
312,27,57744,1,0,0:0:0:0:
154,114,57954,5,0,0:0:0:0:
166,140,58059,1,0,0:0:0:0:
394,217,58269,5,0,0:0:0:0:
341,112,58479,1,0,0:0:0:0:
255,309,58688,5,0,0:0:0:0:
308,204,58898,1,0,0:0:0:0:
151,216,59108,5,0,0:0:0:0:
163,242,59213,1,0,0:0:0:0:
56,343,59423,5,0,0:0:0:0:
68,317,59528,1,0,0:0:0:0:
19,191,59737,5,0,0:0:0:0:
194,48,60052,5,0,0:0:0:0:
82,23,60262,5,0,0:0:0:0:
94,49,60367,1,0,0:0:0:0:
240,146,60576,5,0,0:0:0:0:
228,172,60681,1,0,0:0:0:0:
133,217,60786,1,0,0:0:0:0:
145,191,60891,1,0,0:0:0:0:
175,292,60996,1,0,0:0:0:0:
335,291,61206,5,0,0:0:0:0:
324,265,61311,1,0,0:0:0:0:
390,184,61416,1,0,0:0:0:0:
317,35,61625,5,0,0:0:0:0:
306,61,61730,1,0,0:0:0:0:
475,146,61940,5,0,0:0:0:0:
464,120,62045,1,0,0:0:0:0:
435,304,62255,5,0,0:0:0:0:
297,192,62360,1,0,0:0:0:0:
401,210,62465,1,0,0:0:0:0:
277,307,62569,5,0,0:0:0:0:
83,118,62709,1,0,0:0:0:0:
343,44,62849,1,0,0:0:0:0:
125,268,62989,5,0,0:0:0:0:
385,194,63129,1,0,0:0:0:0:
192,6,63269,1,0,0:0:0:0:
185,351,63409,6,0,B|228:362|265:351|265:351|315:334|361:351|361:351|340:305|358:256|358:256|375:209|350:153|350:153|309:132|235:130,1,450.000017166138
32,40,63828,5,0,0:0:0:0:
96,140,63933,1,0,0:0:0:0:
210,110,64038,1,0,0:0:0:0:
273,209,64143,1,0,0:0:0:0:
433,143,64248,6,0,B|465:85|437:39|437:39|394:74|327:44|327:44|272:20|202:40,1,300.000011444092
108,244,64562,1,0,0:0:0:0:
176,189,64667,1,0,0:0:0:0:
34,203,64772,2,0,P|101:160|172:180,1,150.000005722046
330,329,64982,1,0,0:0:0:0:
255,216,65087,6,0,B|271:255|256:292|256:292|241:329|256:365,1,150.000005722046
381,133,65297,2,0,B|327:123|327:123|298:131|298:131|188:112,1,150.000005722046
83,36,65506,1,0,0:0:0:0:
176,189,65611,1,0,0:0:0:0:
193,43,65716,2,0,P|150:110|170:181,1,150.000005722046
424,352,65926,6,0,B|458:275|424:213|424:213|396:160|424:106|424:106|457:115|462:155,1,300.000011444092
294,318,66241,1,0,0:0:0:0:
237,166,66346,1,0,0:0:0:0:
347,247,66451,2,0,B|290:235|290:235|253:248|253:248|201:239,1,150.000005722046
37,301,66660,1,0,0:0:0:0:
82,379,66765,6,0,P|125:312|105:241,1,150.000005722046
172,60,66975,2,0,L|21:86,1,150.000005722046
231,320,67185,1,0,0:0:0:0:
239,260,67289,1,0,0:0:0:0:
247,201,67394,1,0,0:0:0:0:
256,142,67499,1,0,0:0:0:0:
311,44,67604,6,0,P|426:69|329:152,1,300.000011444092
114,109,67919,1,0,0:0:0:0:
143,269,68024,2,0,B|132:206|132:206|141:199|141:199|128:121,1,150.000005722046
392,200,68234,2,0,B|381:262|381:262|390:269|390:269|377:343,1,150.000005722046
451,129,68444,6,0,B|398:106|339:129|339:129|271:150|212:129|212:129|244:158|254:205,1,300.000011444092
211,316,68758,1,0,0:0:0:0:
66,307,68863,2,0,P|133:350|204:330,1,150.000005722046
129,84,69073,2,0,P|196:41|267:61,1,150.000005722046
306,352,69283,5,0,0:0:0:0:
353,203,69423,1,0,0:0:0:0:
400,54,69562,1,0,0:0:0:0:
402,368,69702,5,0,0:0:0:0:
345,189,69842,1,0,0:0:0:0:
289,10,69981,1,0,0:0:0:0:
487,275,70122,6,0,B|448:291|411:276|411:276|374:261|338:276,1,150.000005722046
187,344,70332,5,0,0:0:0:0:
119,289,70437,1,0,0:0:0:0:
210,125,70541,5,0,0:0:0:0:
197,171,70646,1,0,0:0:0:0:
210,213,70751,1,0,0:0:0:0:
197,259,70856,1,0,0:0:0:0:
92,139,70961,5,0,0:0:0:0:
76,180,72639,2,0,P|110:145|158:132,1,100.000003814697
160,344,72779,2,0,P|113:331|77:297,1,100.000003814697
260,189,72919,2,0,P|273:236|261:284,1,100.000003814697
63,166,73059,5,0,0:0:0:0:
123,192,73128,1,0,0:0:0:0:
187,181,73198,1,0,0:0:0:0:
242,141,73269,5,0,0:0:0:0:
308,111,73338,1,0,0:0:0:0:
379,124,73408,1,0,0:0:0:0:
427,183,73478,5,0,0:0:0:0:
404,210,73582,1,0,0:0:0:0:
507,264,73687,5,0,0:0:0:0:
484,237,73791,1,0,0:0:0:0:
428,297,73897,5,0,0:0:0:0:
485,353,74002,1,0,0:0:0:0:
291,308,74212,5,0,0:0:0:0:
311,259,74317,1,0,0:0:0:0:
117,194,74526,5,0,0:0:0:0:
172,323,74736,1,0,0:0:0:0:
221,135,74946,5,0,0:0:0:0:
228,173,75050,1,0,0:0:0:0:
139,114,75155,5,0,0:0:0:0:
149,81,75261,1,0,0:0:0:0:
53,105,75366,5,0,0:0:0:0:
63,138,75471,1,0,0:0:0:0:
82,19,75575,5,0,0:0:0:0:
172,0,75680,1,0,0:0:0:0:
240,60,75785,1,0,0:0:0:0:
318,25,75890,5,0,0:0:0:0:
328,58,75994,1,0,0:0:0:0:
432,227,76205,5,0,0:0:0:0:
442,194,76309,1,0,0:0:0:0:
349,229,76415,5,0,0:0:0:0:
359,262,76519,1,0,0:0:0:0:
370,150,76624,5,0,0:0:0:0:
265,219,76729,1,0,0:0:0:0:
236,120,76834,6,0,P|175:168|234:315,1,250
304,343,77149,1,0,0:0:0:0:
318,88,77359,5,0,0:0:0:0:
278,23,77464,1,0,0:0:0:0:
205,40,77569,1,0,0:0:0:0:
395,301,77673,5,0,0:0:0:0:
428,222,77778,1,0,0:0:0:0:
349,188,77883,1,0,0:0:0:0:
316,268,77988,1,0,0:0:0:0:
190,233,78093,5,0,0:0:0:0:
157,154,78198,1,0,0:0:0:0:
236,120,78303,1,0,0:0:0:0:
270,200,78408,1,0,0:0:0:0:
327,113,78512,5,0,0:0:0:0:
353,27,78617,1,0,0:0:0:0:
478,168,78722,5,0,0:0:0:0:
452,82,78827,1,0,0:0:0:0:
314,119,78932,5,0,0:0:0:0:
345,15,79037,1,0,0:0:0:0:
388,195,79142,1,0,0:0:0:0:
337,3,79352,6,0,P|272:-5|209:36,1,125
257,225,79561,2,0,P|322:233|385:192,1,125
148,105,79771,2,0,B|121:166|147:227|147:227|172:287|148:355,1,250
76,288,80086,1,0,0:0:0:0:
332,155,80191,6,0,P|240:119|314:212,1,250
338,237,80505,1,0,0:0:0:0:
81,143,80715,5,0,0:0:0:0:
35,202,80820,1,0,0:0:0:0:
109,212,80925,1,0,0:0:0:0:
142,58,81030,5,0,0:0:0:0:
161,132,81135,1,0,0:0:0:0:
221,75,81240,1,0,0:0:0:0:
201,0,81345,1,0,0:0:0:0:
362,115,81450,5,0,0:0:0:0:
342,189,81555,1,0,0:0:0:0:
282,132,81660,1,0,0:0:0:0:
302,57,81765,1,0,0:0:0:0:
271,228,81869,5,0,0:0:0:0:
284,300,81974,1,0,0:0:0:0:
441,223,82079,5,0,0:0:0:0:
428,295,82184,1,0,0:0:0:0:
259,216,82289,5,0,0:0:0:0:
279,319,82394,1,0,0:0:0:0:
370,180,82499,1,0,0:0:0:0:
288,333,82708,6,0,P|297:272|270:216,1,125
76,48,82918,2,0,P|66:108|93:164,1,125
346,34,83128,2,0,P|276:109|378:127,1,250
427,58,83443,1,0,0:0:0:0:
279,222,83547,6,0,L|155:242,1,125
8,243,83757,5,0,0:0:0:0:
98,184,83862,1,0,0:0:0:0:
431,328,84072,5,0,0:0:0:0:
293,61,84282,5,0,0:0:0:0:
336,143,84387,1,0,0:0:0:0:
239,144,84491,1,0,0:0:0:0:
392,66,84596,1,0,0:0:0:0:
449,262,84806,5,0,0:0:0:0:
381,252,84910,1,0,0:0:0:0:
313,243,85015,1,0,0:0:0:0:
246,233,85120,1,0,0:0:0:0:
156,281,85226,6,0,P|126:234|125:166,1,83.3333333333333
88,243,85366,2,0,P|85:187|118:127,1,83.3333333333333
48,176,85505,2,0,P|73:126|132:91,1,83.3333333333333
356,281,85645,6,0,P|386:234|387:166,1,83.3333333333333
424,243,85785,2,0,P|426:187|393:127,1,83.3333333333333
464,176,85924,2,0,P|438:126|379:91,1,83.3333333333333
248,64,86065,5,0,0:0:0:0:
264,72,86135,1,0,0:0:0:0:
248,88,86205,1,0,0:0:0:0:
264,96,86275,1,0,0:0:0:0:
248,112,86345,1,0,0:0:0:0:
264,120,86415,1,0,0:0:0:0:
256,192,86484,6,0,B|221:180|221:180|203:195|203:195|191:179|191:179|170:202|170:202|131:129|-57:140|-33:294|-4:374|108:368|176:338,1,500
