osu file format v14

[General]
AudioFilename: audio.mp3
AudioLeadIn: 0
PreviewTime: 57560
Countdown: 0
SampleSet: Soft
StackLeniency: 0.7
Mode: 3
LetterboxInBreaks: 0
SpecialStyle: 0
WidescreenStoryboard: 0

[Editor]
DistanceSpacing: 3
BeatDivisor: 4
GridSize: 16
TimelineZoom: 1.5

[Metadata]
Title:ZETTAI ZETSUMEI (TV Size)
TitleUnicode:絶体絶命 (TV Size)
Artist:Co shu Nie
ArtistUnicode:Cö shu Nie
Creator:Kyousuke-
Version:Hard
Source:約束のネバーランド
Tags:コシュニエ 中村未来 Miku Nakamura yakusoku no neverland the promised ed ending rock anime japanese -_Ly0572_- Syadow- arcwinolivirus FAMoss 松本駿介 Matsumoto Shunsuke 藤田亮介 Fujita Ryosuke AICL-3670 jrock
BeatmapID:2064290
BeatmapSetID:982271

[Difficulty]
HPDrainRate:7.5
CircleSize:5
OverallDifficulty:7.5
ApproachRate:5
SliderMultiplier:1.4
SliderTickRate:1

[Events]
//Background and Video events
0,0,"bg.jpg",0,0
//Break Periods
//Storyboard Layer 0 (Background)
//Storyboard Layer 1 (Fail)
//Storyboard Layer 2 (Pass)
//Storyboard Layer 3 (Foreground)
//Storyboard Layer 4 (Overlay)
//Storyboard Sound Samples
Sample,9308,0,"tom01.wav",70
Sample,44133,0,"tom03.wav",70
Sample,66371,0,"tom04.wav",70
Sample,73049,0,"tom02.wav",70
Sample,85636,0,"tom02.wav",70
Sample,85706,0,"tom03.wav",70
Sample,86055,0,"tom03.wav",70
Sample,86125,0,"tom04.wav",70
Sample,86335,0,"tom03.wav",70

[TimingPoints]
602,419.58041958042,4,2,1,60,1,0
44238,-100,4,2,1,60,0,1
57664,-100,4,2,1,40,0,0
62490,-100,4,2,1,50,0,0
64378,-100,4,2,1,60,0,0
71091,-100,4,2,1,40,0,0
72769,-100,4,2,1,60,0,0
76965,419.58041958042,4,2,1,40,1,0

[HitObjects]
460,192,602,128,0,811:0:0:0:0:
153,192,811,1,0,0:0:0:0:
51,192,916,128,0,1126:0:0:0:0:
358,192,1126,1,0,0:0:0:0:
460,192,1231,128,0,1441:0:0:0:0:
256,192,1441,128,0,1650:0:0:0:0:
51,192,1650,128,0,1860:0:0:0:0:
358,192,1860,128,0,2070:0:0:0:0:
153,192,2070,128,0,2280:0:0:0:0:
256,192,2280,1,0,0:0:0:0:
460,192,2385,1,0,0:0:0:0:
153,192,2490,1,0,0:0:0:0:
358,192,2595,1,0,0:0:0:0:
256,192,2699,1,0,0:0:0:0:
51,192,2804,1,0,0:0:0:0:
153,192,2909,1,0,0:0:0:0:
256,192,3014,1,0,0:0:0:0:
358,192,3224,1,0,0:0:0:0:
460,192,3329,1,0,0:0:0:0:
256,192,3434,1,0,0:0:0:0:
51,192,3539,1,8,0:0:0:0:
153,192,3539,1,0,0:0:0:0:
358,192,3643,1,8,0:0:0:0:
153,192,3748,1,8,0:0:0:0:
358,192,3853,1,8,0:0:0:0:
256,192,3958,1,2,0:0:0:0:
460,192,3958,128,4,5636:0:0:0:0:
153,192,4168,1,0,0:0:0:0:
256,192,4273,1,8,0:0:0:0:
51,192,4483,1,2,0:0:0:0:
358,192,4692,1,8,0:0:0:0:
51,192,4797,1,0,0:0:0:0:
153,192,5007,1,2,0:0:0:0:
256,192,5217,1,8,0:0:0:0:
358,192,5217,1,0,0:0:0:0:
153,192,5427,1,0,0:0:0:0:
51,192,5636,128,2,6895:0:0:0:0:
358,192,5636,1,0,0:0:0:0:
256,192,5846,1,8,0:0:0:0:
460,192,5951,1,8,0:0:0:0:
153,192,6056,1,2,0:0:0:0:
256,192,6371,1,8,0:0:0:0:
460,192,6476,1,0,0:0:0:0:
358,192,6685,1,2,0:0:0:0:
153,192,6895,1,8,0:0:0:0:
256,192,6895,1,0,0:0:0:0:
460,192,7105,1,8,0:0:0:0:
256,192,7315,128,2,8993:0:0:0:0:
358,192,7315,1,4,0:0:0:0:
153,192,7525,1,0,0:0:0:0:
51,192,7629,1,2,0:0:0:0:
358,192,7839,1,8,0:0:0:0:
153,192,8049,1,8,0:0:0:0:
460,192,8154,1,0,0:0:0:0:
358,192,8364,1,2,0:0:0:0:
51,192,8574,1,8,0:0:0:0:
153,192,8574,1,0,0:0:0:0:
358,192,8783,1,8,0:0:0:0:
153,192,8888,1,8,0:0:0:0:
51,192,8993,1,2,0:0:0:0:
460,192,8993,1,4,0:0:0:0:
153,192,9203,1,8,0:0:0:0:
358,192,9308,1,8,0:0:0:0:
358,192,9518,1,0,0:0:0:70:tom02.wav
153,192,9622,1,0,0:0:0:70:tom03.wav
256,192,9727,1,0,0:0:0:70:tom04.wav
51,192,9832,1,2,0:0:0:0:
358,192,9832,1,4,0:0:0:0:
460,192,9832,1,0,0:0:0:0:
51,192,10252,1,2,0:0:0:0:
153,192,10252,1,4,0:0:0:0:
256,192,10252,1,0,0:0:0:0:
256,192,10671,1,4,0:0:0:0:
358,192,10671,1,2,0:0:0:0:
460,192,10671,1,0,0:0:0:0:
51,192,10986,1,2,0:0:0:0:
51,192,11301,1,2,0:0:0:0:
358,192,11511,1,2,0:0:0:0:
460,192,11511,1,0,0:0:0:0:
153,192,11720,1,0,0:0:0:0:
358,192,11825,1,2,0:0:0:0:
256,192,12140,1,2,0:0:0:0:
51,192,12350,1,2,0:0:0:0:
153,192,12350,1,0,0:0:0:0:
256,192,12560,1,0,0:0:0:0:
51,192,12664,1,2,0:0:0:0:
358,192,12979,1,8,0:0:0:0:
460,192,12979,1,0,0:0:0:0:
51,192,13084,1,8,0:0:0:0:
153,192,13084,1,0,0:0:0:0:
358,192,13189,1,2,0:0:0:0:
460,192,13189,1,0,0:0:0:0:
256,192,13399,1,0,0:0:0:0:
460,192,13504,1,2,0:0:0:0:
358,192,13818,1,2,0:0:0:0:
51,192,14028,1,2,0:0:0:0:
153,192,14028,1,0,0:0:0:0:
358,192,14238,1,0,0:0:0:0:
153,192,14343,1,2,0:0:0:0:
51,192,14657,1,2,0:0:0:0:
358,192,14867,1,2,0:0:0:0:
460,192,14867,1,0,0:0:0:0:
51,192,15077,1,0,0:0:0:0:
460,192,15182,1,2,0:0:0:0:
256,192,15497,1,2,0:0:0:0:
51,192,15706,1,2,0:0:0:0:
153,192,15706,1,0,0:0:0:0:
358,192,15916,1,0,0:0:0:0:
153,192,16021,1,2,0:0:0:0:
358,192,16336,1,8,0:0:0:0:
460,192,16336,1,0,0:0:0:0:
51,192,16441,1,8,0:0:0:0:
153,192,16441,1,0,0:0:0:0:
256,192,16546,1,2,0:0:0:0:
358,192,16546,128,0,16860:0:0:0:0:
51,192,16755,1,0,0:0:0:0:
153,192,16860,1,2,0:0:0:0:
256,192,16965,1,8,0:0:0:0:
460,192,16965,1,0,0:0:0:0:
153,192,17070,1,2,0:0:0:0:
51,192,17175,1,0,0:0:0:70:tom03.wav
358,192,17280,1,0,0:0:0:70:tom04.wav
153,192,17385,128,2,17699:0:0:0:0:
256,192,17385,1,4,0:0:0:0:
460,192,17385,1,0,0:0:0:0:
358,192,17595,1,0,0:0:0:0:
51,192,17699,128,2,18014:0:0:0:0:
256,192,17699,1,0,0:0:0:0:
153,192,18014,1,2,0:0:0:0:
460,192,18014,128,0,18224:0:0:0:0:
256,192,18224,1,2,0:0:0:0:
358,192,18224,128,0,18643:0:0:0:0:
51,192,18434,1,0,0:0:0:0:
153,192,18539,1,2,0:0:0:0:
256,192,18643,128,0,19063:0:0:0:0:
460,192,18853,1,2,0:0:0:0:
51,192,19063,128,2,19483:0:0:0:0:
358,192,19063,1,0,0:0:0:0:
153,192,19273,1,0,0:0:0:0:
460,192,19378,1,2,0:0:0:0:
256,192,19483,128,0,19692:0:0:0:0:
358,192,19692,1,8,0:0:0:0:
460,192,19692,1,0,0:0:0:0:
51,192,19797,1,8,0:0:0:0:
153,192,19797,1,0,0:0:0:0:
358,192,19902,1,2,0:0:0:0:
460,192,19902,128,0,20532:0:0:0:0:
256,192,20112,1,0,0:0:0:0:
51,192,20217,1,2,0:0:0:0:
153,192,20532,1,8,0:0:0:0:
256,192,20532,1,0,0:0:0:0:
51,192,20741,128,2,21161:0:0:0:0:
358,192,20741,1,4,0:0:0:0:
256,192,20951,1,0,0:0:0:0:
460,192,21056,1,2,0:0:0:0:
153,192,21161,128,0,21581:0:0:0:0:
358,192,21371,1,2,0:0:0:0:
51,192,21581,1,2,0:0:0:0:
460,192,21581,128,0,21790:0:0:0:0:
256,192,21790,1,0,0:0:0:0:
153,192,21895,1,2,0:0:0:0:
51,192,22000,1,0,0:0:0:0:
358,192,22000,128,0,22210:0:0:0:0:
153,192,22210,1,2,0:0:0:0:
256,192,22420,128,2,22629:0:0:0:0:
460,192,22420,1,0,0:0:0:0:
51,192,22629,1,0,0:0:0:0:
153,192,22629,1,0,0:0:0:0:
358,192,22734,1,2,0:0:0:0:
51,192,23049,1,8,0:0:0:0:
153,192,23049,1,0,0:0:0:0:
358,192,23154,1,8,0:0:0:0:
460,192,23154,1,0,0:0:0:0:
51,192,23259,1,2,0:0:0:0:
153,192,23259,1,0,0:0:0:0:
256,192,23469,1,2,0:0:0:0:
358,192,23469,1,0,0:0:0:0:
51,192,23678,1,8,0:0:0:0:
153,192,23678,1,4,0:0:0:0:
460,192,23678,1,0,0:0:0:0:
358,192,23888,1,0,0:0:0:70:tom03.wav
256,192,23993,1,0,0:0:0:70:tom04.wav
51,192,24098,128,2,24832:0:0:0:0:
153,192,24098,1,4,0:0:0:0:
460,192,24098,1,0,0:0:0:0:
358,192,24518,128,0,25357:0:0:0:0:
51,192,24937,128,2,25671:0:0:0:0:
153,192,24937,1,4,0:0:0:0:
460,192,25357,128,0,25671:0:0:0:0:
51,192,25776,1,4,0:0:0:0:
460,192,25776,128,2,26511:0:0:0:0:
153,192,26196,128,0,27035:0:0:0:0:
358,192,26615,1,2,0:0:0:0:
460,192,26615,128,4,27350:0:0:0:0:
51,192,27035,128,0,27350:0:0:0:0:
51,192,27455,1,4,0:0:0:0:
153,192,27455,1,2,0:0:0:0:
256,192,27455,1,0,0:0:0:0:
460,192,27664,1,8,0:0:0:0:
51,192,27734,1,8,0:0:0:0:
153,192,27804,1,8,0:0:0:0:
256,192,27874,1,2,0:0:0:0:
358,192,27874,1,4,0:0:0:0:
51,192,27979,1,0,0:0:0:0:
256,192,28084,1,8,0:0:0:0:
51,192,28189,1,8,0:0:0:0:
358,192,28294,1,4,0:0:0:0:
460,192,28294,1,2,0:0:0:0:
153,192,28399,1,8,0:0:0:0:
256,192,28504,1,0,0:0:0:0:
358,192,28608,1,8,0:0:0:0:
51,192,28713,1,2,0:0:0:0:
153,192,28713,1,0,0:0:0:0:
460,192,28818,1,0,0:0:0:70:tom02.wav
153,192,28923,1,0,0:0:0:70:tom03.wav
460,192,29028,1,0,0:0:0:70:tom04.wav
51,192,29133,1,4,0:0:0:0:
358,192,29133,1,2,0:0:0:0:
153,192,29238,1,8,0:0:0:0:
256,192,29343,1,8,0:0:0:0:
358,192,29448,1,8,0:0:0:0:
51,192,29553,1,2,0:0:0:0:
460,192,29553,1,4,0:0:0:0:
153,192,29657,1,8,0:0:0:0:
256,192,29762,1,8,0:0:0:0:
358,192,29867,1,8,0:0:0:0:
51,192,29972,1,4,0:0:0:0:
460,192,29972,128,2,30077:0:0:0:0:
358,192,30077,128,8,30182:0:0:0:0:
256,192,30182,128,8,30287:0:0:0:0:
153,192,30287,128,8,30392:0:0:0:0:
51,192,30392,1,8,0:0:0:0:
460,192,30392,1,0,0:0:0:0:
51,192,30811,128,4,31021:0:0:0:0:
256,192,30811,1,2,0:0:0:0:
460,192,30811,1,0,0:0:0:0:
358,192,31126,1,2,0:0:0:0:
51,192,31231,128,8,31441:0:0:0:0:
460,192,31231,1,0,0:0:0:0:
256,192,31336,1,2,0:0:0:0:
153,192,31441,1,0,0:0:0:0:
358,192,31546,1,8,0:0:0:0:
51,192,31650,1,2,0:0:0:0:
460,192,31650,128,0,31860:0:0:0:0:
358,192,31860,1,2,0:0:0:0:
153,192,31965,1,0,0:0:0:0:
51,192,32070,1,8,0:0:0:0:
460,192,32070,128,0,32280:0:0:0:0:
256,192,32175,1,2,0:0:0:0:
358,192,32280,1,0,0:0:0:0:
256,192,32385,1,0,0:0:0:0:
51,192,32490,128,2,32699:0:0:0:0:
153,192,32490,1,4,0:0:0:0:
358,192,32804,1,2,0:0:0:0:
153,192,32909,128,8,33119:0:0:0:0:
256,192,32909,1,0,0:0:0:0:
460,192,33014,1,2,0:0:0:0:
358,192,33119,1,0,0:0:0:0:
256,192,33224,1,8,0:0:0:0:
51,192,33329,1,2,0:0:0:0:
460,192,33329,128,0,33539:0:0:0:0:
153,192,33539,1,2,0:0:0:0:
256,192,33643,1,0,0:0:0:0:
51,192,33748,1,8,0:0:0:0:
358,192,33748,128,0,33958:0:0:0:0:
153,192,33853,1,2,0:0:0:0:
256,192,33958,1,0,0:0:0:0:
153,192,34063,1,0,0:0:0:0:
51,192,34168,1,2,0:0:0:0:
460,192,34168,128,4,34378:0:0:0:0:
358,192,34378,1,8,0:0:0:0:
153,192,34483,1,2,0:0:0:0:
256,192,34588,128,8,34797:0:0:0:0:
460,192,34588,1,0,0:0:0:0:
51,192,34692,1,2,0:0:0:0:
358,192,34902,1,8,0:0:0:0:
51,192,35007,128,2,35217:0:0:0:0:
153,192,35007,1,0,0:0:0:0:
460,192,35217,1,2,0:0:0:0:
153,192,35322,1,0,0:0:0:0:
256,192,35427,128,8,35636:0:0:0:0:
358,192,35427,1,0,0:0:0:0:
51,192,35636,1,8,0:0:0:0:
153,192,35846,1,2,0:0:0:0:
460,192,35846,1,4,0:0:0:0:
358,192,35986,1,8,0:0:0:0:
256,192,36126,1,8,0:0:0:0:
51,192,36266,1,2,0:0:0:0:
153,192,36266,1,4,0:0:0:0:
256,192,36406,1,8,0:0:0:0:
358,192,36546,1,8,0:0:0:0:
51,192,36685,1,2,0:0:0:0:
460,192,36685,1,4,0:0:0:0:
358,192,36895,1,0,0:0:0:70:tom01.wav
256,192,37000,1,0,0:0:0:70:tom03.wav
153,192,37105,128,8,37210:0:0:0:0:
460,192,37105,1,4,0:0:0:0:
358,192,37210,128,8,37315:0:0:0:0:
51,192,37315,128,8,37420:0:0:0:0:
256,192,37420,128,0,37525:0:0:0:0:
51,192,37525,1,4,0:0:0:0:
153,192,37525,128,2,37734:0:0:0:0:
460,192,37525,1,0,0:0:0:0:
358,192,37734,1,8,0:0:0:0:
51,192,37839,1,2,0:0:0:0:
153,192,37944,128,8,38154:0:0:0:0:
256,192,37944,1,0,0:0:0:0:
460,192,38049,1,2,0:0:0:0:
51,192,38259,1,8,0:0:0:0:
256,192,38364,1,2,0:0:0:0:
358,192,38364,128,0,38574:0:0:0:0:
153,192,38574,1,2,0:0:0:0:
460,192,38678,1,0,0:0:0:0:
51,192,38783,1,8,0:0:0:0:
358,192,38783,128,0,38993:0:0:0:0:
256,192,38888,1,2,0:0:0:0:
153,192,38993,1,0,0:0:0:0:
256,192,39098,1,0,0:0:0:0:
51,192,39203,1,2,0:0:0:0:
460,192,39203,128,4,39413:0:0:0:0:
358,192,39413,1,0,0:0:0:0:
256,192,39518,1,2,0:0:0:0:
51,192,39622,1,8,0:0:0:0:
153,192,39622,128,0,39832:0:0:0:0:
358,192,39727,1,2,0:0:0:0:
460,192,39832,1,0,0:0:0:0:
256,192,39937,1,8,0:0:0:0:
51,192,40042,1,2,0:0:0:0:
358,192,40042,128,0,40252:0:0:0:0:
153,192,40252,1,2,0:0:0:0:
256,192,40357,1,0,0:0:0:0:
51,192,40462,128,8,40671:0:0:0:0:
460,192,40462,1,4,0:0:0:0:
358,192,40567,1,8,0:0:0:0:
153,192,40671,1,8,0:0:0:0:
358,192,40776,1,8,0:0:0:0:
51,192,40881,1,2,0:0:0:0:
460,192,40881,128,4,41720:0:0:0:0:
153,192,41091,1,0,0:0:0:0:
256,192,41196,1,2,0:0:0:0:
51,192,41301,1,8,0:0:0:0:
153,192,41301,1,0,0:0:0:0:
358,192,41406,1,2,0:0:0:0:
256,192,41511,1,0,0:0:0:0:
153,192,41615,1,8,0:0:0:0:
51,192,41720,128,2,42560:0:0:0:0:
358,192,41720,1,0,0:0:0:0:
460,192,41930,1,0,0:0:0:0:
256,192,42035,1,2,0:0:0:0:
358,192,42140,1,8,0:0:0:0:
460,192,42140,1,0,0:0:0:0:
153,192,42245,1,2,0:0:0:0:
256,192,42350,1,8,0:0:0:0:
358,192,42455,1,8,0:0:0:0:
153,192,42560,1,2,0:0:0:0:
460,192,42560,1,4,0:0:0:0:
256,192,42699,1,8,0:0:0:0:
358,192,42839,1,8,0:0:0:0:
51,192,42979,1,2,0:0:0:0:
460,192,42979,1,4,0:0:0:0:
358,192,43119,1,8,0:0:0:0:
256,192,43259,1,8,0:0:0:0:
51,192,43399,128,2,43818:0:0:0:0:
153,192,43399,1,4,0:0:0:0:
460,192,43399,1,0,0:0:0:0:
256,192,43818,128,8,43923:0:0:0:0:
460,192,43818,1,4,0:0:0:0:
153,192,43923,128,8,44028:0:0:0:0:
358,192,44028,128,0,44133:0:0:0:70:tom02.wav
256,192,44133,128,8,44238:0:0:0:0:
51,192,44238,128,2,45916:0:0:0:0:
153,192,44238,1,4,0:0:0:0:
460,192,44238,128,0,44657:0:0:0:0:
153,192,44657,128,2,45077:0:0:0:0:
358,192,44657,1,8,0:0:0:0:
256,192,44867,1,0,0:0:0:0:
460,192,45077,128,2,45497:0:0:0:0:
256,192,45287,1,0,0:0:0:0:
153,192,45497,128,2,45916:0:0:0:0:
358,192,45497,1,8,0:0:0:0:
256,192,45706,1,0,0:0:0:0:
358,192,45916,128,2,46336:0:0:0:0:
460,192,45916,128,0,47175:0:0:0:0:
256,192,46126,1,0,0:0:0:0:
51,192,46336,128,2,46755:0:0:0:0:
153,192,46336,1,8,0:0:0:0:
256,192,46546,1,0,0:0:0:0:
358,192,46755,128,2,47175:0:0:0:0:
256,192,46965,1,0,0:0:0:0:
51,192,47175,1,10,0:0:0:0:
153,192,47280,1,0,0:0:0:0:
256,192,47385,1,8,0:0:0:0:
460,192,47455,1,0,0:0:0:0:
358,192,47525,1,0,0:0:0:0:
51,192,47595,1,2,0:0:0:0:
153,192,47595,128,4,48014:0:0:0:0:
256,192,47595,128,0,49273:0:0:0:0:
460,192,47804,1,0,0:0:0:0:
51,192,48014,1,8,0:0:0:0:
358,192,48014,128,2,48434:0:0:0:0:
153,192,48224,1,0,0:0:0:0:
51,192,48434,128,2,48853:0:0:0:0:
358,192,48643,1,0,0:0:0:0:
153,192,48853,1,8,0:0:0:0:
460,192,48853,128,2,49273:0:0:0:0:
51,192,49063,1,0,0:0:0:0:
153,192,49273,128,2,49692:0:0:0:0:
358,192,49273,128,0,50112:0:0:0:0:
51,192,49483,1,0,0:0:0:0:
256,192,49692,128,8,50112:0:0:0:0:
460,192,49692,1,2,0:0:0:0:
51,192,49902,1,0,0:0:0:0:
460,192,50112,1,2,0:0:0:0:
153,192,50217,1,8,0:0:0:0:
358,192,50322,1,0,0:0:0:70:tom01.wav
51,192,50532,1,8,0:0:0:0:
153,192,50532,1,2,0:0:0:0:
256,192,50636,1,8,0:0:0:0:
358,192,50741,1,0,0:0:0:70:tom03.wav
256,192,50846,1,0,0:0:0:70:tom04.wav
51,192,50951,1,2,0:0:0:0:
153,192,50951,128,4,52629:0:0:0:0:
460,192,50951,128,0,51371:0:0:0:0:
256,192,51161,1,0,0:0:0:0:
51,192,51371,128,2,51790:0:0:0:0:
358,192,51371,1,8,0:0:0:0:
256,192,51581,1,0,0:0:0:0:
460,192,51790,128,2,52210:0:0:0:0:
256,192,52000,1,0,0:0:0:0:
51,192,52210,128,2,52629:0:0:0:0:
358,192,52210,1,8,0:0:0:0:
256,192,52420,1,0,0:0:0:0:
358,192,52629,128,2,53888:0:0:0:0:
460,192,52629,128,0,53049:0:0:0:0:
256,192,52839,1,0,0:0:0:0:
51,192,53049,128,2,53469:0:0:0:0:
153,192,53049,1,8,0:0:0:0:
256,192,53259,1,0,0:0:0:0:
460,192,53469,128,2,53888:0:0:0:0:
256,192,53678,1,0,0:0:0:0:
51,192,53888,1,8,0:0:0:0:
153,192,53888,1,2,0:0:0:0:
460,192,54098,1,8,0:0:0:0:
358,192,54203,1,8,0:0:0:0:
51,192,54308,128,2,55147:0:0:0:0:
153,192,54308,128,4,54727:0:0:0:0:
256,192,54308,1,0,0:0:0:0:
358,192,54518,1,0,0:0:0:0:
256,192,54727,1,8,0:0:0:0:
460,192,54727,128,2,55147:0:0:0:0:
358,192,54937,1,0,0:0:0:0:
153,192,55147,1,2,0:0:0:0:
256,192,55147,1,4,0:0:0:0:
358,192,55357,1,0,0:0:0:70:tom02.wav
256,192,55462,1,0,0:0:0:70:tom03.wav
51,192,55567,1,8,0:0:0:0:
153,192,55567,1,2,0:0:0:0:
358,192,55671,1,0,0:0:0:70:tom02.wav
153,192,55776,1,0,0:0:0:70:tom03.wav
358,192,55881,1,0,0:0:0:70:tom04.wav
51,192,55986,1,2,0:0:0:0:
256,192,55986,1,4,0:0:0:0:
460,192,55986,1,0,0:0:0:0:
153,192,56406,1,4,0:0:0:0:
256,192,56406,1,2,0:0:0:0:
358,192,56406,1,0,0:0:0:0:
51,192,56825,1,2,0:0:0:0:
153,192,56825,128,4,56930:0:0:0:0:
460,192,56825,1,0,0:0:0:0:
256,192,56930,128,8,57035:0:0:0:0:
358,192,57035,128,6,57140:0:0:0:0:
153,192,57140,128,8,57245:0:0:0:0:
51,192,57245,1,2,0:0:0:0:
460,192,57245,128,4,57350:0:0:0:0:
358,192,57350,128,8,57455:0:0:0:0:
256,192,57455,128,0,57560:0:0:0:0:
51,192,57664,1,0,0:0:0:0:
358,192,57874,1,0,0:0:0:0:
460,192,57874,1,0,0:0:0:0:
153,192,58084,1,0,0:0:0:0:
358,192,58189,1,0,0:0:0:0:
460,192,58189,1,0,0:0:0:0:
256,192,58399,1,0,0:0:0:0:
51,192,58608,1,0,0:0:0:0:
460,192,58608,1,0,0:0:0:0:
256,192,58818,1,0,0:0:0:0:
51,192,59028,1,0,0:0:0:0:
460,192,59028,1,0,0:0:0:0:
153,192,59133,1,0,0:0:0:0:
358,192,59238,1,0,0:0:0:0:
256,192,59343,1,0,0:0:0:0:
153,192,59553,1,0,0:0:0:0:
358,192,59553,1,0,0:0:0:0:
51,192,59657,1,0,0:0:0:0:
153,192,59867,1,0,0:0:0:0:
358,192,59867,1,0,0:0:0:0:
460,192,59972,1,0,0:0:0:0:
51,192,60182,1,0,0:0:0:0:
153,192,60182,1,0,0:0:0:0:
358,192,60392,1,0,0:0:0:0:
51,192,60497,1,0,0:0:0:0:
460,192,60497,1,0,0:0:0:0:
358,192,60706,1,0,0:0:0:0:
256,192,60811,1,0,0:0:0:0:
153,192,60916,1,0,0:0:0:0:
51,192,61021,1,0,0:0:0:0:
358,192,61126,1,0,0:0:0:0:
460,192,61126,1,0,0:0:0:0:
153,192,61336,1,0,0:0:0:0:
256,192,61441,1,0,0:0:0:0:
358,192,61546,1,0,0:0:0:0:
460,192,61546,1,0,0:0:0:0:
256,192,61755,1,0,0:0:0:0:
51,192,61860,1,0,0:0:0:0:
153,192,62070,1,0,0:0:0:0:
358,192,62070,1,0,0:0:0:0:
256,192,62175,1,0,0:0:0:0:
51,192,62385,1,0,0:0:0:0:
153,192,62490,1,8,0:0:0:0:
460,192,62490,1,0,0:0:0:0:
358,192,62595,1,8,0:0:0:0:
51,192,62699,1,2,0:0:0:0:
256,192,62699,1,4,0:0:0:0:
358,192,62839,1,8,0:0:0:0:
153,192,62979,1,8,0:0:0:0:
256,192,63119,1,2,0:0:0:0:
460,192,63119,1,4,0:0:0:0:
51,192,63259,1,8,0:0:0:0:
358,192,63399,1,8,0:0:0:0:
153,192,63539,1,4,0:0:0:0:
460,192,63539,1,2,0:0:0:0:
256,192,63748,1,0,0:0:0:70:tom01.wav
358,192,63853,1,0,0:0:0:0:
51,192,63958,1,8,0:0:0:0:
460,192,63958,1,4,0:0:0:0:
153,192,64063,1,8,0:0:0:0:
358,192,64168,1,8,0:0:0:0:
153,192,64273,1,8,0:0:0:0:
51,192,64378,1,4,0:0:0:0:
256,192,64378,1,2,0:0:0:0:
460,192,64378,128,0,64588:0:0:0:0:
358,192,64588,1,8,0:0:0:0:
153,192,64692,1,2,0:0:0:0:
51,192,64797,128,8,65007:0:0:0:0:
460,192,64797,1,0,0:0:0:0:
256,192,64902,1,2,0:0:0:0:
358,192,65112,1,8,0:0:0:0:
153,192,65217,1,2,0:0:0:0:
256,192,65217,128,0,65427:0:0:0:0:
51,192,65427,1,2,0:0:0:0:
153,192,65532,1,0,0:0:0:0:
256,192,65636,128,8,65846:0:0:0:0:
358,192,65636,1,0,0:0:0:0:
51,192,65741,1,2,0:0:0:0:
460,192,65846,1,0,0:0:0:0:
358,192,65951,1,0,0:0:0:0:
51,192,66056,128,2,66266:0:0:0:0:
153,192,66056,1,4,0:0:0:0:
460,192,66266,1,0,0:0:0:70:tom03.wav
256,192,66371,1,2,0:0:0:0:
51,192,66476,1,8,0:0:0:0:
460,192,66476,128,0,66685:0:0:0:0:
153,192,66581,1,2,0:0:0:0:
256,192,66685,1,0,0:0:0:0:
358,192,66790,1,8,0:0:0:0:
153,192,66895,128,2,67105:0:0:0:0:
256,192,66895,1,0,0:0:0:0:
51,192,67105,1,2,0:0:0:0:
460,192,67210,1,0,0:0:0:0:
256,192,67315,1,8,0:0:0:0:
358,192,67315,128,0,67525:0:0:0:0:
153,192,67420,1,8,0:0:0:0:
51,192,67525,1,8,0:0:0:0:
256,192,67629,1,8,0:0:0:0:
51,192,67734,128,2,68574:0:0:0:0:
460,192,67734,1,4,0:0:0:0:
358,192,67944,1,0,0:0:0:0:
256,192,68049,1,2,0:0:0:0:
153,192,68154,1,8,0:0:0:0:
460,192,68154,1,0,0:0:0:0:
358,192,68259,1,2,0:0:0:0:
256,192,68364,1,0,0:0:0:0:
358,192,68469,1,8,0:0:0:0:
153,192,68574,1,2,0:0:0:0:
460,192,68574,128,0,69413:0:0:0:0:
256,192,68783,1,0,0:0:0:0:
153,192,68888,1,2,0:0:0:0:
256,192,68993,1,8,0:0:0:0:
358,192,68993,1,0,0:0:0:0:
51,192,69098,1,2,0:0:0:0:
153,192,69203,1,8,0:0:0:0:
256,192,69308,1,8,0:0:0:0:
51,192,69413,1,2,0:0:0:0:
358,192,69413,1,4,0:0:0:0:
153,192,69553,1,8,0:0:0:0:
256,192,69692,1,8,0:0:0:0:
358,192,69832,1,2,0:0:0:0:
460,192,69832,1,4,0:0:0:0:
256,192,69972,1,8,0:0:0:0:
153,192,70112,1,8,0:0:0:0:
51,192,70252,1,2,0:0:0:0:
358,192,70252,1,4,0:0:0:0:
460,192,70252,1,0,0:0:0:0:
256,192,70462,1,0,0:0:0:70:tom01.wav
358,192,70567,1,8,0:0:0:0:
51,192,70671,1,8,0:0:0:0:
460,192,70671,1,0,0:0:0:0:
153,192,70776,1,0,0:0:0:70:tom02.wav
358,192,70881,1,0,0:0:0:70:tom04.wav
256,192,70986,1,0,0:0:0:70:tom04.wav
51,192,71091,1,4,0:0:0:0:
153,192,71091,1,2,0:0:0:0:
460,192,71091,128,0,71406:0:0:0:0:
358,192,71406,128,0,71720:0:0:0:0:
51,192,71720,128,0,71930:0:0:0:0:
153,192,71930,128,0,72769:0:0:0:0:
51,192,72769,1,2,0:0:0:0:
460,192,72769,1,4,0:0:0:0:
256,192,72909,1,8,0:0:0:0:
51,192,73049,1,8,0:0:0:0:
358,192,73189,1,0,0:0:0:70:tom03.wav
460,192,73189,1,0,0:0:0:0:
153,192,73329,1,0,0:0:0:70:tom04.wav
358,192,73469,1,0,0:0:0:70:tom03.wav
51,192,73608,1,2,0:0:0:0:
153,192,73608,1,4,0:0:0:0:
460,192,73608,1,0,0:0:0:0:
256,192,73713,1,0,0:0:0:0:
358,192,73818,1,0,0:0:0:0:
460,192,73923,1,0,0:0:0:0:
51,192,74028,1,0,0:0:0:0:
153,192,74133,1,0,0:0:0:0:
358,192,74238,1,0,0:0:0:0:
256,192,74343,1,0,0:0:0:0:
51,192,74448,1,0,0:0:0:0:
153,192,74448,1,0,0:0:0:0:
256,192,74657,1,0,0:0:0:0:
460,192,74657,1,0,0:0:0:0:
153,192,74867,1,0,0:0:0:0:
358,192,74867,1,0,0:0:0:0:
51,192,75077,1,0,0:0:0:0:
256,192,75077,1,0,0:0:0:0:
460,192,75182,1,0,0:0:0:0:
256,192,75287,1,0,0:0:0:0:
460,192,75392,1,0,0:0:0:0:
358,192,75497,1,0,0:0:0:0:
51,192,75602,1,0,0:0:0:0:
153,192,75706,1,0,0:0:0:0:
256,192,75811,1,0,0:0:0:0:
460,192,75916,1,0,0:0:0:0:
358,192,76021,1,0,0:0:0:0:
51,192,76126,1,0,0:0:0:0:
256,192,76126,1,0,0:0:0:0:
358,192,76336,1,0,0:0:0:0:
460,192,76441,1,0,0:0:0:0:
51,192,76546,1,0,0:0:0:0:
153,192,76546,1,0,0:0:0:0:
256,192,76755,1,0,0:0:0:0:
153,192,76860,1,0,0:0:0:0:
51,192,76965,1,2,0:0:0:0:
358,192,76965,128,4,78643:0:0:0:0:
460,192,76965,1,0,0:0:0:0:
256,192,77174,1,0,0:0:0:0:
460,192,77279,1,8,0:0:0:0:
153,192,77489,1,2,0:0:0:0:
256,192,77699,1,8,0:0:0:0:
51,192,77804,1,0,0:0:0:0:
460,192,78013,1,2,0:0:0:0:
51,192,78223,1,8,0:0:0:0:
153,192,78223,1,0,0:0:0:0:
460,192,78433,1,0,0:0:0:0:
51,192,78643,1,2,0:0:0:0:
153,192,78643,128,0,80321:0:0:0:0:
256,192,78748,1,0,0:0:0:0:
460,192,78958,1,8,0:0:0:0:
358,192,79062,1,2,0:0:0:0:
460,192,79377,1,8,0:0:0:0:
51,192,79482,1,0,0:0:0:0:
256,192,79692,1,2,0:0:0:0:
358,192,79902,1,8,0:0:0:0:
460,192,79902,1,0,0:0:0:0:
256,192,80111,1,8,0:0:0:0:
51,192,80321,1,2,0:0:0:0:
460,192,80321,128,4,80741:0:0:0:0:
256,192,80531,1,0,0:0:0:0:
51,192,80636,1,2,0:0:0:0:
358,192,80741,1,0,0:0:0:0:
51,192,80846,1,8,0:0:0:0:
153,192,80846,1,0,0:0:0:0:
256,192,80951,1,0,0:0:0:0:
460,192,81055,1,8,0:0:0:0:
51,192,81160,1,0,0:0:0:0:
358,192,81265,1,0,0:0:0:0:
153,192,81370,1,2,0:0:0:0:
256,192,81370,1,0,0:0:0:0:
358,192,81580,1,8,0:0:0:0:
460,192,81580,128,0,81790:0:0:0:0:
51,192,81790,1,8,0:0:0:0:
153,192,81895,1,8,0:0:0:0:
256,192,81999,128,2,82524:0:0:0:0:
358,192,81999,1,0,0:0:0:0:
51,192,82104,1,0,0:0:0:0:
460,192,82209,1,8,0:0:0:0:
51,192,82314,1,8,0:0:0:0:
153,192,82314,1,0,0:0:0:0:
358,192,82419,1,2,0:0:0:0:
153,192,82524,1,8,0:0:0:0:
460,192,82629,1,8,0:0:0:0:
256,192,82734,1,8,0:0:0:0:
358,192,82734,1,0,0:0:0:0:
51,192,82839,128,0,83048:0:0:0:0:
153,192,83048,1,2,0:0:0:0:
460,192,83153,1,8,0:0:0:0:
256,192,83258,128,8,83468:0:0:0:0:
358,192,83258,1,0,0:0:0:0:
51,192,83468,1,8,0:0:0:0:
153,192,83538,1,0,0:0:0:0:
256,192,83608,1,0,0:0:0:0:
358,192,83678,1,2,0:0:0:0:
460,192,83678,128,4,84517:0:0:0:0:
153,192,83888,1,8,0:0:0:0:
51,192,83992,1,2,0:0:0:0:
153,192,84202,1,8,0:0:0:0:
256,192,84202,1,0,0:0:0:0:
51,192,84307,1,0,0:0:0:0:
358,192,84412,1,8,0:0:0:0:
153,192,84517,1,8,0:0:0:0:
256,192,84622,1,0,0:0:0:0:
358,192,84727,1,8,0:0:0:0:
460,192,84727,1,0,0:0:0:0:
153,192,84832,1,0,0:0:0:70:tom01.wav
51,192,84937,1,0,0:0:0:0:
256,192,85041,1,0,0:0:0:70:tom02.wav
153,192,85146,1,0,0:0:0:70:tom03.wav
358,192,85251,1,0,0:0:0:70:tom04.wav
51,192,85356,128,4,85566:0:0:0:0:
256,192,85356,1,2,0:0:0:0:
460,192,85356,1,0,0:0:0:0:
358,192,85566,1,0,0:0:0:0:
153,192,85636,1,8,0:0:0:0:
256,192,85706,1,8,0:0:0:0:
358,192,85776,1,2,0:0:0:0:
460,192,85776,128,4,85985:0:0:0:0:
153,192,85985,1,0,0:0:0:0:
358,192,86055,1,8,0:0:0:0:
256,192,86125,1,8,0:0:0:0:
51,192,86195,128,4,86335:0:0:0:0:
153,192,86195,1,2,0:0:0:0:
358,192,86335,1,8,0:0:0:0:
256,192,86475,1,8,0:0:0:0:
51,192,86615,128,2,87034:0:0:0:0:
153,192,86615,128,4,87034:0:0:0:0:
460,192,86615,128,0,87034:0:0:0:0:
