osu file format v14

[General]
AudioFilename: audio.mp3
AudioLeadIn: 0
PreviewTime: 97465
Countdown: 0
SampleSet: Soft
StackLeniency: 0.5
Mode: 0
LetterboxInBreaks: 0
WidescreenStoryboard: 1

[Editor]
Bookmarks: 36837,83829,90961,96416,97675,111101,111940,116136
DistanceSpacing: 1.9
BeatDivisor: 8
GridSize: 16
TimelineZoom: 2.3

[Metadata]
Title:ZETTAI ZETSUMEI
TitleUnicode:絶体絶命
Artist:Co shu Nie
ArtistUnicode:Cö shu Nie
Creator:meddle
Version:Grace Field
Source:約束のネバーランド
Tags:コシュニエ promised neverland yakusoku never emma ray norman anime children seinen full version japanese
BeatmapID:1971902
BeatmapSetID:944191

[Difficulty]
HPDrainRate:4
CircleSize:4
OverallDifficulty:8
ApproachRate:9.3
SliderMultiplier:3.4
SliderTickRate:1

[Events]
//Background and Video events
0,0,"promised neverland.jpg",0,0
//Break Periods
//Storyboard Layer 0 (Background)
//Storyboard Layer 1 (Fail)
//Storyboard Layer 2 (Pass)
//Storyboard Layer 3 (Foreground)
//Storyboard Layer 4 (Overlay)
//Storyboard Sound Samples

[TimingPoints]
334,419.58041958042,4,2,3,60,1,0
334,-125,4,2,3,60,0,0
2012,-100,4,2,3,60,0,0
3271,-71.4285714285714,4,2,3,60,0,0
10403,-166.666666666667,4,2,3,60,0,0
23830,-250.000000000001,4,2,3,60,0,0
27187,-100,4,2,3,60,0,0
30543,-66.6666666666667,4,2,3,60,0,1
35578,-66.6666666666667,4,2,3,60,0,1
35998,-62.5,4,2,3,60,0,1
36417,-58.8235294117647,4,2,3,60,0,1
37257,-66.6666666666667,4,2,3,60,0,1
43550,-76.9230769230769,4,2,3,60,0,1
44809,419.58041958042,4,2,3,60,1,0
44809,-166.666666666667,4,2,3,60,0,0
49634,-333.333333333334,4,2,3,60,0,0
50053,-166.666666666667,4,2,3,60,0,0
61592,-100,4,2,3,60,0,0
64948,-66.6666666666667,4,2,3,60,0,1
69983,-66.6666666666667,4,2,3,60,0,1
70403,-62.5,4,2,3,60,0,1
70822,-58.8235294117647,4,2,3,60,0,1
71662,-66.6666666666667,4,2,3,60,0,1
77536,-86.2068965517241,4,2,3,60,0,1
77955,-125,4,2,3,60,0,1
78375,-200,4,2,3,60,0,0
80053,-83.3333333333333,4,2,3,60,0,0
80892,419.58041958042,4,2,3,60,1,0
83829,-166.666666666667,4,2,3,60,0,0
84038,-125,4,2,3,60,0,0
94318,-111.111111111111,4,2,3,60,0,0
94947,-100,4,2,3,60,0,0
95157,-90.9090909090909,4,2,3,60,0,0
95787,-83.3333333333333,4,2,3,60,0,0
97675,-71.4285714285714,4,2,3,60,0,0
98514,-76.9230769230769,4,2,3,60,0,0
99353,-83.3333333333333,4,2,3,60,0,0
100192,-71.4285714285714,4,2,3,60,0,0
102710,-71.4285714285714,4,2,3,60,0,0
103129,-83.3333333333333,4,2,3,60,0,0
103549,-100,4,2,3,60,0,0
104388,-71.4285714285714,4,2,3,60,0,0
105227,-76.9230769230769,4,2,3,60,0,0
106066,-83.3333333333333,4,2,3,60,0,0
106905,-71.4285714285714,4,2,3,60,0,0
111101,-166.666666666667,4,2,3,60,0,0
115926,-66.6666666666667,4,2,3,60,0,0
123689,-86.2068965517241,4,2,3,60,0,0
124108,-125,4,2,3,60,0,0
124528,-200,4,2,3,60,0,0
127045,419.58041958042,4,2,3,60,1,0

[Colours]
Combo1 : 113,255,113
Combo2 : 64,128,128
Combo3 : 167,120,88
Combo4 : 255,128,0

[HitObjects]
172,254,334,6,0,P|201:248|240:268,1,68
387,201,543,1,0,0:0:0:0:
372,194,648,2,0,P|343:188|303:211,1,68
112,159,858,1,0,0:0:0:0:
127,152,963,2,0,P|156:146|199:166,1,68
325,108,1173,2,0,P|277:106|230:30,3,136
315,24,2012,6,0,P|354:26|392:54,2,85
226,24,2327,1,0,0:0:0:0:
100,150,2431,2,0,B|88:107|88:107|112:72,1,85
124,63,2641,1,0,0:0:0:0:
234,152,2746,2,0,B|246:195|246:195|222:230,1,85
160,281,2956,1,0,0:0:0:0:
113,223,3061,1,0,0:0:0:0:
171,177,3166,1,0,0:0:0:0:
217,234,3271,5,0,0:0:0:0:
311,132,3375,1,0,0:0:0:0:
295,311,3480,1,0,0:0:0:0:
405,211,3585,1,0,0:0:0:0:
404,340,3690,2,0,P|371:307|295:313,1,118.999996368408
320,113,3900,2,0,P|306:146|315:226,1,118.999996368408
405,198,4110,1,0,0:0:0:0:
478,129,4215,2,0,P|456:100|382:68,1,118.999996368408
242,91,4424,1,0,0:0:0:0:
242,91,4529,2,0,P|187:98|119:74,1,118.999996368408
38,63,4739,2,0,P|19:119|26:177,1,118.999996368408
100,281,4949,2,0,P|118:224|111:166,1,118.999996368408
91,297,5159,2,0,L|220:312,1,118.999996368408
405,198,5368,6,0,P|354:227|335:283,1,118.999996368408
427,282,5578,1,0,0:0:0:0:
493,224,5683,2,0,P|492:165|453:121,1,118.999996368408
364,116,5893,1,0,0:0:0:0:
296,180,5998,2,0,P|346:208|404:197,1,118.999996368408
222,121,6208,2,0,L|207:252,1,118.999996368408
149,50,6417,2,0,L|134:181,1,118.999996368408
123,264,6627,1,0,0:0:0:0:
111,356,6732,1,0,0:0:0:0:
36,295,6837,1,0,0:0:0:0:
44,206,6942,1,0,0:0:0:0:
208,239,7047,6,0,P|268:237|317:270,1,118.999996368408
391,335,7257,1,0,0:0:0:0:
467,278,7361,2,0,P|498:228|496:170,1,118.999996368408
438,88,7571,2,0,P|406:137|408:195,1,118.999996368408
493,164,7781,1,0,0:0:0:0:
444,80,7886,2,0,P|394:48|336:50,1,118.999996368408
252,110,8096,2,0,L|371:137,1,118.999996368408
249,27,8306,2,0,L|130:54,1,118.999996368408
38,119,8515,2,0,L|154:145,1,118.999996368408
25,316,8725,6,0,P|7:270|32:199,1,118.999996368408
161,148,8935,1,0,0:0:0:0:
168,152,9040,2,0,P|215:165|256:227,1,118.999996368408
156,330,9250,2,0,P|137:239|259:225,1,237.999992736817
339,368,9564,1,0,0:0:0:0:
266,322,9984,1,0,0:0:0:0:
431,70,10403,6,0,P|380:77|339:105,1,101.999996887207
324,120,10718,1,0,0:0:0:0:
306,133,10823,2,0,P|280:113|252:105,1,50.9999984436036
171,102,11033,1,0,0:0:0:0:
67,179,11243,6,0,P|74:229|102:270,1,101.999996887207
120,276,11557,1,0,0:0:0:0:
140,273,11662,2,0,L|204:259,1,50.9999984436036
344,347,11872,2,0,L|299:298,1,50.9999984436036
306,133,12082,2,0,L|266:257,1,101.999996887207
228,332,12396,2,0,L|207:385,2,50.9999984436036
295,165,12711,5,0,0:0:0:0:
285,197,12816,1,0,0:0:0:0:
306,133,12921,2,0,P|353:94|404:93,1,101.999996887207
422,251,13340,2,0,P|461:204|462:153,1,101.999996887207
422,251,13760,2,0,L|428:364,1,101.999996887207
427,352,14075,1,0,0:0:0:0:
337,204,14389,2,0,L|340:260,1,50.9999984436036
341,305,14599,2,0,L|337:204,1,101.999996887207
335,178,14914,1,0,0:0:0:0:
334,153,15019,1,0,0:0:0:0:
257,291,15229,2,0,P|194:270|175:237,1,101.999996887207
29,228,15648,2,0,P|92:207|111:174,1,101.999996887207
11,50,16068,5,0,0:0:0:0:
0,0,16173,1,0,0:0:0:0:
21,98,16278,2,0,B|45:67|45:67|123:51,1,101.999996887207
135,55,16592,1,0,0:0:0:0:
161,61,16697,2,0,L|223:74,1,50.9999984436036
242,225,16907,5,0,0:0:0:0:
233,263,17012,1,0,0:0:0:0:
224,301,17117,2,0,P|251:353|297:366,1,101.999996887207
383,266,17431,2,0,P|356:214|310:201,1,101.999996887207
305,285,17746,1,0,0:0:0:0:
450,214,17956,2,0,L|463:111,1,101.999996887207
365,33,18375,2,0,L|378:136,1,101.999996887207
188,123,18795,2,0,L|291:110,1,101.999996887207
229,33,19215,1,0,0:0:0:0:
158,86,19424,1,0,0:0:0:0:
129,48,19529,1,0,0:0:0:0:
188,123,19634,2,0,B|217:171|217:171|208:226,1,101.999996887207
196,224,19949,1,0,0:0:0:0:
354,332,20264,6,0,P|335:358|303:371,1,50.9999984436036
190,321,20473,2,0,P|251:295|298:309,1,101.999996887207
284,301,20788,1,0,0:0:0:0:
284,301,20893,1,0,0:0:0:0:
190,321,21103,1,0,0:0:0:0:
67,269,21313,2,0,P|128:243|175:257,1,101.999996887207
161,249,21628,1,0,0:0:0:0:
161,249,21732,1,0,0:0:0:0:
67,269,21942,1,0,0:0:0:0:
17,138,22152,2,0,P|41:174|40:211,1,50.9999984436036
55,275,22361,1,0,0:0:0:0:
17,138,22781,5,0,0:0:0:0:
112,113,22886,1,0,0:0:0:0:
44,41,22991,1,0,0:0:0:0:
44,41,23201,2,0,P|66:26|110:20,1,50.9999984436036
159,149,23410,2,0,P|135:137|107:102,1,50.9999984436036
237,65,23620,2,0,P|238:91|222:132,1,50.9999984436036
22,274,23830,6,0,P|104:247|178:253,1,136
384,248,24669,2,0,P|302:221|228:227,1,136
357,378,25508,2,0,P|384:296|378:222,1,136
279,90,26347,2,0,P|254:153|252:220,1,136
125,44,27187,5,0,0:0:0:0:
93,85,27292,1,0,0:0:0:0:
66,125,27396,2,0,P|48:170|55:215,1,85
205,30,27606,2,0,P|162:27|124:44,1,85
66,286,27816,5,0,0:0:0:0:
106,318,27921,1,0,0:0:0:0:
146,345,28025,2,0,P|190:362|236:356,1,85
51,205,28235,2,0,P|48:247|65:285,1,85
307,344,28446,5,0,0:0:0:0:
338,304,28551,1,0,0:0:0:0:
366,264,28655,2,0,P|384:219|377:174,1,85
226,359,28865,2,0,P|268:361|306:344,1,85
155,147,29075,2,0,P|131:182|127:224,1,85
226,359,29285,2,0,P|268:361|306:344,1,85
380,183,29494,2,0,P|361:145|327:120,1,85
234,94,29704,1,0,0:0:0:0:
155,147,29809,1,0,0:0:0:0:
73,110,29914,1,0,0:0:0:0:
145,44,30019,1,0,0:0:0:0:
163,238,30124,1,0,0:0:0:0:
163,238,30543,6,0,P|99:267|77:334,1,127.500004863739
166,325,30753,1,0,0:0:0:0:
239,281,30858,1,0,0:0:0:0:
246,193,30963,2,0,P|310:222|332:289,1,127.500004863739
335,353,31173,2,0,P|399:324|421:257,1,127.500004863739
424,143,31382,2,0,B|399:214|399:214|418:270,1,127.500004863739
493,68,31592,2,0,L|352:57,1,127.500004863739
286,112,31802,1,0,0:0:0:0:
205,57,31907,1,0,0:0:0:0:
90,194,32012,2,0,P|139:155|202:159,1,127.500004863739
190,155,32222,2,0,P|133:132|105:76,1,127.500004863739
167,241,32431,2,0,L|156:372,1,127.500004863739
81,296,32641,1,0,0:0:0:0:
167,233,32746,1,0,0:0:0:0:
249,303,32851,6,0,P|312:306|361:268,1,127.500004863739
372,167,33061,1,0,0:0:0:0:
283,213,33166,1,0,0:0:0:0:
456,239,33271,2,0,B|468:161|468:161|448:109,1,127.500004863739
247,103,33480,2,0,P|300:113|356:66,1,127.500004863739
275,20,33690,2,0,P|222:10|166:57,1,127.500004863739
149,176,33900,2,0,P|184:135|171:63,1,127.500004863739
99,26,34110,1,0,0:0:0:0:
49,91,34215,1,0,0:0:0:0:
56,175,34320,2,0,L|66:302,1,127.500004863739
235,377,34529,6,0,L|249:251,1,127.500004863739
339,201,34739,2,0,L|324:339,1,127.500004863739
336,111,34949,2,0,P|407:140|431:201,1,127.500004863739
271,57,35159,2,0,P|341:27|401:53,1,127.500004863739
218,119,35368,2,0,P|188:48|214:-11,1,127.500004863739
429,305,35578,6,0,B|444:220|444:220|425:173,1,127.500004863739
336,111,35858,1,0,0:0:0:0:
429,305,35998,6,0,B|457:224|457:224|423:173,1,136
330,119,36278,1,0,0:0:0:0:
429,305,36417,6,0,B|466:224|466:224|423:176,1,144.500002756119
324,127,36627,1,0,0:0:0:0:
265,199,36732,1,0,0:0:0:0:
297,286,36837,1,0,0:0:0:0:
237,357,36942,1,0,0:0:0:0:
145,340,37047,1,0,0:0:0:0:
113,251,37152,1,0,0:0:0:0:
225,128,37257,6,0,B|177:191|177:191|205:266|205:266|126:363,1,255.000009727478
52,318,37571,1,0,0:0:0:0:
113,251,37676,1,0,0:0:0:0:
86,165,37781,1,0,0:0:0:0:
147,98,37886,2,0,P|216:130|279:98,1,127.500004863739
318,47,38096,1,0,0:0:0:0:
407,78,38201,1,0,0:0:0:0:
412,169,38306,2,0,B|388:242|388:242|340:262,1,127.500004863739
324,178,38515,1,0,0:0:0:0:
415,162,38620,1,0,0:0:0:0:
420,334,38725,6,0,P|351:310|333:259,1,127.500004863739
324,178,38935,1,0,0:0:0:0:
308,87,39040,1,0,0:0:0:0:
295,0,39145,2,0,P|239:27|224:87,1,127.500004863739
236,180,39354,1,0,0:0:0:0:
252,271,39459,1,0,0:0:0:0:
262,352,39564,2,0,P|317:324|332:264,1,127.500004863739
246,266,39774,1,0,0:0:0:0:
159,281,39879,1,0,0:0:0:0:
89,209,39984,2,0,L|79:345,1,127.500004863739
0,384,40194,2,0,L|10:248,1,127.500004863739
90,201,40403,1,0,0:0:0:0:
161,273,40508,1,0,0:0:0:0:
19,152,40613,6,0,P|74:116|137:126,1,127.500004863739
209,180,40823,1,0,0:0:0:0:
215,84,40928,1,0,0:0:0:0:
160,10,41033,2,0,P|124:61|131:123,1,127.500004863739
209,180,41243,1,0,0:0:0:0:
301,135,41347,1,0,0:0:0:0:
390,208,41452,6,0,B|413:126|413:126|399:85,1,127.500004863739
209,180,41662,1,0,0:0:0:0:
291,257,41766,1,0,0:0:0:0:
380,330,41871,2,0,B|403:248|403:248|384:192,1,127.500004863739
253,345,42082,2,0,L|388:329,1,127.500004863739
214,183,42292,5,0,0:0:0:0:
214,183,42396,2,0,P|157:202|130:267,1,127.500004863739
56,304,42606,1,0,3:0:0:0:
56,304,42710,2,0,P|100:343|170:334,1,127.500004863739,0|0,3:0|3:0,3:0:0:0:
129,259,42921,2,0,P|141:200|98:144,1,127.500004863739,0|0,3:0|3:0,3:0:0:0:
51,68,43131,6,8,B|130:56|130:56|166:84|166:84|193:47|193:47|288:34,1,255.000009727478
391,44,43445,1,0,0:0:0:0:
449,124,43550,2,0,P|461:180|441:235,1,110.499994941712
373,285,43760,1,0,0:0:0:0:
373,285,43865,2,0,P|361:229|381:174,1,110.499994941712
278,225,44075,1,0,0:0:0:0:
278,225,44180,2,0,B|282:272|282:272|247:328,1,110.499994941712
193,240,44389,1,0,0:0:0:0:
193,240,44494,2,0,B|189:193|189:193|224:137,1,110.499994941712
302,147,44704,1,0,0:0:0:0:
18,136,44809,6,0,P|43:88|42:29,1,101.999996887207
42,30,45123,2,0,P|71:75|122:104,1,101.999996887207
202,165,45438,2,0,P|174:166|149:181,1,50.9999984436036
70,307,45648,2,0,L|88:192,1,101.999996887207
163,310,45962,2,0,P|104:324|63:300,1,101.999996887207
235,252,46277,2,0,P|246:274|247:299,1,50.9999984436036
202,165,46487,2,0,L|310:177,1,101.999996887207
327,180,46802,1,0,0:0:0:0:
351,184,46906,1,0,0:0:0:0:
375,188,47011,1,0,0:0:0:0:
422,102,47116,2,0,L|472:109,1,50.9999984436036
332,84,47326,6,0,P|303:128|312:196,1,101.999996887207
440,258,47641,1,0,0:0:0:0:
440,258,47746,2,0,P|416:210|353:184,1,101.999996887207
277,337,48165,2,0,L|395:320,1,101.999996887207
377,322,48480,1,0,0:0:0:0:
377,322,48585,1,0,0:0:0:0:
277,337,48795,1,0,0:0:0:0:
195,264,49004,2,0,L|313:247,1,101.999996887207
295,249,49319,1,0,0:0:0:0:
295,249,49424,1,0,0:0:0:0:
195,264,49634,6,0,L|193:201,1,50.9999984436036
195,264,50053,6,0,B|108:257|132:311|43:305,1,152.999995330811
59,224,50473,1,0,0:0:0:0:
60,173,50578,1,0,0:0:0:0:
61,122,50683,1,0,0:0:0:0:
61,122,50892,1,0,0:0:0:0:
164,166,51102,1,0,0:0:0:0:
142,53,51312,1,0,0:0:0:0:
193,54,51417,1,0,0:0:0:0:
292,138,51522,6,0,P|280:89|234:51,1,101.999996887207
243,54,51836,1,0,0:0:0:0:
243,54,51941,1,0,0:0:0:0:
292,138,52151,1,0,0:0:0:0:
358,185,52361,2,0,P|372:136|351:80,1,101.999996887207
352,78,52675,1,0,0:0:0:0:
347,69,52781,2,0,L|452:56,1,101.999996887207
358,185,53200,2,0,L|463:172,1,101.999996887207
312,288,53620,1,0,0:0:0:0:
358,185,53829,1,0,0:0:0:0:
333,240,53934,1,0,0:0:0:0:
312,288,54039,2,0,P|260:320|145:256,1,203.999993774414
253,121,54669,5,0,0:0:0:0:
237,165,54774,1,0,0:0:0:0:
221,209,54878,2,0,P|183:256|133:253,1,101.999996887207
144,257,55193,1,0,0:0:0:0:
144,257,55298,1,0,0:0:0:0:
221,209,55508,1,0,0:0:0:0:
53,125,55718,2,0,P|91:172|141:169,1,101.999996887207
129,173,56033,1,0,0:0:0:0:
129,173,56138,1,0,0:0:0:0:
53,125,56347,1,0,0:0:0:0:
148,44,56557,1,0,0:0:0:0:
296,49,56767,5,0,0:0:0:0:
253,42,57186,1,0,0:0:0:0:
296,49,57291,1,0,0:0:0:0:
339,56,57396,1,0,0:0:0:0:
383,184,57606,2,0,L|374:125,1,50.9999984436036
464,111,57815,2,0,L|471:60,1,50.9999984436036
497,223,58025,2,0,L|438:232,1,50.9999984436036
205,267,58235,6,0,B|335:260|335:260|404:303,1,203.999993774414
205,267,59074,2,0,B|75:274|75:274|6:231,1,203.999993774414
237,74,59913,2,0,B|244:204|244:204|201:273,1,203.999993774414
12,234,60753,2,0,B|5:104|5:104|48:35,1,203.999993774414
326,77,61592,5,0,0:0:0:0:
328,118,61697,1,0,0:0:0:0:
330,159,61802,2,0,L|334:260,1,85
287,5,62011,2,0,P|320:45|323:96,1,85
261,282,62221,5,0,0:0:0:0:
220,284,62326,1,0,0:0:0:0:
179,286,62431,2,0,L|78:290,1,85
333,243,62640,2,0,P|292:276|242:279,1,85
55,217,62850,5,0,0:0:0:0:
53,176,62955,1,0,0:0:0:0:
51,135,63060,2,0,L|47:34,1,85
94,289,63269,2,0,P|60:248|58:198,1,85
277,127,63480,2,0,P|265:168|234:197,1,85
94,289,63690,2,0,P|65:258|55:217,1,85
47,39,63899,2,0,P|88:29|129:40,1,85
179,117,64109,1,0,0:0:0:0:
278,117,64214,1,0,0:0:0:0:
328,36,64319,1,0,0:0:0:0:
230,36,64424,1,0,0:0:0:0:
227,197,64529,1,0,0:0:0:0:
180,279,64948,6,0,P|138:348|86:358,1,127.500004863739
9,286,65158,1,0,0:0:0:0:
0,380,65263,1,0,0:0:0:0:
101,279,65368,2,0,P|78:221|22:196,1,127.500004863739
8,196,65578,2,0,P|65:172|91:116,1,127.500004863739
218,128,65788,2,0,B|176:146|176:146|87:113,1,127.500004863739
140,40,65997,1,0,0:0:0:0:
229,43,66102,6,0,P|285:68|307:126,1,127.500004863739
308,230,66312,1,0,0:0:0:0:
314,335,66417,2,0,L|452:322,1,127.500004863739
308,230,66627,2,0,B|240:255|240:255|189:238|189:238|152:228|90:237|74:296,1,255.000009727478
161,323,66941,1,0,0:0:0:0:
222,250,67046,1,0,0:0:0:0:
227,158,67151,1,0,0:0:0:0:
381,265,67256,6,0,B|400:193|400:193|382:141,1,127.500004863739
249,158,67466,2,0,B|324:164|324:164|374:133,1,127.500004863739
315,48,67676,1,0,0:0:0:0:
202,50,67781,2,0,P|159:95|161:171,1,127.500004863739
225,251,67990,2,0,P|208:196|34:210,1,255.000009727478
23,304,68305,2,0,P|86:293|127:231,1,127.500004863739
46,201,68515,1,0,0:0:0:0:
46,201,68620,1,0,0:0:0:0:
46,201,68725,2,0,L|15:335,1,127.500004863739
126,308,68934,6,0,P|76:345|14:341,1,127.500004863739
181,237,69144,2,0,P|208:293|194:354,1,127.500004863739
127,173,69354,2,0,P|187:155|244:181,1,127.500004863739
367,191,69564,2,0,P|351:251|301:288,1,127.500004863739
312,100,69774,2,0,P|372:82|429:108,1,127.500004863739
243,180,69983,6,0,B|228:95|228:95|247:48,1,127.500004863739
370,36,70263,1,0,0:0:0:0:
243,180,70403,6,0,B|215:99|215:99|249:48,1,136
376,44,70683,1,0,0:0:0:0:
243,180,70822,6,0,B|206:99|206:99|249:51,1,144.500002756119
382,52,71032,1,0,0:0:0:0:
441,124,71137,1,0,0:0:0:0:
408,211,71242,1,0,0:0:0:0:
467,283,71347,1,0,0:0:0:0:
434,370,71452,1,0,0:0:0:0:
342,384,71557,1,0,0:0:0:0:
374,297,71662,6,0,B|293:276|293:276|234:298|234:298|127:266,1,255.000009727478
44,235,71976,1,0,0:0:0:0:
52,147,72081,1,0,0:0:0:0:
135,125,72186,1,0,0:0:0:0:
130,268,72291,2,0,P|108:309|22:325,1,127.500004863739
38,234,72501,1,0,0:0:0:0:
46,146,72606,1,0,0:0:0:0:
192,20,72711,2,0,B|237:89|237:89|230:144,1,127.500004863739
180,203,72920,1,0,0:0:0:0:
135,125,73025,1,0,0:0:0:0:
316,138,73130,6,0,P|391:173|402:218,1,127.500004863739
367,284,73340,1,0,0:0:0:0:
319,222,73445,1,0,0:0:0:0:
488,138,73550,2,0,P|461:193|401:210,1,127.500004863739
396,119,73760,1,0,0:0:0:0:
491,132,73864,1,0,0:0:0:0:
512,240,73969,2,0,L|501:375,1,127.500004863739
425,360,74179,1,0,0:0:0:0:
371,297,74284,1,0,0:0:0:0:
290,319,74389,2,0,P|224:323|179:277,1,127.500004863739
231,133,74599,2,0,P|267:188|250:250,1,127.500004863739
175,274,74809,1,0,0:0:0:0:
175,192,74913,1,0,0:0:0:0:
39,69,75018,6,0,L|30:209,1,127.500004863739
116,21,75228,1,0,0:0:0:0:
116,21,75333,2,0,L|107:161,1,127.500004863739
179,205,75543,1,0,0:0:0:0:
179,205,75648,2,0,L|170:345,1,127.500004863739
473,69,75857,6,0,L|482:209,1,127.500004863739
396,21,76067,1,0,0:0:0:0:
396,21,76172,2,0,L|405:161,1,127.500004863739
333,205,76382,1,0,0:0:0:0:
333,205,76487,2,0,L|342:345,1,127.500004863739
256,92,76697,6,0,L|256:348,1,255.000009727478
256,152,77011,6,0,L|256:24,2,127.500004863739
256,348,77326,2,0,L|256:220,1,127.500004863739
256,24,77536,6,0,L|256:224,1,197.200006018067
179,205,77955,1,0,0:0:0:0:
179,205,78060,2,0,L|174:283,1,68
333,205,78270,1,0,0:0:0:0:
333,205,78375,6,0,B|289:211|267:168|267:168|247:121|200:115,1,170
110,126,79004,1,0,0:0:0:0:
35,80,79214,2,0,B|28:93|28:93|28:111|28:111|18:124|18:124|24:138|24:138|17:180|45:215|98:217,1,170
102,218,79843,1,0,0:0:0:0:
169,57,80053,5,0,0:0:0:0:
179,64,80158,2,0,P|233:79|279:51,1,101.999996887207
413,137,80368,1,0,0:0:0:0:
403,144,80473,2,0,P|349:159|303:131,1,101.999996887207
312,332,80683,2,0,P|263:304|246:264,1,101.999996887207
505,96,80892,6,0,L|494:269,1,170
494,265,81311,1,0,0:0:0:0:
494,265,81521,1,0,0:0:0:0:
402,306,81731,2,0,L|407:219,1,85
424,38,81940,1,0,0:0:0:0:
414,134,82150,1,0,0:0:0:0:
329,77,82360,1,0,0:0:0:0:
217,98,82570,6,0,L|228:271,1,170
227,267,82989,1,0,0:0:0:0:
227,267,83199,1,0,0:0:0:0:
320,308,83409,2,0,L|309:135,1,170
121,55,83829,2,0,L|70:37,1,50.9999984436036
57,141,84038,5,0,0:0:0:0:
57,141,84143,1,0,0:0:0:0:
57,141,84248,2,0,B|32:205|32:205|81:267,1,136
139,312,84668,2,0,B|164:248|164:248|115:186,1,136
204,139,85087,2,0,B|172:130|172:130|251:231,1,136
333,309,85507,2,0,B|356:303|356:284|356:284|312:266|257:305,1,136
380,80,85926,2,0,B|350:115|350:115|344:215,1,136
467,125,86346,2,0,B|437:160|437:160|431:249,1,136
305,51,86766,2,0,B|408:63|408:63|380:80,1,136
203,138,87185,2,0,B|201:120|201:120|210:105|210:105|206:86|206:86|215:68|205:51|205:51|210:28|231:16,1,136
65,68,87605,5,0,0:0:0:0:
65,68,87815,2,0,L|50:145,1,68
48,150,88024,2,0,L|33:227,1,68
95,335,88234,2,0,L|110:258,1,68
112,246,88443,2,0,L|127:169,1,68
196,276,88654,2,0,L|182:342,1,68
214,186,88863,2,0,L|200:252,1,68
232,96,89073,2,0,L|218:162,1,68
438,223,89493,6,0,L|386:178,1,68,0|0,3:0|3:0,3:0:0:0:
493,165,89703,2,0,L|441:120,1,68,0|0,3:0|3:0,3:0:0:0:
232,109,89912,2,0,L|296:86,1,68,0|0,3:0|3:0,3:0:0:0:
388,0,90122,2,0,L|375:67,1,68,0|0,3:0|3:0,3:0:0:0:
443,217,90332,2,0,L|391:172,1,68,0|0,3:0|3:0,3:0:0:0:
246,186,90542,2,0,L|310:163,1,68,0|0,3:0|3:0,3:0:0:0:
498,159,90752,2,0,L|446:114,1,68,0|0,3:0|3:0,3:0:0:0:
161,34,90961,6,0,P|123:46|103:68,1,68
95,94,91171,1,0,0:0:0:0:
85,122,91276,2,0,P|78:159|77:200,1,68
102,292,91591,5,0,0:0:0:0:
128,267,91696,1,0,0:0:0:0:
76,317,91801,2,0,P|117:337|162:345,1,68
209,206,92010,2,0,P|171:231|141:266,1,68
238,376,92220,2,0,P|234:330|219:287,1,68
315,369,92430,2,0,L|381:359,1,68
454,104,92640,6,0,L|448:246,1,136
447,325,92954,1,0,0:0:0:0:
377,282,93059,2,0,P|365:263|365:213,1,68
463,90,93269,2,0,L|460:161,1,68
281,253,93479,2,0,P|297:169|335:132,1,136
473,76,93794,2,0,L|470:147,1,68
363,213,94003,1,0,0:0:0:0:
270,86,94108,2,0,P|286:70|335:62,1,68
195,138,94318,5,0,0:0:0:0:
42,92,94423,2,0,P|133:106|195:153,1,152.999995330811
119,275,94738,1,0,0:0:0:0:
191,226,94843,1,0,0:0:0:0:
43,230,94947,2,0,P|35:286|46:324,1,85
437,319,95157,2,0,P|315:308|253:261,1,187.000005706787
191,226,95472,1,0,0:0:0:0:
195,138,95577,1,0,0:0:0:0:
270,91,95682,1,0,0:0:0:0:
426,199,95787,6,0,P|402:156|348:128,1,101.999996887207
86,120,95996,2,0,L|191:136,1,101.999996887207
337,343,96206,6,0,P|293:317|242:318,1,101.999996887207
161,351,96416,1,0,0:0:0:0:
91,297,96520,1,0,0:0:0:0:
103,209,96626,1,0,0:0:0:0:
69,125,96731,1,0,0:0:0:0:
112,128,96836,5,0,0:0:0:0:
153,116,96940,1,0,0:0:0:0:
187,90,97045,1,0,0:0:0:0:
211,54,97150,1,0,0:0:0:0:
221,11,97255,1,0,0:0:0:0:
95,10,97360,5,0,0:0:0:0:
310,25,97675,6,0,B|296:110|233:156|233:156|285:135|319:140,1,237.999992736817
392,143,97989,1,0,0:0:0:0:
339,273,98094,2,0,B|388:273|399:235|399:235|359:204|288:210|246:236,1,237.999992736817
266,311,98409,1,0,0:0:0:0:
338,351,98514,6,0,B|401:360|492:310|478:206,1,220.999989883423
403,146,98829,1,0,0:0:0:0:
301,140,98933,2,0,B|193:157|179:224|179:224|217:221|245:238,1,220.999989883423
111,334,99248,1,0,0:0:0:0:
192,304,99353,6,0,P|139:249|30:300,1,203.999993774414
111,341,99668,1,0,0:0:0:0:
37,137,99773,2,0,B|45:160|26:191|26:191|82:158|145:161|176:186,1,203.999993774414
107,90,100087,1,0,0:0:0:0:
240,235,100192,6,0,B|274:216|273:167|273:167|236:90|236:90|235:51|274:27,1,237.999992736817
325,98,100507,1,0,0:0:0:0:
376,181,100612,2,0,B|387:200|391:231|391:231|416:109|416:109|449:92|462:57,1,237.999992736817
478,197,100926,1,0,0:0:0:0:
441,350,101031,2,0,B|296:306|296:306|200:346,1,237.999992736817
72,194,101451,6,0,B|100:149|149:154|149:154|172:231|120:320,1,237.999992736817
54,277,101766,1,0,0:0:0:0:
40,117,101871,2,0,B|72:78|162:65|197:91|197:91|189:56|140:46,1,237.999992736817
22,24,102185,1,0,0:0:0:0:
262,126,102290,2,0,B|281:99|272:48|243:22|243:22|346:43|346:43|390:42|419:18|419:18|497:30,1,356.999989105225
348,203,102710,6,0,B|285:258|285:258|355:100,1,237.999992736817
425,120,103024,1,0,0:0:0:0:
461,291,103129,2,0,B|511:329|511:329|451:192,1,203.999993774414
379,271,103444,1,0,0:0:0:0:
212,255,103549,6,0,B|229:308|218:363|218:363|248:321|308:303|308:303|273:286,1,255
104,181,103968,1,0,0:0:0:0:
40,233,104073,1,0,0:0:0:0:
56,314,104178,1,0,0:0:0:0:
119,261,104283,1,0,0:0:0:0:
20,130,104388,6,0,B|27:83|72:53|72:53|114:57|153:82|153:82|148:51|167:29,1,237.999992736817
206,146,104703,1,0,0:0:0:0:
299,40,104808,2,0,B|312:89|289:124|289:124|313:165|313:165|279:228|305:283,1,237.999992736817
374,232,105122,1,0,0:0:0:0:
246,326,105227,6,0,B|298:367|338:331|355:337|399:277|470:320,1,220.999989883423
419,383,105542,1,0,0:0:0:0:
375,225,105647,2,0,B|429:166|433:91|433:91|448:124|482:144,1,220.999989883423
465,225,105961,1,0,0:0:0:0:
293,38,106066,6,0,B|337:44|358:20|358:20|365:66|356:126|337:149,1,203.999993774414
181,88,106381,1,0,0:0:0:0:
303,224,106486,2,0,B|258:217|237:241|237:241|230:195|239:135|258:112,1,203.999993774414
177,101,106801,1,0,0:0:0:0:
35,354,106905,6,0,B|24:271|24:271|62:224|62:224|48:131,1,237.999992736817
173,114,107220,1,0,0:0:0:0:
75,0,107325,2,0,B|85:86|85:86|49:134|49:134|63:228,1,237.999992736817
162,299,107640,1,0,0:0:0:0:
341,323,107745,2,0,B|413:293|413:293|481:128,1,237.999992736817
312,34,108164,6,0,B|372:38|389:98|389:98|440:42|506:59,1,237.999992736817
471,140,108479,1,0,0:0:0:0:
307,116,108584,2,0,B|244:137|244:137|173:101|173:101|86:133,1,237.999992736817
28,197,108898,1,0,0:0:0:0:
69,273,109003,1,0,0:0:0:0:
155,275,109108,1,0,0:0:0:0:
199,201,109213,1,0,0:0:0:0:
285,203,109318,1,0,0:0:0:0:
347,273,109423,6,0,B|335:326|335:326|268:360,1,118.999996368408
458,267,109843,2,0,B|412:239|412:239|341:262,1,118.999996368408
438,151,110052,2,0,B|417:212|417:212|445:258,1,118.999996368408
512,81,110262,2,0,P|472:52|387:70,1,118.999996368408
270,210,110472,2,0,P|315:189|342:107,1,118.999996368408
205,15,110682,2,0,P|199:64|257:128,1,118.999996368408
58,169,111101,5,0,0:0:0:0:
78,73,111311,1,0,0:0:0:0:
132,240,111521,2,0,L|123:291,1,50.9999984436036
193,374,111731,1,0,0:0:0:0:
188,344,111836,1,0,0:0:0:0:
380,240,111940,2,0,L|389:291,1,50.9999984436036
325,334,112150,2,0,L|316:385,2,50.9999984436036
329,176,112570,1,0,0:0:0:0:
412,164,112780,2,0,P|461:203|461:253,1,101.999996887207,0|0,2:0|2:0,2:0:0:0:
380,240,113094,2,0,P|321:262|278:237,1,101.999996887207,0|0,2:0|2:0,2:0:0:0:
496,28,113409,6,0,L|434:20,1,50.9999984436036
320,13,113619,1,0,0:0:0:0:
165,57,113829,1,0,0:0:0:0:
252,81,113933,1,0,0:0:0:0:
25,20,114143,2,0,L|92:31,1,50.9999984436036
72,143,114353,1,0,0:0:0:0:
72,143,114458,2,0,P|83:93|71:9,1,101.999996887207
82,31,114773,1,0,0:0:0:0:
82,31,114878,1,0,0:0:0:0:
109,267,115087,5,0,0:0:0:0:
191,199,115297,1,0,0:0:0:0:
195,290,115507,1,0,0:0:0:0:
103,180,115717,1,0,0:0:0:0:
356,285,115926,5,0,0:0:0:0:
280,234,116031,1,0,0:0:0:0:
437,138,116136,2,0,P|462:194|423:269,1,127.500004863739
356,285,116346,1,0,0:0:0:0:
365,196,116451,1,0,0:0:0:0:
375,372,116556,2,0,P|314:365|268:294,1,127.500004863739
280,234,116766,1,0,0:0:0:0:
286,140,116871,1,0,0:0:0:0:
286,34,116975,2,0,B|231:53|231:53|185:186|185:186|120:208,1,255.000009727478
51,185,117290,1,0,0:0:0:0:
26,105,117395,1,0,0:0:0:0:
81,43,117500,1,0,0:0:0:0:
163,60,117605,1,0,0:0:0:0:
188,138,117710,1,0,0:0:0:0:
51,185,117815,6,0,B|8:208|8:256|8:256|63:319|161:297,1,255.000009727478
225,222,118129,1,0,0:0:0:0:
310,238,118234,1,0,0:0:0:0:
339,319,118339,1,0,0:0:0:0:
426,238,118444,2,0,B|415:196|458:172|458:172|501:231|470:308|411:338,1,255.000009727478
339,319,118759,1,0,0:0:0:0:
353,159,118864,2,0,B|395:98|456:86|456:86|395:79|351:17,1,255.000009727478
300,89,119178,1,0,0:0:0:0:
177,62,119283,6,0,P|243:61|295:99,1,127.500004863739
155,222,119493,1,0,0:0:0:0:
214,154,119598,1,0,0:0:0:0:
214,154,119703,2,0,P|257:203|261:268,1,127.500004863739
61,229,119913,1,0,0:0:0:0:
168,241,120018,1,0,0:0:0:0:
167,241,120122,2,0,P|156:306|109:350,1,127.500004863739
61,229,120332,1,0,0:0:0:0:
62,128,120437,1,0,0:0:0:0:
64,29,120542,6,0,B|164:35|164:35|193:56|193:56|318:64,2,255.000009727478
306,212,121171,6,0,L|179:204,1,127.500004863739
131,127,121381,1,0,0:0:0:0:
131,127,121486,2,0,L|271:136,1,127.500004863739
315,64,121696,1,0,0:0:0:0:
315,64,121801,2,0,L|455:73,1,127.500004863739
170,331,122010,6,0,L|179:191,1,127.500004863739
93,379,122220,1,0,0:0:0:0:
93,379,122325,2,0,L|102:239,1,127.500004863739
30,195,122535,1,0,0:0:0:0:
30,195,122640,2,0,L|39:55,1,127.500004863739
256,92,122850,6,0,L|256:348,1,255.000009727478
256,152,123164,2,0,L|256:24,2,127.500004863739
256,348,123479,2,0,L|256:220,1,127.500004863739
256,24,123689,6,0,L|256:224,1,197.200006018067
179,205,124108,1,0,0:0:0:0:
179,205,124213,2,0,L|174:283,1,68
333,205,124423,1,0,0:0:0:0:
333,205,124528,6,0,B|399:212|399:212|431:176|431:176|491:182,1,170
460,264,125157,1,0,0:0:0:0:
510,354,125367,2,0,B|498:360|498:360|480:360|480:360|467:370|467:370|453:364|453:364|411:371|376:343|376:308,1,170
421,89,125996,1,0,0:0:0:0:
359,12,126206,5,0,0:0:0:0:
447,0,126311,1,0,0:0:0:0:
512,56,126416,1,0,0:0:0:0:
484,158,126521,5,0,0:0:0:0:
396,170,126626,1,0,0:0:0:0:
331,114,126731,1,0,0:0:0:0:
442,14,126836,5,0,0:0:0:0:
474,147,126941,1,0,0:0:0:0:
344,110,127046,1,0,0:0:0:0:
