osu file format v14

[General]
AudioFilename: audio.mp3
AudioLeadIn: 0
PreviewTime: 92188
Countdown: 0
SampleSet: Soft
StackLeniency: 0.7
Mode: 0
LetterboxInBreaks: 0
WidescreenStoryboard: 0

[Editor]
DistanceSpacing: 1.4
BeatDivisor: 8
GridSize: 32
TimelineZoom: 3.899998

[Metadata]
Title:Yume o Kin'iro ni Somete
TitleUnicode:夢を金色に染めて
Artist:Co shu Nie
ArtistUnicode:Cö shu Nie
Creator:Nymphe
Version:Expert
Source:
Tags:Moete Keqing iljaaz kujinn reform kiyoshi guarden japanese rock jrock j-rock female vocal LITMUS Nakamura Miku Matsumoto Shunsuke Fujita Ryosuke Golden Dream
BeatmapID:3067600
BeatmapSetID:1496416

[Difficulty]
HPDrainRate:5.5
CircleSize:4.5
OverallDifficulty:8.5
ApproachRate:9.2
SliderMultiplier:1.7
SliderTickRate:1

[Events]
//Background and Video events
0,0,"85232478_p0.jpg",0,0
//Break Periods
//Storyboard Layer 0 (Background)
//Storyboard Layer 1 (Fail)
//Storyboard Layer 2 (Pass)
//Storyboard Layer 3 (Foreground)
//Storyboard Layer 4 (Overlay)
//Storyboard Sound Samples

[TimingPoints]
260,1182.26600985222,3,2,45,100,1,0
3814,1176.47058823529,3,2,45,100,1,0
7362,1188.11881188119,3,2,45,100,1,0
10939,1137.44075829384,3,2,45,100,1,0
15358,333.333333333333,3,2,45,65,1,0
15358,-90.9090909090909,3,2,45,65,0,0
16357,-71.4285714285714,3,2,45,65,0,0
22024,-200,3,2,45,65,0,0
22357,-71.4285714285714,3,2,45,70,0,0
23691,-500,3,2,45,70,0,0
24357,-100,3,2,45,60,0,0
27691,-76.9230769230769,3,2,45,60,0,0
28357,-100,3,2,45,60,0,0
30357,-100,3,2,45,60,0,0
32024,-71.4285714285714,3,2,45,70,0,0
32358,333.333333333333,5,2,45,70,1,0
32358,-125,5,2,45,70,0,0
35691,333.333333333333,3,2,45,70,1,0
37691,-66.6666666666667,3,2,45,80,0,0
38691,-58.8235294117647,3,2,45,80,0,0
39690,-55.5555555555556,3,2,45,85,0,0
40024,-76.9230769230769,3,2,45,85,0,0
41024,-66.6666666666667,3,2,45,85,0,0
41357,-52.6315789473684,3,2,45,85,0,0
41690,-66.6666666666667,3,2,45,85,0,0
42024,-76.9230769230769,3,2,45,85,0,0
42357,-66.6666666666667,3,2,45,85,0,0
42690,-58.8235294117647,3,2,45,85,0,0
43024,-76.9230769230769,3,2,45,85,0,0
43190,-58.8235294117647,3,2,45,85,0,0
43524,-76.9230769230769,3,2,45,85,0,0
43690,-76.9230769230769,3,2,45,85,0,0
44190,-71.4285714285714,3,2,45,85,0,0
44524,-90.9090909090909,3,2,45,85,0,0
45190,333.333333333333,3,2,45,85,1,0
45190,-66.6666666666667,3,2,45,85,0,0
45523,-90.9090909090909,3,2,45,85,0,0
45856,-62.5,3,2,45,85,0,0
46190,-76.9230769230769,3,2,45,85,0,0
47190,-100,3,2,45,85,0,0
47690,-71.4285714285714,3,2,45,85,0,0
48190,-71.4285714285714,3,2,45,85,0,0
48606,-90.9090909090909,3,2,45,85,0,0
49189,-66.6666666666667,3,2,45,85,0,0
49856,-83.3333333333333,3,2,45,85,0,0
50189,-83.3333333333333,3,2,45,85,0,0
50523,-62.5,3,2,45,85,0,0
50856,-76.9230769230769,3,2,45,85,0,0
51523,-62.5,3,2,45,85,0,0
52189,-125,3,2,45,45,0,0
54189,500,4,2,45,65,1,0
54189,-58.8235294117647,4,2,45,65,0,0
54689,-125,4,2,45,65,0,0
55189,-58.8235294117647,4,2,45,65,0,0
55689,-125,4,2,45,65,0,0
56189,-58.8235294117647,4,2,45,65,0,0
56689,-142.857142857143,4,2,45,65,0,0
57189,-55.5555555555556,4,2,45,65,0,0
57689,-200,4,2,45,65,0,0
58189,-111.111111111111,4,2,45,65,0,0
59189,-83.3333333333333,4,2,45,65,0,0
60064,-111.111111111111,4,2,45,50,0,0
60189,-142.857142857143,4,2,45,50,0,0
63189,-55.5555555555556,4,2,45,70,0,0
64189,333.333333333333,3,2,45,75,1,0
64189,-66.6666666666667,4,2,45,75,0,0
64522,-83.3333333333334,4,2,45,75,0,0
64855,-71.4285714285714,4,2,45,75,0,0
65355,-66.6666666666667,4,2,45,75,0,0
65689,-90.9090909090909,4,2,45,75,0,0
66189,-76.9230769230769,4,2,45,75,0,0
66522,-166.666666666667,4,2,45,75,0,0
67189,-90.9090909090909,4,2,45,75,0,0
67439,-71.4285714285714,4,2,45,75,0,0
67689,-62.5,4,2,45,75,0,0
68189,-71.4285714285714,4,2,45,75,0,0
68522,-76.9230769230769,4,2,45,75,0,0
71189,-66.6666666666667,4,2,45,75,0,0
71522,-166.666666666667,4,2,45,75,0,0
71855,-71.4285714285714,4,2,45,75,0,0
72188,-66.6666666666667,4,2,45,75,0,0
72522,-83.3333333333333,4,2,45,75,0,0
72855,-125,4,2,45,75,0,0
73188,-71.4285714285714,4,2,45,75,0,0
73522,-83.3333333333333,4,2,45,75,0,0
73855,-62.5,4,2,45,75,0,0
75188,-76.9230769230769,4,2,45,75,0,0
76188,-71.4285714285714,4,2,45,70,0,0
76855,-111.111111111111,4,2,45,70,0,0
77188,-62.5,4,2,45,70,0,0
77688,-83.3333333333334,4,2,45,70,0,0
78188,-71.4285714285714,4,2,45,70,0,0
78688,-83.3333333333333,4,2,45,70,0,0
79188,-71.4285714285714,4,2,45,70,0,0
80188,-66.6666666666667,4,2,45,70,0,0
80522,-71.4285714285714,4,2,45,70,0,0
81188,-125,4,2,45,70,0,0
82188,-71.4285714285714,4,2,45,70,0,0
83188,-62.5,4,2,45,70,0,0
83522,-71.4285714285714,4,2,45,70,0,0
84188,-58.8235294117647,4,2,45,70,0,0
84522,-71.4285714285714,4,2,45,70,0,0
84855,-58.8235294117647,4,2,45,70,0,0
85688,-83.3333333333334,4,2,45,70,0,0
86188,-62.5,4,2,45,70,0,0
86855,-76.9230769230769,4,2,45,70,0,0
87188,-62.5,4,2,45,70,0,0
87522,-83.3333333333333,4,2,45,70,0,0
88188,-71.4285714285714,4,2,45,70,0,0
90022,-71.4285714285714,4,2,45,70,0,0
90188,-71.4285714285714,4,2,45,75,0,0
92188,-156.25,4,2,45,40,0,0
99188,-83.3333333333333,4,2,45,75,0,0
99855,-142.857142857143,4,2,45,75,0,0
100188,-55.5555555555556,3,2,45,85,0,0
100522,-76.9230769230769,3,2,45,85,0,0
101522,-66.6666666666667,3,2,45,85,0,0
101855,-58.8235294117647,3,2,45,85,0,0
102188,-50,3,2,45,85,0,0
102522,-76.9230769230769,3,2,45,85,0,0
104689,333.333333333333,3,2,45,85,1,0
104689,-58.8235294117647,3,2,45,85,0,0
106689,-76.9230769230769,3,2,45,85,0,0
108689,-58.8235294117647,3,2,45,85,0,0
109689,-52.6315789473684,3,2,45,85,0,0
110022,-83.3333333333333,3,2,45,85,0,0
110355,-58.8235294117647,3,2,45,85,0,0
112688,-142.857142857143,3,2,45,75,0,0
113688,-125,3,2,45,75,0,0
114688,-66.6666666666667,3,2,45,85,0,0
114855,-58.8235294117647,3,2,45,85,0,0
115355,-111.111111111111,3,2,45,85,0,0
115688,-66.6666666666667,3,2,45,85,0,0
116688,500,4,2,45,75,1,0
116688,-55.5555555555556,3,2,45,75,0,0
117188,-125,3,2,45,75,0,0
117688,-58.8235294117647,3,2,45,75,0,0
118188,-125,3,2,45,75,0,0
118688,-55.5555555555556,3,2,45,75,0,0
119188,-125,3,2,45,75,0,0
120688,-71.4285714285714,3,2,45,75,0,0
121688,-111.111111111111,3,2,45,75,0,0

[Colours]
Combo1 : 255,153,0
Combo2 : 255,89,89
Combo3 : 249,160,128
Combo4 : 254,198,103

[HitObjects]
460,80,15358,6,0,B|481:91|508:78|508:78|481:79|462:58,1,93.5000028533936,4|0,3:2|0:0,0:0:0:0:
406,14,15608,2,0,B|385:3|358:16|358:16|385:15|398:30,1,93.5000028533936,0|0,3:2|0:0,0:0:0:0:
389,101,15858,1,8,0:0:0:0:
468,335,16191,5,8,0:0:0:0:
461,329,16274,1,8,0:0:0:0:
455,326,16357,2,0,B|424:333|406:298|406:298|362:289|346:328,1,118.999996368408,8|2,0:0|0:0,0:0:0:0:
264,350,16608,1,0,0:0:0:0:
273,359,16691,2,0,B|302:383|302:383|360:315|297:252,1,178.499994552612,4|0,3:0|3:2,0:0:0:0:
253,203,17024,2,0,P|279:221|319:214,1,59.4999981842042,8|0,0:0|0:0,0:0:0:0:
258,57,17191,6,0,B|218:55|202:20|202:20|197:25|197:25|199:95|136:99,1,178.499994552612,4|0,3:2|3:2,0:0:0:0:
144,98,17524,1,0,0:0:0:0:
56,207,17691,6,0,B|78:190|78:190|71:225,1,59.4999981842042,8|0,0:0|0:0,0:0:0:0:
4,267,17857,2,0,B|42:228|82:263|82:263|109:321|172:294,1,178.499994552612,4|0,3:2|0:0,0:0:0:0:
154,300,18191,6,0,L|83:338,1,59.4999981842042,8|0,0:0|0:0,0:0:0:0:
270,366,18357,2,0,B|336:409|383:363|378:321|352:296|316:297|303:322,1,178.499994552612,4|0,3:2|0:0,0:0:0:0:
319,308,18691,1,8,0:0:0:0:
473,237,18857,5,4,3:2:0:0:
276,163,19024,1,8,0:0:0:0:
506,56,19191,6,0,B|467:17|422:50|422:50|410:102|348:99,1,178.499994552612,4|0,3:2|0:0,0:0:0:0:
361,99,19524,2,0,L|427:120,1,59.4999981842042,8|0,0:0|0:0,0:0:0:0:
323,13,19691,1,0,3:0:0:0:
289,2,19774,1,0,3:0:0:0:
259,11,19857,1,8,0:0:0:0:
234,33,19941,1,8,0:0:0:0:
211,103,20024,5,0,3:0:0:0:
216,116,20107,1,0,3:0:0:0:
252,181,20191,5,8,0:0:0:0:
247,194,20274,1,8,0:0:0:0:
189,247,20357,6,0,L|319:211,1,118.999996368408,4|0,3:2|0:0,0:0:0:0:
362,166,20607,1,2,0:0:0:0:
372,160,20691,2,0,B|381:125|346:104|346:104|360:138|334:163,1,118.999996368408,8|0,0:0|0:0,0:0:0:0:
424,62,20941,1,0,3:2:0:0:
427,53,21024,2,0,B|385:4|340:47|340:47|341:96|260:117,1,178.499994552612,4|0,3:2|0:0,0:0:0:0:
149,81,21357,6,0,B|255:32|255:32|212:50|223:108,1,178.499994552612,4|8,3:2|0:0,0:0:0:0:
117,176,21691,1,0,3:2:0:0:
68,158,21774,1,0,3:2:0:0:
38,117,21857,1,0,3:2:0:0:
54,72,21941,1,8,3:2:0:0:
65,56,22024,2,0,L|54:116,1,42.5,8|0,0:0|3:2,0:0:0:0:
0,292,22357,6,0,B|44:293|68:254|68:254|78:250|78:250|47:353|146:372,1,237.999992736817,4|0,3:2|0:0,0:0:0:0:
257,191,22857,2,0,B|268:158|306:159|306:159|250:149|215:182|234:213|200:257|139:226,1,237.999992736817,4|0,3:2|0:0,0:0:0:0:
358,241,23357,6,0,B|402:259|433:217|433:217|504:236|477:311,1,178.499994552612,4|0,3:2|0:0,0:0:0:0:
483,282,23691,2,0,L|492:226,1,51,2|2,0:0|0:0,0:0:0:0:
437,60,24357,6,0,B|456:49|455:19|455:19|494:27|531:73|481:124,1,170,4|0,3:2|0:0,0:0:0:0:
308,72,24857,2,0,P|332:30|370:21,1,85,8|0,0:0|0:0,0:0:0:0:
361,130,25191,1,0,3:2:0:0:
281,177,25357,6,0,B|248:153|220:168|220:168|204:205|158:203,1,127.5,2|0,0:0|0:0,0:0:0:0:
172,202,25691,2,0,P|142:164|156:122,1,85,8|0,0:0|0:0,0:0:0:0:
217,267,26024,1,8,0:0:0:0:
93,238,26191,1,8,0:0:0:0:
185,336,26357,6,0,B|232:361|269:321|269:321|330:338|308:409,1,170,4|0,3:2|0:0,0:0:0:0:
386,214,26857,2,0,P|340:230|334:276,1,85,0|0,3:2|0:0,0:0:0:0:
439,301,27191,1,0,3:2:0:0:
509,209,27357,6,0,L|513:115,1,85,2|0,0:0|3:2,0:0:0:0:
404,30,27691,2,0,B|346:16|346:16|269:41|333:125,1,165.749992412568,4|0,3:2|0:0,0:0:0:0:
322,121,28024,1,8,0:0:0:0:
225,33,28191,1,8,0:0:0:0:
96,172,28357,6,0,B|140:192|172:152|146:126|185:91|241:117,1,170,2|2,3:2|0:0,0:0:0:0:
259,291,28857,2,0,P|211:286|191:240,1,85,2|0,3:2|0:0,0:0:0:0:
313,205,29191,1,8,0:0:0:0:
414,349,29357,5,2,0:0:0:0:
353,301,29524,1,0,3:2:0:0:
476,266,29691,2,0,B|398:238|398:238|427:255|428:290,1,127.5,8|0,0:0|0:0,0:0:0:0:
488,281,30024,2,0,B|510:245|510:245|504:195,1,85,2|8,0:0|0:0,0:0:0:0:
413,64,30357,6,0,B|445:88|469:84|486:77|486:77|481:93|442:126|379:72,1,170,2|0,3:2|0:0,0:0:0:0:
251,9,30857,2,0,P|303:14|323:59,1,85,0|0,3:2|0:0,0:0:0:0:
322,160,31191,1,0,3:2:0:0:
197,191,31357,6,0,P|214:142|211:94,1,85,8|8,0:0|3:3,0:0:0:0:
204,88,31607,1,0,0:0:0:0:
196,77,31691,1,8,0:0:0:0:
81,184,31857,1,0,3:0:0:0:
263,310,32024,5,8,0:0:0:0:
314,335,32107,1,8,0:0:0:0:
343,311,32191,1,8,0:0:0:0:
362,323,32274,1,8,0:0:0:0:
375,321,32358,6,0,L|366:225,1,68,4|0,3:2|0:0,0:0:0:0:
472,134,32691,2,0,L|469:180,3,34,8|8|8|8,3:2|0:0|0:0|0:0,0:0:0:0:
378,63,33024,2,0,L|372:24,3,34,10|8|8|8,3:2|0:0|0:0|0:0,0:0:0:0:
346,165,33358,5,8,3:2:0:0:
303,190,33441,1,8,0:2:0:0:
260,179,33524,1,8,0:2:0:0:
225,145,33608,1,8,0:2:0:0:
246,125,33691,5,8,3:2:0:0:
219,78,33774,1,8,0:0:0:0:
169,60,33857,1,8,0:0:0:0:
127,87,33940,1,8,0:0:0:0:
142,102,34024,6,0,L|131:11,1,68,4|0,3:2|0:0,0:0:0:0:
41,182,34358,2,0,L|27:140,3,34,8|8|8|8,0:0|0:0|0:0|0:2,0:0:0:0:
100,241,34691,2,0,L|86:282,3,34,8|8|8|8,3:2|0:0|0:0|0:0,0:0:0:0:
158,175,35024,5,8,3:2:0:0:
209,152,35108,1,8,0:0:0:0:
262,172,35191,1,8,0:0:0:0:
278,224,35274,1,8,0:0:0:0:
247,288,35358,5,8,0:0:0:0:
255,304,35441,1,8,0:0:0:0:
309,348,35524,5,8,0:0:0:0:
306,363,35608,1,8,0:0:0:0:
234,384,35691,6,0,L|152:364,1,85,4|0,3:2|0:0,0:0:0:0:
349,272,36024,2,0,L|395:261,3,42.5,8|8|8|8,3:2|0:0|0:0|0:0,0:0:0:0:
435,198,36357,2,0,L|389:187,3,42.5,8|8|8|8,3:2|0:0|0:0|0:0,0:0:0:0:
362,37,36691,5,8,0:0:0:0:
316,13,36774,1,8,0:0:0:0:
265,33,36857,1,8,0:0:0:0:
250,82,36941,1,8,0:0:0:0:
271,130,37024,1,8,0:0:0:0:
271,181,37107,1,8,0:0:0:0:
237,221,37191,1,8,0:0:0:0:
188,231,37274,1,8,0:0:0:0:
135,181,37357,5,8,0:0:0:0:
125,163,37441,1,8,0:2:0:0:
92,103,37524,5,0,3:2:0:0:
102,85,37608,1,8,3:3:0:0:
159,39,37691,6,0,B|200:80|148:179|84:103|17:184|76:271,1,255.000009727478,12|0,0:2|0:0,0:0:0:0:
43,330,38191,2,0,B|94:301|69:192|-12:249|-56:153|24:84,1,255.000009727478,4|0,3:2|0:0,0:0:0:0:
35,11,38691,6,0,L|4:325,1,289.000005512238,12|0,3:2|0:0,0:2:0:0:
465,52,39690,6,0,B|474:24|512:22|512:22|462:1|430:44|446:65|423:102|363:88,1,229.499992996216,6|0,3:2|3:0,0:0:0:0:
284,187,40024,2,0,P|304:159|295:119,1,55.2499974708558,10|8,0:0|0:0,0:0:0:0:
281,65,40190,2,0,P|266:33|227:21,1,55.2499974708558,10|0,0:0|0:0,0:0:0:0:
59,81,40357,5,8,0:0:0:0:
75,86,40440,1,8,0:0:0:0:
133,127,40524,5,8,0:0:0:0:
149,122,40607,1,8,0:0:0:0:
218,144,40690,6,0,B|172:124|147:162|147:162|137:214|76:208,1,165.749992412568,10|0,3:2|3:3,0:0:0:0:
230,339,41024,2,0,P|244:280|179:253,1,127.500004863739,6|0,3:1|0:0,0:0:0:0:
90,353,41274,1,2,3:3:0:0:
84,362,41357,2,0,B|41:384|7:339|7:339|46:362|85:337,1,161.499995687485,10|0,0:0|0:0,0:0:0:0:
86,208,41607,1,2,3:0:0:0:
46,273,41690,6,0,B|98:225|57:166|23:190|-10:128|44:82,1,191.250007295609,4|0,3:2|0:0,0:0:0:0:
141,6,42024,2,0,P|167:15|183:62,1,55.2499974708558,8|8,0:3|3:0,0:0:0:0:
210,104,42190,2,0,P|215:131|182:168,1,55.2499974708558,4|0,3:2|0:0,0:0:0:0:
284,342,42357,5,8,0:0:0:0:
268,293,42440,1,8,0:0:0:0:
294,249,42524,1,8,0:0:0:0:
348,245,42607,1,8,0:0:0:0:
352,254,42690,6,0,P|417:265|449:201,1,144.500002756119,8|8,0:3|0:3,0:0:0:0:
399,53,42940,1,0,0:0:0:0:
381,68,43024,2,0,L|370:154,1,55.2499974708558,4|0,0:3|0:0,0:0:0:0:
217,233,43190,6,0,B|164:231|132:185|132:185|132:192|132:192|171:251|139:301,1,216.750004134178,10|0,0:0|0:0,0:0:0:0:
117,312,43524,1,4,3:0:0:0:
67,150,43690,6,0,B|55:111|33:75|33:75|36:66|36:66|68:105|101:137,1,165.749992412568,6|0,3:0|0:0,0:0:0:0:
238,40,44024,2,0,B|239:19|239:19|211:56,1,55.2499974708558,8|8,3:2|0:0,0:0:0:0:
167,98,44190,2,0,B|215:55|254:97|254:97|271:146|342:133,1,178.499994552612,4|0,3:2|3:2,0:0:0:0:
372,89,44524,2,0,L|359:33,1,46.7500014266968,8|8,3:2|0:0,0:0:0:0:
376,259,44690,5,8,0:0:0:0:
430,279,44774,1,8,0:0:0:0:
476,249,44857,1,8,0:0:0:0:
484,200,44940,1,8,0:0:0:0:
473,187,45024,2,0,L|415:198,1,46.7500014266968,8|8,0:0|0:0,0:0:0:0:
210,296,45190,6,0,B|168:323|137:298|115:279|115:279|142:295|173:297|210:269,1,191.250007295609,6|0,0:1|3:2,0:0:0:0:
260,240,45523,2,0,B|281:224|301:234|301:234|283:208|242:226,1,93.5000028533936,8|0,0:3|3:2,0:0:0:0:
242,373,45856,2,0,L|206:136,1,204,4|0,3:2|0:0,0:0:0:0:
322,0,46190,6,0,P|346:27|343:71,1,55.2499974708558,8|0,0:0|0:0,0:0:0:0:
356,112,46356,2,0,P|344:146|305:165,1,55.2499974708558,2|0,3:3|0:0,0:0:0:0:
164,69,46523,2,0,B|136:39|136:39|270:79,1,165.749992412568,8|0,0:3|0:0,0:0:0:0:
78,244,46856,5,8,3:2:0:0:
24,226,46940,1,8,0:0:0:0:
0,180,47023,1,8,0:0:0:0:
21,134,47106,1,8,0:0:0:0:
32,124,47190,6,0,P|51:167|25:227,1,85,6|0,0:0|0:0,0:0:0:0:
92,345,47440,2,0,P|120:306|175:312,1,85,6|0,0:0|0:0,0:0:0:0:
309,193,47690,2,0,B|255:206|235:160|235:160|175:150|158:212,1,178.499994552612,6|6,0:0|0:0,0:0:0:0:
162,216,48023,1,0,0:0:0:0:
314,318,48190,5,8,0:3:0:0:
318,311,48273,2,0,B|357:319|379:290|379:290|356:318|368:371|420:367,1,178.499994552612,2|0,0:3|0:0,0:0:0:0:
428,365,48606,1,6,3:2:0:0:
497,132,48856,5,8,0:0:0:0:
461,93,48939,1,8,0:0:0:0:
410,88,49023,1,8,0:0:0:0:
369,122,49106,1,8,0:0:0:0:
379,141,49189,6,0,P|393:109|372:73,1,63.7500024318696,8|0,0:3|0:0,0:0:0:0:
330,33,49356,2,0,P|309:4|267:5,1,63.7500024318696,8|2,0:2|0:3,0:0:0:0:
174,104,49523,2,0,B|206:73|243:105|236:115|265:142|318:106,1,127.500004863739,4|0,3:2|3:2,0:0:0:0:
154,177,49773,1,0,0:0:0:0:
150,185,49856,2,0,B|92:230|92:230|83:229|83:229|127:164,1,152.999995330811,8|8,0:2|0:0,0:0:0:0:
117,39,50189,6,0,B|110:19|86:7|86:7|128:0|136:58,1,101.999996887207,12|0,0:2|0:0,0:0:0:0:
30,76,50439,1,8,0:0:0:0:
30,85,50523,2,0,B|54:111|54:111|28:165|28:165|8:174|8:174|-15:226|-15:226|6:265,1,204,8|0,0:3|3:3,0:0:0:0:
86,356,50856,2,0,L|162:344,1,55.2499974708558,8|0,0:0|0:0,0:0:0:0:
186,285,51023,2,0,L|249:303,1,55.2499974708558,8|8,0:0|0:0,0:0:0:0:
378,373,51189,6,0,B|342:366|342:366|299:328|358:281,1,110.499994941712,8|8,3:2|0:2,0:0:0:0:
423,249,51439,1,8,0:0:0:0:
428,241,51523,2,0,B|386:211|356:239|365:257|328:285|282:253,1,136,4|8,3:2|0:0,0:0:0:0:
251,219,51773,1,8,0:0:0:0:
241,228,51856,5,8,0:0:0:0:
199,193,51939,1,8,0:2:0:0:
196,142,52023,1,8,3:2:0:0:
230,100,52106,1,8,3:2:0:0:
244,96,52189,6,0,P|282:46|228:-1,1,136,2|0,0:3|0:0,0:0:0:0:
52,153,52856,2,0,P|86:178|133:176,1,68,2|0,0:3|0:0,0:0:0:0:
19,79,53189,2,0,L|33:237,1,136,2|0,0:2|0:0,0:0:0:0:
31,214,53856,1,0,0:0:0:0:
147,352,54189,6,0,B|191:328|184:289|184:289|193:280|193:280|215:373|311:358,1,216.750004134178,6|0,0:3|0:0,0:0:0:0:
344,371,54689,2,0,P|345:336|317:307,1,68,6|0,0:0|0:0,0:0:0:0:
332,136,55189,6,0,B|465:93|465:93|413:108|419:167,1,216.750004134178,6|0,0:3|0:0,0:0:0:0:
453,214,55689,2,0,P|486:192|491:152,1,68,6|0,0:0|0:0,0:0:0:0:
400,20,56189,2,0,B|346:-20|301:23|301:23|275:101|194:76,1,216.750004134178,6|0,0:3|0:0,0:0:0:0:
156,90,56689,2,0,P|153:55|182:29,1,59.4999981842042,6|0,0:0|0:0,0:0:0:0:
13,0,57189,6,0,B|45:19|45:19|27:77|27:77|-2:84|-2:84|-21:151|-21:151|-1:175,1,229.499992996216,6|0,0:3|0:0,0:0:0:0:
41,235,57689,2,0,P|61:216|67:191,1,42.5,6|0,0:0|0:0,0:0:0:0:
99,371,58189,6,0,P|152:338|243:332,1,152.999995330811,2|0,3:2|0:0,0:0:0:0:
285,278,58855,2,0,P|316:293|355:298,1,50.9999984436036,2|2,0:0|3:0,0:0:0:0:
406,378,59189,2,0,B|447:349|440:273|399:257|399:257|426:290|401:323,1,203.999993774414,2|0,3:2|0:0,0:0:0:0:
142,31,60064,5,2,0:0:0:0:
150,23,60126,1,2,0:0:0:0:
157,18,60189,2,0,B|204:50|204:50|182:120,1,118.999996368408,2|2,0:0|0:0,0:0:0:0:
46,175,61189,2,0,B|-1:207|-1:207|21:277,1,118.999996368408,2|2,0:0|0:0,0:0:0:0:
17,266,61939,1,0,0:0:0:0:
79,332,62189,6,0,P|115:302|166:304,1,89.2499972763062,2|0,0:0|0:0,0:0:0:0:
200,247,62689,2,0,P|236:277|287:275,1,89.2499972763062,2|0,0:0|0:0,0:0:0:0:
380,367,63189,6,0,P|410:328|390:280,1,101.999996887207,4|8,0:0|0:0,0:0:0:0:
356,184,63439,1,8,0:0:0:0:
337,164,63522,1,8,0:0:0:0:
335,138,63605,1,8,0:0:0:0:
347,126,63689,5,8,0:0:0:0:
369,71,63772,1,8,0:0:0:0:
349,21,63855,1,8,0:0:0:0:
294,7,63939,1,8,3:2:0:0:
246,35,64022,1,8,3:2:0:0:
265,103,64105,5,8,3:2:0:0:
272,95,64189,2,0,B|221:56|174:102|194:123|150:168|101:132,1,191.250007295609,12|0,3:2|3:2,0:0:0:0:
76,68,64522,2,0,B|71:47|80:18|80:18|74:47|99:72,1,101.999996887207,2|0,3:2|3:2,0:0:0:0:
107,136,64772,1,2,3:2:0:0:
107,136,64855,2,0,P|79:159|74:185,1,59.4999981842042,8|0,0:0|0:0,0:0:0:0:
78,251,65022,2,0,P|83:286|103:304,1,59.4999981842042,0|2,0:0|0:0,0:0:0:0:
248,280,65189,6,0,B|241:249|241:249|282:281,1,59.4999981842042,4|0,0:0|0:0,0:0:0:0:
317,350,65355,2,0,B|285:333|282:288|282:288|274:292|274:292|263:362|205:366,1,191.250007295609,8|2,3:0|0:0,0:0:0:0:
409,369,65689,2,0,L|402:315,1,46.7500014266968,10|0,0:0|0:0,0:0:0:0:
383,51,65855,5,8,0:0:0:0:
416,91,65939,1,8,0:0:0:0:
399,145,66022,1,8,0:0:0:0:
349,161,66105,1,8,0:0:0:0:
341,153,66189,6,0,B|450:181|450:181|418:177|387:204,1,165.749992412568,6|8,3:2|0:0,0:0:0:0:
445,252,66522,1,8,3:0:0:0:
296,338,66689,5,8,0:0:0:0:
254,373,66772,1,8,0:0:0:0:
207,350,66855,1,8,0:0:0:0:
179,308,66939,1,8,3:2:0:0:
187,261,67022,1,8,3:2:0:0:
216,219,67105,1,8,3:2:0:0:
225,208,67189,6,0,P|185:180|145:210,1,93.5000028533936,12|0,0:0|0:0,0:0:0:0:
378,91,67439,2,0,P|332:127|349:214,1,118.999996368408,4|0,0:0|0:0,0:0:0:0:
505,323,67689,2,0,B|465:323|452:291|464:283|440:236|391:261,1,136,4|8,0:0|0:2,0:0:0:0:
298,368,67939,2,0,B|384:342|384:342|354:348|326:322,1,136,12|0,0:0|0:0,0:0:0:0:
179,308,68189,6,0,B|130:290|105:322|105:322|48:277|88:225,1,178.499994552612,4|0,0:1|3:2,0:0:0:0:
303,85,68522,2,0,P|285:110|251:118,1,55.2499974708558,8|0,3:2|0:0,0:0:0:0:
189,121,68689,2,0,P|158:117|134:91,1,55.2499974708558,0|0,3:2|0:0,0:0:0:0:
45,6,68855,6,0,P|69:54|21:102,1,110.499994941712,4|0,3:0|0:0,0:0:0:0:
75,169,69105,1,2,3:2:0:0:
68,183,69189,2,0,L|80:244,1,55.2499974708558,4|0,0:0|0:0,0:0:0:0:
90,309,69355,2,0,L|79:363,1,55.2499974708558,2|0,0:0|3:2,0:0:0:0:
190,242,69522,6,0,L|257:222,1,55.2499974708558,8|0,0:0|0:0,0:0:0:0:
299,277,69689,2,0,L|377:298,1,55.2499974708558,8|0,0:0|0:0,0:0:0:0:
496,155,69855,2,0,B|440:172|440:172|403:231|464:260,1,165.749992412568,8|8,3:2|3:2,0:0:0:0:
339,184,70189,5,8,0:0:0:0:
297,154,70272,1,8,0:0:0:0:
287,101,70355,1,8,0:0:0:0:
313,57,70439,1,8,0:0:0:0:
332,62,70522,2,0,B|279:96|246:49|263:27|223:-18|164:27,1,165.749992412568,8|8,0:0|0:0,0:0:0:0:
81,154,70855,5,8,3:2:0:0:
88,137,70939,1,8,3:2:0:0:
135,81,71022,5,8,3:2:0:0:
128,64,71106,1,8,3:2:0:0:
90,0,71189,6,0,L|118:213,1,191.250007295609,12|0,3:2|3:2,0:0:0:0:
156,250,71522,2,0,P|180:218|182:187,1,50.9999984436036,10|0,3:2|0:0,0:0:0:0:
0,373,71855,2,0,P|23:315|84:325,1,118.999996368408,10|0,0:0|0:0,0:0:0:0:
181,384,72105,1,8,0:0:0:0:
186,376,72188,6,0,B|220:349|214:312|214:312|221:304|221:304|237:382|318:369,1,191.250007295609,4|0,3:2|0:0,0:0:0:0:
401,299,72522,2,0,L|418:234,1,50.9999984436036,10|0,0:0|0:0,0:0:0:0:
348,212,72688,2,0,L|337:134,1,50.9999984436036,10|0,0:0|0:0,0:0:0:0:
446,104,72855,2,0,B|411:94|411:94|398:62|398:62|356:57,1,102,8|0,0:3|0:0,0:0:0:0:
295,45,73188,6,0,B|344:54|344:54|394:-9|394:-9|452:-1,1,178.499994552612,4|2,0:0|0:0,0:0:0:0:
254,175,73522,2,0,P|216:167|202:145,1,50.9999984436036,8|0,0:0|0:0,0:0:0:0:
166,102,73688,2,0,P|153:65|165:41,1,50.9999984436036,2|0,3:0|0:0,0:0:0:0:
218,0,73855,2,0,L|174:219,1,204,10|2,0:0|0:0,0:0:0:0:
62,321,74188,5,8,3:2:0:0:
78,271,74272,1,8,0:0:0:0:
132,254,74355,1,8,0:0:0:0:
178,280,74438,1,8,0:0:0:0:
180,300,74522,5,8,3:2:0:0:
220,334,74605,1,8,0:0:0:0:
273,332,74689,1,8,0:0:0:0:
306,296,74772,1,8,0:0:0:0:
354,234,74855,5,8,3:2:0:0:
361,210,74938,1,8,0:0:0:0:
312,156,75022,5,8,3:2:0:0:
305,132,75105,1,8,0:0:0:0:
346,68,75188,6,0,B|378:86|378:86|358:147|358:147|329:158|329:158|311:209|311:209|334:251,1,220.999989883423,6|0,0:0|0:0,0:0:0:0:
512,364,75688,2,0,B|469:348|465:309|465:309|456:304|456:304|443:405|367:383,1,220.999989883423,6|0,0:0|0:0,0:0:0:0:
89,285,76188,6,0,B|77:264|58:262|58:262|97:242|127:281|116:291|137:338|208:301,1,178.499994552612,10|0,3:2|3:2,0:0:0:0:
277,375,76522,2,0,L|296:310,1,59.4999981842042,8|8,0:0|0:3,0:0:0:0:
240,262,76688,2,0,L|221:197,1,59.4999981842042,0|2,3:2|0:3,0:0:0:0:
467,116,76855,2,0,B|426:98|426:98|369:118|405:183,1,114.749996498108,8|0,0:0|0:0,0:0:0:0:
449,213,77188,6,0,B|410:172|374:195|381:208|349:239|311:198,1,136,10|0,3:3|0:0,0:0:0:0:
285,151,77438,2,0,B|258:92|258:92|263:83|263:83|302:145,1,136,6|0,0:0|0:0,0:0:0:0:
152,276,77688,2,0,B|165:291|165:291|154:251,1,50.9999984436036,4|0,3:3|0:0,0:0:0:0:
101,217,77855,2,0,B|62:193|90:143|109:160|154:103|98:61,1,152.999995330811,8|0,0:0|0:0,0:0:0:0:
51,35,78188,6,0,L|183:59,1,118.999996368408,10|0,3:3|0:0,0:0:0:0:
238,29,78438,2,0,B|243:11|264:4|283:4|283:4|262:-2|237:-3|213:28,1,118.999996368408,6|0,0:0|0:0,0:0:0:0:
250,210,78688,2,0,B|233:228|233:228|240:182,1,50.9999984436036,6|0,3:3|0:0,0:0:0:0:
285,151,78855,2,0,B|312:142|313:109|313:109|321:103|321:103|331:158|390:173,1,152.999995330811,8|2,0:0|0:3,0:0:0:0:
503,249,79188,5,10,0:0:0:0:
495,236,79272,2,0,B|457:221|457:221|405:235|419:287,1,118.999996368408,0|8,0:0|0:3,0:0:0:0:
434,348,79522,2,0,B|455:370|455:370|454:340,1,59.4999981842042,0|0,3:2|0:0,0:0:0:0:
319,271,79688,2,0,B|206:246|206:246|247:263|251:306,1,178.499994552612,8|0,0:0|0:0,0:0:0:0:
96,371,80022,1,8,0:0:0:0:
55,312,80105,1,8,0:0:0:0:
107,258,80188,6,0,B|156:207|119:149|95:172|51:123|95:62,1,191.250007295609,8|2,3:2|3:0,0:0:0:0:
182,9,80522,2,0,B|230:23|230:23|262:68|210:102,1,118.999996368408,0|2,0:3|3:2,0:0:0:0:
264,157,80772,1,0,0:0:0:0:
258,168,80855,2,0,B|312:152|312:152|367:191|367:191|435:172,1,178.499994552612,8|0,0:0|0:0,0:0:0:0:
392,21,81188,6,0,L|378:107,1,68,4|0,0:3|0:0,0:0:0:0:
497,140,81438,2,0,L|507:207,1,68,0|8,3:2|0:3,0:0:0:0:
436,273,81688,2,0,L|425:313,1,34,8|8,0:3|0:3,0:0:0:0:
301,375,81855,5,8,0:0:0:0:
251,357,81938,1,8,0:0:0:0:
225,314,82022,1,8,0:0:0:0:
244,269,82105,1,8,0:0:0:0:
256,258,82188,6,0,P|207:281|161:236,1,118.999996368408,6|0,0:0|0:0,0:0:0:0:
29,186,82438,2,0,B|102:154|102:154|77:178|71:204,1,118.999996368408,8|0,0:3|0:0,0:0:0:0:
81,331,82688,2,0,L|94:261,1,59.4999981842042,8|8,0:0|0:0,0:0:0:0:
172,104,82855,5,8,0:0:0:0:
218,78,82938,1,8,0:0:0:0:
267,93,83022,1,8,0:0:0:0:
288,141,83105,1,8,0:0:0:0:
293,159,83188,6,0,B|351:207|400:179|414:136|403:103|366:90|345:100,1,204,4|4,0:0|0:3,0:0:0:0:
221,199,83522,1,8,0:0:0:0:
227,225,83605,1,10,0:2:0:0:
232,244,83688,2,0,B|241:278|241:278|259:227,1,59.4999981842042,6|0,3:2|0:0,0:0:0:0:
321,353,83855,5,8,3:2:0:0:
344,344,83938,1,8,3:2:0:0:
398,300,84022,5,8,3:2:0:0:
421,309,84105,1,8,3:2:0:0:
481,356,84188,6,0,L|326:327,1,144.500002756119,4|0,3:2|0:0,0:0:0:0:
211,349,84438,1,0,3:2:0:0:
216,359,84522,2,0,B|241:379|241:379|279:334|249:298,1,118.999996368408,2|0,0:0|3:2,0:0:0:0:
155,218,84772,1,8,0:0:0:0:
147,229,84855,2,0,B|111:246|81:196|81:196|116:219|149:202,1,144.500002756119,8|0,0:0|0:0,0:0:0:0:
311,149,85105,5,0,0:0:0:0:
256,194,85188,2,0,B|295:152|263:116|252:128|224:98|256:46,1,144.500002756119,2|0,3:2|0:0,0:0:0:0:
367,27,85438,2,0,B|284:1|284:1|321:17|324:66,1,144.500002756119,0|0,3:2|0:0,0:0:0:0:
468,82,85688,2,0,B|478:56|478:57|478:57|448:77,1,50.9999984436036,2|0,3:2|0:0,0:0:0:0:
417,132,85855,2,0,L|447:305,1,152.999995330811,8|0,0:0|0:0,0:0:0:0:
353,367,86188,6,0,B|318:375|318:375|277:336|277:336|234:347,1,136,2|0,3:2|0:2,0:2:0:0:
98,293,86438,2,0,B|76:324|76:324|172:296,1,136,2|0,3:2|0:0,0:0:0:0:
267,152,86688,2,0,B|271:135|271:135|228:178,1,68,2|2,3:2|0:0,0:0:0:0:
167,205,86855,2,0,B|206:182|242:213|242:213|264:278|324:257,1,165.749992412568,8|2,0:0|0:0,0:0:0:0:
369,214,87188,6,0,B|393:153|393:153|388:146|388:146|345:209,1,136,2|0,3:2|0:2,0:2:0:0:
479,348,87438,1,0,3:2:0:0:
485,360,87522,2,0,L|420:348,1,50.9999984436036,8|0,0:0|0:0,0:0:0:0:
360,328,87688,2,0,L|309:337,1,50.9999984436036,0|2,3:2|0:0,0:0:0:0:
156,372,87855,5,8,0:0:0:0:
105,380,87938,1,0,0:0:0:0:
59,349,88022,1,8,0:0:0:0:
50,296,88105,1,8,0:0:0:0:
61,280,88188,6,0,P|98:234|66:183,1,118.999996368408,2|0,3:2|0:0,0:0:0:0:
0,110,88438,2,0,P|-24:59|12:16,1,118.999996368408,0|0,3:2|0:0,0:0:0:0:
199,29,88688,2,0,P|186:55|146:68,1,59.4999981842042,0|0,3:2|0:0,0:0:0:0:
86,87,88855,2,0,B|129:51|177:98|154:121|192:170|245:134,1,178.499994552612,8|0,0:2|0:0,0:0:0:0:
286,86,89188,6,0,L|345:103,1,59.4999981842042,4|0,3:2|0:0,0:0:0:0:
454,27,89355,1,8,0:3:0:0:
496,61,89438,1,8,0:3:0:0:
500,112,89522,1,8,0:0:0:0:
460,148,89605,1,8,0:0:0:0:
426,177,89688,1,8,0:0:0:0:
419,210,89772,1,0,3:2:0:0:
474,255,89855,5,8,0:2:0:0:
480,270,89938,1,8,3:3:0:0:
428,316,90022,5,8,3:0:0:0:
422,331,90105,1,4,0:3:0:0:
475,373,90188,6,0,B|502:354|502:354|486:292|486:292|453:274|453:274|443:208|443:208|471:184,1,237.999992736817,12|0,0:0|0:0,0:0:0:0:
496,61,90688,6,0,B|442:55|446:-2|446:-2|437:-10|437:-10|433:71|356:98,1,237.999992736817,12|0,0:2|0:0,0:0:0:0:
268,227,91188,6,0,B|201:269|155:195|155:195|212:234|271:194,1,237.999992736817,12|0,0:0|0:0,0:0:0:0:
72,12,92188,6,0,P|21:28|12:81,1,108.8,2|0,0:0|0:0,0:0:0:0:
11,77,92855,1,2,0:0:0:0:
210,93,93188,6,0,P|261:109|270:162,1,108.8,2|0,0:0|0:0,0:0:0:0:
272,158,93855,1,2,0:0:0:0:
52,366,94188,6,0,P|95:334|163:342,1,108.8,2|0,0:0|0:0,0:0:0:0:
209,294,94688,2,0,P|252:326|320:318,1,108.8,2|0,0:0|0:0,0:0:0:0:
381,271,95188,6,0,P|337:299|348:365,1,108.8,2|0,0:0|0:0,0:0:0:0:
406,381,95688,2,0,P|450:353|439:287,1,108.8,2|0,0:0|0:0,0:0:0:0:
439,224,96188,6,0,B|484:188|449:142|435:151|391:114|426:69,1,163.2,2|2,0:0|0:0,0:0:0:0:
180,0,97188,6,0,L|241:25,1,54.4,2|0,0:0|0:0,0:0:0:0:
127,109,97522,2,0,L|119:55,1,54.4,2|0,0:0|0:0,0:0:0:0:
245,100,97855,2,0,L|192:140,1,54.4,2|0,0:0|0:0,0:0:0:0:
70,206,98188,6,0,P|125:207|149:260,1,108.8,2|2,0:0|0:0,0:0:0:0:
149,249,98855,1,2,0:0:0:0:
276,350,99188,5,4,3:2:0:0:
297,338,99272,1,0,0:0:0:0:
362,306,99355,5,8,0:2:0:0:
383,318,99439,1,0,3:2:0:0:
434,372,99522,5,8,3:3:0:0:
488,353,99605,1,8,3:3:0:0:
510,303,99688,1,8,3:3:0:0:
489,251,99772,1,8,3:3:0:0:
474,242,99855,6,0,P|457:196|494:161,1,89.2499972763062,4|0,3:2|0:0,0:0:0:0:
438,107,100188,6,0,B|457:129|490:121|490:121|436:154|399:110|418:94|387:53|323:86,1,229.499992996216,4|0,3:2|3:2,0:0:0:0:
249,303,100522,2,0,P|278:285|282:256,1,55.2499974708558,2|8,0:0|0:0,0:0:0:0:
296,196,100688,2,0,P|294:161|271:143,1,55.2499974708558,4|0,3:2|0:0,0:0:0:0:
175,57,100855,5,8,0:0:0:0:
152,48,100938,1,8,0:0:0:0:
91,95,101022,5,8,0:0:0:0:
68,104,101105,1,8,0:0:0:0:
14,57,101188,6,0,L|227:84,1,165.749992412568,4|0,3:2|3:2,0:0:0:0:
244,42,101522,2,0,B|284:8|284:8|281:-6|281:-6|221:37,1,127.500004863739,2|0,0:0|3:2,0:0:0:0:
279,124,101772,1,2,0:0:0:0:
271,119,101855,2,0,B|305:85|347:121|347:121|375:163|435:131,1,144.500002756119,10|0,0:0|0:0,0:0:0:0:
482,91,102105,1,0,0:0:0:0:
425,36,102188,6,0,B|462:67|462:67|441:124|441:124|422:130|422:130|394:206|394:206|426:248,1,255.000009727478,4|0,3:2|0:0,0:0:0:0:
501,355,102522,2,0,L|439:340,1,55.2499974708558,0|0,3:2|0:0,0:0:0:0:
374,314,102688,2,0,L|320:326,1,55.2499974708558,6|0,3:2|0:0,0:0:0:0:
179,375,102855,5,8,0:3:0:0:
126,357,102938,1,8,0:0:0:0:
101,309,103022,1,8,0:0:0:0:
122,263,103105,1,8,0:0:0:0:
139,257,103188,6,0,P|68:263|57:162,1,165.749992412568,4|0,0:2|0:2,0:2:0:0:
104,12,103522,2,0,B|111:-4|111:-4|70:22,1,55.2499974708558,8|0,0:0|0:0,0:0:0:0:
8,53,103688,2,0,B|54:18|90:64|90:64|106:114|181:104,1,165.749992412568,4|0,3:2|0:0,0:0:0:0:
195,52,104022,2,0,L|271:83,1,55.2499974708558,0|0,3:2|0:2,0:2:0:0:
462,31,104188,5,8,0:0:0:0:
408,16,104272,1,8,0:0:0:0:
363,50,104355,1,8,0:3:0:0:
354,103,104438,1,8,0:3:0:0:
363,116,104522,2,0,L|429:104,1,55.2499974708558,8|8,3:3|3:3,0:0:0:0:
314,228,104689,6,0,B|294:175|294:175|274:163|274:163|295:228,1,144.500002756119,4|0,3:2|0:0,0:0:0:0:
270,290,104939,2,0,B|186:318|186:318|218:304|225:270,1,144.500002756119,8|2,0:0|0:0,0:0:0:0:
132,170,105189,2,0,P|168:177|192:221,1,72.2500013780594,2|0,3:2|0:0,0:0:0:0:
36,372,105355,5,8,0:2:0:0:
14,318,105439,1,0,0:0:0:0:
32,267,105522,1,8,0:2:0:0:
81,248,105605,1,8,0:0:0:0:
83,259,105689,6,0,P|29:205|56:127,1,144.500002756119,6|8,3:2|0:0,0:0:0:0:
125,20,105939,1,0,3:2:0:0:
126,8,106022,2,0,B|74:26|74:26|55:59|55:59|-9:77,1,144.500002756119,2|0,0:0|3:2,0:0:0:0:
159,98,106272,1,0,0:0:0:0:
163,116,106355,2,0,B|220:167|272:114|272:114|219:140|172:74,1,216.750004134178,12|0,0:0|0:0,0:0:0:0:
340,17,106689,6,0,P|369:39|372:80,1,55.2499974708558,4|0,3:2|0:0,0:0:0:0:
375,129,106855,2,0,P|370:165|336:188,1,55.2499974708558,8|0,0:0|0:0,0:0:0:0:
274,282,107022,6,0,L|363:272,1,55.2499974708558,4|0,3:2|0:0,0:0:0:0:
387,332,107189,2,0,L|441:338,1,55.2499974708558,8|0,0:0|0:0,0:0:0:0:
499,198,107354,5,8,0:2:0:0:
508,175,107438,1,8,0:0:0:0:
468,115,107521,5,8,0:0:0:0:
459,92,107605,1,8,0:0:0:0:
497,27,107689,6,0,L|473:189,1,110.499994941712,4|0,3:2|0:0,0:0:0:0:
371,215,107939,2,0,B|330:204|330:204|312:182|312:182|264:169,1,110.499994941712,8|0,0:2|0:0,0:0:0:0:
155,283,108189,2,0,P|209:278|221:210,1,110.499994941712,4|0,3:2|0:2,0:2:0:0:
219,64,108439,2,0,P|183:103|218:163,1,110.499994941712,8|0,0:0|0:0,0:0:0:0:
297,42,108689,6,0,B|260:66|221:23|237:10|206:-19|147:9,1,144.500002756119,4|2,3:2|0:0,0:0:0:0:
37,30,108939,2,0,B|121:63|121:63|92:40|86:3,1,144.500002756119,8|0,0:0|0:0,0:0:0:0:
56,122,109189,2,0,P|78:152|71:186,1,72.2500013780594,0|0,3:2|0:0,0:0:0:0:
20,355,109354,5,8,0:0:0:0:
31,298,109438,1,0,0:0:0:0:
79,277,109521,1,0,0:0:0:0:
130,293,109605,1,8,0:0:0:0:
135,305,109689,6,0,B|191:325|191:325|254:300|217:231,1,161.499995687485,12|8,0:0|0:2,0:0:0:0:
171,186,109939,1,8,0:0:0:0:
157,179,110022,2,0,B|137:132|137:132|143:122|143:122|174:175,1,101.999996887207,2|0,0:0|3:2,0:0:0:0:
251,168,110272,1,0,0:0:0:0:
262,176,110355,2,0,B|297:178|297:178|328:122|328:122|324:103|324:103|354:51|354:51|396:45,1,216.750004134178,10|0,0:0|0:0,0:0:0:0:
512,92,110689,6,0,B|422:116|422:116|450:108|465:65,1,144.500002756119,4|0,3:2|0:0,0:0:0:0:
391,45,110939,2,0,B|301:20|301:20|329:28|344:71,1,144.500002756119,8|0,0:0|0:0,0:0:0:0:
264,85,111189,2,0,L|187:105,1,72.2500013780594,10|0,0:0|0:0,0:0:0:0:
8,21,111355,5,8,3:2:0:0:
61,25,111439,1,8,0:0:0:0:
96,63,111522,1,8,0:0:0:0:
86,117,111605,1,8,0:0:0:0:
70,127,111689,6,0,B|106:105|140:138|129:154|151:197|210:170,1,144.500002756119,8|8,0:3|0:0,0:0:0:0:
190,271,111938,1,2,3:3:0:0:
187,280,112022,2,0,B|127:259|127:259|101:221|152:189,1,144.500002756119,12|0,3:2|3:2,0:0:0:0:
317,149,112355,5,8,0:0:0:0:
369,191,112439,1,8,0:0:0:0:
379,257,112522,1,8,0:0:0:0:
338,310,112605,1,8,0:0:0:0:
326,318,112688,6,0,P|367:270|434:286,1,118.999996368408,10|2,0:2|0:0,0:0:0:0:
418,274,113355,1,0,0:0:0:0:
474,67,113688,6,0,B|486:30|534:30|534:30|474:12|426:56|443:72|405:122|344:92,1,272,2|0,0:0|0:0,0:0:0:0:
156,10,114688,6,0,P|181:26|200:68,1,63.7500024318696,4|0,0:0|0:0,0:0:0:0:
153,231,114855,1,8,0:0:0:0:
104,257,114938,1,0,3:2:0:0:
54,232,115022,1,8,0:0:0:0:
30,186,115105,1,8,0:0:0:0:
20,151,115188,1,8,0:0:0:0:
30,129,115272,1,8,0:0:0:0:
39,118,115355,6,0,L|156:149,1,114.749996498108,4|0,3:2|0:0,0:0:0:0:
253,141,115688,6,0,B|228:95|228:95|142:147|214:228,1,191.250007295609,6|0,0:0|0:0,0:0:0:0:
302,339,116022,1,8,3:2:0:0:
351,363,116105,1,8,0:0:0:0:
401,345,116188,1,8,0:0:0:0:
418,294,116272,1,8,0:0:0:0:
383,222,116355,5,8,0:0:0:0:
373,202,116438,1,8,0:0:0:0:
412,142,116522,5,8,0:0:0:0:
422,122,116605,1,8,0:0:0:0:
371,61,116688,6,0,L|411:334,1,229.499992996216,6|0,3:0|0:0,0:0:0:0:
469,350,117188,2,0,P|498:321|500:291,1,68,6|0,0:0|0:0,0:0:0:0:
296,227,117688,6,0,B|244:181|196:223|196:223|178:293|97:278,1,216.750004134178,6|0,0:3|0:0,0:0:0:0:
51,256,118188,2,0,P|73:221|109:212,1,68,6|0,0:0|0:0,0:0:0:0:
190,34,118688,6,0,B|240:62|276:8|276:8|377:21|342:118,1,229.499992996216,6|0,0:3|0:0,0:0:0:0:
314,155,119188,2,0,P|275:120|277:88,1,68,6|0,0:0|0:0,0:0:0:0:
453,96,119688,5,6,3:2:0:0:
495,137,119854,1,8,0:3:0:0:
484,192,120021,1,8,0:3:0:0:
405,242,120188,5,6,0:3:0:0:
370,285,120354,1,4,0:3:0:0:
386,340,120521,1,4,3:3:0:0:
445,377,120688,6,0,B|474:353|474:353|456:282|456:282|430:267|430:267|409:199|409:199|434:165,1,237.999992736817,4|0,0:0|0:0,0:0:0:0:
512,52,121354,2,0,P|488:81|445:71,1,79.3333309122722,2|2,0:0|3:0,0:0:0:0:
312,45,121688,6,0,B|351:28|390:54|377:70|409:102|453:73,1,152.999995330811,6|0,0:0|0:0,0:0:0:0:
