osu file format v14

[General]
AudioFilename: audio.mp3
AudioLeadIn: 0
PreviewTime: 14204
Countdown: 0
SampleSet: Soft
StackLeniency: 0.3
Mode: 0
LetterboxInBreaks: 0
WidescreenStoryboard: 0

[Editor]
Bookmarks: 14802,26449,37390,43390,52095,54331,65625,71625,82919,93154,95271
DistanceSpacing: 0.6
BeatDivisor: 9
GridSize: 16
TimelineZoom: 2.900002

[Metadata]
Title:Santa Claus Is Coming to Town
TitleUnicode:Santa Claus Is Coming to Town
Artist:Co shu Nie
ArtistUnicode:Cö shu Nie
Creator:GlaZe
Version:enryotoki's Insane
Source:
Tags:Akito enryotoki christmas english Deca Shurelia pop -akito
BeatmapID:2739744
BeatmapSetID:1322692

[Difficulty]
HPDrainRate:5.1
CircleSize:4.3
OverallDifficulty:8.2
ApproachRate:9.2
SliderMultiplier:1.7
SliderTickRate:1

[Events]
//Background and Video events
0,0,"bg.jpg",0,0
//Break Periods
//Storyboard Layer 0 (Background)
//Storyboard Layer 1 (Fail)
//Storyboard Layer 2 (Pass)
//Storyboard Layer 3 (Foreground)
//Storyboard Layer 4 (Overlay)
//Storyboard Sound Samples

[TimingPoints]
675,352.941176470588,4,2,2,25,1,0
3498,-100,4,2,2,30,0,0
14792,-90.9090909090909,4,2,1,50,0,0
17616,357.142857142857,4,2,1,50,1,0
17616,-90.9090909090909,4,2,1,50,0,0
19044,344.827586206896,4,2,1,50,1,0
19044,-80.0000000000001,4,2,1,50,0,0
19733,372.670807453416,4,2,1,50,1,0
19733,-80,4,2,1,50,0,0
20105,340.909090909091,4,2,1,50,1,0
20105,-80,4,2,1,50,0,0
20445,350.877192982456,4,2,1,45,1,0
20445,-80.0000000000001,4,2,1,45,0,0
20795,-100,4,2,1,45,0,0
21848,359.281437125748,4,2,1,45,1,0
22566,346.820809248555,4,2,1,45,1,0
22912,350.877192982456,4,2,1,45,1,0
24315,363.636363636363,4,2,1,45,1,0
24680,350.877192982456,4,2,1,45,1,0
25381,363.636363636363,4,2,1,45,1,0
25744,337.078651685393,4,2,1,45,1,0
26081,346.820809248555,4,2,1,45,1,0
26081,-133.333333333333,4,2,1,45,0,0
26440,361.44578313253,4,2,1,60,1,0
26440,-83.3333333333333,4,2,1,60,0,0
27524,333.333333333333,4,2,1,60,1,0
27524,-83.3333333333333,4,2,1,60,0,0
27857,340.909090909091,4,2,1,60,1,0
27857,-83.3333333333333,4,2,1,60,0,0
28197,352.941176470588,4,2,1,60,1,0
28197,-83.3333333333333,4,2,1,60,0,0
29255,-83.3333333333333,4,2,1,60,0,0
30314,359.281437125748,4,2,1,60,1,0
30314,-50,4,2,1,60,0,0
31391,346.820809248554,4,2,1,60,1,0
31391,-83.3333333333333,4,2,1,60,0,0
31737,346.820809248554,4,2,1,60,1,0
31737,-83.3333333333333,4,2,1,60,0,0
32777,363.636363636363,4,2,1,60,1,0
33140,352.941176470587,4,2,1,60,1,0
33140,-83.3333333333333,4,2,1,60,0,0
33845,333.333333333333,4,2,1,60,1,0
33845,-83.3333333333333,4,2,1,60,0,0
34067,413.793103448275,4,2,1,60,1,0
34204,352.941176470588,4,2,1,60,1,0
34204,-83.3333333333333,4,2,1,60,0,0
34556,352.941176470588,4,2,1,60,1,0
34556,-83.3333333333333,4,2,1,60,0,0
36673,375,4,2,1,60,1,0
37048,350.877192982456,4,2,1,60,1,0
37390,-100,4,2,1,45,0,0
37398,350.877192982456,4,2,1,45,1,0
39855,-50,4,2,1,45,0,0
40205,-100,4,2,1,45,0,0
42311,363.636363636364,4,2,1,45,1,0
43038,327.868852459017,4,2,1,45,1,0
43365,363.636363636364,4,2,1,45,1,0
43365,-83.3333333333333,4,2,1,45,0,0
43390,-83.3333333333333,4,2,1,60,0,0
44455,346.820809248556,4,2,1,60,1,0
45148,-83.3333333333333,4,2,1,60,0,0
46189,357.142857142858,4,2,1,60,1,0
46189,-83.3333333333333,4,2,1,60,0,0
47260,-50,4,2,1,60,0,0
48684,-100,4,2,1,60,0,0
48689,352.941176470589,4,2,1,60,1,0
51512,348.837209302326,4,2,1,60,1,0
52907,352.941176470589,4,2,1,60,1,0
54318,359.281437125749,4,2,1,60,1,0
55755,348.837209302326,4,2,1,60,1,0
58545,352.941176470589,4,2,1,60,1,0
61721,387.096774193549,4,2,1,60,1,0
62108,324.324324324325,4,2,1,60,1,0
62432,365.853658536586,4,2,1,60,1,0
62797,350.877192982457,4,2,1,60,1,0
64902,-200,4,2,1,60,0,0
65604,361.445783132531,4,2,1,60,1,0
65604,-125,4,2,1,60,0,0
65625,-125,4,2,1,40,0,0
66688,342.857142857144,4,2,1,40,1,0
67030,357.142857142858,4,2,1,40,1,0
67030,-125,4,2,1,40,0,0
69889,337.078651685394,4,2,1,40,1,0
69889,-125,4,2,1,40,0,0
70900,-71.4285714285714,4,2,1,30,0,0
71237,387.096774193549,4,2,1,30,1,0
71624,357.142857142858,4,2,1,60,1,0
71624,-83.3333333333333,4,2,1,60,0,0
72695,346.820809248556,4,2,1,60,1,0
72695,-83.3333333333333,4,2,1,60,0,0
74429,359.28143712575,4,2,1,60,1,0
74429,-83.3333333333333,4,2,1,60,0,0
75506,348.837209302327,4,2,1,60,1,0
75506,-50,4,2,1,60,0,0
76901,357.142857142858,4,2,1,60,1,0
76919,-100,4,2,1,60,0,0
78329,352.941176470589,4,2,1,60,1,0
79034,307.692307692308,4,2,1,60,1,0
79387,352.941176470589,4,2,1,60,1,0
79739,352.941176470589,4,2,1,60,1,0
81150,-83.3333333333333,4,2,1,60,0,0
81624,-71.4285714285714,4,2,1,60,0,0
82209,-50,4,2,1,60,0,0
82562,-250,4,2,1,60,0,0
82911,352.941176470589,4,2,1,60,1,1
82911,-71.4285714285714,4,2,1,60,0,1
83969,352.941176470589,4,2,1,60,1,1
83969,-71.4285714285714,4,2,1,60,0,1
86801,-50,4,2,1,60,0,1
87498,-100,4,2,1,60,0,1
87851,327.868852459017,4,2,1,60,1,1
88178,357.142857142858,4,2,1,60,1,1
91035,333.333333333334,4,2,2,50,1,0
91737,333.333333333333,4,2,1,50,1,0
91959,400,4,2,1,50,1,0
92092,346.820809248555,4,2,1,50,1,0
93119,352.941176470588,4,2,1,50,1,0
93119,-142.857142857143,4,2,1,30,0,0
94567,-142.857142857143,4,2,1,25,0,0

[Colours]
Combo1 : 0,128,192
Combo2 : 255,196,136
Combo3 : 255,255,179
Combo4 : 255,113,113

[HitObjects]
450,376,14322,5,4,0:3:0:0:
455,352,14439,1,4,0:3:0:0:
512,52,14792,6,0,P|459:44|403:94,1,124.666670471192,6|0,3:1|0:0,0:0:0:0:
342,129,15145,2,0,P|303:91|226:99,1,124.666670471192,2|0,1:0|0:0,0:0:0:0:
175,136,15498,1,2,3:1:0:0:
484,259,15733,1,0,3:0:0:0:
491,236,15851,2,0,B|502:196|502:196|474:113,1,124.666670471192,2|0,1:0|0:0,0:0:0:0:
325,14,16204,5,2,3:1:0:0:
325,14,16322,2,0,L|251:21,1,62.3333352355958
154,182,16557,1,2,1:1:0:0:
154,182,16674,2,0,L|79:171,1,62.3333352355958
6,89,16910,1,2,3:1:0:0:
208,125,17145,1,0,0:0:0:0:
224,147,17263,2,0,P|234:207|195:257,1,124.666670471192,2|0,1:0|0:0,0:0:0:0:
130,294,17616,6,0,B|161:283|161:283|254:307,1,124.666670471192,6|0,3:1|0:0,0:0:0:0:
297,362,17973,2,0,L|424:346,1,124.666670471192,2|0,1:0|0:0,0:0:0:0:
483,302,18330,1,2,3:1:0:0:
351,163,18568,1,0,3:0:0:0:
365,140,18687,2,0,P|376:81|329:30,1,124.666670471192,2|0,1:0|0:0,0:0:0:0:
156,107,19044,5,8,3:1:0:0:
95,64,19158,2,0,P|76:53|85:82,1,70.8333333333333
156,107,19388,1,8,1:1:0:0:
219,63,19503,2,0,P|237:52|228:81,1,70.8333333333333
156,107,19733,1,8,3:1:0:0:
95,64,19857,2,0,P|76:53|85:82,1,70.8333333333333
215,159,20105,2,0,B|224:178|224:178|211:235,1,70.8333333333333,0|0,1:0|0:0,0:0:0:0:
79,367,20332,5,0,0:0:0:0:
91,343,20445,2,0,P|145:308|216:338,1,141.666666666667,4|0,0:1|3:0,0:0:0:0:
269,384,20795,2,0,P|248:341|278:270,1,113.333333333333,0|0,1:0|0:0,0:0:0:0:
325,232,21146,2,0,B|356:221|356:221|442:242,1,113.333333333333,0|0,3:0|3:0,0:0:0:0:
506,260,21497,1,0,1:0:0:0:
327,135,21731,5,0,0:0:0:0:
345,117,21848,2,0,P|364:65|342:14,1,113.333333333333,4|0,0:3|3:0,0:0:0:0:
289,66,22207,2,0,L|176:83,1,113.333333333333,0|0,1:0|0:0,0:0:0:0:
43,142,22566,2,0,L|156:159,1,113.333333333333,0|0,3:0|3:0,0:0:0:0:
202,222,22912,1,0,1:0:0:0:
443,116,23145,5,0,0:0:0:0:
456,134,23262,2,0,B|468:162|468:162|447:256,1,113.333333333333,4|0,0:3|3:0,0:0:0:0:
502,305,23613,2,0,P|448:290|395:327,1,113.333333333333,0|0,1:0|0:0,0:0:0:0:
350,380,23964,2,0,P|314:336|250:336,1,113.333333333333,0|0,3:0|0:0,0:0:0:0:
194,373,24315,1,0,1:0:0:0:
68,292,24557,5,0,0:0:0:0:
58,276,24680,2,0,P|53:243|74:205,1,56.6666666666667,0|0,3:0|0:0,0:0:0:0:
243,203,24913,1,0,0:0:0:0:
250,132,25030,2,0,P|257:159|252:186,1,56.6666666666667,8|0,1:0|0:0,0:0:0:0:
30,38,25264,1,0,3:0:0:0:
93,75,25381,2,0,B|111:81|111:81|162:72,1,56.6666666666667,8|0,3:1|3:0,0:0:0:0:
272,30,25623,5,0,1:0:0:0:
319,11,25744,1,0,1:0:0:0:
367,26,25856,1,0,1:0:0:0:
394,68,25968,1,8,0:3:0:0:
449,116,26081,2,0,P|403:114|366:147,1,85.0000032424928,4|0,0:3|3:0,0:0:0:0:
318,244,26440,6,0,B|272:251|252:204|252:204|295:152|386:160|396:244,1,271.999991699219,4|0,0:1|0:0,0:0:0:0:
401,312,27042,1,0,3:0:0:0:
504,278,27162,2,0,B|527:281|537:257|537:257|512:228|472:236|459:271,1,135.99999584961,8|0,1:0|0:0,0:0:0:0:
401,312,27524,1,8,3:1:0:0:
158,207,27746,1,0,0:0:0:0:
145,191,27857,2,0,B|132:152|132:152|167:47,1,135.99999584961,0|2,1:0|3:0,0:0:0:0:
260,28,28197,5,0,3:0:0:0:
305,11,28314,1,2,3:0:0:0:
351,21,28432,1,0,1:0:0:0:
377,60,28549,1,0,1:0:0:0:
416,86,28667,1,8,0:3:0:0:
462,87,28785,1,8,0:3:0:0:
506,66,28902,5,8,0:3:0:0:
474,59,29020,1,4,3:3:0:0:
439,66,29138,1,4,3:3:0:0:
416,87,29255,6,0,B|392:131|392:131|414:243|414:243|409:286|409:286|426:350,1,271.999991699219,4|0,1:0|0:0,0:0:0:0:
350,371,29844,1,0,3:0:0:0:
332,359,29961,2,0,B|304:372|304:372|199:358,1,135.99999584961,8|0,1:0|0:0,0:0:0:0:
65,156,30314,6,0,B|55:135|27:120|27:120|21:101|21:101|39:123|80:133,1,113.333333333333,8|0,1:0|0:0,0:0:0:0:
82,290,30553,2,0,B|68:308|69:340|69:340|56:354|56:354|66:327|54:287,1,113.333333333333,8|0,1:0|0:0,0:0:0:0:
190,208,30793,2,0,B|212:210|239:193|239:193|258:197|258:197|230:202|201:232,1,113.333333333333,8|0,1:0|0:0,0:0:0:0:
114,218,31032,5,8,0:3:0:0:
114,218,31152,1,8,0:3:0:0:
176,134,31272,1,8,0:3:0:0:
102,32,31391,1,12,1:0:0:0:
254,125,31622,5,0,0:0:0:0:
260,108,31737,2,0,P|302:75|378:93,1,135.99999584961,0|0,3:0|0:0,0:0:0:0:
322,275,32083,2,0,B|305:246|305:246|327:142,1,135.99999584961,0|0,1:0|0:0,0:0:0:0:
455,126,32430,2,0,L|430:-9,1,135.99999584961,0|0,3:0|0:0,0:0:0:0:
455,126,32777,1,0,1:0:0:0:
511,263,33019,5,0,0:0:0:0:
495,255,33140,2,0,P|442:256|397:323,1,135.99999584961,0|0,3:0|0:0,0:0:0:0:
336,365,33492,2,0,P|292:334|215:361,1,135.99999584961,0|0,1:0|0:0,0:0:0:0:
185,375,33845,2,0,B|162:389|162:389|186:281,1,135.99999584961,0|0,3:0|0:0,0:0:0:0:
204,194,34204,2,0,B|212:163|212:163|177:63,1,135.99999584961,0|0,1:0|0:0,0:0:0:0:
241,260,34556,5,0,3:0:0:0:
78,162,34791,1,0,0:0:0:0:
57,168,34908,1,0,1:0:0:0:
290,81,35144,1,0,0:0:0:0:
269,87,35261,1,0,3:0:0:0:
502,0,35497,1,0,0:0:0:0:
481,6,35614,1,0,1:0:0:0:
353,217,35850,5,0,0:0:0:0:
347,232,35967,2,0,P|342:263|355:297,2,67.9999979248048,0|0|0,3:0|0:0|0:0,0:0:0:0:
423,254,36320,1,0,1:0:0:0:
440,258,36438,2,0,L|507:270,1,67.9999979248048
222,354,36673,5,0,3:0:0:0:
193,319,36798,1,0,0:0:0:0:
149,306,36923,1,8,0:3:0:0:
105,320,37048,5,0,1:0:0:0:
161,357,37164,1,4,0:3:0:0:
222,354,37281,1,4,0:3:0:0:
274,310,37398,2,0,B|282:279|282:279|263:183,1,113.333333333333,0|8,3:0|0:1,0:0:0:0:
295,135,37749,2,0,P|250:168|188:154,1,113.333333333333,0|0,1:0|0:0,0:0:0:0:
144,219,38100,1,0,0:0:0:0:
229,89,38334,1,0,3:0:0:0:
218,73,38451,2,0,B|211:53|211:53|248:68,1,56.6666666666667,0|0,1:0|0:0,0:0:0:0:
404,118,38685,5,0,0:0:0:0:
471,92,38802,2,0,B|497:81|501:39|501:39|473:48|462:72,1,113.333333333333,0|8,3:0|0:1,0:0:0:0:
404,118,39153,1,0,1:0:0:0:
389,138,39270,2,0,P|384:161|399:199,1,56.6666666666667
464,253,39504,5,0,0:0:0:0:
420,238,39621,1,0,0:0:0:0:
377,252,39738,1,0,3:0:0:0:
351,282,39855,6,0,P|321:269|286:274,2,56.6666666666667,0|0|0,1:0|0:0|0:0,0:0:0:0:
391,348,40088,1,0,0:0:0:0:
241,322,40205,2,0,P|220:270|245:212,1,113.333333333333,0|8,3:0|0:1,0:0:0:0:
310,199,40556,1,0,1:0:0:0:
156,328,40790,1,0,0:0:0:0:
137,340,40907,2,0,B|111:353|111:353|10:340,1,113.333333333333,0|0,3:0|3:0,0:0:0:0:
176,199,41258,6,0,L|299:184,1,113.333333333333,0|0,1:0|0:0,0:0:0:0:
361,239,41609,1,0,3:0:0:0:
379,197,41726,1,0,0:0:0:0:
373,151,41843,1,8,0:1:0:0:
344,115,41960,2,0,B|331:82|331:82|352:0,1,113.333333333333,8|0,1:0|0:0,0:0:0:0:
342,122,42311,5,0,3:0:0:0:
258,86,42432,1,0,0:0:0:0:
194,132,42553,1,0,1:0:0:0:
90,121,42674,1,8,1:3:0:0:
99,140,42795,1,8,0:3:0:0:
91,226,42917,1,8,0:3:0:0:
100,245,43038,1,8,0:3:0:0:
302,356,43256,5,0,3:0:0:0:
302,356,43311,1,2,0:0:0:0:
302,356,43365,2,0,B|333:321|341:255|282:220|282:220|329:201|373:217|395:262,1,271.999991699219,4|0,1:0|0:0,0:0:0:0:
240,294,43971,1,0,3:0:0:0:
225,311,44092,2,0,B|199:326|199:326|93:318,1,135.99999584961,8|0,1:0|0:0,0:0:0:0:
35,373,44455,1,8,3:1:0:0:
176,175,44686,1,0,1:0:0:0:
168,154,44801,1,0,1:0:0:0:
10,53,45033,5,2,3:0:0:0:
31,39,45148,2,0,L|107:49,1,67.9999979248048,0|2,3:0|0:0,0:0:0:0:
181,77,45379,5,0,1:0:0:0:
254,67,45495,1,0,3:0:0:0:
329,86,45611,5,0,3:0:0:0:
375,79,45726,1,0,1:0:0:0:
454,91,45842,5,8,3:0:0:0:
300,360,46073,5,8,3:0:0:0:
291,341,46189,2,0,B|324:313|307:256|307:256|233:253|189:312|214:376,1,271.999991699219,4|0,1:0|0:0,0:0:0:0:
133,368,46784,1,0,3:0:0:0:
140,287,46903,2,0,B|123:272|132:244|132:244|169:242|191:272|178:304,1,135.99999584961,8|0,1:0|0:0,0:0:0:0:
408,362,47260,6,0,P|448:356|416:374,1,113.333333333333,8|0,1:0|0:0,0:0:0:0:
322,222,47498,1,8,1:0:0:0:
262,182,47617,2,0,P|221:176|253:194,1,113.333333333333,0|8,0:0|1:0,0:0:0:0:
423,81,47855,1,0,1:0:0:0:
490,52,47974,2,0,P|530:46|498:64,1,113.333333333333,8|0,3:3|0:0,0:0:0:0:
351,63,48212,1,0,1:0:0:0:
306,72,48331,1,6,3:0:0:0:
262,82,48450,1,0,3:0:0:0:
217,92,48569,1,0,3:0:0:0:
161,146,48689,6,0,L|33:128,1,113.333333333333,4|0,3:1|0:0,0:0:0:0:
110,208,49041,2,0,L|238:190,1,113.333333333333,0|0,1:0|0:0,0:0:0:0:
295,224,49394,1,0,3:0:0:0:
75,379,49630,1,0,0:0:0:0:
54,363,49747,2,0,P|26:311|41:257,1,113.333333333333,0|0,1:0|0:0,0:0:0:0:
147,244,50100,2,0,P|175:296|160:350,1,113.333333333333,0|8,3:0|0:1,0:0:0:0:
100,303,50453,1,0,1:0:0:0:
276,78,50689,1,0,0:0:0:0:
298,72,50806,2,0,B|318:65|331:65|331:65|346:70|364:85,1,56.6666666666667,0|0,3:0|0:0,0:0:0:0:
455,152,51041,5,8,0:1:0:0:
463,190,51159,1,0,1:0:0:0:
471,228,51277,1,0,0:0:0:0:
478,266,51394,1,0,0:0:0:0:
501,348,51512,6,0,P|452:313|401:325,1,113.333333333333,0|0,3:0|0:0,0:0:0:0:
351,376,51860,1,0,1:0:0:0:
176,299,52093,1,0,0:0:0:0:
185,276,52209,2,0,P|234:241|285:253,1,113.333333333333,0|0,3:0|0:0,0:0:0:0:
393,175,52558,2,0,B|405:148|405:148|381:61,1,113.333333333333,0|0,1:0|0:0,0:0:0:0:
311,24,52907,5,0,3:0:0:0:
291,16,53024,2,0,P|261:14|228:38,1,56.6666666666667
155,212,53259,1,0,1:0:0:0:
135,220,53377,2,0,P|105:222|72:198,1,56.6666666666667
0,8,53612,1,0,3:0:0:0:
20,0,53730,2,0,P|50:-2|83:22,1,56.6666666666667,0|8,0:0|0:3,0:0:0:0:
274,158,53965,1,0,1:0:0:0:
267,225,54083,1,4,0:3:0:0:
260,292,54201,1,4,0:3:0:0:
254,359,54318,6,0,B|278:372|278:372|375:355,1,113.333333333333,4|0,0:1|3:0,0:0:0:0:
458,329,54677,2,0,B|525:313|525:313|500:366,1,113.333333333333,0|0,1:0|0:0,0:0:0:0:
443,338,55036,1,0,3:0:0:0:
331,202,55276,1,0,3:0:0:0:
317,184,55395,2,0,P|306:128|344:80,1,113.333333333333,0|0,1:0|0:0,0:0:0:0:
402,46,55755,6,0,P|346:57|298:19,1,113.333333333333,2|0,3:2|0:0,0:0:0:0:
255,89,56103,1,2,1:2:0:0:
130,24,56336,1,0,0:0:0:0:
68,75,56452,2,0,B|56:103|56:103|71:193,1,113.333333333333,2|0,3:2|0:0,0:0:0:0:
117,254,56801,2,0,L|104:369,1,113.333333333333,2|0,1:2|0:0,0:0:0:0:
30,380,57150,5,4,3:0:0:0:
208,198,57382,1,0,3:0:0:0:
227,185,57499,2,0,P|279:175|329:213,1,113.333333333333,0|0,1:0|0:0,0:0:0:0:
341,286,57848,2,0,P|364:268|405:268,1,56.6666666666667,0|0,3:0|0:0,0:0:0:0:
463,292,58080,1,0,3:0:0:0:
478,274,58196,2,0,B|490:242|490:242|470:154,1,113.333333333333,0|0,1:0|0:0,0:0:0:0:
386,39,58545,5,2,3:2:0:0:
251,98,58780,1,0,0:0:0:0:
227,89,58897,1,2,1:2:0:0:
42,78,59133,1,0,0:0:0:0:
17,68,59250,2,0,L|32:207,1,113.333333333333,2|0,3:2|0:0,0:0:0:0:
85,234,59603,1,2,1:2:0:0:
8,361,59839,5,0,0:0:0:0:
30,351,59956,2,0,B|58:341|58:341|150:356,1,113.333333333333,4|0,3:0|3:0,0:0:0:0:
215,340,60309,2,0,B|243:330|243:330|335:345,1,113.333333333333,0|0,1:0|0:0,0:0:0:0:
391,382,60662,1,0,3:0:0:0:
440,227,60897,1,0,3:0:0:0:
509,183,61015,2,0,P|523:133|486:77,1,113.333333333333,0|0,1:0|0:0,0:0:0:0:
345,189,61368,6,0,P|381:226|448:222,1,113.333333333333,2|0,3:2|0:0,0:0:0:0:
421,43,61721,2,0,P|370:55|340:115,1,113.333333333333,2|0,1:2|0:0,0:0:0:0:
439,227,62108,1,2,3:2:0:0:
210,64,62324,1,0,0:0:0:0:
188,68,62432,2,0,L|69:83,1,113.333333333333,6|0,1:2|0:0,0:0:0:0:
264,118,62797,6,0,P|284:63|256:3,1,113.333333333333
84,256,63147,2,0,P|64:204|81:151,1,113.333333333333,2|0,1:2|0:0,0:0:0:0:
335,228,63498,2,0,P|359:288|327:355,1,127.5,0|0,0:0|1:0,0:0:0:0:
265,370,63849,5,0,3:0:0:0:
222,364,63937,1,8,0:3:0:0:
179,359,64025,1,8,0:3:0:0:
136,353,64112,1,0,3:0:0:0:
93,348,64200,1,2,1:2:0:0:
476,83,64902,6,0,P|497:66|469:78,1,85,10|0,3:0|0:0,0:0:0:0:
413,121,65604,1,4,3:0:0:0:
413,121,65844,1,0,0:0:0:0:
389,134,65965,2,0,P|337:139|297:102,1,90.6666666666667,2|0,0:3|0:0,0:0:0:0:
249,75,66326,2,0,P|209:109|155:102,1,90.6666666666667,0|0,1:0|0:0,0:0:0:0:
187,42,66688,1,8,0:3:0:0:
20,156,66916,5,0,0:0:0:0:
26,180,67030,2,0,B|30:206|30:206|13:268,1,90.6666666666667,0|2,3:0|0:3,0:0:0:0:
0,344,67387,2,0,L|106:331,1,90.6666666666667,2|0,0:3|0:0,0:0:0:0:
167,352,67744,2,0,B|327:340,1,136,0|2,1:0|0:3,0:0:0:0:
512,124,68339,5,0,0:0:0:0:
499,104,68458,2,0,P|448:64|371:94,1,136,2|8,3:0|0:3,0:0:0:0:
335,133,68934,1,0,1:0:0:0:
217,11,69172,2,0,L|164:20,1,45.3333333333333,0|0,3:0|0:0,0:0:0:0:
24,55,69410,2,0,L|77:64,1,45.3333333333333,2|0,0:3|0:0,0:0:0:0:
121,153,69649,1,2,0:1:0:0:
121,153,69768,1,0,0:0:0:0:
121,153,69889,2,0,B|111:181|111:181|126:251,1,90.6666666666667,2|0,1:0|0:0,0:0:0:0:
95,315,70226,2,0,P|70:303|43:304,2,45.3333333333333,2|0|0,0:2|3:0|0:0,0:0:0:0:
275,319,70563,5,8,0:3:0:0:
318,333,70675,1,8,0:3:0:0:
361,346,70787,1,8,0:3:0:0:
406,357,70900,6,2,B|433:339|453:309|439:260|439:260|449:231|449:231|381:219|356:279,1,237.999992736817,4|8,0:1|3:0,0:1:0:0:
77,377,71495,5,0,3:0:0:0:
64,359,71624,2,0,B|40:315|40:315|62:203|62:203|57:160|57:160|74:96,1,271.999991699219,4|0,0:1|0:0,0:0:0:0:
177,22,72219,1,0,3:0:0:0:
231,82,72338,2,0,P|314:83|338:39,1,135.99999584961,8|0,1:0|0:0,0:0:0:0:
346,115,72695,2,0,P|372:135|406:138,1,67.9999979248048,8|0,3:1|0:0,0:0:0:0:
496,90,72926,1,0,1:0:0:0:
511,107,73041,2,0,B|523:137|523:137|498:255,1,135.99999584961,0|2,1:0|3:0,0:0:0:0:
505,311,73388,5,0,0:3:0:0:
312,379,73619,1,0,1:0:0:0:
250,337,73735,1,0,1:0:0:0:
160,380,73851,1,8,3:0:0:0:
160,380,73966,1,0,1:0:0:0:
71,287,74082,1,8,3:0:0:0:
82,247,74197,1,8,3:0:0:0:
93,208,74313,1,4,3:0:0:0:
102,165,74429,6,0,B|62:148|17:78|87:17|87:17|143:39|142:95,1,271.999991699219,4|0,1:0|0:0,0:0:0:0:
269,210,75027,1,0,3:0:0:0:
337,172,75147,2,0,B|368:156|368:156|478:177,1,135.99999584961,8|0,1:0|0:0,0:0:0:0:
198,216,75506,6,0,B|193:194|211:165|211:165|210:146|210:146|199:175|184:187,1,113.333333333333,8|0,1:0|0:0,0:0:0:0:
369,241,75738,2,0,B|364:263|382:292|382:292|381:310|381:310|370:282|355:270,1,113.333333333333,8|0,1:0|0:0,0:0:0:0:
483,143,75971,2,0,B|478:121|496:92|496:92|495:73|495:73|484:102|469:114,1,113.333333333333,8|0,1:0|0:0,0:0:0:0:
355,377,76203,5,8,3:3:0:0:
268,325,76319,1,8,0:3:0:0:
214,378,76436,1,0,0:3:0:0:
109,269,76552,1,4,1:0:0:0:
7,382,76785,5,0,0:0:0:0:
19,362,76901,2,0,B|33:334|33:334|15:245,1,113.333333333333,0|0,3:0|0:0,0:0:0:0:
46,187,77258,2,0,B|60:159|60:159|42:70,1,113.333333333333,0|0,1:0|0:0,0:0:0:0:
3,15,77615,1,0,3:0:0:0:
163,165,77853,1,0,0:0:0:0:
182,186,77972,2,0,P|230:206|289:182,1,113.333333333333,0|0,1:0|0:0,0:0:0:0:
341,134,78329,6,0,P|321:182|345:241,1,113.333333333333,0|8,3:0|0:1,0:0:0:0:
405,286,78681,1,0,1:0:0:0:
512,39,78917,1,0,0:0:0:0:
487,31,79034,2,0,L|376:50,1,113.333333333333,0|8,3:0|0:1,0:0:0:0:
275,89,79387,2,0,L|164:70,1,113.333333333333,0|0,1:0|0:0,0:0:0:0:
117,11,79740,5,0,3:0:0:0:
12,81,79974,1,0,0:0:0:0:
5,54,80091,1,0,1:0:0:0:
116,226,80327,1,0,0:0:0:0:
109,199,80444,1,0,3:0:0:0:
220,371,80680,1,0,0:0:0:0:
213,344,80797,1,0,1:0:0:0:
342,177,81033,5,0,0:0:0:0:
415,124,81150,2,0,P|481:128|524:178,2,135.99999584961,8|0|0,3:0|0:0|0:0,0:0:0:0:
297,247,81740,2,0,P|216:219|166:327,1,158.666661824544
235,293,82091,1,0,0:0:0:0:
421,380,82209,2,0,B|447:363|465:334|452:288|452:288|462:260|462:260|397:249|373:306,1,226.666666666667,0|4,1:0|0:3,0:0:0:0:
341,355,82562,6,0,P|319:338|309:317,1,45.3333333333333
239,85,82911,6,0,B|240:40|188:11|188:11|109:84|165:179|234:181,1,317.333323649089,4|0,1:0|0:0,0:0:0:0:
367,237,83499,1,0,3:0:0:0:
445,150,83616,2,0,B|444:127|470:113|470:113|510:149|482:197|447:198,1,158.666661824544,8|0,1:0|0:0,0:0:0:0:
189,360,83969,6,0,P|145:359|115:386,1,79.3333309122722,8|0,3:1|0:0,0:0:0:0:
203,375,84204,1,0,0:0:0:0:
264,310,84321,2,0,P|308:309|338:336,1,79.3333309122722,0|0,1:0|0:0,0:0:0:0:
155,270,84557,1,2,3:0:0:0:
136,242,84674,2,0,B|125:224|125:224|141:159,1,79.3333309122722,0|2,0:0|0:0,0:0:0:0:
233,83,84910,5,0,1:0:0:0:
141,160,85027,1,0,1:0:0:0:
167,3,85145,1,8,0:3:0:0:
257,79,85263,1,8,0:3:0:0:
281,76,85380,1,8,0:3:0:0:
371,92,85498,1,4,3:3:0:0:
395,89,85616,1,4,3:3:0:0:
476,92,85733,6,0,B|504:144|504:144|478:278|478:278|484:330|484:330|472:379|472:379|494:359,1,317.333323649089,4|0,1:0|0:0,0:0:0:0:
333,296,86321,1,0,3:0:0:0:
275,356,86439,2,0,B|249:370|249:370|117:361,1,158.666661824544,8|0,1:0|0:0,0:0:0:0:
40,383,86792,5,8,1:0:0:0:
193,136,87027,1,8,1:0:0:0:
111,80,87145,1,0,1:0:0:0:
485,194,87380,5,0,0:0:0:0:
449,273,87498,2,0,P|431:268|401:247,1,42.5,8|8,3:0|3:0,0:0:0:0:
373,195,87674,2,0,P|372:176|382:141,1,42.5,8|8,3:0|3:0,0:0:0:0:
452,120,87851,5,8,1:0:0:0:
485,194,87960,5,8,3:0:0:0:
449,273,88069,5,8,3:0:0:0:
379,324,88178,6,0,P|317:319|274:369,1,113.333333333333,4|0,3:1|0:0,0:0:0:0:
208,383,88535,2,0,P|160:342|96:357,1,113.333333333333,0|0,1:0|0:0,0:0:0:0:
53,382,88892,1,0,3:0:0:0:
181,260,89130,1,0,0:0:0:0:
196,238,89249,2,0,B|209:208|209:208|192:120,1,113.333333333333,0|0,1:0|0:0,0:0:0:0:
123,74,89606,5,0,3:0:0:0:
340,4,89844,1,0,0:0:0:0:
369,10,89963,2,0,L|491:30,1,113.333333333333,0|0,1:0|0:0,0:0:0:0:
421,70,90320,2,0,L|299:90,1,113.333333333333,0|8,3:0|0:1,0:0:0:0:
252,147,90678,1,0,1:0:0:0:
472,380,91035,5,4,3:1:0:0:
295,264,91368,1,2,1:0:0:0:
249,241,91479,1,2,1:0:0:0:
197,246,91590,1,2,1:0:0:0:
161,278,91737,2,0,P|136:298|105:303,2,56.6666666666667,8|8|8,0:3|0:3|0:3,0:0:0:0:
21,272,92092,5,8,0:3:0:0:
53,261,92207,1,8,0:3:0:0:
92,275,92323,1,8,0:3:0:0:
112,303,92438,1,4,0:3:0:0:
132,331,92554,1,4,0:3:0:0:
171,345,92670,1,4,0:3:0:0:
203,333,92785,1,4,0:3:0:0:
233,316,92901,2,0,B|253:307|253:307|282:315,1,37.7777777777778,4|6,0:3|0:3,0:0:0:0:
501,258,93119,2,0,B|539:184|458:83|458:83|388:185|427:262|427:262|389:211|312:221|312:221|320:294|389:321,1,634.666647298178,4|0,1:0|0:0,0:0:0:0:
