osu file format v14

[General]
AudioFilename: audio.mp3
AudioLeadIn: 0
PreviewTime: 14204
Countdown: 0
SampleSet: Soft
StackLeniency: 0.7
Mode: 0
LetterboxInBreaks: 0
WidescreenStoryboard: 0

[Editor]
Bookmarks: 14802,26449,37390,43390,54331,65625,71625,82919,93154
DistanceSpacing: 1.1
BeatDivisor: 3
GridSize: 16
TimelineZoom: 3.599999

[Metadata]
Title:Santa Claus Is Coming to Town
TitleUnicode:Santa Claus Is Coming to Town
Artist:Co shu Nie
ArtistUnicode:Cö shu Nie
Creator:GlaZe
Version:Insane
Source:
Tags:Akito enryotoki christmas english Deca Shurelia pop -akito
BeatmapID:2739746
BeatmapSetID:1322692

[Difficulty]
HPDrainRate:6
CircleSize:4.2
OverallDifficulty:8
ApproachRate:9
SliderMultiplier:1.4
SliderTickRate:1

[Events]
//Background and Video events
0,0,"bg.jpg",0,0
//Break Periods
//Storyboard Layer 0 (Background)
//Storyboard Layer 1 (Fail)
//Storyboard Layer 2 (Pass)
//Storyboard Layer 3 (Foreground)
//Storyboard Layer 4 (Overlay)
//Storyboard Sound Samples

[TimingPoints]
675,352.941176470588,4,2,2,25,1,0
1027,-399.999999999997,4,2,2,25,0,0
3498,-153.846153846153,4,2,2,30,0,0
14792,-100,4,2,1,50,0,0
17616,357.142857142857,4,2,1,50,1,0
17616,-90.9090909090909,4,2,1,50,0,0
19044,344.827586206896,4,2,1,50,1,0
19733,372.670807453416,4,2,1,50,1,0
19733,-90.9090909090909,4,2,1,50,0,0
20105,340.909090909091,4,2,1,50,1,0
20445,350.877192982456,4,2,1,45,1,0
20445,-133.333333333333,4,2,1,45,0,0
21848,359.281437125748,4,2,1,45,1,0
21848,-133.333333333333,4,2,1,45,0,0
22566,346.820809248555,4,2,1,45,1,0
22566,-133.333333333333,4,2,1,45,0,0
22912,350.877192982456,4,2,1,45,1,0
23262,-133.333333333333,4,2,1,45,0,0
24315,363.636363636363,4,2,1,45,1,0
24680,350.877192982456,4,2,1,45,1,0
24680,-133.333333333333,4,2,1,45,0,0
25381,363.636363636363,4,2,1,45,1,0
25744,337.078651685393,4,2,1,45,1,0
26081,346.820809248555,4,2,1,45,1,0
26440,361.44578313253,4,2,1,60,1,0
26440,-62.5,4,2,1,60,0,0
27042,-71.4285714285714,4,2,1,60,0,0
27524,333.333333333333,4,2,1,60,1,0
27524,-76.9230769230769,4,2,1,60,0,0
27857,340.909090909091,4,2,1,60,1,0
27857,-76.9230769230769,4,2,1,60,0,0
28079,-77.5193798449612,4,2,1,60,0,0
28197,352.941176470588,4,2,1,60,1,0
29255,-66.6666666666667,4,2,1,60,0,0
29961,-76.9230769230769,4,2,1,60,0,0
30314,359.281437125748,4,2,1,60,1,0
30314,-66.6666666666667,4,2,1,60,0,0
31391,346.820809248554,4,2,1,60,1,0
31737,346.820809248554,4,2,1,60,1,0
31737,-100,4,2,1,60,0,0
32777,363.636363636363,4,2,1,60,1,0
33140,352.941176470587,4,2,1,60,1,0
33845,333.333333333333,4,2,1,60,1,0
34067,413.793103448275,4,2,1,60,1,0
34204,352.941176470588,4,2,1,60,1,0
34556,352.941176470588,4,2,1,60,1,0
36673,375,4,2,1,60,1,0
37048,350.877192982456,4,2,1,60,1,0
37398,350.877192982456,4,2,1,45,1,0
37398,-133.333333333333,4,2,1,45,0,0
42311,363.636363636364,4,2,1,45,1,0
43038,327.868852459017,4,2,1,45,1,0
43365,363.636363636364,4,2,1,45,1,0
43365,-62.5,4,2,1,60,0,0
44092,-71.4285714285714,4,2,1,60,0,0
44455,346.820809248556,4,2,1,60,1,0
44455,-76.9230769230769,4,2,1,60,0,0
45379,-62.5,4,2,1,60,0,0
45726,-76.9230769230769,4,2,1,60,0,0
46189,357.142857142858,4,2,1,60,1,0
46189,-66.6666666666667,4,2,1,60,0,0
46903,-76.9230769230769,4,2,1,60,0,0
48689,352.941176470589,4,2,1,60,1,0
51512,348.837209302326,4,2,1,60,1,0
52907,352.941176470589,4,2,1,60,1,0
54318,359.281437125749,4,2,1,60,1,0
55755,348.837209302326,4,2,1,60,1,0
58545,352.941176470589,4,2,1,60,1,0
61721,387.096774193549,4,2,1,60,1,0
62108,324.324324324325,4,2,1,60,1,0
62432,365.853658536586,4,2,1,60,1,0
62797,350.877192982457,4,2,1,60,1,0
65604,361.445783132531,4,2,1,60,1,0
65604,-133.333333333333,4,2,1,40,0,0
66688,342.857142857144,4,2,1,40,1,0
67030,357.142857142858,4,2,1,40,1,0
67030,-133.333333333333,4,2,1,40,0,0
69889,337.078651685394,4,2,1,40,1,0
69889,-133.333333333333,4,2,1,40,0,0
70900,-90.9090909090909,4,2,1,40,0,0
71237,387.096774193549,4,2,1,30,1,0
71624,357.142857142858,4,2,1,60,1,0
71624,-66.6666666666667,4,2,1,60,0,0
72338,-76.9230769230769,4,2,1,60,0,0
72695,346.820809248556,4,2,1,60,1,0
72695,-76.9230769230769,4,2,1,60,0,0
74429,359.28143712575,4,2,1,60,1,0
74429,-66.6666666666667,4,2,1,60,0,0
75147,-76.9230769230769,4,2,1,60,0,0
75506,348.837209302327,4,2,1,60,1,0
75506,-76.9230769230769,4,2,1,60,0,0
76901,357.142857142858,4,2,1,60,1,0
78329,352.941176470589,4,2,1,60,1,0
79034,307.692307692308,4,2,1,60,1,0
79387,352.941176470589,4,2,1,60,1,0
79739,352.941176470589,4,2,1,60,1,0
82911,352.941176470589,4,2,1,60,1,0
82911,-62.5,4,2,1,60,0,0
83616,-71.4285714285714,4,2,1,60,0,0
83969,352.941176470589,4,2,1,60,1,0
83969,-71.4285714285714,4,2,1,60,0,0
85733,-62.5,4,2,1,60,0,0
86439,-71.4285714285714,4,2,1,60,0,0
87851,327.868852459017,4,2,1,60,1,0
88178,357.142857142858,4,2,1,60,1,1
88178,-90.9090909090909,4,2,1,50,0,0
91035,333.333333333334,4,2,2,50,1,0
91737,333.333333333333,4,2,1,50,1,0
91959,400,4,2,1,50,1,0
92092,346.820809248555,4,2,1,50,1,0
93119,352.941176470588,4,2,1,50,1,0
93119,-133.333333333333,4,2,1,30,0,0
94530,-222.222222222221,4,2,1,5,0,0

[Colours]
Combo1 : 0,128,192
Combo2 : 255,196,136
Combo3 : 255,255,179
Combo4 : 255,113,113

[HitObjects]
158,298,675,5,8,0:0:0:0:
243,300,1027,2,0,L|284:300,2,35,0|0|0,3:0|3:0|3:0,0:0:0:0:
158,298,2086,1,8,0:0:0:0:
243,300,2439,2,0,L|284:300,2,35,0|0|0,3:0|3:0|3:0,0:0:0:0:
102,197,3498,6,0,P|91:139|89:87,1,90.9999958343508,10|0,0:0|3:0,0:0:0:0:
221,202,4204,2,0,P|210:260|208:312,1,90.9999958343508,2|0,3:2|3:0,0:0:0:0:
207,291,4910,5,10,3:2:0:0:
96,217,5086,1,2,0:0:0:0:
56,319,5263,1,0,3:2:0:0:
56,319,5616,2,0,P|90:347|134:343,1,90.9999958343508,10|0,3:2|0:0,0:0:0:0:
341,143,6322,6,0,P|296:139|262:167,1,90.9999958343508,10|0,0:0|3:0,0:0:0:0:
215,276,7027,2,0,P|224:320|228:365,1,90.9999958343508,2|0,3:2|3:0,0:0:0:0:
228,365,7733,5,10,3:2:0:0:
339,281,7910,1,2,0:0:0:0:
394,372,8086,1,0,3:2:0:0:
244,264,8439,2,0,P|247:219|275:184,1,90.9999958343508,10|0,3:2|0:0,0:0:0:0:
110,35,9145,6,0,P|152:50|203:62,1,90.9999958343508,10|0,0:0|3:0,0:0:0:0:
275,184,9851,2,0,P|266:158|247:128,1,45.4999979171754,2|0,3:2|0:0,0:0:0:0:
196,61,10204,1,0,3:0:0:0:
196,61,10557,5,10,3:2:0:0:
179,192,10733,1,2,0:0:0:0:
275,184,10910,1,0,3:2:0:0:
275,184,11263,2,0,P|282:139|296:96,1,90.9999958343508,10|0,3:2|0:0,0:0:0:0:
496,209,11969,6,0,P|451:212|420:244,1,90.9999958343508,10|0,0:0|3:0,0:0:0:0:
367,371,12674,2,0,P|359:349|349:329,1,45.4999979171754,2|0,3:2|0:0,0:0:0:0:
264,289,13027,1,0,3:0:0:0:
264,289,13380,5,2,3:2:0:0:
402,247,13557,1,2,0:0:0:0:
453,336,13733,1,0,3:2:0:0:
453,336,13910,1,2,0:0:0:0:
349,329,14086,1,10,3:2:0:0:
329,189,14322,1,4,0:3:0:0:
329,189,14439,2,0,P|348:162|380:158,1,60.6666638895672,4|0,0:3|0:0,0:0:0:0:
504,0,14792,6,0,P|485:49|481:98,1,93.3333333333333,6|0,3:1|0:0,0:0:0:0:
378,237,15145,2,0,P|374:184|357:136,1,93.3333333333333,2|0,1:0|0:0,0:0:0:0:
496,0,15498,6,0,P|477:49|473:98,1,93.3333333333333,2|0,3:1|3:0,0:0:0:0:
388,237,15851,2,0,P|384:184|367:136,1,93.3333333333333,2|0,1:0|0:0,0:0:0:0:
226,12,16204,5,2,3:1:0:0:
226,12,16292,2,0,P|209:3|193:-1,2,35,0|0|2,0:0|0:0|0:0,0:0:0:0:
171,126,16557,1,2,1:1:0:0:
171,126,16645,2,0,P|154:130|138:138,2,35,0|2|2,0:0|0:0|0:0,0:0:0:0:
368,5,16910,2,0,P|435:34|450:105,1,140,2|2,3:1|1:0,0:1:0:0:
241,319,17498,1,0,0:0:0:0:
241,319,17616,6,0,B|289:340|289:340|338:319,1,102.666669799805,6|0,3:1|0:0,0:0:0:0:
427,203,17973,2,0,B|378:181|378:181|324:204,1,102.666669799805,2|0,1:0|0:0,0:0:0:0:
241,311,18330,2,0,B|289:332|289:332|340:310,1,102.666669799805,2|0,3:1|3:0,0:0:0:0:
427,211,18687,2,0,B|378:189|378:189|326:212,1,102.666669799805,2|0,1:0|0:0,0:0:0:0:
240,310,19044,5,8,3:1:0:0:
240,310,19130,2,0,P|235:294|227:279,2,35,0|0|2,0:0|0:0|0:0,0:0:0:0:
251,168,19388,1,8,1:1:0:0:
251,168,19475,2,0,P|258:152|264:135,2,35,0|2|2,0:0|0:0|0:0,0:0:0:0:
136,323,19733,2,2,P|63:310|32:228,1,154.000004699707,8|0,3:1|1:0,0:1:0:0:
35,45,20332,1,0,0:0:0:0:
35,45,20445,6,0,P|72:60|109:71,1,70.0000026702882,4|0,0:1|3:0,0:0:0:0:
141,219,20795,2,0,P|176:200|191:166,1,70.0000026702882,0|0,1:0|0:0,0:0:0:0:
286,46,21146,2,0,P|335:29|383:30,1,70.0000026702882,0|0,3:0|3:0,0:0:0:0:
352,27,21497,1,0,1:0:0:0:
163,17,21731,1,0,0:0:0:0:
163,17,21848,6,0,P|189:47|202:84,1,70.0000026702882,4|0,0:3|3:0,0:0:0:0:
318,227,22207,2,0,P|299:192|262:175,1,70.0000026702882,0|0,1:0|0:0,0:0:0:0:
91,197,22566,2,0,P|140:180|191:183,1,70.0000026702882,0|0,3:0|3:0,0:0:0:0:
157,178,22912,1,0,1:0:0:0:
321,347,23145,1,0,0:0:0:0:
321,346,23262,6,0,P|317:306|303:268,1,70.0000026702882,4|0,0:3|3:0,0:0:0:0:
416,170,23613,2,0,P|377:177|351:204,1,70.0000026702882,0|0,1:0|0:0,0:0:0:0:
238,322,23964,2,0,P|208:296|168:289,1,70.0000026702882,0|0,3:0|0:0,0:0:0:0:
95,327,24315,1,0,1:0:0:0:
148,114,24557,5,0,0:0:0:0:
148,114,24680,2,0,P|139:89|132:64,1,35.0000013351441,0|0,3:0|0:0,0:0:0:0:
12,6,24913,1,0,0:0:0:0:
12,6,25030,2,0,P|3:30|-1:55,1,35.0000013351441,8|0,1:0|0:0,0:0:0:0:
8,77,25264,5,0,3:0:0:0:
43,110,25381,1,8,3:1:0:0:
83,108,25502,1,0,3:0:0:0:
155,64,25623,5,0,1:0:0:0:
235,37,25744,1,0,1:0:0:0:
285,105,25856,1,0,1:0:0:0:
266,149,25968,1,8,0:3:0:0:
224,156,26081,1,4,0:3:0:0:
56,345,26312,5,0,3:0:0:0:
56,345,26440,2,0,B|16:318|38:223|168:199|134:345|269:256,1,298.666666666667,4|0,0:1|0:0,0:0:0:0:
335,59,27042,1,0,3:0:0:0:
335,59,27162,2,0,P|354:101|363:148,1,65.3333313395183,8|0,1:0|0:0,0:0:0:0:
309,338,27403,1,0,0:0:0:0:
310,338,27524,2,0,P|271:362|218:373,1,60.6666638895672,8|0,3:1|0:0,0:0:0:0:
456,287,27746,1,0,3:0:0:0:
456,287,27857,2,0,P|496:299|531:330,1,60.6666638895672,0|0,1:0|0:0,0:0:0:0:
352,130,28084,2,2,P|305:84|241:93,1,121.333327779134,2|2,3:0|0:0,0:0:0:0:
199,147,28432,5,0,1:0:0:0:
126,176,28549,1,0,1:0:0:0:
53,145,28667,1,8,0:3:0:0:
41,100,28785,1,8,0:3:0:0:
68,78,28902,1,8,0:3:0:0:
87,95,29020,1,4,3:3:0:0:
73,111,29138,1,4,3:3:0:0:
57,119,29255,6,0,B|-31:111|2:-33|131:-32|230:17,1,280.000010681153,4|0,1:0|0:0,0:0:0:0:
158,206,29844,1,0,3:0:0:0:
158,206,29961,2,0,P|114:255|38:242,1,121.333327779134,8|0,1:0|0:0,0:0:0:0:
207,105,30314,6,0,B|279:114,1,70.0000026702882,8|0,1:0|0:0,0:0:0:0:
461,46,30553,2,0,B|389:55,1,70.0000026702882,8|0,1:0|0:0,0:0:0:0:
208,92,30793,2,0,B|280:101,1,70.0000026702882,8|0,1:0|0:0,0:0:0:0:
395,221,31032,5,8,0:3:0:0:
381,187,31152,1,8,0:3:0:0:
370,158,31272,1,8,0:3:0:0:
319,37,31391,1,12,1:0:0:0:
226,235,31737,6,0,P|272:231|307:260,1,93.3333333333333,0|0,3:0|0:0,0:0:0:0:
450,132,32083,2,0,P|404:128|369:157,1,93.3333333333333,0|0,1:0|0:0,0:0:0:0:
238,331,32430,2,0,P|191:338|147:351,1,93.3333333333333,0|0,3:0|0:0,0:0:0:0:
270,232,32777,2,0,P|281:186|289:140,1,93.3333333333333,0|0,1:0|0:0,0:0:0:0:
195,23,33140,6,0,P|200:45|203:68,1,46.6666666666667,0|0,3:0|0:0,0:0:0:0:
117,195,33375,1,0,0:0:0:0:
117,195,33492,2,0,P|61:137|-14:178,1,140,0|0,1:0|3:0,0:0:0:0:
178,53,34067,1,8,0:1:0:0:
178,53,34204,2,0,P|223:62|269:60,1,93.3333333333333,0|0,1:0|0:0,0:0:0:0:
462,21,34556,6,0,P|456:43|455:66,1,46.6666666666667,0|0,3:0|0:0,0:0:0:0:
338,182,34791,1,0,0:0:0:0:
338,182,34908,2,0,P|336:158|331:136,1,46.6666666666667,0|0,1:0|0:0,0:0:0:0:
238,13,35144,1,0,0:0:0:0:
238,13,35262,2,0,P|216:4|193:0,1,46.6666666666667,0|0,3:0|0:0,0:0:0:0:
233,96,35497,1,0,0:0:0:0:
233,96,35615,2,0,P|254:87|277:82,1,46.6666666666667,0|0,1:0|0:0,0:0:0:0:
453,160,35850,5,0,0:0:0:0:
453,160,35968,2,0,P|430:155|408:146,1,46.6666666666667,0|0,3:0|0:0,0:0:0:0:
357,86,36203,1,0,0:0:0:0:
277,81,36321,1,0,1:0:0:0:
228,142,36438,1,0,0:0:0:0:
265,214,36556,1,0,0:0:0:0:
265,293,36673,1,0,3:0:0:0:
210,334,36798,1,0,0:0:0:0:
162,309,36923,1,8,0:3:0:0:
159,263,37048,1,0,1:0:0:0:
179,238,37164,1,4,0:3:0:0:
201,252,37281,1,4,0:3:0:0:
203,276,37398,6,0,P|185:279|140:270,1,35.0000013351441,0|0,3:0|0:0,0:0:0:0:
68,184,37631,1,8,0:1:0:0:
68,184,37748,2,0,P|77:198|84:214,1,35.0000013351441,0|0,1:0|0:0,0:0:0:0:
0,380,37982,2,0,P|28:337|79:328,1,105.000004005432,0|0,0:0|3:0,0:0:0:0:
172,384,38449,1,0,1:0:0:0:
87,229,38684,5,0,0:0:0:0:
87,229,38801,2,0,P|71:197|49:170,1,70.0000026702882,0|8,3:0|0:1,0:0:0:0:
156,46,39152,2,0,P|146:61|139:77,1,35.0000013351441,0|0,1:0|0:0,0:0:0:0:
213,266,39386,2,0,P|259:287|306:268,1,105.000004005432,0|0,0:0|3:0,0:0:0:0:
387,182,39854,1,0,1:0:0:0:
449,384,40088,1,0,0:0:0:0:
448,383,40205,6,0,P|433:345|409:312,1,70.0000026702882,0|8,3:0|0:1,0:0:0:0:
387,182,40555,2,0,P|413:159|448:155,1,70.0000026702882,0|0,1:0|0:0,0:0:0:0:
325,45,40906,2,0,P|306:16|276:0,1,70.0000026702882,0|0,3:0|3:0,0:0:0:0:
208,175,41257,2,0,P|242:173|272:156,1,70.0000026702882,0|0,1:0|0:0,0:0:0:0:
351,282,41608,6,0,P|355:265|363:249,1,35.0000013351441,0|0,3:0|0:0,0:0:0:0:
512,206,41842,1,8,0:1:0:0:
512,206,41959,2,0,P|507:189|501:173,1,35.0000013351441,8|0,1:0|0:0,0:0:0:0:
484,134,42193,5,0,1:0:0:0:
449,101,42311,1,0,3:0:0:0:
409,103,42432,1,0,3:0:0:0:
337,145,42553,5,0,1:0:0:0:
257,150,42674,1,8,1:3:0:0:
209,89,42795,1,8,0:3:0:0:
206,54,42917,1,8,0:3:0:0:
229,33,43038,1,8,0:3:0:0:
160,311,43256,5,0,3:0:0:0:
160,311,43365,2,0,P|165:231|-3:250,1,298.666666666667,4|0,1:0|0:0,0:0:0:0:
203,146,43971,1,0,3:0:0:0:
203,146,44092,2,0,P|245:127|293:116,1,65.3333313395183,8|0,1:0|0:0,0:0:0:0:
26,36,44334,1,0,0:0:0:0:
25,36,44455,2,0,P|64:60|135:67,1,60.6666638895672,8|0,3:1|0:0,0:0:0:0:
314,30,44686,1,0,1:0:0:0:
230,71,44801,2,0,P|213:96|205:125,1,60.6666638895672,0|0,1:0|0:0,0:0:0:0:
404,226,45033,2,2,P|376:166|313:151,1,121.333327779134,2|2,3:0|0:0,0:0:0:0:
464,356,45379,6,0,P|396:381|334:343,1,149.333333333333,0|0,1:0|3:0,0:1:0:0:
217,115,45726,2,0,P|235:83|264:65,1,60.6666638895672,0|8,1:0|3:0,0:1:0:0:
405,288,46073,5,8,3:0:0:0:
405,288,46189,2,0,B|432:196|346:123|346:123|296:151|286:201,1,280.000010681153,4|0,1:0|0:0,0:0:0:0:
176,346,46784,1,0,3:0:0:0:
176,346,46903,2,0,P|122:383|50:354,1,121.333327779134,8|0,1:0|0:0,0:0:0:0:
3,166,47260,6,0,P|11:128|23:102,1,60.6666638895672,8|0,1:0|0:0,0:0:0:0:
167,0,47498,1,8,1:0:0:0:
242,51,47617,2,0,P|253:79|258:108,1,60.6666638895672,0|8,0:0|1:0,0:0:0:0:
118,222,47855,1,0,1:0:0:0:
109,134,47974,2,0,P|133:116|162:108,1,60.6666638895672,8|0,3:3|0:0,0:0:0:0:
308,205,48212,1,0,1:0:0:0:
375,247,48331,1,6,3:0:0:0:
441,243,48450,1,0,3:0:0:0:
471,205,48569,1,0,3:0:0:0:
458,182,48689,6,0,P|412:181|381:214,1,93.3333333333333,4|0,3:1|0:0,0:0:0:0:
264,73,49041,2,0,P|299:101|344:97,1,93.3333333333333,0|0,1:0|0:0,0:0:0:0:
447,268,49394,2,0,P|464:311|476:356,1,93.3333333333333,0|0,3:0|0:0,0:0:0:0:
268,271,49747,2,0,P|279:225|287:179,1,93.3333333333333,0|0,1:0|0:0,0:0:0:0:
383,342,50100,6,0,P|362:330|341:320,1,46.6666666666667,0|0,3:0|0:0,0:0:0:0:
191,203,50336,1,8,0:1:0:0:
191,203,50453,2,0,P|110:205|90:288,1,140,0|0,1:0|3:0,0:0:0:0:
53,21,51041,1,8,0:1:0:0:
53,21,51159,2,0,P|81:58|95:103,1,93.3333333333333,0|0,1:0|0:0,0:0:0:0:
114,308,51512,6,0,P|129:264|157:227,1,93.3333333333333,0|0,3:0|0:0,0:0:0:0:
344,178,51860,2,0,P|306:150|262:135,1,93.3333333333333,0|0,1:0|0:0,0:0:0:0:
336,291,52209,2,0,P|360:290|381:281,1,46.6666666666667,0|0,3:0|0:0,0:0:0:0:
458,133,52442,1,0,0:0:0:0:
458,133,52558,2,0,P|446:153|441:175,1,46.6666666666667,0|0,1:0|0:0,0:0:0:0:
502,325,52791,1,0,0:0:0:0:
502,325,52907,2,0,P|497:302|485:282,1,46.6666666666667,0|0,3:0|0:0,0:0:0:0:
409,247,53142,5,0,0:0:0:0:
329,258,53259,1,0,1:0:0:0:
274,314,53377,1,0,0:0:0:0:
196,293,53495,1,0,0:0:0:0:
171,219,53612,1,0,3:0:0:0:
220,169,53730,1,0,0:0:0:0:
220,114,53848,1,8,0:3:0:0:
187,83,53965,1,0,1:0:0:0:
152,84,54083,1,4,0:3:0:0:
136,113,54201,1,4,0:3:0:0:
149,133,54318,6,0,P|179:155|267:138,1,93.3333333333333,4|0,0:1|3:0,0:0:0:0:
120,294,54677,2,0,P|90:316|2:299,1,93.3333333333333,0|0,1:0|0:0,0:0:0:0:
39,156,55036,2,0,P|50:174|56:198,1,46.6666666666667,0|0,3:0|0:0,0:0:0:0:
183,100,55276,1,0,3:0:0:0:
183,100,55395,2,0,P|180:48|197:-10,1,93.3333333333333,0|0,1:0|0:0,0:0:0:0:
292,171,55755,2,0,P|343:230|434:207,1,140,2|2,3:2|1:2,0:0:0:0:
461,13,56336,1,0,0:0:0:0:
461,13,56452,2,0,P|423:40|400:81,1,93.3333333333333,2|0,3:2|0:0,0:0:0:0:
224,110,56801,6,0,P|268:130|291:170,1,93.3333333333333,2|0,1:2|0:0,0:0:0:0:
429,286,57150,2,0,P|413:242|412:195,1,93.3333333333333,4|0,3:0|3:0,0:0:0:0:
460,50,57499,2,0,P|416:61|382:98,1,93.3333333333333,0|0,1:0|0:0,0:0:0:0:
335,236,57848,2,0,P|313:244|290:247,1,46.6666666666667,0|0,3:0|0:0,0:0:0:0:
147,127,58080,1,0,3:0:0:0:
147,127,58196,2,0,P|193:140|211:212,1,93.3333333333333,0|0,1:0|0:0,0:0:0:0:
154,328,58545,2,0,P|102:371|34:368,1,140,2|2,3:2|1:2,0:0:0:0:
273,284,59133,1,0,0:0:0:0:
273,284,59250,2,0,P|318:292|360:312,1,93.3333333333333,2|0,3:2|0:0,0:0:0:0:
439,146,59603,6,0,P|432:168|431:191,1,46.6666666666667,2|0,1:2|0:0,0:0:0:0:
258,25,59839,1,0,0:0:0:0:
258,25,59956,2,0,P|275:68|272:116,1,93.3333333333333,4|0,3:0|3:0,0:0:0:0:
154,235,60309,2,0,P|109:227|83:189,1,93.3333333333333,0|0,1:0|0:0,0:0:0:0:
172,343,60662,2,0,P|191:330|213:323,1,46.6666666666667,0|0,3:0|0:0,0:0:0:0:
215,174,60897,1,0,3:0:0:0:
215,174,61015,2,0,P|195:161|173:154,1,46.6666666666667,0|0,1:0|0:0,0:0:0:0:
324,354,61250,1,0,0:0:0:0:
324,354,61368,6,0,B|386:319|453:312,1,93.3333333333333,2|2,3:2|0:0,0:0:0:0:
512,185,61721,2,0,P|446:183|362:151,1,140,2|2,1:2|3:2,0:0:0:0:
186,218,62324,5,0,0:0:0:0:
186,218,62432,2,0,P|185:242|190:264,1,46.6666666666667,6|0,1:2|0:0,0:0:0:0:
376,159,62675,1,0,0:0:0:0:
376,159,62797,2,0,P|317:158|262:139,1,93.3333333333333
59,96,63147,2,0,P|118:95|173:76,1,93.3333333333333,2|0,1:2|0:0,0:0:0:0:
284,0,63498,1,0,3:0:0:0:
206,164,63674,5,0,1:0:0:0:
203,192,63761,1,0,1:0:0:0:
201,219,63849,1,0,3:0:0:0:
180,241,63937,1,8,0:3:0:0:
181,267,64025,1,8,0:3:0:0:
183,294,64112,1,0,3:0:0:0:
185,321,64200,1,2,1:2:0:0:
185,321,64902,6,0,P|164:258|200:305,1,186.666666666667,10|0,3:0|0:0,0:0:0:0:
114,198,65604,6,0,P|67:200|30:185,1,70.0000026702882,4|0,3:0|0:0,0:0:0:0:
45,193,65965,1,2,0:3:0:0:
108,341,66206,1,0,0:0:0:0:
108,341,66326,2,0,P|159:328|211:324,1,105.000004005432,0|8,1:0|0:3,0:0:0:0:
233,199,66916,5,0,0:0:0:0:
233,199,67030,2,0,P|261:222|321:236,1,70.0000026702882,0|2,3:0|0:3,0:0:0:0:
384,192,67387,1,2,0:3:0:0:
358,378,67625,1,0,0:0:0:0:
358,378,67744,2,0,P|310:329|288:330,1,70.0000026702882,0|2,1:0|0:3,0:0:0:0:
235,372,68101,2,0,P|218:377|202:384,1,35.0000013351441,2|0,0:3|0:0,0:0:0:0:
180,173,68458,6,0,P|178:207|166:240,1,70.0000026702882,2|2,3:0|0:3,0:0:0:0:
44,151,68815,1,8,0:3:0:0:
44,151,68934,2,0,P|57:161|73:170,1,35.0000013351441,0|0,1:0|0:0,0:0:0:0:
153,90,69172,2,0,P|164:57|166:22,2,70.0000026702882,0|2|2,3:0|0:3|0:1,0:0:0:0:
197,252,69768,1,0,0:0:0:0:
197,252,69889,6,0,P|244:268|282:298,1,70.0000026702882,2|0,1:0|0:0,0:0:0:0:
364,160,70226,2,0,P|334:178|300:188,1,70.0000026702882,2|0,0:2|0:0,0:0:0:0:
191,66,70563,1,8,0:3:0:0:
217,97,70675,1,8,0:3:0:0:
254,107,70787,1,8,0:3:0:0:
357,61,70900,2,2,P|407:67|442:106,1,102.666669799805,4|0,0:1|0:0,0:1:0:0:
462,202,71237,1,8,3:0:0:0:
154,8,71495,5,0,3:0:0:0:
154,8,71624,2,0,P|65:4|22:173,1,280.000010681153,4|0,0:1|0:0,0:0:0:0:
205,327,72219,1,0,3:0:0:0:
205,327,72338,2,0,P|163:308|118:299,1,60.6666638895672,8|0,1:0|0:0,0:0:0:0:
340,158,72576,1,0,0:0:0:0:
340,158,72695,2,0,P|312:194|293:236,1,60.6666638895672,8|0,3:1|0:0,0:0:0:0:
95,89,72926,1,0,1:0:0:0:
95,89,73041,2,0,P|121:104|150:111,1,60.6666638895672,0|0,1:0|0:0,0:0:0:0:
354,13,73273,2,2,P|294:13|254:56,1,121.333327779134,2|2,3:0|0:0,0:0:0:0:
239,143,73619,5,0,1:0:0:0:
272,213,73735,1,0,1:0:0:0:
347,241,73851,1,8,3:0:0:0:
386,216,73966,1,0,1:0:0:0:
381,181,74082,1,8,3:0:0:0:
356,181,74197,1,8,3:0:0:0:
355,202,74313,1,4,3:0:0:0:
371,212,74429,6,0,B|369:227|402:246|402:246|428:222|450:179|426:159|426:159|385:100|416:25,1,280.000010681153,4|0,1:0|0:0,0:0:0:0:
189,124,75027,1,0,3:0:0:0:
189,124,75147,2,0,P|247:128|285:174,1,121.333327779134,8|0,1:0|0:0,0:0:0:0:
0,251,75506,6,0,L|60:262,1,60.6666638895672,8|0,1:0|0:0,0:0:0:0:
209,203,75738,2,0,L|161:239,1,60.6666638895672,8|0,1:0|0:0,0:0:0:0:
155,383,75971,2,0,L|126:307,1,60.6666638895672,8|0,1:0|0:0,0:0:0:0:
67,112,76203,5,8,3:3:0:0:
78,143,76319,1,8,0:3:0:0:
93,179,76436,1,0,0:3:0:0:
134,327,76552,1,4,1:0:0:0:
173,124,76901,6,0,P|208:152|253:148,1,93.3333333333333,0|0,3:0|0:0,0:0:0:0:
81,27,77258,2,0,P|35:23|0:52,1,93.3333333333333,0|0,1:0|0:0,0:0:0:0:
58,229,77615,2,0,P|65:182|78:138,1,93.3333333333333,0|0,3:0|0:0,0:0:0:0:
202,235,77972,2,0,P|215:279|222:327,1,93.3333333333333,0|0,1:0|0:0,0:0:0:0:
345,150,78329,6,0,P|340:172|337:195,1,46.6666666666667,0|0,3:0|0:0,0:0:0:0:
153,90,78564,1,8,0:1:0:0:
153,90,78681,2,0,P|209:148|284:107,1,140,0|0,1:0|3:0,0:0:0:0:
442,24,79239,1,8,0:1:0:0:
442,24,79387,2,0,P|414:61|400:106,1,93.3333333333333,0|0,1:0|0:0,0:0:0:0:
363,273,79739,6,0,P|385:266|408:266,1,46.6666666666667,0|0,3:0|0:0,0:0:0:0:
317,124,79974,1,0,0:0:0:0:
317,124,80091,2,0,P|322:146|323:169,1,46.6666666666667,0|0,1:0|0:0,0:0:0:0:
270,321,80327,1,0,0:0:0:0:
270,321,80444,2,0,P|271:297|276:275,1,46.6666666666667,0|0,3:0|0:0,0:0:0:0:
185,211,80680,1,0,0:0:0:0:
185,211,80797,2,0,P|190:233|191:256,1,46.6666666666667,0|0,1:0|0:0,0:0:0:0:
289,87,81033,5,0,0:0:0:0:
289,87,81150,2,0,P|265:100|219:106,1,46.6666666666667,8|0,3:0|0:0,0:0:0:0:
41,67,81386,2,0,P|85:78|113:114,1,93.3333333333333
189,332,81739,2,0,P|233:320|261:284,1,93.3333333333333
45,175,82091,1,8,0:3:0:0:
95,261,82209,2,0,P|69:305|55:352,1,93.3333333333333,0|4,1:0|0:3,0:0:0:0:
494,43,82911,6,0,B|440:1|355:83|355:83|270:147|188:57,1,298.666666666667,4|0,1:0|0:0,0:0:0:0:
399,297,83499,1,0,3:0:0:0:
399,297,83616,2,0,P|390:265|376:236,1,65.3333313395183,8|0,1:0|0:0,0:0:0:0:
97,160,83852,1,0,0:0:0:0:
97,160,83969,2,0,P|127:166|157:184,1,65.3333313395183,8|0,3:1|0:0,0:0:0:0:
419,22,84204,1,0,0:0:0:0:
419,22,84321,2,0,P|387:29|359:45,1,65.3333313395183,0|0,1:0|0:0,0:0:0:0:
262,253,84557,2,2,P|222:302|159:297,1,130.666662679037,2|2,3:0|0:0,0:0:0:0:
82,261,84910,5,0,1:0:0:0:
49,190,85027,1,0,1:0:0:0:
76,115,85145,1,8,0:3:0:0:
145,81,85263,1,8,0:3:0:0:
199,87,85380,1,8,0:3:0:0:
228,114,85498,1,4,3:3:0:0:
231,149,85616,1,4,3:3:0:0:
200,162,85733,6,0,B|153:104|208:25|276:12|276:12|297:66|358:82,1,298.666666666667,4|0,1:0|0:0,0:0:0:0:
172,265,86321,1,0,3:0:0:0:
171,265,86439,2,0,P|235:266|275:209,1,130.666662679037,8|0,1:0|0:0,0:0:0:0:
81,5,86792,6,0,P|97:33|105:65,1,65.3333313395183,8|0,1:0|0:0,0:0:0:0:
60,313,87027,1,8,1:0:0:0:
60,313,87145,2,0,P|106:269|169:264,1,130.666662679037,0|0,1:0|0:0,0:0:0:0:
241,339,87498,5,8,3:0:0:0:
274,372,87586,1,8,3:0:0:0:
322,372,87674,1,8,3:0:0:0:
356,338,87763,1,8,3:0:0:0:
361,298,87851,5,8,1:0:0:0:
335,218,87960,1,8,3:0:0:0:
387,152,88069,1,8,3:0:0:0:
469,157,88178,6,0,P|507:187|510:242,1,102.666669799805,4|0,3:1|0:0,0:0:0:0:
336,66,88535,2,0,P|293:40|245:54,1,102.666669799805,0|0,1:0|0:0,0:0:0:0:
159,267,88892,2,0,P|153:215|141:166,1,102.666669799805,0|0,3:0|0:0,0:0:0:0:
9,33,89249,2,0,P|60:41|108:55,1,102.666669799805,0|0,1:0|0:0,0:0:0:0:
381,0,89606,6,0,P|353:5|332:17,1,51.3333348999024,0|0,3:0|0:0,0:0:0:0:
273,209,89844,1,0,0:0:0:0:
273,209,89963,2,0,P|314:278|403:254,1,154.000004699707,0|0,1:0|3:0,0:0:0:0:
106,357,90558,5,8,0:1:0:0:
106,357,90678,2,0,P|136:317|188:300,1,102.666669799805,0|0,1:0|0:0,0:0:0:0:
94,136,91035,2,0,P|143:143|178:179,1,93.3333333333333,4|0,3:1|0:0,0:0:0:0:
178,257,91368,5,2,1:0:0:0:
136,321,91479,1,2,1:0:0:0:
59,325,91590,1,2,1:0:0:0:
0,224,91737,6,0,P|2:201|12:180,2,46.6666666666667,8|8|8,0:3|0:3|0:3,0:0:0:0:
39,142,92092,1,8,0:3:0:0:
80,120,92207,1,8,0:3:0:0:
126,124,92323,1,8,0:3:0:0:
163,151,92438,1,4,0:3:0:0:
179,194,92554,1,4,0:3:0:0:
218,219,92670,1,4,0:3:0:0:
263,226,92785,1,4,0:3:0:0:
302,200,92901,6,0,P|307:177|304:157,1,31.1111111111111,6|6,0:3|0:3,0:0:0:0:
364,315,93119,2,0,B|362:346|381:369|381:369|414:343|406:308|374:283|338:249|355:195|406:128|480:126|528:198|510:246,1,420.000016021729,4|0,1:0|0:0,0:0:0:0:
