osu file format v14

[General]
AudioFilename: audio.mp3
AudioLeadIn: 0
PreviewTime: 22336
Countdown: 0
SampleSet: Soft
StackLeniency: 0.2
Mode: 0
LetterboxInBreaks: 0
WidescreenStoryboard: 1

[Editor]
Bookmarks: 45836
DistanceSpacing: 0.3
BeatDivisor: 6
GridSize: 32
TimelineZoom: 1.9

[Metadata]
Title:Lamp (TV Size)
TitleUnicode:Lamp (TV Size)
Artist:Co shu Nie
ArtistUnicode:Cö shu Nie
Creator:keeVY
Version:Yugu's Extra
Source:約束のネバーランド
Tags:miku nakamura コシュニエ japanese anime female vocalist the promised neverland yakusoku no ed ending 2 door weapon xiced yugu j rock j-rock
BeatmapID:2747162
BeatmapSetID:1325620

[Difficulty]
HPDrainRate:5
CircleSize:4.5
OverallDifficulty:8.3
ApproachRate:9.2
SliderMultiplier:1.8
SliderTickRate:1

[Events]
//Background and Video events
0,0,"bg.png",0,0
//Break Periods
//Storyboard Layer 0 (Background)
//Storyboard Layer 1 (Fail)
//Storyboard Layer 2 (Pass)
//Storyboard Layer 3 (Foreground)
//Storyboard Layer 4 (Overlay)
//Storyboard Sound Samples

[TimingPoints]
-163,333.333333333333,4,2,1,35,1,0
836,-200,4,2,1,35,0,0
2086,-200,4,2,1,5,0,0
2170,-200,4,2,1,35,0,0
3420,-200,4,2,1,5,0,0
3503,-200,4,2,1,35,0,0
4753,-200,4,2,1,5,0,0
4836,-200,4,2,1,35,0,0
6086,-200,4,2,1,5,0,0
6170,-200,4,2,1,35,0,0
11836,-125,4,2,1,50,0,0
16002,-125,4,2,1,55,0,0
16003,-66.6666666666667,4,2,1,55,0,0
17170,-100,4,2,1,60,0,0
20003,-100,4,2,1,5,0,0
20086,-100,4,2,1,60,0,0
20253,-100,4,2,1,5,0,0
20336,-100,4,2,1,60,0,0
20503,-100,4,2,1,5,0,0
20670,-100,4,2,1,60,0,0
21503,-100,4,2,1,40,0,0
22003,-100,4,2,1,60,0,0
22503,-83.3333333333333,4,2,1,80,0,1
24336,-125,4,2,1,80,0,1
24586,-125,4,2,1,5,0,1
24670,-83.3333333333333,4,2,1,80,0,1
25170,-100,4,2,1,80,0,1
27836,-83.3333333333333,4,2,1,80,0,1
30503,-100,4,2,1,80,0,1
33170,-83.3333333333333,4,2,1,80,0,1
35003,-125,4,2,1,80,0,1
35253,-125,4,2,1,5,0,1
35336,-83.3333333333333,4,2,1,80,0,1
35836,-100,4,2,1,80,0,1
38503,-83.3333333333333,4,2,1,80,0,1
41170,-100,4,2,1,80,0,0
43835,-100,4,2,1,75,0,0
43836,-83.3333333333333,4,2,1,75,0,0
51086,-83.3333333333333,4,2,1,75,0,0
51170,-83.3333333333333,4,2,1,75,0,0
51753,-83.3333333333333,4,2,1,75,0,0
51836,-83.3333333333333,4,2,1,75,0,0
53170,-100,4,2,1,75,0,0
53920,-100,4,2,1,5,0,0
54003,-100,4,2,1,75,0,0
55002,-100,4,2,1,65,0,0
55003,-66.6666666666667,4,2,1,65,0,0
55503,-100,4,2,1,65,0,0
56003,-100,4,2,1,5,0,0
56170,-66.6666666666667,4,2,1,65,0,0
56670,-100,4,2,1,65,0,0
57502,333.333333333333,4,2,1,75,1,0
57502,-83.3333333333333,4,2,1,75,0,0
64751,-83.3333333333333,4,2,1,75,0,0
64835,-83.3333333333333,4,2,1,75,0,0
65418,-83.3333333333333,4,2,1,75,0,0
65501,-83.3333333333333,4,2,1,75,0,0
67168,-111.111111111111,4,2,1,75,0,0
68168,333.333333333333,3,2,1,55,1,0
68168,-125,3,2,1,55,0,0
71168,-100,3,2,1,55,0,0
71834,-83.3333333333333,3,2,1,55,0,0
72168,-100,3,2,1,65,0,0
79167,-100,3,2,1,60,0,0
80500,-100,3,2,1,40,0,0
81833,-100,3,2,1,70,0,0
84667,-83.3333333333333,3,2,1,70,0,0

[Colours]
Combo1 : 255,140,140
Combo2 : 145,180,220
Combo3 : 255,180,110
Combo4 : 150,150,210

[HitObjects]
380,86,836,6,0,P|360:121|355:146,1,45,0|0,0:0|0:0,0:0:0:0:
512,92,1170,2,0,P|430:168|368:296,1,247.5,2|0,0:0|0:0,0:0:0:0:
365,310,2170,6,0,P|366:349|374:375,1,45,0|0,0:0|0:0,0:0:0:0:
263,384,2503,2,0,P|232:312|228:129,1,247.5,2|0,0:0|0:0,0:0:0:0:
231,123,3503,6,0,P|240:100|257:80,1,45,0|0,0:0|0:0,0:0:0:0:
173,8,3836,2,0,P|72:78|11:184,1,247.5,2|0,0:0|0:0,0:0:0:0:
6,206,4836,6,0,P|3:241|8:268,1,45,0|0,0:0|0:0,0:0:0:0:
104,307,5170,2,0,P|142:191|236:112,1,247.5,2|0,0:0|0:0,0:0:0:0:
258,108,6170,6,0,L|321:100,1,45,0|0,0:0|0:0,0:0:0:0:
438,86,6503,1,2,0:0:0:0:
438,86,7336,5,0,0:0:0:0:
432,130,7503,2,0,P|433:108|438:86,1,45,0|0,0:0|0:0,0:0:0:0:
332,26,7836,1,2,0:0:0:0:
332,26,8170,5,0,0:0:0:0:
382,199,8503,1,0,0:0:0:0:
432,372,8836,1,0,0:0:0:0:
364,193,9170,5,2,0:0:0:0:
364,193,10170,6,0,P|328:203|307:215,1,45,0|0,0:0|0:0,0:0:0:0:
227,299,10503,1,2,0:0:0:0:
227,299,11503,6,0,P|211:270|194:254,1,45,0|0,0:0|0:0,0:0:0:0:
132,188,11836,6,0,L|122:277,1,72,2|0,3:2|0:0,0:0:0:0:
51,179,12170,2,0,L|41:268,1,72,0|0,3:2|0:0,0:0:0:0:
198,121,12503,2,0,L|189:49,1,72,0|2,3:2|0:1,0:0:0:0:
279,112,12836,2,0,L|270:40,1,72,0|2,3:2|0:1,0:0:0:0:
358,244,13170,6,0,L|429:235,1,72,2|0,3:2|0:0,0:0:0:0:
504,153,13503,2,0,L|432:161,1,72,0|0,3:2|0:0,0:0:0:0:
350,255,13836,2,0,L|421:246,1,72,2|2,3:3|0:3,0:0:0:0:
512,142,14170,2,0,L|440:150,1,72,2|2,3:3|0:3,0:0:0:0:
278,201,14503,6,0,P|262:248|264:292,1,72,2|0,3:2|0:0,0:0:0:0:
232,121,14836,2,0,P|185:105|141:107,1,72,0|0,3:2|0:0,0:0:0:0:
355,158,15170,2,0,P|402:174|446:172,1,72,0|0,3:2|0:0,0:0:0:0:
312,75,15503,2,0,P|328:28|326:-16,1,72,0|0,3:2|0:0,0:0:0:0:
181,183,15836,5,0,3:2:0:0:
185,211,15920,1,0,3:2:0:0:
189,239,16003,6,0,B|155:280|164:335|164:335|168:311|188:289,1,135.000005149842,14|0,1:2|3:2,0:0:0:0:
280,237,16253,2,0,B|288:184|253:141|253:141|262:164|255:193,1,135.000005149842,14|0,1:2|3:2,0:0:0:0:
106,219,16503,2,0,L|36:207,1,67.5000025749208,14|0,1:2|0:0,0:0:0:0:
120,49,16670,1,10,0:0:0:0:
70,321,16836,1,8,1:3:0:0:
71,327,16920,1,8,1:3:0:0:
72,333,17003,1,4,1:3:0:0:
73,339,17086,1,4,1:3:0:0:
74,345,17170,6,0,L|184:326,1,90,6|0,3:2|0:0,0:0:0:0:
285,367,17503,1,2,3:1:0:0:
413,229,17670,2,0,L|205:264,1,180,8|0,0:0|3:2,0:0:0:0:
226,98,18170,2,0,P|271:120|298:156,1,90,10|0,0:0|0:0,0:0:0:0:
331,279,18503,5,2,3:1:0:0:
370,116,18753,1,0,3:2:0:0:
374,95,18836,1,2,3:1:0:0:
488,195,19003,1,8,0:0:0:0:
488,195,19170,1,2,0:1:0:0:
305,175,19336,5,0,3:2:0:0:
488,195,19503,1,10,0:0:0:0:
235,258,19670,1,2,0:0:0:0:
143,40,19836,6,0,P|150:104|150:161,1,90,2|0,3:3|0:0,0:0:0:0:
78,178,20086,2,0,P|79:133|78:88,1,90,2|0,3:3|0:0,0:0:0:0:
0,50,20336,2,0,P|5:94|7:139,1,90,10|0,0:0|0:0,0:0:0:0:
63,339,20670,2,0,P|62:366|53:394,1,45,0|0,3:2|3:2,0:0:0:0:
0,291,20836,5,10,0:0:0:0:
196,217,21003,2,0,B|254:213|330:264|329:343|276:358|243:308|294:231,1,270,2|2,1:1|0:0,0:0:0:0:
468,33,22003,5,10,0:0:0:0:
449,73,22086,1,10,0:0:0:0:
437,117,22169,1,10,0:0:0:0:
434,162,22252,1,10,0:0:0:0:
439,206,22336,1,10,0:0:0:0:
452,249,22419,1,10,0:0:0:0:
472,289,22503,6,0,P|460:241|468:180,1,107.999996704102,4|0,3:1|0:0,0:0:0:0:
356,143,22753,1,0,3:0:0:0:
356,143,22836,2,0,P|357:177|374:223,1,53.9999983520508,8|0,0:0|0:0,0:0:0:0:
368,337,23003,2,0,P|369:303|386:257,1,53.9999983520508,2|0,0:1|0:0,0:0:0:0:
261,212,23170,6,0,P|273:243|305:281,1,53.9999983520508,0|0,3:0|0:0,0:0:0:0:
266,371,23336,2,0,P|243:345|200:321,1,53.9999983520508,10|0,0:0|0:0,0:0:0:0:
94,280,23503,2,0,P|116:305|159:329,1,53.9999983520508,10|0,0:0|0:0,0:0:0:0:
266,371,23670,2,0,P|236:354|187:346,1,53.9999983520508,2|0,0:1|0:0,0:0:0:0:
22,341,23836,5,2,3:2:0:0:
165,243,24003,1,2,0:1:0:0:
147,222,24086,1,0,3:0:0:0:
124,207,24170,6,0,P|98:202|57:209,1,53.9999983520508,8|0,0:0|0:0,0:0:0:0:
154,131,24336,6,0,P|215:132|267:108,1,108,10|0,0:3|0:0,0:0:0:0:
279,97,24670,6,0,P|252:97|213:83,1,53.9999983520508,6|0,3:3|0:0,0:0:0:0:
105,26,24836,2,0,P|131:25|170:39,1,53.9999983520508,10|0,0:0|3:0,0:0:0:0:
330,25,25003,1,2,0:1:0:0:
339,20,25086,1,0,0:0:0:0:
348,15,25170,6,0,P|303:13|254:0,1,90,2|2,3:2|0:1,0:0:0:0:
366,105,25420,1,0,3:0:0:0:
366,105,25503,1,8,0:0:0:0:
479,53,25670,1,2,0:1:0:0:
337,189,25836,5,0,3:0:0:0:
512,156,26003,1,2,3:1:0:0:
452,324,26170,1,8,0:0:0:0:
424,172,26336,1,2,0:1:0:0:
395,255,26503,6,0,P|367:300|372:357,1,90,2|2,3:2|0:1,0:0:0:0:
278,346,26753,1,0,3:0:0:0:
287,366,26836,1,8,0:0:0:0:
365,336,27003,1,10,0:3:0:0:
132,285,27170,5,0,3:0:0:0:
287,366,27336,1,10,0:0:0:0:
268,259,27503,1,10,0:0:0:0:
277,238,27836,6,0,P|285:186|269:135,1,107.999996704102,6|0,3:2|0:0,0:0:0:0:
151,93,28086,1,0,3:0:0:0:
151,93,28170,2,0,P|175:102|202:105,1,53.9999983520508,8|0,0:0|0:0,0:0:0:0:
315,48,28336,2,0,P|288:51|264:63,1,53.9999983520508,2|0,3:1|0:0,0:0:0:0:
154,189,28503,6,0,P|180:189|206:182,1,53.9999983520508,0|0,3:0|0:0,0:0:0:0:
397,93,28670,2,0,P|371:101|349:116,1,53.9999983520508,10|0,0:0|0:0,0:0:0:0:
229,262,28836,2,0,P|254:253|276:238,1,53.9999983520508,10|0,0:0|0:0,0:0:0:0:
397,93,29003,2,0,P|375:109|360:131,1,53.9999983520508,2|0,0:1|0:0,0:0:0:0:
405,302,29170,5,2,3:2:0:0:
470,119,29336,1,2,0:1:0:0:
474,93,29420,1,0,3:0:0:0:
470,67,29503,6,0,P|456:43|426:21,1,53.9999983520508,8|0,0:0|0:0,0:0:0:0:
427,182,29670,1,10,0:3:0:0:
439,205,29753,1,8,0:3:0:0:
457,224,29836,1,2,3:3:0:0:
288,165,30003,5,6,3:3:0:0:
477,240,30170,2,0,P|494:274|497:302,1,53.9999983520508,10|0,0:0|3:0,0:0:0:0:
389,327,30336,2,0,P|372:361|369:389,1,53.9999983520508,2|0,0:1|0:0,0:0:0:0:
347,373,30503,6,0,L|232:359,1,90,2|2,3:2|0:1,0:0:0:0:
212,356,30753,1,0,3:0:0:0:
167,351,30836,2,0,L|91:341,1,45,8|0,0:0|0:0,0:0:0:0:
29,160,31003,1,2,0:1:0:0:
89,218,31170,6,0,L|204:204,1,90,0|2,3:0|3:1,0:0:0:0:
277,273,31503,2,0,L|232:278,1,45,8|0,0:0|0:0,0:0:0:0:
313,190,31670,1,2,0:1:0:0:
411,309,31836,5,2,3:2:0:0:
321,128,32003,1,2,0:1:0:0:
317,159,32086,1,0,3:0:0:0:
313,190,32170,1,8,0:0:0:0:
492,84,32336,5,10,0:3:0:0:
496,115,32419,1,8,0:3:0:0:
500,146,32503,1,0,3:0:0:0:
411,137,32670,1,10,0:0:0:0:
231,119,32836,1,10,0:0:0:0:
210,115,33170,6,0,P|159:96|122:57,1,107.999996704102,6|0,3:2|0:0,0:0:0:0:
45,13,33420,1,0,3:0:0:0:
45,13,33503,2,0,P|34:35|30:80,1,53.9999983520508,8|0,0:0|0:0,0:0:0:0:
68,193,33670,2,0,P|70:168|59:124,1,53.9999983520508,2|0,3:1|0:0,0:0:0:0:
45,13,33836,6,0,P|42:37|53:81,1,53.9999983520508,0|0,3:0|0:0,0:0:0:0:
183,231,34003,2,0,P|177:207|151:170,1,53.9999983520508,10|0,0:0|0:0,0:0:0:0:
122,57,34170,2,0,P|127:80|153:117,1,53.9999983520508,10|0,0:0|0:0,0:0:0:0:
304,223,34336,2,0,P|290:202|253:176,1,53.9999983520508,2|0,0:1|0:0,0:0:0:0:
68,193,34503,5,2,3:2:0:0:
150,326,34670,1,2,0:1:0:0:
176,322,34753,1,0,3:0:0:0:
202,318,34836,6,0,L|303:303,1,53.9999983520508,8|0,0:0|0:0,0:0:0:0:
376,339,35003,6,0,L|244:320,1,108,10|0,0:3|0:0,0:0:0:0:
406,268,35336,6,0,P|427:284|445:304,1,53.9999983520508,6|0,3:3|0:0,0:0:0:0:
466,384,35503,2,0,P|469:350|486:311,1,53.9999983520508,10|0,0:0|3:0,0:0:0:0:
460,192,35670,1,2,0:1:0:0:
463,181,35753,1,0,0:0:0:0:
466,170,35836,6,0,P|463:118|435:64,1,90,2|2,3:2|0:1,0:0:0:0:
378,51,36086,1,0,3:0:0:0:
378,51,36170,1,8,0:0:0:0:
261,110,36336,1,2,0:1:0:0:
384,238,36503,5,0,3:0:0:0:
266,90,36670,1,2,3:1:0:0:
197,267,36836,1,8,0:0:0:0:
154,129,37003,1,2,0:1:0:0:
94,226,37170,6,0,P|36:236|-14:219,1,90,2|2,3:2|0:1,0:0:0:0:
33,320,37420,1,0,3:0:0:0:
3,308,37503,1,8,0:0:0:0:
48,146,37670,1,10,0:3:0:0:
197,267,37836,5,0,3:0:0:0:
258,160,38003,1,10,0:0:0:0:
94,226,38170,1,10,0:0:0:0:
109,212,38503,6,0,P|137:162|143:97,1,107.999996704102,6|0,3:2|0:0,0:0:0:0:
203,30,38753,1,0,3:0:0:0:
203,30,38836,2,0,P|219:59|227:108,1,53.9999983520508,8|0,0:0|0:0,0:0:0:0:
289,203,39003,2,0,P|271:174|233:142,1,53.9999983520508,6|0,3:2|0:0,0:0:0:0:
318,42,39170,6,0,P|323:74|314:123,1,53.9999983520508,0|0,3:0|0:0,0:0:0:0:
394,182,39336,2,0,P|400:147|426:105,1,53.9999983520508,10|0,0:0|0:0,0:0:0:0:
498,17,39503,2,0,P|491:49|466:91,1,53.9999983520508,10|0,0:0|0:0,0:0:0:0:
394,182,39670,2,0,P|411:152|449:120,1,53.9999983520508,2|0,0:1|0:0,0:0:0:0:
512,298,39836,5,2,3:2:0:0:
330,285,40003,1,2,0:1:0:0:
310,303,40086,1,0,3:0:0:0:
301,328,40170,6,0,P|283:357|245:389,1,53.9999983520508,8|0,0:0|0:0,0:0:0:0:
121,334,40336,1,10,0:3:0:0:
94,330,40420,1,8,0:3:0:0:
67,326,40503,5,2,3:3:0:0:
213,298,40670,1,6,3:3:0:0:
68,236,40836,2,0,P|33:235|-12:218,1,53.9999983520508,10|2,0:0|0:0,0:0:0:0:
195,208,41003,2,0,P|229:208|275:225,1,53.9999983520508,2|0,3:2|0:0,0:0:0:0:
265,226,41170,6,0,P|279:163|343:89,1,135,6|0,3:2|0:0,0:0:0:0:
319,106,41503,1,8,0:0:0:0:
130,157,41670,2,0,P|116:94|52:20,1,135,6|0,3:2|0:0,0:0:0:0:
75,37,42003,1,8,0:0:0:0:
230,66,42170,2,0,P|312:66|388:23,1,135,6|0,3:2|0:0,0:0:0:0:
359,45,42503,5,8,0:0:0:0:
426,193,42670,1,6,3:2:0:0:
512,205,42836,1,8,0:0:0:0:
512,205,43003,1,8,0:0:0:0:
512,14,43170,5,6,3:2:0:0:
341,122,43336,2,0,P|345:145|369:192,1,45,0|0,0:0|0:0,0:0:0:0:
178,216,43503,1,10,0:0:0:0:
144,230,43586,1,10,0:0:0:0:
112,257,43670,1,10,0:0:0:0:
86,292,43753,1,10,0:0:0:0:
71,339,43836,6,0,P|173:298|285:313,1,215.999993408203,6|2,3:2|3:3,0:0:0:0:
207,92,44503,2,0,P|105:51|-7:66,1,215.999993408203,2|2,3:3|3:3,0:0:0:0:
267,174,45170,6,0,P|297:128|309:61,1,107.999996704102,6|0,3:2|0:0,0:0:0:0:
402,23,45503,2,0,P|419:82|477:136,1,107.999996704102,2|0,3:3|0:0,0:0:0:0:
285,203,45836,2,0,L|171:185,1,107.999996704102,6|0,3:2|0:0,0:0:0:0:
379,157,46170,2,0,L|493:139,1,107.999996704102,2|0,3:3|0:0,0:0:0:0:
366,249,46503,6,0,L|382:355,1,107.999996704102,6|0,3:2|0:0,0:0:0:0:
463,297,46836,1,2,3:3:0:0:
289,326,47003,1,8,0:0:0:0:
179,273,47170,2,0,L|162:379,1,107.999996704102,2|0,3:3|0:0,0:0:0:0:
72,321,47503,2,0,P|62:265|66:211,1,107.999996704102,2|8,3:3|0:0,0:0:0:0:
176,173,47836,5,2,3:3:0:0:
49,126,48003,1,0,3:0:0:0:
228,91,48170,5,10,0:0:0:0:
23,115,48336,1,0,3:2:0:0:
149,13,48503,5,10,0:0:0:0:
184,200,48670,1,8,0:0:0:0:
322,42,48836,1,10,0:0:0:0:
355,35,48920,1,10,0:0:0:0:
371,63,49003,1,10,0:0:0:0:
349,86,49086,1,10,0:0:0:0:
320,72,49170,5,6,3:2:0:0:
443,28,49336,1,8,0:0:0:0:
419,156,49503,1,2,0:3:0:0:
466,3,49670,2,0,B|458:93|458:93|440:118|440:118|432:225,1,215.999993408203,0|0,3:0|3:2,0:0:0:0:
508,283,50170,1,2,3:3:0:0:
335,207,50336,1,10,0:0:0:0:
385,322,50503,6,0,B|431:309|431:309|443:298|443:298|509:285,1,107.999996704102,2|0,0:3|3:2,0:0:0:0:
335,207,50836,2,0,B|372:340|372:340|398:300,1,161.999995056153,10|0,0:0|0:0,0:0:0:0:
438,384,51170,1,2,3:3:0:0:
261,297,51336,1,8,0:0:0:0:
411,222,51503,2,0,L|239:189,1,161.999995056153,2|0,0:3|0:0,0:0:0:0:
207,131,51836,5,10,0:0:0:0:
326,88,52003,1,0,3:2:0:0:
142,4,52170,2,0,B|125:94|125:94|158:71,1,107.999996704102,2|8,3:3|0:0,0:0:0:0:
8,160,52503,2,0,B|25:250|25:250|-8:227,1,107.999996704102,2|0,0:3|3:2,0:0:0:0:
106,350,52836,1,10,0:0:0:0:
121,321,52920,1,10,0:0:0:0:
143,298,53003,1,10,0:0:0:0:
172,284,53086,1,10,0:0:0:0:
203,277,53170,6,0,L|404:313,1,180,6|2,3:2|3:3,0:0:0:0:
399,165,53670,2,0,L|251:191,1,135,8|0,0:0|0:0,0:0:0:0:
266,188,54003,1,0,0:0:0:0:
260,65,54170,2,0,L|353:81,1,90,2|8,3:3|0:0,0:0:0:0:
475,19,54503,5,2,3:3:0:0:
475,19,54670,1,0,3:2:0:0:
475,19,55003,6,0,P|418:67|373:297,1,270.000010299683,6|0,3:2|0:0,0:0:0:0:
475,19,55503,6,0,P|418:67|373:297,1,270.000010299683,6|0,3:2|0:0,0:0:0:0:
37,19,56170,6,0,P|94:67|139:297,1,270.000010299683,6|0,3:2|0:0,0:0:0:0:
37,19,56670,6,0,P|94:67|150:190,1,180,6|2,3:2|3:2,0:0:0:0:
55,373,57170,1,10,0:0:0:0:
34,359,57502,6,0,P|65:253|41:143,1,215.999993408203,6|2,3:2|3:3,0:0:0:0:
309,20,58169,2,0,P|305:129|357:229,1,215.999993408203,2|2,3:3|3:3,0:0:0:0:
250,342,58835,6,0,L|131:320,1,107.999996704102,6|0,3:2|0:0,0:0:0:0:
245,242,59168,2,0,L|363:220,1,107.999996704102,2|0,3:3|0:0,0:0:0:0:
189,146,59502,2,0,P|169:99|178:29,1,107.999996704102,6|0,3:2|0:0,0:0:0:0:
309,20,59835,2,0,P|329:67|320:137,1,107.999996704102,2|0,3:3|0:0,0:0:0:0:
480,182,60169,6,0,L|464:288,1,107.999996704102,6|0,3:2|0:0,0:0:0:0:
371,307,60502,1,2,3:3:0:0:
402,131,60669,1,8,0:0:0:0:
259,225,60836,2,0,L|276:331,1,107.999996704102,2|0,3:3|0:0,0:0:0:0:
330,176,61168,2,0,P|286:144|219:148,1,107.999996704102,2|8,3:3|0:0,0:0:0:0:
139,202,61502,5,2,3:3:0:0:
54,57,61669,1,0,3:0:0:0:
119,222,61836,5,10,0:0:0:0:
146,17,62002,1,0,3:2:0:0:
0,142,62169,5,10,0:0:0:0:
223,118,62336,1,8,0:0:0:0:
9,318,62502,1,10,0:0:0:0:
1,350,62586,1,10,0:0:0:0:
29,365,62669,1,10,0:0:0:0:
52,344,62752,1,10,0:0:0:0:
38,315,62836,5,6,3:2:0:0:
261,279,63002,1,8,0:0:0:0:
119,222,63169,1,2,0:3:0:0:
245,364,63335,2,0,B|359:367|323:259|432:260,1,215.999993408203,0|0,3:0|3:2,0:0:0:0:
425,348,63836,1,2,3:3:0:0:
475,188,64002,1,10,0:0:0:0:
358,159,64169,6,0,P|357:214|399:282,1,107.999996704102,2|0,0:3|3:2,0:0:0:0:
411,96,64501,2,0,P|360:157|284:180,1,161.999995056153,10|0,0:0|0:0,0:0:0:0:
211,152,64836,1,2,3:3:0:0:
280,14,65001,1,8,0:0:0:0:
63,7,65168,2,0,P|141:19|199:74,1,161.999995056153,2|0,0:3|0:0,0:0:0:0:
211,152,65501,5,10,0:0:0:0:
38,206,65668,1,0,3:2:0:0:
204,242,65835,2,0,P|155:241|83:289,1,107.999996704102,2|8,3:3|0:0,0:0:0:0:
0,123,66168,2,0,P|49:124|121:76,1,107.999996704102,2|0,0:3|3:2,0:0:0:0:
121,224,66501,2,0,P|85:257|68:342,1,107.999996704102,10|0,0:0|3:2,0:0:0:0:
224,357,66835,5,2,3:3:0:0:
256,167,67001,1,10,0:0:0:0:
121,224,67168,2,0,B|92:235|64:238|64:238|100:247|196:285,1,161.999995056153,2|10,3:3|1:3,0:0:0:0:
293,322,67668,1,4,1:3:0:0:
298,332,67751,1,4,1:3:0:0:
301,343,67835,1,10,1:3:0:0:
274,244,68001,1,6,1:3:0:0:
480,269,68168,6,0,P|422:311|392:376,1,144,6|2,3:2|0:1,0:0:0:0:
392,376,68668,1,0,3:0:0:0:
479,269,68834,2,0,P|476:215|452:166,1,108,2|0,0:1|0:0,0:0:0:0:
430,155,69168,5,2,3:1:0:0:
345,54,69418,1,0,3:0:0:0:
319,58,69502,1,2,0:1:0:0:
305,157,69668,1,0,3:0:0:0:
220,44,69834,1,2,0:1:0:0:
180,139,70000,1,2,3:1:0:0:
206,143,70084,1,2,0:1:0:0:
184,155,70168,6,0,L|94:167,1,72,2|0,1:1|3:0,0:0:0:0:
0,81,70501,2,0,L|90:93,1,72,2|0,0:1|3:0,0:0:0:0:
104,200,70834,2,0,P|117:256|103:329,1,108,2|0,0:1|0:0,0:0:0:0:
96,382,71168,6,0,P|115:341|153:310,1,90,6|10,3:2|0:0,0:0:0:0:
308,349,71501,1,8,1:3:0:0:
351,359,71584,1,8,1:3:0:0:
395,351,71668,1,4,1:3:0:0:
432,325,71751,1,4,1:3:0:0:
455,286,71834,6,0,P|450:204|390:151,1,161.999995056153,2|0,1:0|0:0,0:0:0:0:
355,250,72168,6,0,P|319:179|394:152,1,180,6|2,3:2|3:1,0:0:0:0:
393,151,72668,1,0,3:2:0:0:
230,236,72834,2,0,P|169:207|102:208,1,135,10|0,0:0|0:0,0:0:0:0:
72,221,73168,5,2,3:1:0:0:
150,108,73334,2,0,P|216:119|277:93,1,135,8|0,0:0|0:0,0:0:0:0:
304,75,73668,1,2,3:2:0:0:
304,75,73751,1,2,3:2:0:0:
304,75,73834,2,0,P|369:64|430:90,1,135,10|0,0:0|0:0,0:0:0:0:
487,145,74168,6,0,L|472:267,1,90,2|0,3:1|0:0,0:0:0:0:
315,296,74501,2,0,L|404:306,1,90,2|0,0:1|3:2,0:0:0:0:
256,202,74834,2,0,B|201:187|172:225|172:225|138:265,1,135,10|0,0:0|0:0,0:0:0:0:
171,331,75168,5,2,3:1:0:0:
29,180,75334,1,8,0:0:0:0:
0,275,75501,5,2,0:1:0:0:
190,129,75667,1,0,3:2:0:0:
0,0,75834,5,10,0:0:0:0:
4,44,75917,1,0,0:0:0:0:
28,81,76001,1,10,0:0:0:0:
67,102,76083,1,10,0:0:0:0:
112,102,76167,6,0,L|310:88,1,180,6|2,3:2|0:1,0:0:0:0:
291,89,76667,1,0,3:2:0:0:
346,215,76834,2,0,P|381:157|436:120,1,135,10|0,0:0|0:0,0:0:0:0:
468,116,77167,5,2,3:1:0:0:
250,0,77334,2,0,P|280:59|335:97,1,135,8|0,0:0|0:0,0:0:0:0:
362,79,77667,1,0,3:2:0:0:
441,238,77834,2,0,P|398:288|334:307,1,135,10|0,0:0|0:0,0:0:0:0:
267,267,78167,5,10,0:0:0:0:
204,209,78278,1,10,0:0:0:0:
127,242,78390,1,10,0:0:0:0:
137,256,78501,5,10,0:0:0:0:
188,302,78612,1,10,0:0:0:0:
249,276,78723,1,10,0:0:0:0:
238,261,78834,5,8,1:3:0:0:
200,226,78945,1,8,1:3:0:0:
154,246,79057,1,8,1:3:0:0:
184,319,79167,5,6,3:2:0:0:
135,344,80501,5,2,0:0:0:0:
168,270,80667,1,2,0:0:0:0:
168,270,80751,1,2,0:0:0:0:
168,270,80834,1,2,0:0:0:0:
246,249,81001,1,2,0:0:0:0:
322,275,81168,1,2,0:0:0:0:
399,298,81334,1,2,0:0:0:0:
472,263,81501,1,2,0:0:0:0:
476,245,81834,5,2,3:3:0:0:
173,172,82001,1,14,1:2:0:0:
170,154,82334,6,0,L|161:88,1,45,2|0,3:3|3:3,0:0:0:0:
473,81,82501,1,14,1:2:0:0:
476,63,82834,5,2,3:3:0:0:
151,22,83001,1,14,1:2:0:0:
148,4,83334,5,2,3:3:0:0:
186,276,83501,1,14,1:2:0:0:
189,258,83834,5,2,3:3:0:0:
302,237,84001,1,10,0:0:0:0:
141,186,84167,1,10,0:0:0:0:
322,152,84334,1,10,0:0:0:0:
93,114,84501,1,2,3:3:0:0:
342,66,84667,6,0,P|419:44|488:2,1,161.999995056153,14|0,1:2|0:0,0:0:0:0:
488,2,85001,5,2,3:3:0:0:
452,143,85167,2,0,P|426:133|400:128,1,53.9999983520508,14|0,1:2|3:2,0:0:0:0:
45,42,85501,5,2,3:3:0:0:
216,151,85667,2,0,P|221:177|223:204,1,53.9999983520508,14|0,1:2|3:2,0:0:0:0:
0,384,86001,5,2,3:3:0:0:
104,222,86167,2,0,P|124:203|146:189,1,53.9999983520508,14|0,1:2|3:2,0:0:0:0:
431,225,86501,5,2,3:3:0:0:
222,284,86667,2,0,P|196:275|172:263,1,53.9999983520508,8|8,1:3|1:3,0:0:0:0:
123,117,86834,5,4,1:3:0:0:
135,38,86945,1,2,1:3:0:0:
196,87,87056,1,2,1:3:0:0:
62,68,87167,5,6,3:2:0:0:
45,54,87501,5,10,0:0:0:0:
347,120,87667,1,10,0:0:0:0:
467,54,87834,5,10,0:0:0:0:
165,120,88000,1,10,0:0:0:0:
