osu file format v14

[General]
AudioFilename: audio.mp3
AudioLeadIn: 0
PreviewTime: 22336
Countdown: 0
SampleSet: Soft
StackLeniency: 0.4
Mode: 0
LetterboxInBreaks: 0
WidescreenStoryboard: 1

[Editor]
Bookmarks: 45836
DistanceSpacing: 1
BeatDivisor: 4
GridSize: 32
TimelineZoom: 1.9

[Metadata]
Title:Lamp (TV Size)
TitleUnicode:Lamp (TV Size)
Artist:Co shu Nie
ArtistUnicode:Cö shu Nie
Creator:keeVY
Version:Normal
Source:約束のネバーランド
Tags:miku nakamura コシュニエ japanese anime female vocalist the promised neverland yakusoku no ed ending 2 door weapon xiced yugu j rock j-rock
BeatmapID:2747494
BeatmapSetID:1325620

[Difficulty]
HPDrainRate:3.5
CircleSize:3.4
OverallDifficulty:5
ApproachRate:6
SliderMultiplier:1.1
SliderTickRate:1

[Events]
//Background and Video events
0,0,"bg.png",0,0
//Break Periods
//Storyboard Layer 0 (Background)
//Storyboard Layer 1 (Fail)
//Storyboard Layer 2 (Pass)
//Storyboard Layer 3 (Foreground)
//Storyboard Layer 4 (Overlay)
//Storyboard Sound Samples

[TimingPoints]
-163,333.333333333333,4,2,1,35,1,0
1170,-100,4,2,1,35,0,0
10503,-100,4,2,1,40,0,0
11836,-100,4,2,1,50,0,0
16002,-100,4,2,1,55,0,0
16003,-100,4,2,1,55,0,0
16836,-100,4,2,1,55,0,0
17170,-100,4,2,1,60,0,0
21003,-100,4,2,1,60,0,0
21503,-100,4,2,1,40,0,0
22003,-100,4,2,1,60,0,0
22503,-100,4,2,1,80,0,1
22836,-100,4,2,1,80,0,1
27086,-100,4,2,1,5,0,1
27170,-100,4,2,1,80,0,1
27503,-100,4,2,1,80,0,0
27836,-100,4,2,1,80,0,1
32836,-100,4,2,1,80,0,0
33170,-100,4,2,1,80,0,1
33503,-100,4,2,1,80,0,1
37670,-100,4,2,1,80,0,1
38170,-100,4,2,1,80,0,0
38503,-100,4,2,1,80,0,1
42670,-100,4,2,1,80,0,1
43836,-100,4,2,1,75,0,0
44086,-100,4,2,1,5,0,0
44170,-100,4,2,1,75,0,0
44420,-100,4,2,1,5,0,0
44503,-100,4,2,1,75,0,0
44753,-100,4,2,1,5,0,0
44836,-100,4,2,1,75,0,0
45086,-100,4,2,1,5,0,0
45170,-100,4,2,1,75,0,0
45420,-100,4,2,1,5,0,0
45503,-100,4,2,1,75,0,0
45753,-100,4,2,1,5,0,0
45836,-100,4,2,1,75,0,0
46086,-100,4,2,1,5,0,0
46170,-100,4,2,1,75,0,0
46420,-100,4,2,1,5,0,0
46503,-100,4,2,1,75,0,0
46753,-100,4,2,1,5,0,0
46836,-100,4,2,1,75,0,0
47086,-100,4,2,1,5,0,0
47170,-100,4,2,1,75,0,0
47420,-100,4,2,1,5,0,0
47503,-100,4,2,1,75,0,0
47753,-100,4,2,1,5,0,0
47836,-100,4,2,1,75,0,0
49170,-100,4,2,1,75,0,0
53920,-100,4,2,1,5,0,0
54003,-100,4,2,1,75,0,0
55002,-100,4,2,1,65,0,0
55420,-100,4,2,1,5,0,0
55503,-100,4,2,1,65,0,0
56170,-100,4,2,1,65,0,0
56586,-100,4,2,1,5,0,0
56670,-100,4,2,1,65,0,0
57502,333.333333333333,4,2,1,75,1,0
57502,-100,4,2,1,75,0,0
57752,-100,4,2,1,5,0,0
57835,-100,4,2,1,75,0,0
58085,-100,4,2,1,5,0,0
58168,-100,4,2,1,75,0,0
58418,-100,4,2,1,5,0,0
58502,-100,4,2,1,75,0,0
58752,-100,4,2,1,5,0,0
58835,-100,4,2,1,75,0,0
59085,-100,4,2,1,5,0,0
59168,-100,4,2,1,75,0,0
59418,-100,4,2,1,5,0,0
59502,-100,4,2,1,75,0,0
59752,-100,4,2,1,5,0,0
59835,-100,4,2,1,75,0,0
60085,-100,4,2,1,5,0,0
60168,-100,4,2,1,75,0,0
60418,-100,4,2,1,5,0,0
60502,-100,4,2,1,75,0,0
60752,-100,4,2,1,5,0,0
60835,-100,4,2,1,75,0,0
61085,-100,4,2,1,5,0,0
61168,-100,4,2,1,75,0,0
61418,-100,4,2,1,5,0,0
61501,-100,4,2,1,75,0,0
62835,-100,4,2,1,75,0,0
68168,333.333333333333,3,2,1,55,1,0
68168,-100,3,2,1,55,0,0
71168,-100,3,2,1,55,0,0
72168,-100,3,2,1,65,0,0
79168,-100,3,2,1,65,0,0
80501,-100,3,2,1,40,0,0
81834,-100,3,2,1,70,0,0
82001,-100,3,2,1,70,0,0
84667,-100,3,2,1,70,0,1
85168,-100,3,2,1,70,0,1
87167,-100,3,2,1,70,0,0

[Colours]
Combo1 : 255,140,140
Combo2 : 145,180,220
Combo3 : 255,180,110
Combo4 : 150,150,210

[HitObjects]
31,270,1170,6,0,B|99:212|192:259|161:326|232:368|326:325,1,330,2|0,0:0|0:0,0:0:0:0:
419,274,2503,1,2,0:0:0:0:
409,49,3836,6,0,B|333:66|282:47|282:47|231:87|231:87|166:58|94:81,1,330,2|0,0:0|0:0,0:0:0:0:
18,156,5170,1,2,0:0:0:0:
413,348,6503,6,0,B|373:339|349:314|349:314|429:246|364:147|364:147|326:174|312:209,1,330,2|0,0:0|0:0,0:0:0:0:
258,290,7836,1,2,0:0:0:0:
92,42,9170,6,0,B|206:36|206:36|256:81|256:81|428:74,1,330,2|0,0:0|0:0,0:0:0:0:
486,1,10503,1,2,0:0:0:0:
233,359,11836,6,0,B|175:347|192:397|111:375,1,110,2|0,3:2|3:2,0:0:0:0:
22,349,12503,2,0,P|13:310|15:287,1,55,0|2,3:2|0:1,0:0:0:0:
42,248,12836,1,0,3:2:0:0:
152,254,13170,6,0,B|210:242|193:292|274:270,1,110,2|0,3:2|3:2,0:0:0:0:
363,246,13836,2,0,P|372:207|370:184,1,55,2|2,3:3|0:3,0:0:0:0:
343,145,14169,1,2,3:3:0:0:
233,147,14503,6,0,B|175:135|192:185|111:163,1,110,2|0,3:2|3:2,0:0:0:0:
22,137,15170,2,0,P|13:98|49:31,1,110,0|0,3:2|3:0,0:0:0:0:
149,58,15836,1,0,3:2:0:0:
201,42,16003,2,0,P|249:7|296:2,2,82.5,14|14|14,1:2|1:2|1:2,0:0:0:0:
215,95,16670,2,0,P|232:142|234:167,1,55,10|8,0:0|1:3,0:0:0:0:
333,192,17170,6,0,P|339:136|389:107,1,110,6|2,3:2|3:1,0:0:0:0:
439,117,17670,1,8,0:0:0:0:
489,138,17836,2,0,P|503:175|511:203,1,55,0|0,0:0|3:2,0:0:0:0:
503,245,18170,1,10,0:0:0:0:
450,341,18503,6,0,P|418:361|379:363,1,55,2|0,3:1|0:0,0:0:0:0:
351,340,18836,1,2,3:1:0:0:
265,272,19170,2,0,P|217:262|169:301,1,110,2|10,0:1|0:0,0:0:0:0:
135,339,19670,1,0,0:0:0:0:
83,356,19836,2,0,P|25:342|17:242,1,165,2|10,3:3|0:0,0:0:0:0:
172,211,20837,5,10,0:0:0:0:
224,228,21003,2,0,P|282:214|290:114,1,165,2|2,1:1|0:0,0:0:0:0:
149,44,22003,6,0,L|92:59,2,55,10|10|10,0:0|0:0|0:0,0:0:0:0:
199,21,22503,2,0,B|241:18|241:18|251:27|251:27|339:26,1,110,4|8,3:1|0:0,0:0:0:0:
408,65,23170,2,0,L|417:132,1,55,0|10,3:0|0:0,0:0:0:0:
448,163,23503,1,10,0:0:0:0:
419,209,23670,2,0,B|357:207|382:255|303:250,1,110,2|2,0:1|0:1,0:0:0:0:
211,241,24336,1,10,0:3:0:0:
179,195,24503,2,0,P|171:161|173:129,1,55,2|6,3:3|3:3,0:0:0:0:
196,92,24836,1,10,0:0:0:0:
131,2,25170,6,0,P|56:0|26:42,1,110,2|8,3:2|0:0,0:0:0:0:
1,65,25670,1,2,0:1:0:0:
13,118,25836,2,0,L|19:183,1,55,0|2,3:0|3:1,0:0:0:0:
40,223,26170,1,8,0:0:0:0:
94,219,26336,2,0,B|131:215|131:215|145:223|145:223|216:221,1,110,2|2,0:1|0:1,0:0:0:0:
266,310,27003,1,10,0:3:0:0:
250,362,27170,2,0,L|190:373,2,55,0|10|10,3:0|0:0|0:0,0:0:0:0:
359,373,27836,6,0,P|419:366|446:308,1,110,6|8,3:2|0:0,0:0:0:0:
456,217,28503,2,0,L|453:162,1,55,0|10,3:0|0:0,0:0:0:0:
424,114,28836,1,10,0:0:0:0:
378,82,29003,2,0,B|316:82|342:125|255:116,1,110,2|2,0:1|0:1,0:0:0:0:
180,63,29670,1,10,0:3:0:0:
140,101,29836,2,0,P|131:128|130:159,1,55,2|6,3:3|3:3,0:0:0:0:
166,195,30170,1,10,0:0:0:0:
263,246,30503,6,0,P|278:302|236:359,1,110,2|8,3:2|0:0,0:0:0:0:
205,369,31003,1,2,0:1:0:0:
150,373,31170,2,0,L|42:348,1,110,0|8,3:0|0:0,0:0:0:0:
13,301,31670,1,2,0:1:0:0:
0,247,31836,1,2,3:2:0:0:
93,188,32170,2,0,P|111:207|144:212,1,55,8|10,0:0|0:3,0:0:0:0:
185,185,32503,2,0,L|241:194,2,55,0|10|10,3:0|0:0|0:0,0:0:0:0:
116,100,33170,6,0,P|128:41|175:22,1,110,6|8,3:2|0:0,0:0:0:0:
219,44,33670,1,2,3:1:0:0:
268,67,33836,2,0,L|331:68,1,55,0|10,3:0|0:0,0:0:0:0:
372,43,34170,1,10,0:0:0:0:
423,60,34336,2,0,B|422:107|422:107|426:118|426:118|424:194,1,110,2|2,0:1|0:1,0:0:0:0:
421,279,35003,1,10,0:3:0:0:
379,315,35170,2,0,P|334:332|317:333,1,55,2|6,3:3|3:3,0:0:0:0:
273,323,35503,1,10,0:0:0:0:
284,213,35836,6,0,P|282:149|244:130,1,110,2|8,3:2|0:0,0:0:0:0:
173,212,36503,2,0,P|141:235|122:242,1,55,0|2,3:0|3:1,0:0:0:0:
72,249,36836,1,8,0:0:0:0:
22,223,37003,2,0,P|6:152|17:104,1,110,2|2,0:1|0:1,0:0:0:0:
88,36,37670,1,10,0:3:0:0:
141,25,37836,2,0,L|203:16,2,55,0|10|10,3:0|0:0|0:0,0:0:0:0:
141,135,38503,6,0,P|141:173|197:241,1,110,6|8,3:2|0:0,0:0:0:0:
234,233,39003,1,6,3:3:0:0:
286,217,39170,2,0,P|296:184|296:149,1,55,0|10,3:0|0:0,0:0:0:0:
286,109,39503,1,10,0:0:0:0:
304,57,39670,2,0,P|346:30|410:55,1,110,2|2,0:1|0:1,0:0:0:0:
474,127,40336,1,10,0:3:0:0:
496,177,40503,2,0,P|501:206|498:238,1,55,2|6,3:3|3:3,0:0:0:0:
482,283,40836,1,10,0:0:0:0:
380,325,41170,6,0,B|323:320|336:360|262:342,1,110,6|8,3:2|0:0,0:0:0:0:
222,326,41670,1,6,3:2:0:0:
62,367,42170,2,0,P|48:335|49:297,1,55,6|0,3:2|3:2,0:0:0:0:
74,267,42503,2,0,L|128:268,2,55,8|6|0,0:0|3:2|0:0,0:0:0:0:
25,168,43170,2,0,P|16:133|22:101,1,55,6|8,3:2|0:0,0:0:0:0:
34,62,43503,1,10,0:0:0:0:
137,20,43836,6,0,P|198:11|253:96,1,165,6|0,3:2|0:0,0:0:0:0:
224,133,44503,2,0,P|205:173|203:251,1,110,2|2,3:3|3:3,0:0:0:0:
271,321,45170,6,0,P|324:300|426:341,1,165,6|0,3:2|0:0,0:0:0:0:
473,352,45836,2,0,P|499:281|489:245,1,110,6|2,3:2|3:3,0:0:0:0:
465,142,46503,6,0,B|360:98|404:197|287:143,1,165,6|8,3:2|0:0,0:0:0:0:
283,103,47170,2,0,P|260:61|197:42,1,110,2|2,3:3|3:3,0:0:0:0:
94,53,47836,6,0,L|76:164,1,110,2|10,3:3|0:0,0:0:0:0:
13,251,48503,2,0,L|100:322,1,110,10|10,0:0|0:0,0:0:0:0:
208,315,49170,6,0,L|272:323,2,55,6|8|2,3:2|0:0|0:3,0:0:0:0:
181,266,49670,2,0,P|176:214|216:169,1,110,0|0,3:0|3:2,0:0:0:0:
265,175,50170,2,0,P|275:144|275:112,1,55,2|10,3:3|0:0,0:0:0:0:
251,72,50503,2,0,P|266:22|328:18,1,110,2|10,0:3|0:0,0:0:0:0:
419,53,51170,1,2,3:3:0:0:
490,136,51503,6,0,P|461:186|446:249,1,110,2|10,0:3|0:0,0:0:0:0:
441,290,52003,1,0,3:2:0:0:
455,343,52170,1,2,3:3:0:0:
349,313,52503,2,0,P|300:305|238:317,1,110,2|10,0:3|0:0,0:0:0:0:
163,237,53170,6,0,P|213:227|281:186,1,110,6|2,3:2|3:3,0:0:0:0:
282,147,53670,2,0,P|278:98|253:32,1,110,8|0,0:0|0:0,0:0:0:0:
207,18,54170,1,2,3:3:0:0:
152,23,54336,2,0,P|93:53|36:47,1,110,8|0,0:0|3:2,0:0:0:0:
1,150,55003,6,0,L|27:328,1,165,6|6,3:2|3:2,0:0:0:0:
235,378,56170,2,0,L|261:200,1,165,6|6,3:2|3:2,0:0:0:0:
221,110,57003,2,0,P|217:67|222:47,1,55,2|10,3:2|0:0,0:0:0:0:
324,25,57502,6,0,P|382:4|489:53,1,165,6|0,3:2|0:0,0:0:0:0:
485,92,58169,2,0,P|473:134|486:211,1,110,2|2,3:3|3:3,0:0:0:0:
445,303,58836,6,0,P|396:272|289:293,1,165,6|0,3:2|0:0,0:0:0:0:
243,307,59502,2,0,P|190:267|185:224,1,110,6|2,3:2|3:3,0:0:0:0:
241,132,60169,6,0,B|352:108|290:197|415:166,1,165,6|8,3:2|0:0,0:0:0:0:
430,132,60836,2,0,P|438:89|392:40,1,110,2|2,3:3|3:3,0:0:0:0:
292,9,61502,2,0,L|183:28,1,110,2|10,3:3|0:0,0:0:0:0:
111,110,62168,2,0,L|220:129,1,110,10|10,0:0|0:0,0:0:0:0:
318,178,62836,6,0,L|382:182,2,55,6|0|2,3:2|0:0|0:3,0:0:0:0:
274,211,63336,2,0,P|263:265|262:322,1,110,0|0,3:0|3:2,0:0:0:0:
227,362,63835,2,0,L|161:366,1,55,2|10,3:3|0:0,0:0:0:0:
117,362,64168,2,0,P|72:361|48:216,1,220,2|2,0:3|3:3,0:0:0:0:
122,144,65169,6,0,P|161:191|215:225,1,110,2|10,0:3|0:0,0:0:0:0:
228,266,65669,1,0,3:2:0:0:
278,292,65836,1,2,3:3:0:0:
387,293,66169,2,0,P|391:251|379:222,1,55,2|0,0:3|3:2,0:0:0:0:
342,208,66501,2,0,P|330:178|330:149,1,55,10|0,0:0|3:2,0:0:0:0:
326,100,66835,2,0,P|337:60|415:53,1,110,2|2,3:3|3:3,0:0:0:0:
499,83,67501,2,0,P|480:126|469:193,1,110,10|10,1:3|1:3,0:0:0:0:
491,295,68168,6,0,B|426:284|449:325|378:312,1,110,6|2,3:2|0:1,0:0:0:0:
337,288,68668,1,0,3:0:0:0:
253,359,69001,1,0,3:0:0:0:
198,349,69168,2,0,P|155:363|104:359,2,82.5,2|0|0,3:1|3:3|3:0,0:0:0:0:
207,294,69834,1,0,0:0:0:0:
224,185,70168,5,2,1:1:0:0:
329,153,70501,1,2,0:1:0:0:
313,44,70834,1,2,0:1:0:0:
208,9,71168,2,0,L|137:-2,2,55,6|10|8,3:2|0:0|1:3,0:0:0:0:
219,62,71668,2,0,L|220:126,1,55,4|2,1:3|1:0,0:0:0:0:
188,222,72168,6,0,P|127:263|73:251,1,110,6|2,3:2|3:1,0:0:0:0:
48,228,72668,1,0,3:2:0:0:
18,122,73001,1,0,0:0:0:0:
26,67,73168,2,0,P|51:44|139:26,1,110,2|2,3:1|0:1,0:0:0:0:
205,96,73834,1,10,0:0:0:0:
306,54,74168,6,0,L|427:38,2,110,2|2|10,3:1|0:1|0:0,0:0:0:0:
205,96,75168,2,0,L|84:80,2,110,2|2|10,3:1|3:1|0:0,0:0:0:0:
280,175,76167,2,0,B|286:248|286:248|290:254|290:254|297:342,1,165,6|0,3:2|3:2,0:0:0:0:
403,368,77001,1,0,0:0:0:0:
455,352,77167,1,2,3:1:0:0:
486,307,77334,2,0,P|492:232|432:168,1,165,8|10,0:0|0:0,0:0:0:0:
343,106,78167,6,0,P|310:74|299:9,2,110,10|10|8,0:0|0:0|1:3,0:0:0:0:
445,65,79167,1,6,3:2:0:0:
81,150,80501,6,0,P|51:184|45:268,1,110,2|2,0:0|0:0,0:0:0:0:
110,329,81167,2,0,P|139:320|182:325,1,55,2|2,0:0|0:0,0:0:0:0:
212,346,81501,1,2,0:0:0:0:
311,298,81834,1,2,3:3:0:0:
321,243,82001,2,0,P|319:191|277:133,1,110,14|2,1:2|3:3,0:0:0:0:
234,144,82501,1,14,1:2:0:0:
183,46,82834,5,2,3:3:0:0:
228,14,83001,2,0,B|293:1|270:49|346:36,1,110,14|2,1:2|3:3,0:0:0:0:
384,22,83501,1,14,1:2:0:0:
457,103,83834,2,0,L|514:109,2,55,2|10|10,3:3|0:0|0:0,0:0:0:0:
410,132,84334,2,0,P|404:165|407:203,1,55,10|2,0:0|3:3,0:0:0:0:
440,227,84667,6,0,P|472:282|440:332,1,110,14|2,1:2|3:3,0:0:0:0:
407,349,85167,1,14,1:2:0:0:
297,334,85501,2,0,P|249:348|215:355,2,82.5,2|0|2,3:3|3:2|3:3,0:0:0:0:
329,289,86167,2,0,P|307:227|301:163,1,110,14|2,1:2|3:3,0:0:0:0:
313,129,86667,1,8,1:3:0:0:
281,30,87001,1,10,0:0:0:0:
228,14,87167,1,6,3:2:0:0:
136,75,87501,6,0,L|139:133,2,55,10|10|10,0:0|0:0|0:0,0:0:0:0:
92,41,88001,1,10,0:0:0:0:
