osu file format v14

[General]
AudioFilename: audio.mp3
AudioLeadIn: 0
PreviewTime: 22336
Countdown: 0
SampleSet: Soft
StackLeniency: 0.4
Mode: 0
LetterboxInBreaks: 0
WidescreenStoryboard: 0

[Editor]
Bookmarks: 45836
DistanceSpacing: 0.2
BeatDivisor: 4
GridSize: 32
TimelineZoom: 2.9

[Metadata]
Title:Lamp (TV Size)
TitleUnicode:Lamp (TV Size)
Artist:Co shu Nie
ArtistUnicode:Cö shu Nie
Creator:keeVY
Version:Insane
Source:約束のネバーランド
Tags:miku nakamura コシュニエ japanese anime female vocalist the promised neverland yakusoku no ed ending 2 door weapon xiced yugu j rock j-rock
BeatmapID:2746037
BeatmapSetID:1325620

[Difficulty]
HPDrainRate:4.5
CircleSize:4
OverallDifficulty:8
ApproachRate:9
SliderMultiplier:1.6
SliderTickRate:1

[Events]
//Background and Video events
0,0,"bg.png",0,0
//Break Periods
//Storyboard Layer 0 (Background)
//Storyboard Layer 1 (Fail)
//Storyboard Layer 2 (Pass)
//Storyboard Layer 3 (Foreground)
//Storyboard Layer 4 (Overlay)
//Storyboard Sound Samples

[TimingPoints]
-163,333.333333333333,4,2,1,35,1,0
1170,-181.818181818182,4,2,1,35,0,0
10503,-250,4,2,1,40,0,0
11836,-250,4,2,1,50,0,0
16002,-250,4,2,1,55,0,0
16003,-62.5,4,2,1,55,0,0
16836,-100,4,2,1,55,0,0
17170,-100,4,2,1,60,0,0
21503,-100,4,2,1,40,0,0
22003,-100,4,2,1,60,0,0
22503,-66.6666666666667,4,2,1,80,0,1
22836,-66.6666666666667,4,2,1,80,0,1
27086,-66.6666666666667,4,2,1,5,0,1
27170,-66.6666666666667,4,2,1,80,0,1
27503,-66.6666666666667,4,2,1,80,0,0
27836,-66.6666666666667,4,2,1,80,0,1
32836,-66.6666666666667,4,2,1,80,0,0
33170,-66.6666666666667,4,2,1,80,0,1
33503,-66.6666666666667,4,2,1,80,0,1
37670,-83.3333333333333,4,2,1,80,0,1
38170,-83.3333333333333,4,2,1,80,0,0
38503,-66.6666666666667,4,2,1,80,0,1
42670,-100,4,2,1,80,0,1
43836,-76.9230769230769,4,2,1,75,0,0
44086,-76.9230769230769,4,2,1,5,0,0
44170,-76.9230769230769,4,2,1,75,0,0
44420,-76.9230769230769,4,2,1,5,0,0
44503,-76.9230769230769,4,2,1,75,0,0
44753,-76.9230769230769,4,2,1,5,0,0
44836,-76.9230769230769,4,2,1,75,0,0
45086,-76.9230769230769,4,2,1,5,0,0
45170,-76.9230769230769,4,2,1,75,0,0
45420,-76.9230769230769,4,2,1,5,0,0
45503,-76.9230769230769,4,2,1,75,0,0
45753,-76.9230769230769,4,2,1,5,0,0
45836,-76.9230769230769,4,2,1,75,0,0
46086,-76.9230769230769,4,2,1,5,0,0
46170,-76.9230769230769,4,2,1,75,0,0
46420,-76.9230769230769,4,2,1,5,0,0
46503,-66.6666666666667,4,2,1,75,0,0
46753,-66.6666666666667,4,2,1,5,0,0
46836,-76.9230769230769,4,2,1,75,0,0
47086,-76.9230769230769,4,2,1,5,0,0
47170,-90.9090909090909,4,2,1,75,0,0
47420,-90.9090909090909,4,2,1,5,0,0
47503,-111.111111111111,4,2,1,75,0,0
47753,-111.111111111111,4,2,1,5,0,0
47836,-76.9230769230769,4,2,1,75,0,0
49170,-90.9090909090909,4,2,1,75,0,0
53920,-90.9090909090909,4,2,1,5,0,0
54003,-90.9090909090909,4,2,1,75,0,0
55002,-90.9090909090909,4,2,1,65,0,0
57502,333.333333333333,4,2,1,75,1,0
57502,-76.9230769230769,4,2,1,75,0,0
57752,-76.9230769230769,4,2,1,5,0,0
57835,-76.9230769230769,4,2,1,75,0,0
58085,-76.9230769230769,4,2,1,5,0,0
58168,-76.9230769230769,4,2,1,75,0,0
58418,-76.9230769230769,4,2,1,5,0,0
58502,-76.9230769230769,4,2,1,75,0,0
58752,-76.9230769230769,4,2,1,5,0,0
58835,-76.9230769230769,4,2,1,75,0,0
59085,-76.9230769230769,4,2,1,5,0,0
59168,-76.9230769230769,4,2,1,75,0,0
59418,-76.9230769230769,4,2,1,5,0,0
59502,-76.9230769230769,4,2,1,75,0,0
59752,-76.9230769230769,4,2,1,5,0,0
59835,-76.9230769230769,4,2,1,75,0,0
60085,-76.9230769230769,4,2,1,5,0,0
60168,-66.6666666666667,4,2,1,75,0,0
60418,-66.6666666666667,4,2,1,5,0,0
60502,-76.9230769230769,4,2,1,75,0,0
60752,-76.9230769230769,4,2,1,5,0,0
60835,-90.9090909090909,4,2,1,75,0,0
61085,-90.9090909090909,4,2,1,5,0,0
61168,-111.111111111111,4,2,1,75,0,0
61418,-111.111111111111,4,2,1,5,0,0
61501,-76.9230769230769,4,2,1,75,0,0
62835,-100,4,2,1,75,0,0
68168,333.333333333333,3,2,1,55,1,0
68168,-117.647058823529,3,2,1,55,0,0
72168,-90.9090909090909,3,2,1,65,0,0
79168,-133.333333333333,3,2,1,65,0,0
80501,-133.333333333333,3,2,1,40,0,0
81834,-100,3,2,1,70,0,0
82001,-83.3333333333333,3,2,1,70,0,0
84667,-83.3333333333333,3,2,1,70,0,1
85168,-66.6666666666667,3,2,1,70,0,1
87167,-66.6666666666667,3,2,1,70,0,0

[Colours]
Combo1 : 255,140,140
Combo2 : 145,180,220
Combo3 : 255,180,110
Combo4 : 150,150,210

[HitObjects]
12,259,1170,6,0,P|70:216|196:357,1,308.000009399414,2|0,0:0|0:0,0:0:0:0:
196,355,2503,2,0,B|266:279|327:323|334:327|340:332|406:382|473:298,1,308.000009399414,2|0,0:0|0:0,0:0:0:0:
472,298,3836,2,0,B|331:204|422:61|505:113|508:176,1,308.000009399414,2|0,0:0|0:0,0:0:0:0:
507,171,5170,2,0,P|460:91|321:189,1,308.000009399414,2|0,0:0|0:0,0:0:0:0:
338,266,6503,6,0,B|227:231|204:289|200:298|196:307|168:375|56:325,1,308.000009399414,2|0,0:0|0:0,0:0:0:0:
62,327,7836,2,0,B|148:226|145:123|8:108|2:208,1,308.000009399414,2|0,0:0|0:0,0:0:0:0:
3,197,9170,2,0,P|36:85|196:132,1,308.000009399414,2|0,0:0|0:0,0:0:0:0:
191,121,10503,2,0,P|112:157|66:288,1,224,2|0,0:0|0:0,0:0:0:0:
80,350,11836,6,0,L|123:358,1,32,2|0,3:2|0:0,0:0:0:0:
193,346,12170,2,0,L|232:342,1,32,0|0,3:2|0:0,0:0:0:0:
303,368,12503,2,0,L|343:373,1,32,0|2,3:2|0:1,0:0:0:0:
411,344,12836,2,0,L|451:345,1,32,0|2,3:2|0:1,0:0:0:0:
478,273,13170,6,0,L|458:233,1,32,2|0,3:2|0:0,0:0:0:0:
387,210,13503,2,0,L|411:172,1,32,0|0,3:2|0:0,0:0:0:0:
396,99,13836,2,0,L|440:101,1,32,2|2,3:3|0:3,0:0:0:0:
496,51,14170,2,0,L|516:90,1,32,2|2,3:3|0:3,0:0:0:0:
512,151,14503,6,0,L|467:160,1,32,2|0,3:2|0:0,0:0:0:0:
404,182,14836,2,0,L|363:178,1,32,0|0,3:2|0:0,0:0:0:0:
304,135,15170,2,0,L|264:146,1,32,0|0,3:2|0:0,0:0:0:0:
210,192,15503,2,0,L|170:192,1,32,0|0,3:2|0:0,0:0:0:0:
110,151,15836,5,0,3:2:0:0:
108,141,15920,1,0,3:2:0:0:
107,131,16003,2,0,B|136:83|137:32|137:32|141:54|159:82,1,128,14|0,1:2|3:2,0:0:0:0:
178,192,16253,2,0,B|205:241|248:267|248:267|227:259|194:261,1,128,14|0,1:2|3:2,0:0:0:0:
89,222,16503,2,0,B|32:220|-11:245|-11:245|5:231|20:201,1,128,14|10,1:2|0:0,0:0:0:0:
168,336,16836,6,0,L|229:354,3,40,8|8|4|4,1:3|1:3|1:3|1:3,0:0:0:0:
80,384,17170,2,0,L|57:289,1,80,6|0,3:2|0:0,0:0:0:0:
89,222,17503,5,2,3:1:0:0:
259,218,17670,2,0,L|77:234,1,160,8|0,0:0|3:2,0:0:0:0:
316,279,18170,2,0,P|341:221|336:184,1,80,10|0,0:0|0:0,0:0:0:0:
284,138,18503,6,0,L|285:45,1,80,2|0,3:1|0:0,0:0:0:0:
299,38,18753,1,0,3:2:0:0:
319,25,18836,2,0,P|361:36|407:36,1,80,2|8,3:1|0:0,0:0:0:0:
202,27,19170,2,0,P|160:16|114:16,1,80,2|0,0:1|3:2,0:0:0:0:
109,28,19503,5,10,0:0:0:0:
214,43,19670,1,2,0:0:0:0:
6,216,19836,6,0,L|27:51,1,160,2|0,3:3|0:0,0:0:0:0:
232,254,20336,2,0,L|99:153,1,160,10|0,0:0|3:2,0:0:0:0:
105,132,20753,1,0,3:2:0:0:
106,108,20836,1,10,0:0:0:0:
67,314,21003,5,2,1:1:0:0:
67,314,22003,5,10,0:0:0:0:
106,305,22086,1,10,0:0:0:0:
145,306,22169,1,10,0:0:0:0:
184,316,22252,1,10,0:0:0:0:
221,333,22336,5,10,0:0:0:0:
242,299,22419,1,10,0:0:0:0:
270,271,22503,6,0,B|336:245|396:309|396:309|356:323|329:311,1,180.000006866455,4|0,3:1|3:0,0:0:0:0:
357,316,22836,2,0,L|352:380,1,60.0000022888184,8|0,0:0|0:0,0:0:0:0:
484,292,23003,2,0,L|489:355,1,60.0000022888184,2|0,0:1|0:0,0:0:0:0:
419,225,23170,2,0,P|350:192|266:191,1,120.000004577637,0|8,3:0|0:0,0:0:0:0:
307,186,23503,1,10,0:0:0:0:
451,0,23670,6,0,P|421:45|423:119,1,120.000004577637,2|2,0:1|3:2,0:0:0:0:
429,122,23920,1,0,0:0:0:0:
439,128,24003,1,2,0:1:0:0:
448,134,24086,6,0,P|403:113|314:114,1,120.000004577637,0|0,3:0|0:0,0:0:0:0:
257,111,24336,2,0,L|189:104,1,60.0000022888184,10|8,0:3|0:3,0:0:0:0:
136,59,24503,2,0,P|164:112|155:191,1,120.000004577637,2|6,3:3|3:3,0:0:0:0:
14,293,24836,5,10,0:0:0:0:
14,293,24920,1,0,3:0:0:0:
14,293,25003,2,0,P|8:248|4:205,1,60.0000022888184,2|0,0:1|0:0,0:0:0:0:
84,184,25170,6,0,L|101:313,1,120.000004577637,2|2,3:2|0:1,0:0:0:0:
107,312,25420,1,0,3:0:0:0:
115,320,25503,2,0,L|187:309,1,60.0000022888184,8|0,0:0|0:0,0:0:0:0:
249,339,25670,2,0,L|325:380,1,60.0000022888184,2|0,0:1|0:0,0:0:0:0:
234,259,25836,6,0,B|252:203|252:203|251:197|251:197|256:192|256:192|277:130,1,120.000004577637,0|2,3:0|3:1,0:0:0:0:
283,143,26086,1,2,0:0:0:0:
295,143,26170,2,0,P|329:153|390:155,1,60.0000022888184,8|0,0:0|0:0,0:0:0:0:
286,7,26336,2,0,P|260:31|228:83,1,60.0000022888184,2|0,0:1|0:0,0:0:0:0:
414,83,26503,2,0,P|405:48|376:-5,1,60.0000022888184,2|0,3:2|0:0,0:0:0:0:
329,76,26670,1,2,0:1:0:0:
447,171,26836,6,0,P|420:238|415:361,1,180.000006866455,8|8,0:0|0:3,0:0:0:0:
422,357,27170,1,0,3:0:0:0:
329,237,27336,5,10,0:0:0:0:
329,237,27503,1,10,0:0:0:0:
329,237,27836,6,0,B|265:272|202:217|202:217|227:216|269:172,1,180.000006866455,6|0,3:2|3:0,0:0:0:0:
239,199,28170,6,0,L|233:133,1,60.0000022888184,8|0,0:0|0:0,0:0:0:0:
306,57,28336,2,0,L|308:130,1,60.0000022888184,2|0,3:1|0:0,0:0:0:0:
386,182,28503,6,0,P|392:147|387:113,1,60.0000022888184,0|0,3:0|0:0,0:0:0:0:
469,55,28670,2,0,P|466:89|472:131,1,60.0000022888184,10|0,0:0|0:0,0:0:0:0:
504,183,28836,2,0,P|469:241|460:287,1,60.0000022888184,10|0,0:0|0:0,0:0:0:0:
472,326,29003,6,0,P|404:288|316:305,1,120.000004577637,2|2,0:1|3:2,0:0:0:0:
357,297,29253,1,0,0:0:0:0:
352,308,29336,1,2,0:1:0:0:
348,319,29420,6,0,P|328:227|304:211,1,120.000004577637,0|8,3:0|0:3,0:0:0:0:
240,178,29670,2,0,P|206:175|175:175,1,60.0000022888184,10|8,0:3|0:3,0:0:0:0:
120,227,29836,2,0,P|84:216|58:202,1,60.0000022888184,2|0,3:3|0:0,0:0:0:0:
1,125,30003,1,6,3:3:0:0:
1,125,30170,2,0,P|47:193|13:303,1,180.000006866455,10|0,0:0|0:0,0:0:0:0:
16,311,30503,6,0,B|75:306|96:339|100:345|104:351|128:393|195:375,1,180.000006866455,2|0,3:2|3:0,0:0:0:0:
237,336,30836,2,0,P|254:303|276:287,1,60.0000022888184,8|0,0:0|0:0,0:0:0:0:
351,295,31003,1,2,0:1:0:0:
360,301,31086,1,2,0:0:0:0:
369,308,31170,6,0,P|439:291|497:146,1,240.000009155274,0|8,3:0|0:0,0:0:0:0:
423,55,31670,1,2,0:1:0:0:
366,127,31836,2,0,P|291:152|157:125,1,180.000006866455,2|0,3:2|3:0,0:0:0:0:
172,127,32170,5,8,0:0:0:0:
149,235,32336,1,10,0:3:0:0:
146,246,32420,1,8,0:3:0:0:
144,257,32503,1,0,3:0:0:0:
236,328,32670,1,10,0:0:0:0:
352,291,32836,1,10,0:0:0:0:
352,291,33170,6,0,B|389:226|328:161|328:161|314:187|296:202,1,180.000006866455,6|0,3:2|3:0,0:0:0:0:
307,191,33503,6,0,L|228:183,1,60.0000022888184,8|0,0:0|0:0,0:0:0:0:
193,115,33670,2,0,L|253:103,1,60.0000022888184,2|0,3:1|0:0,0:0:0:0:
309,37,33836,6,0,P|276:31|242:19,1,60.0000022888184,0|0,3:0|0:0,0:0:0:0:
175,9,34003,2,0,P|137:18|110:32,1,60.0000022888184,10|0,0:0|0:0,0:0:0:0:
75,92,34170,2,0,P|83:130|81:161,1,60.0000022888184,10|0,0:0|0:0,0:0:0:0:
114,221,34336,2,0,P|147:223|222:276,1,120.000004577637,2|2,0:1|3:2,0:0:0:0:
220,281,34586,1,0,0:0:0:0:
220,293,34670,1,2,0:1:0:0:
221,304,34753,6,0,P|266:249|383:247,1,180.000006866455,0|10,3:0|0:3,0:0:0:0:
403,315,35170,1,2,3:3:0:0:
295,362,35336,1,6,3:3:0:0:
417,325,35503,1,10,0:0:0:0:
295,381,35670,1,2,0:1:0:0:
221,303,35836,6,0,P|160:367|72:367,1,180.000006866455,2|0,3:2|3:0,0:0:0:0:
72,367,36170,2,0,L|57:290,1,60.0000022888184,8|0,0:0|0:0,0:0:0:0:
108,250,36336,2,0,L|110:176,1,60.0000022888184,2|0,0:1|0:0,0:0:0:0:
26,92,36503,6,0,L|153:118,1,120.000004577637,0|2,3:0|3:1,0:0:0:0:
240,134,36836,1,8,0:0:0:0:
205,46,37003,1,2,0:1:0:0:
205,46,37086,1,2,0:0:0:0:
205,46,37170,2,0,L|85:21,1,120.000004577637,2|2,3:2|0:1,0:0:0:0:
75,24,37420,1,0,3:0:0:0:
64,30,37503,1,8,0:0:0:0:
36,121,37670,6,0,L|28:179,2,47.9999985351563,10|8|0,0:3|0:3|3:0,0:0:0:0:
138,129,38003,5,10,0:0:0:0:
240,134,38170,5,10,0:0:0:0:
240,134,38503,6,0,B|263:145|283:169|283:169|331:127|307:48,1,180.000006866455,6|0,3:2|3:0,0:0:0:0:
309,55,38836,2,0,L|244:45,1,60.0000022888184,8|0,0:0|0:0,0:0:0:0:
399,31,39003,2,0,L|458:11,1,60.0000022888184,6|0,3:3|0:0,0:0:0:0:
392,110,39170,6,0,P|371:178|329:230,1,120.000004577637,0|10,3:0|0:0,0:0:0:0:
476,193,39503,1,10,0:0:0:0:
476,193,39670,1,2,0:1:0:0:
494,315,39836,2,0,P|435:305|366:318,1,120.000004577637,2|2,3:2|0:1,0:0:0:0:
368,324,40086,1,0,3:0:0:0:
358,331,40170,6,0,P|274:347|222:334,1,120.000004577637,8|10,0:0|0:3,0:0:0:0:
236,329,40420,1,8,0:3:0:0:
233,317,40503,2,0,L|232:232,1,60.0000022888184,2|0,3:3|0:0,0:0:0:0:
139,199,40670,2,0,L|138:284,1,60.0000022888184,6|0,3:3|0:0,0:0:0:0:
43,336,40836,2,0,L|42:251,1,60.0000022888184,10|2,0:0|0:0,0:0:0:0:
39,179,41003,1,2,3:2:0:0:
39,179,41170,6,0,P|114:171|229:49,1,240.000009155274,6|8,3:2|0:0,0:0:0:0:
260,45,41670,2,0,P|229:113|277:274,1,240.000009155274,6|8,3:2|0:0,0:0:0:0:
265,303,42170,2,0,P|220:242|57:203,1,240.000009155274,6|8,3:2|0:0,0:0:0:0:
64,360,42670,5,6,3:2:0:0:
98,281,42836,1,8,0:0:0:0:
67,200,43003,1,8,0:0:0:0:
105,119,43170,2,0,L|206:113,1,80,6|0,3:2|0:0,0:0:0:0:
39,49,43503,6,0,L|0:57,3,40,10|10|10|10,0:0|0:0|0:0|0:0,0:0:0:0:
130,16,43836,6,0,B|181:1|199:25|204:32|210:40|232:67|293:51,1,155.999992858887,6|0,3:2|0:0,0:0:0:0:
350,13,44170,2,0,P|315:77|317:176,1,155.999992858887,2|0,3:3|0:0,0:0:0:0:
387,195,44503,2,0,L|226:223,1,155.999992858887,2|0,3:3|0:0,0:0:0:0:
153,247,44836,2,0,L|339:300,1,155.999992858887,2|0,3:3|0:0,0:0:0:0:
303,289,45170,6,0,P|299:361|367:345,1,155.999992858887,6|0,3:2|0:0,0:0:0:0:
416,298,45503,2,0,P|408:237|425:183,1,103.999995239258,2|8,3:3|0:0,0:0:0:0:
475,72,45836,6,0,B|445:73|422:102|422:102|371:103|340:59,1,155.999992858887,6|8,3:2|0:0,0:0:0:0:
278,11,46170,2,0,B|211:2|211:2|161:31,1,103.999995239258,2|8,3:3|0:0,0:0:0:0:
49,127,46503,6,0,P|136:119|252:97,1,180.000006866455,6|0,3:2|0:0,0:0:0:0:
228,187,46836,6,0,P|151:194|49:213,1,155.999992858887,2|0,3:3|0:0,0:0:0:0:
94,283,47170,6,0,P|157:277|242:261,1,132.00000402832,2|0,3:3|0:0,0:0:0:0:
224,350,47503,6,0,P|170:354|98:368,1,107.999996704102,2|0,3:3|0:0,0:0:0:0:
33,350,47836,5,2,3:3:0:0:
224,265,48003,1,0,3:0:0:0:
154,171,48170,2,0,P|98:183|35:211,1,103.999995239258,10|0,0:0|3:2,0:0:0:0:
305,337,48503,2,0,P|323:288|334:237,1,103.999995239258,10|8,0:0|0:0,0:0:0:0:
480,46,48836,5,10,0:0:0:0:
489,74,48920,1,10,0:0:0:0:
494,103,49003,1,10,0:0:0:0:
494,132,49086,1,10,0:0:0:0:
489,163,49170,2,0,P|437:140|387:140,1,88.000002685547,6|8,3:2|0:0,0:0:0:0:
292,153,49503,1,2,0:3:0:0:
209,42,49670,6,0,B|252:92|252:92|231:220,1,176.000005371094,0|0,3:0|3:2,0:0:0:0:
153,250,50170,2,0,L|63:235,1,88.000002685547,2|10,3:3|0:0,0:0:0:0:
238,285,50503,2,0,P|244:227|225:188,1,88.000002685547,2|0,0:3|3:2,0:0:0:0:
156,332,50836,2,0,P|196:373|323:327,1,176.000005371094,10|2,0:0|3:3,0:0:0:0:
326,282,51336,1,8,0:0:0:0:
326,282,51503,6,0,P|326:190|389:97,1,176.000005371094,2|10,0:3|0:0,0:0:0:0:
512,77,52003,5,0,3:2:0:0:
425,68,52170,2,0,L|520:78,1,88.000002685547,2|8,3:3|0:0,0:0:0:0:
272,52,52503,2,0,L|342:0,1,88.000002685547,2|0,0:3|3:2,0:0:0:0:
164,117,52836,2,0,L|154:29,1,88.000002685547,10|10,0:0|0:0,0:0:0:0:
46,171,53170,6,0,L|217:245,1,176.000005371094,6|2,3:2|3:3,0:0:0:0:
216,360,53670,2,0,L|336:269,1,132.00000402832,8|0,0:0|0:0,0:0:0:0:
321,280,54003,1,0,0:0:0:0:
325,133,54170,5,2,3:3:0:0:
325,133,54336,2,0,B|296:109|284:79|284:79|169:133|217:281,1,264.000008056641,8|2,0:0|0:3,0:0:0:0:
325,284,55003,6,0,B|400:269|400:269|408:272|408:272|413:266|413:266|501:249,1,176.000005371094,6|0,3:2|0:0,0:0:0:0:
206,240,55503,2,0,B|130:254|130:254|122:251|122:251|117:257|117:257|29:274,1,176.000005371094,6|2,3:2|0:0,0:0:0:0:
206,240,56170,6,0,B|125:255|125:255|120:261|120:261|112:258|112:258|36:272,1,176.000005371094,6|2,3:2|3:2,0:0:0:0:
325,284,56670,2,0,B|406:268|406:268|411:262|411:262|419:265|419:265|494:250,1,176.000005371094,6|2,3:2|3:2,0:0:0:0:
108,166,57170,5,10,0:0:0:0:
108,166,57502,6,0,P|173:132|271:171,1,155.999992858887,6|0,3:2|0:0,0:0:0:0:
294,223,57835,2,0,P|279:142|317:76,1,155.999992858887,2|0,3:3|0:0,0:0:0:0:
372,18,58168,2,0,P|287:49|210:26,1,155.999992858887,2|0,3:3|0:0,0:0:0:0:
147,0,58502,2,0,P|122:70|15:101,1,155.999992858887,2|0,3:3|0:0,0:0:0:0:
53,105,58835,6,0,L|67:275,1,155.999992858887,6|0,3:2|0:0,0:0:0:0:
76,341,59168,2,0,P|124:326|180:357,1,103.999995239258,2|8,3:3|0:0,0:0:0:0:
311,372,59502,6,0,B|269:344|304:280|387:286|410:357,1,155.999992858887,6|8,3:2|0:0,0:0:0:0:
460,367,59835,2,0,P|474:320|523:274,1,103.999995239258,2|8,3:3|0:0,0:0:0:0:
512,123,60168,6,0,P|425:115|309:93,1,180.000006866455,6|0,3:2|0:0,0:0:0:0:
336,184,60502,6,0,P|409:190|507:209,1,155.999992858887,2|0,3:3|0:0,0:0:0:0:
467,279,60835,6,0,P|403:273|318:257,1,132.00000402832,2|0,3:3|0:0,0:0:0:0:
337,344,61168,6,0,P|390:348|462:362,1,107.999996704102,2|0,3:3|0:0,0:0:0:0:
256,302,61501,5,2,3:3:0:0:
207,368,61668,1,0,3:0:0:0:
103,326,61835,2,0,L|-13:316,1,103.999995239258,10|0,0:0|3:2,0:0:0:0:
200,183,62168,2,0,L|168:303,1,103.999995239258,10|8,0:0|0:0,0:0:0:0:
112,67,62501,5,10,0:0:0:0:
155,52,62584,1,10,0:0:0:0:
195,37,62667,1,10,0:0:0:0:
237,23,62751,1,10,0:0:0:0:
278,9,62835,6,0,L|301:114,1,80,6|8,3:2|0:0,0:0:0:0:
181,263,63168,1,2,0:3:0:0:
52,131,63335,2,0,L|78:302,1,160,0|0,3:0|3:2,0:0:0:0:
191,360,63835,1,2,3:3:0:0:
97,377,64001,1,10,0:0:0:0:
181,263,64168,6,0,B|259:253|277:306|279:317|281:328|303:384|399:366,1,240,2|0,0:3|0:0,0:0:0:0:
487,337,64835,1,2,3:3:0:0:
487,337,65168,6,0,L|426:174,1,160,2|10,0:3|0:0,0:0:0:0:
430,187,65668,1,0,3:2:0:0:
482,114,65835,2,0,L|396:100,1,80,2|8,3:3|0:0,0:0:0:0:
368,15,66168,6,0,L|313:82,1,80,2|0,0:3|3:2,0:0:0:0:
225,64,66501,2,0,L|256:145,1,80,10|0,0:0|3:2,0:0:0:0:
168,209,66835,2,0,L|346:237,1,160,2|2,3:3|3:3,0:0:0:0:
225,64,67335,6,0,L|243:111,2,40,8|0|10,0:0|0:0|1:3,0:0:0:0:
135,78,67668,6,0,L|129:121,2,40,4|4|10,1:3|1:3|1:3,0:0:0:0:
58,156,68001,5,6,1:3:0:0:
58,156,68085,1,4,1:3:0:0:
58,156,68169,6,0,P|40:204|45:303,1,136.000002593994,6|2,3:2|0:1,0:0:0:0:
99,349,68669,2,0,P|161:335|251:344,1,136.000002593994,0|0,3:0|3:0,0:0:0:0:
301,376,69169,2,0,P|362:355|448:350,1,136.000002593994,2|2,3:1|0:1,0:0:0:0:
511,361,69669,1,0,3:0:0:0:
484,280,69835,1,2,0:1:0:0:
432,348,70002,1,0,3:0:0:0:
405,267,70169,6,0,P|348:279|263:269,1,136.000002593994,2|2,1:1|0:1,0:0:0:0:
215,216,70669,1,0,3:0:0:0:
271,150,70835,2,0,L|283:69,1,68.0000012969971,2|0,0:1|0:0,0:0:0:0:
244,3,71169,1,6,3:2:0:0:
388,17,71335,5,10,0:0:0:0:
373,47,71418,1,0,0:0:0:0:
364,80,71502,2,0,L|406:95,1,34.0000006484985,8|8,1:3|1:3,0:0:0:0:
460,152,71669,2,0,L|418:166,1,34.0000006484985,4|4,1:3|1:3,0:0:0:0:
370,211,71835,5,2,1:0:0:0:
370,211,72169,6,0,P|285:193|187:264,1,176.000005371094,6|2,3:2|3:1,0:0:0:0:
139,325,72669,1,0,3:2:0:0:
31,285,72835,2,0,L|7:194,1,88.000002685547,10|0,0:0|0:0,0:0:0:0:
87,56,73169,2,0,L|82:162,1,88.000002685547,2|8,3:1|0:0,0:0:0:0:
213,34,73502,2,0,L|218:140,1,88.000002685547,2|2,0:1|3:2,0:0:0:0:
371,190,73835,6,0,L|363:3,1,176.000005371094,10|2,0:0|3:1,0:0:0:0:
451,86,74335,1,0,0:0:0:0:
294,205,74502,2,0,L|201:196,1,88.000002685547,2|0,0:1|3:2,0:0:0:0:
451,86,74835,2,0,L|455:181,1,88.000002685547,10|0,0:0|0:0,0:0:0:0:
376,275,75169,2,0,L|352:362,1,88.000002685547,2|8,3:1|0:0,0:0:0:0:
488,288,75502,5,2,0:1:0:0:
132,334,75835,5,10,0:0:0:0:
114,336,75918,1,0,0:0:0:0:
96,340,76002,1,10,0:0:0:0:
79,346,76085,1,10,0:0:0:0:
62,352,76168,6,0,B|44:279|84:227|84:227|97:249|119:268,1,176.000005371094,6|2,3:2|0:1,0:0:0:0:
190,310,76668,2,0,P|228:271|358:244,1,176.000005371094,0|0,3:2|0:0,0:0:0:0:
497,266,77168,1,2,3:1:0:0:
411,279,77335,2,0,P|357:211|375:98,1,176.000005371094,8|0,0:0|3:2,0:0:0:0:
408,26,77835,2,0,P|348:46|304:46,1,88.000002685547,10|0,0:0|0:0,0:0:0:0:
221,110,78168,5,10,0:0:0:0:
162,58,78280,5,10,0:0:0:0:
81,55,78391,5,10,0:0:0:0:
12,94,78502,6,0,L|-1:36,2,58.6666684570313,10|10|10,0:0|0:0|0:0,0:0:0:0:
128,152,78835,6,0,L|115:210,2,58.6666684570313,8|8|8,1:3|1:3|1:3,0:0:0:0:
4,211,79168,6,0,P|42:287|226:249,1,300.000011444092,6|0,3:2|0:0,0:0:0:0:
223,253,80502,5,2,0:0:0:0:
273,192,80668,2,0,L|320:199,2,30.0000011444092,2|2|2,0:0|0:0|0:0,0:0:0:0:
245,118,81002,1,2,0:0:0:0:
166,105,81168,1,2,0:0:0:0:
115,166,81335,1,2,0:0:0:0:
142,240,81502,1,2,0:0:0:0:
142,240,81834,6,0,L|145:289,1,40,2|0,3:3|0:0,0:0:0:0:
109,324,82001,6,0,P|188:284|292:309,1,191.999994140625,14|2,1:2|3:3,0:0:0:0:
305,318,82417,1,0,3:3:0:0:
328,323,82500,6,0,P|253:274|223:172,1,191.999994140625,14|2,1:2|3:3,0:0:0:0:
222,156,82916,1,0,3:3:0:0:
218,131,83001,6,0,P|213:219|139:296,1,191.999994140625,14|2,1:2|3:3,0:0:0:0:
126,307,83417,1,0,3:3:0:0:
109,324,83501,6,0,P|188:284|292:309,1,191.999994140625,14|6,1:2|3:2,0:0:0:0:
456,109,84002,6,0,L|442:191,1,47.9999985351563,10|0,0:0|0:0,0:0:0:0:
328,104,84168,2,0,L|401:142,1,47.9999985351563,10|0,0:0|0:0,0:0:0:0:
283,224,84335,2,0,L|342:165,1,47.9999985351563,10|0,0:0|0:0,0:0:0:0:
383,303,84502,2,0,L|346:228,1,47.9999985351563,2|0,3:3|0:0,0:0:0:0:
457,247,84668,6,0,L|358:261,1,95.9999970703126,14|0,1:2|0:0,0:0:0:0:
207,279,85002,1,2,3:3:0:0:
207,279,85085,1,0,0:0:0:0:
207,279,85168,2,0,B|190:259|190:259|175:269|175:269|168:257|168:257|151:257|151:257|144:249|144:249|123:253|123:253|76:238,1,120.000004577637,14|0,1:2|0:0,0:0:0:0:
36,286,85418,2,0,B|38:258|38:258|50:247|50:247|62:234|62:234|55:218|55:218|65:204|65:204|62:189|62:189|71:173|71:173|64:152|64:152|75:135|75:135|71:102,1,180.000006866455,0|14,0:0|1:2,0:0:0:0:
35,61,85752,2,0,B|56:66|56:66|69:61|69:61|76:72|76:72|88:67|88:67|100:77|100:77|113:73|113:73|141:77,1,120.000004577637,0|0,3:2|0:0,0:0:0:0:
189,69,86002,2,0,B|196:79|196:79|201:91|201:91|210:93|210:93|210:107|210:107|223:112|223:112|225:126|225:126|242:129|242:129|247:140|247:140|308:173,1,120.000004577637,2|14,3:3|1:2,0:0:0:0:
340,129,86252,2,0,B|323:157|323:157|314:161|314:161|311:175|311:175|297:182|297:182|299:200|299:200|290:208|290:208|293:226|293:226|279:238|279:238|282:250|282:250|275:310,1,180.000006866455,0|2,3:2|3:3,0:0:0:0:
276,309,86585,1,0,0:0:0:0:
305,324,86668,5,8,1:3:0:0:
328,325,86751,1,8,1:3:0:0:
352,327,86834,1,4,1:3:0:0:
376,329,86917,1,4,1:3:0:0:
400,330,87001,1,10,0:0:0:0:
424,332,87084,1,10,0:0:0:0:
448,334,87168,6,0,P|424:256|423:184,1,120.000004577637,6|0,3:2|0:0,0:0:0:0:
435,77,87502,5,10,0:0:0:0:
296,98,87668,1,10,0:0:0:0:
460,91,87835,1,10,0:0:0:0:
277,76,88002,1,10,0:0:0:0:
