osu file format v14

[General]
AudioFilename: audio.mp3
AudioLeadIn: 0
PreviewTime: 22336
Countdown: 0
SampleSet: Soft
StackLeniency: 0.4
Mode: 0
LetterboxInBreaks: 0
WidescreenStoryboard: 1

[Editor]
Bookmarks: 45836
DistanceSpacing: 0.3
BeatDivisor: 6
GridSize: 32
TimelineZoom: 2.9

[Metadata]
Title:Lamp (TV Size)
TitleUnicode:Lamp (TV Size)
Artist:Co shu Nie
ArtistUnicode:Cö shu Nie
Creator:keeVY
Version:Hard
Source:約束のネバーランド
Tags:miku nakamura コシュニエ japanese anime female vocalist the promised neverland yakusoku no ed ending 2 door weapon xiced yugu j rock j-rock
BeatmapID:2747324
BeatmapSetID:1325620

[Difficulty]
HPDrainRate:4
CircleSize:3.6
OverallDifficulty:6.8
ApproachRate:8
SliderMultiplier:1.4
SliderTickRate:1

[Events]
//Background and Video events
0,0,"bg.png",0,0
//Break Periods
//Storyboard Layer 0 (Background)
//Storyboard Layer 1 (Fail)
//Storyboard Layer 2 (Pass)
//Storyboard Layer 3 (Foreground)
//Storyboard Layer 4 (Overlay)
//Storyboard Sound Samples

[TimingPoints]
-163,333.333333333333,4,2,1,35,1,0
1170,-200,4,2,1,35,0,0
10503,-100,4,2,1,40,0,0
11836,-166.666666666667,4,2,1,50,0,0
16002,-100,4,2,1,55,0,0
16003,-83.3333333333333,4,2,1,55,0,0
16836,-100,4,2,1,55,0,0
17170,-100,4,2,1,60,0,0
21003,-133.333333333333,4,2,1,60,0,0
21503,-100,4,2,1,40,0,0
22003,-100,4,2,1,60,0,0
22503,-83.3333333333333,4,2,1,80,0,1
22836,-83.3333333333333,4,2,1,80,0,1
27086,-83.3333333333333,4,2,1,5,0,1
27170,-83.3333333333333,4,2,1,80,0,1
27503,-100,4,2,1,80,0,0
27836,-83.3333333333333,4,2,1,80,0,1
32836,-100,4,2,1,80,0,0
33170,-83.3333333333333,4,2,1,80,0,1
33503,-83.3333333333333,4,2,1,80,0,1
37670,-83.3333333333333,4,2,1,80,0,1
38170,-100,4,2,1,80,0,0
38503,-83.3333333333333,4,2,1,80,0,1
42670,-83.3333333333333,4,2,1,80,0,1
43836,-76.9230769230769,4,2,1,75,0,0
44086,-76.9230769230769,4,2,1,5,0,0
44170,-76.9230769230769,4,2,1,75,0,0
44420,-76.9230769230769,4,2,1,5,0,0
44503,-76.9230769230769,4,2,1,75,0,0
44753,-76.9230769230769,4,2,1,5,0,0
44836,-76.9230769230769,4,2,1,75,0,0
45086,-76.9230769230769,4,2,1,5,0,0
45170,-76.9230769230769,4,2,1,75,0,0
45420,-76.9230769230769,4,2,1,5,0,0
45503,-76.9230769230769,4,2,1,75,0,0
45753,-76.9230769230769,4,2,1,5,0,0
45836,-76.9230769230769,4,2,1,75,0,0
46086,-76.9230769230769,4,2,1,5,0,0
46170,-76.9230769230769,4,2,1,75,0,0
46420,-76.9230769230769,4,2,1,5,0,0
46503,-76.9230769230769,4,2,1,75,0,0
46753,-76.9230769230769,4,2,1,5,0,0
46836,-76.9230769230769,4,2,1,75,0,0
47086,-76.9230769230769,4,2,1,5,0,0
47170,-76.9230769230769,4,2,1,75,0,0
47420,-100,4,2,1,5,0,0
47503,-100,4,2,1,75,0,0
47753,-100,4,2,1,5,0,0
47836,-83.3333333333333,4,2,1,75,0,0
49170,-90.9090909090909,4,2,1,75,0,0
53920,-100,4,2,1,5,0,0
54003,-100,4,2,1,75,0,0
55002,-100,4,2,1,65,0,0
55420,-133.333333333333,4,2,1,5,0,0
55503,-133.333333333333,4,2,1,65,0,0
56170,-100,4,2,1,65,0,0
56586,-100,4,2,1,5,0,0
56670,-133.333333333333,4,2,1,65,0,0
57502,333.333333333333,4,2,1,75,1,0
57502,-76.9230769230769,4,2,1,75,0,0
57752,-76.9230769230769,4,2,1,5,0,0
57835,-76.9230769230769,4,2,1,75,0,0
58085,-76.9230769230769,4,2,1,5,0,0
58168,-76.9230769230769,4,2,1,75,0,0
58418,-76.9230769230769,4,2,1,5,0,0
58502,-76.9230769230769,4,2,1,75,0,0
58752,-76.9230769230769,4,2,1,5,0,0
58835,-76.9230769230769,4,2,1,75,0,0
59085,-76.9230769230769,4,2,1,5,0,0
59168,-76.9230769230769,4,2,1,75,0,0
59418,-76.9230769230769,4,2,1,5,0,0
59502,-76.9230769230769,4,2,1,75,0,0
59752,-76.9230769230769,4,2,1,5,0,0
59835,-76.9230769230769,4,2,1,75,0,0
60085,-76.9230769230769,4,2,1,5,0,0
60168,-76.9230769230769,4,2,1,75,0,0
60418,-76.9230769230769,4,2,1,5,0,0
60502,-76.9230769230769,4,2,1,75,0,0
60752,-76.9230769230769,4,2,1,5,0,0
60835,-76.9230769230769,4,2,1,75,0,0
61085,-76.9230769230769,4,2,1,5,0,0
61168,-76.9230769230769,4,2,1,75,0,0
61418,-76.9230769230769,4,2,1,5,0,0
61501,-83.3333333333333,4,2,1,75,0,0
62835,-90.9090909090909,4,2,1,75,0,0
68168,333.333333333333,3,2,1,55,1,0
68168,-100,3,2,1,55,0,0
71168,-90.9090909090909,3,2,1,55,0,0
72168,-100,3,2,1,65,0,0
79168,-100,3,2,1,65,0,0
80501,-100,3,2,1,40,0,0
81834,-100,3,2,1,70,0,0
82001,-100,3,2,1,70,0,0
84667,-76.9230769230769,3,2,1,70,0,1
85168,-76.9230769230769,3,2,1,70,0,1
87167,-76.9230769230769,3,2,1,70,0,0

[Colours]
Combo1 : 255,140,140
Combo2 : 145,180,220
Combo3 : 255,180,110
Combo4 : 150,150,210

[HitObjects]
96,60,1170,6,0,B|107:118|79:176|39:182|39:182|39:145|81:125,1,210,2|0,0:0|0:0,0:0:0:0:
173,130,2503,2,0,B|289:93|239:184|373:158,1,210,2|0,0:0|0:0,0:0:0:0:
446,107,3836,2,0,B|485:61|485:61|496:222,1,210,2|0,0:0|0:0,0:0:0:0:
501,299,5170,2,0,P|455:284|284:280,1,210,2|0,0:0|0:0,0:0:0:0:
207,337,6503,6,0,P|203:240|97:217,1,210,2|0,0:0|0:0,0:0:0:0:
37,274,7836,2,0,B|26:305|-2:323|-2:323|24:247|13:179,1,210,2|0,0:0|0:0,0:0:0:0:
1,90,9170,2,0,B|114:55|68:160|208:120,1,210,2|0,0:0|0:0,0:0:0:0:
256,192,10503,1,2,0:0:0:0:
138,332,11836,6,0,L|122:245,1,83.9999974365235,2|0,3:2|3:2,0:0:0:0:
159,155,12503,2,0,L|165:111,1,41.9999987182618,0|2,3:2|0:1,0:0:0:0:
108,61,12836,2,0,L|94:18,1,41.9999987182618,0|2,3:2|0:1,0:0:0:0:
9,1,13170,6,0,L|-1:91,1,83.9999974365235,2|0,3:2|3:2,0:0:0:0:
0,184,13836,2,0,L|13:223,1,41.9999987182618,2|2,3:3|0:3,0:0:0:0:
22,303,14170,2,0,L|60:331,1,41.9999987182618,2|2,3:3|0:3,0:0:0:0:
130,375,14503,6,0,P|148:343|201:326,1,83.9999974365235,2|0,3:2|3:2,0:0:0:0:
288,364,15170,2,0,P|319:371|338:370,1,41.9999987182618,0|0,3:2|0:0,0:0:0:0:
410,359,15503,2,0,P|422:330|424:316,1,41.9999987182618,0|0,3:2|0:0,0:0:0:0:
348,270,15836,5,0,3:2:0:0:
348,270,15920,1,0,3:2:0:0:
348,270,16003,2,0,P|290:243|269:177,2,125.999996154785,14|14|14,1:2|1:2|1:2,0:0:0:0:
410,220,16670,1,10,0:0:0:0:
501,222,16836,1,8,1:3:0:0:
501,222,16920,1,8,1:3:0:0:
501,222,17003,1,4,1:3:0:0:
482,122,17170,6,0,B|396:96|425:163|327:132,1,140,6|2,3:2|3:1,0:0:0:0:
275,97,17670,1,8,0:0:0:0:
211,147,17836,2,0,L|217:225,1,70,0|0,0:0|3:2,0:0:0:0:
133,113,18170,2,0,L|116:37,1,70,10|0,0:0|0:0,0:0:0:0:
51,164,18503,6,0,P|67:222|79:293,1,105,2|0,3:1|3:2,0:0:0:0:
107,291,18836,2,0,P|129:255|160:214,1,70,2|8,3:1|0:0,0:0:0:0:
230,231,19170,2,0,P|279:238|310:236,1,70,2|0,0:1|3:2,0:0:0:0:
365,181,19503,1,10,0:0:0:0:
335,101,19670,1,0,0:0:0:0:
401,42,19836,6,0,L|518:29,2,105,2|2|10,3:3|3:3|0:0,0:0:0:0:
335,101,20503,1,0,0:0:0:0:
272,46,20670,1,0,3:2:0:0:
272,46,20753,1,0,3:2:0:0:
272,46,20836,1,10,0:0:0:0:
193,91,21003,6,0,B|214:181|147:134|175:249,1,157.500006008148,2|2,1:1|0:0,0:0:0:0:
250,318,22003,1,10,0:0:0:0:
250,318,22087,1,10,0:0:0:0:
250,318,22170,2,0,L|303:324,3,35,10|10|10|10,0:0|0:0|0:0|0:0,0:0:0:0:
326,343,22503,6,0,P|350:293|398:233,1,125.999996154785,4|0,3:1|3:0,0:0:0:0:
416,216,22836,2,0,P|402:177|393:122,1,83.9999974365235,8|2,0:0|0:1,0:0:0:0:
329,79,23170,5,0,3:0:0:0:
242,84,23336,1,10,0:0:0:0:
174,152,23503,1,10,0:0:0:0:
163,246,23670,2,0,P|174:286|180:331,1,83.9999974365235,2|2,0:1|3:2,0:0:0:0:
72,247,24003,1,2,0:1:0:0:
72,247,24086,1,0,3:0:0:0:
72,247,24170,2,0,P|64:186|55:152,1,83.9999974365235,8|10,0:0|0:3,0:0:0:0:
0,99,24503,6,0,P|16:55|27:15,1,83.9999974365235,2|6,3:3|3:3,0:0:0:0:
107,0,24836,2,0,L|158:0,1,41.9999987182618,10|0,0:0|3:0,0:0:0:0:
299,31,25170,6,0,B|294:76|294:76|290:82|290:82|282:162,1,125.999996154785,2|0,3:2|3:0,0:0:0:0:
256,172,25503,2,0,P|216:144|176:144,1,83.9999974365235,8|2,0:0|0:1,0:0:0:0:
119,203,25836,5,0,3:0:0:0:
117,289,26003,1,2,3:1:0:0:
189,350,26170,1,8,0:0:0:0:
289,343,26336,2,0,P|294:283|307:251,1,83.9999974365235,2|2,0:1|3:2,0:0:0:0:
381,226,26670,5,2,0:1:0:0:
381,226,26753,1,0,3:0:0:0:
381,226,26836,1,8,0:0:0:0:
463,230,27003,1,10,0:3:0:0:
502,155,27170,1,0,3:0:0:0:
459,86,27336,1,10,0:0:0:0:
459,86,27503,1,10,0:0:0:0:
286,16,27836,6,0,P|218:23|190:91,1,125.999996154785,6|0,3:2|3:0,0:0:0:0:
205,100,28170,2,0,P|227:132|250:174,1,83.9999974365235,8|2,0:0|3:1,0:0:0:0:
257,260,28503,5,0,3:0:0:0:
212,332,28670,1,10,0:0:0:0:
121,352,28836,1,10,0:0:0:0:
41,302,29003,2,0,P|33:256|20:213,1,83.9999974365235,2|2,0:1|3:2,0:0:0:0:
131,173,29336,1,2,0:1:0:0:
131,173,29420,1,0,3:0:0:0:
131,173,29503,2,0,P|121:227|120:259,1,83.9999974365235,8|10,0:0|0:3,0:0:0:0:
121,352,29836,5,2,3:3:0:0:
198,383,30003,1,6,3:3:0:0:
279,363,30170,2,0,P|298:332|321:315,1,41.9999987182618,10|0,0:0|3:0,0:0:0:0:
449,355,30503,6,0,B|492:372|492:372|479:245,1,167.999994873047,2|8,3:2|0:0,0:0:0:0:
466,169,31003,1,2,0:1:0:0:
398,216,31170,2,0,P|356:242|305:247,1,83.9999974365235,0|2,3:0|3:1,0:0:0:0:
241,289,31503,2,0,P|185:274|153:247,1,83.9999974365235,8|2,0:0|0:1,0:0:0:0:
140,176,31836,6,0,P|155:131|163:27,1,125.999996154785,2|0,3:2|3:0,0:0:0:0:
143,25,32170,2,0,P|92:18|50:22,1,83.9999974365235,8|10,0:0|0:3,0:0:0:0:
52,25,32420,1,8,0:3:0:0:
45,29,32503,5,0,3:0:0:0:
0,99,32670,1,10,0:0:0:0:
53,161,32836,1,10,0:0:0:0:
216,113,33170,6,0,B|286:92|270:144|342:127,1,125.999996154785,6|0,3:2|3:0,0:0:0:0:
373,105,33503,2,0,P|381:60|396:22,1,83.9999974365235,8|2,0:0|3:1,0:0:0:0:
473,1,33836,5,0,3:0:0:0:
512,75,34003,1,10,0:0:0:0:
509,165,34170,1,10,0:0:0:0:
430,220,34336,2,0,P|382:209|330:208,1,83.9999974365235,2|2,0:1|3:2,0:0:0:0:
303,283,34670,1,2,0:1:0:0:
303,283,34753,1,0,3:0:0:0:
303,283,34836,2,0,P|255:293|214:291,1,83.9999974365235,8|10,0:0|0:3,0:0:0:0:
155,238,35170,5,2,3:3:0:0:
75,243,35336,1,6,3:3:0:0:
17,299,35503,2,0,L|17:346,1,41.9999987182618,10|0,0:0|3:0,0:0:0:0:
20,170,35836,6,0,P|21:116|57:47,1,125.999996154785,2|0,3:2|3:0,0:0:0:0:
85,51,36170,2,0,P|126:67|165:67,1,83.9999974365235,8|2,0:0|0:1,0:0:0:0:
239,99,36503,5,0,3:0:0:0:
173,155,36670,1,2,3:1:0:0:
184,244,36836,1,8,0:0:0:0:
274,264,37003,2,0,P|319:253|361:252,1,83.9999974365235,2|2,0:1|3:2,0:0:0:0:
440,286,37336,5,2,0:1:0:0:
440,286,37420,1,0,3:0:0:0:
440,286,37503,1,8,0:0:0:0:
485,216,37670,1,10,0:3:0:0:
439,147,37836,1,0,3:0:0:0:
363,173,38003,1,10,0:0:0:0:
363,173,38170,1,10,0:0:0:0:
276,25,38503,6,0,P|268:73|178:86,1,125.999996154785,6|0,3:2|3:0,0:0:0:0:
176,69,38836,2,0,P|125:43|83:47,1,83.9999974365235,8|6,0:0|3:3,0:0:0:0:
33,89,39170,5,0,3:0:0:0:
10,172,39336,1,10,0:0:0:0:
64,245,39503,1,10,0:0:0:0:
159,239,39670,2,0,P|197:227|246:220,1,83.9999974365235,2|2,0:1|3:2,0:0:0:0:
325,265,40003,5,2,0:1:0:0:
325,265,40086,1,0,3:0:0:0:
325,265,40170,1,8,0:0:0:0:
319,346,40336,1,10,0:3:0:0:
399,380,40503,6,0,P|447:355|482:341,1,83.9999974365235,2|6,3:3|3:3,0:0:0:0:
482,344,40753,1,8,0:0:0:0:
490,343,40836,2,0,P|478:297|475:237,1,83.9999974365235,10|2,0:0|3:2,0:0:0:0:
417,194,41170,6,0,P|357:189|330:83,1,167.999994873047,6|8,3:2|0:0,0:0:0:0:
385,38,41670,2,0,P|445:43|472:149,1,167.999994873047,6|8,3:2|0:0,0:0:0:0:
417,194,42170,2,0,P|373:238|358:263,1,83.9999974365235,6|0,3:2|3:2,0:0:0:0:
321,330,42503,2,0,P|276:318|220:318,1,83.9999974365235,8|6,0:0|3:2,0:0:0:0:
161,364,42836,5,0,0:0:0:0:
81,373,43003,1,8,0:0:0:0:
21,315,43170,2,0,B|16:281|16:281|18:275|18:275|13:213,1,83.9999974365235,6|8,3:2|0:0,0:0:0:0:
11,140,43503,1,10,0:0:0:0:
11,140,43586,1,10,0:0:0:0:
11,140,43670,1,10,0:0:0:0:
92,195,43836,6,0,P|150:243|261:201,3,181.999991668702,6|2|2|2,3:2|3:3|3:3|3:3,0:0:0:0:
288,151,45003,1,0,0:0:0:0:
375,132,45170,6,0,P|358:201|362:300,1,136.499993751526,6|0,3:2|0:0,0:0:0:0:
386,301,45503,2,0,P|418:261|454:244,1,90.9999958343508,2|0,3:3|0:0,0:0:0:0:
512,177,45836,6,0,P|483:126|476:32,1,136.499993751526,6|0,3:2|0:0,0:0:0:0:
461,1,46170,2,0,P|427:41|388:61,1,90.9999958343508,2|0,3:3|0:0,0:0:0:0:
306,49,46503,6,0,B|202:25|242:116|129:81,1,181.999991668702,6|2,3:2|3:3,0:0:0:0:
50,69,47003,1,8,0:0:0:0:
25,152,47170,2,0,B|129:128|89:219|198:194,1,181.999991668702,2|2,3:3|3:3,0:0:0:0:
337,163,47836,6,0,P|320:209|317:257,1,83.9999974365235,2|0,3:3|3:0,0:0:0:0:
285,337,48170,2,0,P|257:299|222:275,1,83.9999974365235,10|0,0:0|3:2,0:0:0:0:
161,325,48503,1,10,0:0:0:0:
81,332,48670,1,8,0:0:0:0:
21,279,48836,1,10,0:0:0:0:
21,279,48920,1,10,0:0:0:0:
21,279,49003,1,10,0:0:0:0:
57,198,49170,6,0,P|67:162|76:114,1,77.0000023498536,6|8,3:2|0:0,0:0:0:0:
75,35,49503,1,2,0:3:0:0:
162,71,49670,2,0,P|156:133|174:232,1,154.000004699707,0|0,3:0|3:2,0:0:0:0:
237,281,50170,5,2,3:3:0:0:
316,293,50336,1,10,0:0:0:0:
386,251,50503,2,0,P|374:204|370:166,1,77.0000023498536,2|0,0:3|3:2,0:0:0:0:
282,149,50836,2,0,P|297:91|355:16,1,154.000004699707,10|2,0:0|3:3,0:0:0:0:
431,15,51336,1,8,0:0:0:0:
501,66,51503,6,0,P|489:118|488:223,1,154.000004699707,2|10,0:3|0:0,0:0:0:0:
512,294,52003,1,0,3:2:0:0:
449,348,52170,2,0,P|396:327|361:328,1,77.0000023498536,2|8,3:3|0:0,0:0:0:0:
296,366,52503,2,0,P|251:373|206:366,1,77.0000023498536,2|0,0:3|3:2,0:0:0:0:
138,336,52836,2,0,B|136:305|136:305|137:299|137:299|134:245,1,77.0000023498536,10|10,0:0|0:0,0:0:0:0:
213,216,53170,6,0,B|216:268|216:268|214:278|214:278|219:370,1,154.000004699707,6|2,3:2|3:3,0:0:0:0:
138,336,53670,2,0,P|79:315|64:228,1,154.000004699707,8|0,0:0|0:0,0:0:0:0:
125,177,54170,1,2,3:3:0:0:
100,103,54336,2,0,P|67:48|2:7,1,140,8|0,0:0|3:2,0:0:0:0:
164,51,55003,6,0,P|203:29|332:53,1,175,6|0,3:2|0:0,0:0:0:0:
341,80,55503,2,0,P|282:86|230:124,1,105.000004005432,6|0,3:2|0:0,0:0:0:0:
187,274,56170,6,0,P|209:235|333:191,1,175,6|0,3:2|0:0,0:0:0:0:
354,210,56670,2,0,P|305:244|279:303,1,105.000004005432,6|2,3:2|3:2,0:0:0:0:
314,362,57170,5,10,0:0:0:0:
483,247,57503,6,0,P|449:326|372:293,3,181.999991668702,6|2|2|2,3:2|3:3|3:3|3:3,0:0:0:0:
350,220,58668,1,0,0:0:0:0:
267,213,58835,6,0,B|193:203|223:261|138:247,1,136.499993751526,6|0,3:2|0:0,0:0:0:0:
109,223,59168,2,0,P|97:172|69:126,1,90.9999958343508,2|0,3:3|0:0,0:0:0:0:
147,77,59502,6,0,B|220:67|191:125|275:111,1,136.499993751526,6|0,3:2|0:0,0:0:0:0:
305,87,59835,2,0,P|317:36|345:-10,1,90.9999958343508,2|0,3:3|0:0,0:0:0:0:
426,10,60168,6,0,P|415:68|419:203,1,181.999991668702,6|2,3:2|3:3,0:0:0:0:
477,249,60668,1,8,0:0:0:0:
442,319,60835,2,0,P|391:304|292:325,1,136.499993751526,2|0,3:3|0:0,0:0:0:0:
266,339,61168,2,0,P|251:285|226:241,1,90.9999958343508,2|8,3:3|0:0,0:0:0:0:
145,248,61501,5,2,3:3:0:0:
69,280,61668,1,0,3:0:0:0:
3,225,61835,2,0,B|1:197|1:197|3:194|3:194|-1:133,1,83.9999974365235,10|0,0:0|3:2,0:0:0:0:
67,97,62168,2,0,B|72:69|72:69|75:67|75:67|86:7,1,83.9999974365235,10|8,0:0|0:0,0:0:0:0:
176,0,62501,1,10,0:0:0:0:
176,0,62585,1,10,0:0:0:0:
176,0,62668,1,10,0:0:0:0:
208,74,62835,6,0,P|209:116|217:161,1,77.0000023498536,6|8,3:2|0:0,0:0:0:0:
291,187,63168,1,2,0:3:0:0:
346,124,63335,2,0,P|383:112|474:176,1,154.000004699707,0|0,3:0|3:2,0:0:0:0:
505,243,63835,2,0,P|487:284|480:328,1,77.0000023498536,2|10,3:3|0:0,0:0:0:0:
410,372,64168,2,0,P|393:308|246:296,1,231.000007049561,2|0,0:3|0:0,0:0:0:0:
228,368,64835,1,2,3:3:0:0:
80,382,65168,6,0,B|68:334|68:334|79:307|79:307|64:227,1,154.000004699707,2|10,0:3|0:0,0:0:0:0:
56,152,65668,1,0,3:2:0:0:
148,201,65835,2,0,P|191:221|246:220,1,77.0000023498536,2|8,3:3|0:0,0:0:0:0:
307,203,66168,6,0,P|310:166|321:115,1,77.0000023498536,2|0,0:3|3:2,0:0:0:0:
238,57,66501,2,0,P|235:94|224:145,1,77.0000023498536,10|0,0:0|3:2,0:0:0:0:
148,201,66835,2,0,P|140:124|121:45,1,154.000004699707,2|2,3:3|3:3,0:0:0:0:
62,2,67335,1,8,0:0:0:0:
6,79,67501,6,0,P|17:125|22:160,1,77.0000023498536,10|4,1:3|1:3,0:0:0:0:
97,207,67835,2,0,L|152:200,2,51.3333348999024,10|8|0,1:3|0:3|0:0,0:0:0:0:
62,295,68168,6,0,P|54:347|125:338,1,140,6|2,3:2|0:1,0:0:0:0:
186,296,68668,2,0,P|237:276|339:313,1,140,0|0,3:0|3:0,0:0:0:0:
384,348,69168,1,2,3:1:0:0:
455,317,69334,2,0,P|456:265|484:164,1,140,0|0,0:0|3:0,0:0:0:0:
385,121,69834,6,0,P|393:161|391:197,1,70,2|0,0:1|3:0,0:0:0:0:
299,239,70168,2,0,P|307:199|305:163,1,70,2|0,1:1|3:0,0:0:0:0:
216,122,70501,2,0,P|224:162|222:198,1,70,2|0,0:1|3:0,0:0:0:0:
130,240,70835,2,0,P|138:200|136:164,1,70,2|0,0:1|0:0,0:0:0:0:
42,152,71168,6,0,P|31:181|26:198,3,38.5000011749268,6|0|10|0,3:2|0:0|0:0|0:0,0:0:0:0:
39,232,71501,2,0,P|50:261|55:278,3,38.5000011749268,8|8|4|4,1:3|1:3|1:3|1:3,0:0:0:0:
35,315,71834,1,2,1:0:0:0:
169,334,72168,6,0,B|219:311|269:357|269:357|243:363|228:335,1,140,6|2,3:2|3:1,0:0:0:0:
235,254,72668,2,0,P|246:202|324:155,1,140,0|0,3:2|0:0,0:0:0:0:
393,182,73168,2,0,P|378:231|380:268,1,70,2|8,3:1|0:0,0:0:0:0:
372,332,73501,2,0,P|406:369|439:386,1,70,2|2,0:1|3:2,0:0:0:0:
510,360,73834,6,0,P|482:314|472:203,1,140,10|2,0:0|3:1,0:0:0:0:
479,150,74334,1,0,0:0:0:0:
393,182,74501,6,0,P|378:231|380:268,1,70,2|0,0:1|3:2,0:0:0:0:
301,307,74835,2,0,P|286:258|288:221,1,70,10|0,0:0|0:0,0:0:0:0:
210,186,75168,1,2,3:1:0:0:
115,345,75502,6,0,P|82:339|52:308,1,70,2|0,3:1|3:2,0:0:0:0:
78,236,75834,1,10,0:0:0:0:
35,162,76001,5,10,0:0:0:0:
35,162,76084,1,10,0:0:0:0:
35,162,76167,2,0,B|57:90|-21:121|18:22,1,140,6|2,3:2|0:1,0:0:0:0:
99,15,76667,2,0,P|126:80|201:78,1,140,0|0,3:2|0:0,0:0:0:0:
266,73,77167,1,2,3:1:0:0:
338,31,77334,2,0,B|364:0|364:0|374:114,1,140,8|0,0:0|3:2,0:0:0:0:
383,184,77834,2,0,P|335:182|295:207,1,70,10|0,0:0|0:0,0:0:0:0:
256,259,78167,6,0,L|267:330,2,46.6666666666667,10|10|10,0:0|0:0|0:0,0:0:0:0:
189,206,78501,2,0,L|200:135,2,46.6666666666667,10|10|10,0:0|0:0|0:0,0:0:0:0:
134,273,78834,2,0,L|145:344,2,46.6666666666667,8|8|8,1:3|1:3|1:3,0:0:0:0:
67,223,79167,5,6,3:2:0:0:
436,70,80501,5,2,0:0:0:0:
380,139,80667,2,0,L|384:183,2,35,2|2|2,0:0|0:0|0:0,0:0:0:0:
322,76,81001,1,2,0:0:0:0:
268,141,81167,2,0,P|235:154|198:148,1,70,2|2,0:0|0:0,0:0:0:0:
147,88,81501,1,2,0:0:0:0:
0,170,81834,5,2,3:3:0:0:
0,170,81917,1,0,3:3:0:0:
0,170,82001,2,0,P|9:221|22:335,1,140,14|2,1:2|3:3,0:0:0:0:
69,342,82417,1,0,3:3:0:0:
69,342,82501,2,0,P|78:291|91:177,1,140,14|2,1:2|3:3,0:0:0:0:
132,167,82917,5,0,3:3:0:0:
132,167,83001,2,0,P|141:218|154:332,1,140,14|2,1:2|3:3,0:0:0:0:
201,339,83417,1,0,3:3:0:0:
201,339,83501,2,0,P|210:288|223:174,1,140,14|2,1:2|3:3,0:0:0:0:
297,253,84001,5,10,0:0:0:0:
345,185,84167,1,10,0:0:0:0:
399,250,84334,1,10,0:0:0:0:
454,183,84501,1,2,3:3:0:0:
507,252,84667,6,0,P|507:328|428:353,1,136.499993751526,14|0,1:2|0:0,0:0:0:0:
424,352,85001,2,0,P|371:333|291:362,1,136.499993751526,2|0,3:3|3:2,0:0:0:0:
186,354,85417,6,0,B|153:312|168:270|168:270|209:232,1,136.499993751526,0|14,0:0|1:2,0:0:0:0:
243,242,85751,2,0,B|270:246|270:246|280:244|280:244|290:248|290:248|302:247|302:247|312:250|312:250|323:247|323:247|334:253,1,90.9999958343508,0|0,3:2|0:0,0:0:0:0:
362,260,86001,1,2,3:3:0:0:
324,144,86251,6,0,B|290:139|290:139|281:144|281:144|232:138,1,90.9999958343508,0|0,3:2|0:0,0:0:0:0:
206,120,86501,2,0,B|202:78|203:63|203:63|213:54|203:37|198:33|172:19|172:19|132:35|98:11,1,181.999991668702,2|4,3:3|1:3,0:0:0:0:
40,70,87001,5,10,0:0:0:0:
55,151,87167,2,0,B|60:186|60:186|64:192|64:192|75:266,1,90.9999958343508,6|0,3:2|0:0,0:0:0:0:
146,291,87501,5,10,0:0:0:0:
225,278,87667,1,10,0:0:0:0:
302,265,87834,1,10,0:0:0:0:
379,253,88001,1,10,0:0:0:0:
