osu file format v14

[General]
AudioFilename: audio.mp3
AudioLeadIn: 0
PreviewTime: 22336
Countdown: 0
SampleSet: Soft
StackLeniency: 0.4
Mode: 0
LetterboxInBreaks: 0
WidescreenStoryboard: 1

[Editor]
Bookmarks: 45836
DistanceSpacing: 0.9
BeatDivisor: 2
GridSize: 32
TimelineZoom: 1.2

[Metadata]
Title:Lamp (TV Size)
TitleUnicode:Lamp (TV Size)
Artist:Co shu Nie
ArtistUnicode:Cö shu Nie
Creator:keeVY
Version:Easy
Source:約束のネバーランド
Tags:miku nakamura コシュニエ japanese anime female vocalist the promised neverland yakusoku no ed ending 2 door weapon xiced yugu j rock j-rock
BeatmapID:2747493
BeatmapSetID:1325620

[Difficulty]
HPDrainRate:3
CircleSize:3.2
OverallDifficulty:4
ApproachRate:5
SliderMultiplier:0.9
SliderTickRate:1

[Events]
//Background and Video events
0,0,"bg.png",0,0
//Break Periods
//Storyboard Layer 0 (Background)
//Storyboard Layer 1 (Fail)
//Storyboard Layer 2 (Pass)
//Storyboard Layer 3 (Foreground)
//Storyboard Layer 4 (Overlay)
//Storyboard Sound Samples

[TimingPoints]
-163,333.333333333333,4,2,1,35,1,0
1170,-100,4,2,1,35,0,0
10503,-100,4,2,1,40,0,0
11836,-100,4,2,1,50,0,0
16002,-100,4,2,1,55,0,0
16003,-100,4,2,1,55,0,0
16836,-100,4,2,1,55,0,0
17170,-100,4,2,1,60,0,0
21003,-100,4,2,1,60,0,0
21503,-100,4,2,1,40,0,0
22003,-100,4,2,1,60,0,0
22503,-100,4,2,1,80,0,1
22836,-100,4,2,1,80,0,1
27086,-100,4,2,1,5,0,1
27170,-100,4,2,1,80,0,1
27503,-100,4,2,1,80,0,0
27836,-100,4,2,1,80,0,1
32836,-100,4,2,1,80,0,0
33170,-100,4,2,1,80,0,1
33503,-100,4,2,1,80,0,1
37670,-100,4,2,1,80,0,1
38170,-100,4,2,1,80,0,0
38503,-100,4,2,1,80,0,1
42670,-100,4,2,1,80,0,1
43836,-100,4,2,1,75,0,0
44086,-100,4,2,1,5,0,0
44170,-100,4,2,1,75,0,0
44420,-100,4,2,1,5,0,0
44503,-100,4,2,1,75,0,0
44753,-100,4,2,1,5,0,0
44836,-100,4,2,1,75,0,0
45086,-100,4,2,1,5,0,0
45170,-100,4,2,1,75,0,0
45420,-100,4,2,1,5,0,0
45503,-100,4,2,1,75,0,0
45753,-100,4,2,1,5,0,0
45836,-100,4,2,1,75,0,0
46086,-100,4,2,1,5,0,0
46170,-100,4,2,1,75,0,0
46420,-100,4,2,1,5,0,0
46503,-100,4,2,1,75,0,0
46753,-100,4,2,1,5,0,0
46836,-100,4,2,1,75,0,0
47086,-100,4,2,1,5,0,0
47170,-100,4,2,1,75,0,0
47420,-100,4,2,1,5,0,0
47503,-100,4,2,1,75,0,0
47753,-100,4,2,1,5,0,0
47836,-100,4,2,1,75,0,0
49170,-100,4,2,1,75,0,0
53920,-100,4,2,1,5,0,0
54003,-100,4,2,1,75,0,0
55002,-100,4,2,1,65,0,0
55420,-100,4,2,1,5,0,0
55503,-100,4,2,1,65,0,0
56170,-100,4,2,1,65,0,0
56586,-100,4,2,1,5,0,0
56670,-100,4,2,1,65,0,0
57502,333.333333333333,4,2,1,75,1,0
57502,-100,4,2,1,75,0,0
57752,-100,4,2,1,5,0,0
57835,-100,4,2,1,75,0,0
58085,-100,4,2,1,5,0,0
58168,-100,4,2,1,75,0,0
58418,-100,4,2,1,5,0,0
58502,-100,4,2,1,75,0,0
58752,-100,4,2,1,5,0,0
58835,-100,4,2,1,75,0,0
59085,-100,4,2,1,5,0,0
59168,-100,4,2,1,75,0,0
59418,-100,4,2,1,5,0,0
59502,-100,4,2,1,75,0,0
59752,-100,4,2,1,5,0,0
59835,-100,4,2,1,75,0,0
60085,-100,4,2,1,5,0,0
60168,-100,4,2,1,75,0,0
60418,-100,4,2,1,5,0,0
60502,-100,4,2,1,75,0,0
60752,-100,4,2,1,5,0,0
60835,-100,4,2,1,75,0,0
61085,-100,4,2,1,5,0,0
61168,-100,4,2,1,75,0,0
61418,-100,4,2,1,5,0,0
61501,-100,4,2,1,75,0,0
62835,-100,4,2,1,75,0,0
68168,333.333333333333,3,2,1,55,1,0
68168,-100,3,2,1,55,0,0
71168,-100,3,2,1,55,0,0
72168,-100,3,2,1,65,0,0
79168,-100,3,2,1,65,0,0
80501,-100,3,2,1,40,0,0
81834,-100,3,2,1,70,0,0
82001,-100,3,2,1,70,0,0
84667,-100,3,2,1,70,0,1
85168,-100,3,2,1,70,0,1
87167,-100,3,2,1,70,0,0

[Colours]
Combo1 : 255,140,140
Combo2 : 145,180,220
Combo3 : 255,180,110
Combo4 : 150,150,210

[HitObjects]
431,212,1170,6,0,B|570:17|332:-60|314:85|372:103,1,360,2|2,0:0|0:0,0:0:0:0:
156,356,3836,6,0,B|68:369|-13:287|17:237|40:177|40:177|57:233|106:258,1,360,2|2,0:0|0:0,0:0:0:0:
132,28,6503,6,0,P|223:189|310:108,1,360,2|2,0:0|0:0,0:0:0:0:
380,356,9170,6,0,P|288:194|202:276,1,360,2|2,0:0|0:0,0:0:0:0:
64,0,11836,6,0,B|87:153|-36:80|1:258,1,270,2|0,3:2|3:2,0:0:0:0:
15,327,13170,2,0,B|73:322|115:373|115:373|224:354|202:235,1,270,2|2,3:2|3:3,0:0:0:0:
217,187,14503,2,0,B|263:108|263:108|302:299,1,270,2|0,3:2|3:2,0:0:0:0:
310,362,15836,5,0,3:2:0:0:
512,230,16836,1,8,1:3:0:0:
461,168,17170,6,0,B|405:88|497:83|415:-13,1,180,6|0,3:2|0:0,0:0:0:0:
344,7,18170,1,10,0:0:0:0:
278,54,18503,2,0,P|223:80|188:73,1,90,2|2,3:1|3:1,0:0:0:0:
121,43,19170,2,0,P|61:44|29:61,1,90,2|10,0:1|0:0,0:0:0:0:
0,130,19836,2,0,L|21:275,2,135,2|10|10,3:3|0:0|0:0,0:0:0:0:
392,31,22503,6,0,P|465:60|481:161,1,180,4|0,3:1|3:0,0:0:0:0:
483,233,23503,1,10,0:0:0:0:
432,296,23836,2,0,P|374:289|330:315,1,90,2|8,3:2|0:0,0:0:0:0:
302,369,24503,1,2,3:3:0:0:
222,352,24836,1,10,0:0:0:0:
161,298,25170,6,0,B|148:265|154:238|154:238|174:204,1,90,2|8,3:2|0:0,0:0:0:0:
233,165,25836,1,0,3:0:0:0:
232,83,26170,1,8,0:0:0:0:
170,30,26503,2,0,P|105:12|17:74,1,180,2|0,3:2|3:0,0:0:0:0:
38,233,27836,6,0,P|100:213|140:215,1,90,6|8,3:2|0:0,0:0:0:0:
163,283,28503,2,0,P|219:304|267:303,1,90,0|10,3:0|0:0,0:0:0:0:
327,285,29170,1,2,3:2:0:0:
344,205,29503,1,8,0:0:0:0:
267,179,29836,2,0,P|201:132|197:96,1,90,2|10,3:3|0:0,0:0:0:0:
204,47,30503,6,0,P|264:8|377:21,1,180,2|0,3:2|3:0,0:0:0:0:
426,74,31503,1,8,0:0:0:0:
442,153,31836,2,0,P|448:221|428:275,1,90,2|8,3:2|0:0,0:0:0:0:
392,304,32503,1,0,3:0:0:0:
238,354,33170,6,0,B|212:236|294:298|257:168,1,180,6|0,3:2|3:0,0:0:0:0:
232,107,34170,1,10,0:0:0:0:
182,43,34503,2,0,P|121:37|78:51,1,90,2|8,3:2|0:0,0:0:0:0:
30,96,35170,1,2,3:3:0:0:
6,173,35503,1,10,0:0:0:0:
44,244,35836,6,0,P|90:238|134:249,1,90,2|8,3:2|0:0,0:0:0:0:
188,307,36503,2,0,P|242:321|284:315,1,90,0|8,3:0|0:0,0:0:0:0:
347,279,37170,1,2,3:2:0:0:
418,317,37503,1,8,0:0:0:0:
497,303,37836,1,0,3:0:0:0:
444,150,38503,6,0,B|373:146|373:146|338:166|338:166|254:158,1,180,6|0,3:2|3:0,0:0:0:0:
196,193,39503,1,10,0:0:0:0:
115,181,39836,2,0,P|69:157|59:110,1,90,2|8,3:2|0:0,0:0:0:0:
71,43,40503,1,2,3:3:0:0:
149,21,40836,1,10,0:0:0:0:
218,62,41170,6,0,B|263:88|312:74|312:74|349:44,2,135,6|6|6,3:2|3:2|3:2,0:0:0:0:
149,21,42503,1,8,0:0:0:0:
71,43,42836,1,0,0:0:0:0:
58,124,43170,1,6,3:2:0:0:
100,280,43836,6,0,B|251:265|172:391|368:375,1,270,6|2,3:2|3:3,0:0:0:0:
416,353,45170,2,0,L|439:256,1,90,6|2,3:2|3:3,0:0:0:0:
492,206,45836,2,0,L|440:120,1,90,6|2,3:2|3:3,0:0:0:0:
441,48,46503,1,6,3:2:0:0:
299,86,47170,6,0,L|202:109,1,90,2|2,3:3|3:3,0:0:0:0:
160,44,47836,2,0,L|63:20,1,90,2|10,3:3|0:0,0:0:0:0:
0,58,48503,1,10,0:0:0:0:
137,143,49170,6,0,P|182:190|168:318,1,180,6|10,3:2|0:0,0:0:0:0:
112,343,50170,1,2,3:3:0:0:
31,338,50503,2,0,P|0:291|8:231,2,90,2|10|2,0:3|0:0|3:3,0:0:0:0:
112,343,51503,2,0,P|165:327|286:357,1,180,2|2,0:3|3:3,0:0:0:0:
359,382,52503,1,2,0:3:0:0:
361,220,53170,6,0,P|304:202|306:69,1,180,6|2,3:2|0:3,0:0:0:0:
353,53,54170,1,2,3:3:0:0:
432,36,54503,2,0,B|476:53|476:53|504:74|511:143,2,135,2|6|6,3:3|3:2|3:2,0:0:0:0:
271,57,56170,2,0,B|224:63|224:63|188:59|148:3,2,135,6|6|10,3:2|3:2|0:0,0:0:0:0:
353,53,57502,6,0,B|416:125|370:216|370:216|301:190|298:143,1,270,6|2,3:2|3:3,0:0:0:0:
224,131,58835,2,0,P|178:133|143:161,1,90,6|2,3:2|3:3,0:0:0:0:
133,239,59502,2,0,P|83:276|39:269,1,90,6|2,3:2|3:3,0:0:0:0:
3,215,60168,1,6,3:2:0:0:
36,56,60835,2,0,P|87:39|133:52,1,90,2|2,3:3|3:3,0:0:0:0:
180,101,61501,2,0,P|234:117|277:110,1,90,2|8,3:3|0:0,0:0:0:0:
342,85,62168,1,10,0:0:0:0:
459,196,62835,6,0,P|469:261|357:299,1,180,6|10,3:2|0:0,0:0:0:0:
305,277,63835,1,2,3:3:0:0:
243,328,64168,2,0,B|184:363|122:360|122:360|53:314,1,180,2|2,0:3|3:3,0:0:0:0:
20,274,65168,2,0,P|34:204|160:180,1,180,2|2,0:3|3:3,0:0:0:0:
179,229,66168,2,0,P|220:251|270:246,1,90,2|10,0:3|0:0,0:0:0:0:
331,206,66835,1,2,3:3:0:0:
401,60,67501,2,0,P|461:58|488:86,1,90,10|10,1:3|1:3,0:0:0:0:
498,155,68168,6,0,P|476:210|461:342,1,180,6|2,3:2|0:1,0:0:0:0:
389,369,69168,2,0,P|371:308|282:214,1,180,2|2,3:1|0:1,0:0:0:0:
217,199,70168,1,2,1:1:0:0:
297,64,70834,1,2,0:1:0:0:
232,15,71168,2,0,B|132:3|165:70|52:48,1,180,6|2,3:2|1:0,0:0:0:0:
5,108,72168,6,0,P|31:154|26:283,1,180,6|10,3:2|0:0,0:0:0:0:
71,346,73168,2,0,P|109:318|152:317,1,90,2|2,3:1|0:1,0:0:0:0:
224,348,73834,2,0,B|250:373|284:373|284:373|327:324|396:313,1,180,10|2,0:0|0:1,0:0:0:0:
452,353,74834,1,10,0:0:0:0:
390,117,75834,1,10,0:0:0:0:
350,187,76167,6,0,P|272:206|221:113,1,180,6|10,3:2|0:0,0:0:0:0:
253,60,77167,2,0,P|224:24|170:15,1,90,2|2,3:1|0:1,0:0:0:0:
108,42,77834,1,10,0:0:0:0:
69,113,78167,2,0,B|113:218|23:184|82:307,1,180,10|8,0:0|1:3,0:0:0:0:
104,360,79167,5,6,3:2:0:0:
400,227,80501,6,0,B|375:199|390:143|450:126|510:171|500:256|463:316,1,270,2|2,0:0|0:0,0:0:0:0:
359,363,82001,5,14,1:2:0:0:
261,290,82501,1,14,1:2:0:0:
150,340,83001,1,14,1:2:0:0:
53,266,83501,5,14,1:2:0:0:
100,200,83834,2,0,B|205:142|188:252|319:197,1,225,2|14,3:3|1:2,0:0:0:0:
428,239,85167,6,0,B|518:197|505:116|456:59|456:59|407:77|391:128|391:128|352:70|278:53,1,450,14|4,1:2|1:3,0:0:0:0:
206,72,87167,1,6,3:2:0:0:
154,135,87501,2,0,B|140:217|200:189|172:291,1,135,10|10,0:0|0:0,0:0:0:0:
