osu file format v14

[General]
AudioFilename: audio.mp3
AudioLeadIn: 0
PreviewTime: 22336
Countdown: 0
SampleSet: Soft
StackLeniency: 0.2
Mode: 0
LetterboxInBreaks: 0
WidescreenStoryboard: 0

[Editor]
Bookmarks: 45836
DistanceSpacing: 0.2
BeatDivisor: 4
GridSize: 8
TimelineZoom: 3.299999

[Metadata]
Title:Lamp (TV Size)
TitleUnicode:Lamp (TV Size)
Artist:Co shu Nie
ArtistUnicode:Cö shu Nie
Creator:keeVY
Version:Despair
Source:約束のネバーランド
Tags:miku nakamura コシュニエ japanese anime female vocalist the promised neverland yakusoku no ed ending 2 door weapon xiced yugu j rock j-rock
BeatmapID:2746036
BeatmapSetID:1325620

[Difficulty]
HPDrainRate:5.5
CircleSize:4.4
OverallDifficulty:8.7
ApproachRate:9.3
SliderMultiplier:1.76
SliderTickRate:1

[Events]
//Background and Video events
0,0,"bg.png",0,0
//Break Periods
//Storyboard Layer 0 (Background)
//Storyboard Layer 1 (Fail)
//Storyboard Layer 2 (Pass)
//Storyboard Layer 3 (Foreground)
//Storyboard Layer 4 (Overlay)
//Storyboard Sound Samples

[TimingPoints]
-163,333.333333333333,4,2,1,35,1,0
1170,-250,4,2,1,35,0,0
2003,-250,4,2,1,5,0,0
2170,-250,4,2,1,35,0,0
2503,-166.666666666667,4,2,1,35,0,0
3336,-166.666666666667,4,2,1,5,0,0
3503,-166.666666666667,4,2,1,35,0,0
3836,-250,4,2,1,35,0,0
5169,-200,4,2,1,35,0,0
6503,-250,4,2,1,35,0,0
7836,-303.030303030303,4,2,1,35,0,0
9170,-303.030303030303,4,2,1,35,0,0
11836,-200,4,2,1,50,0,0
16002,-200,4,2,1,55,0,0
16003,-40,4,2,1,55,0,0
16169,-40,4,2,1,5,0,0
16253,-40,4,2,1,55,0,0
16419,-40,4,2,1,5,0,0
16503,-40,4,2,1,55,0,0
17169,-76.9230769230769,4,2,1,55,0,0
17170,-76.9230769230769,4,2,1,60,0,0
18169,-66.6666666666667,4,2,1,60,0,0
21003,-117.647058823529,4,2,1,60,0,0
21559,-117.647058823529,4,2,1,40,0,0
22003,-117.647058823529,4,2,1,60,0,0
22503,-58.8235294117647,4,2,1,80,0,1
22836,-50,4,2,1,80,0,1
24169,-62.5,4,2,1,80,0,1
24503,-58.8235294117647,4,2,1,80,0,1
24836,-62.5,4,2,1,80,0,1
25169,-37.037037037037,4,2,1,80,0,1
25503,-58.8235294117647,4,2,1,80,0,1
27503,-100,4,2,1,80,0,0
27836,-37.037037037037,4,2,1,80,0,1
28169,-58.8235294117647,4,2,1,80,0,1
30503,-66.6666666666667,4,2,1,80,0,1
31169,-71.4285714285714,4,2,1,80,0,1
31503,-76.9230769230769,4,2,1,80,0,1
31836,-83.3333333333333,4,2,1,80,0,1
32169,-90.9090909090909,4,2,1,80,0,1
32503,-100,4,2,1,80,0,1
32836,-100,4,2,1,80,0,0
32878,-100,4,2,1,5,0,0
33170,-45.4545454545455,4,2,1,80,0,1
33503,-58.8235294117647,4,2,1,80,0,1
35503,-50,4,2,1,80,0,1
35836,-37.037037037037,4,2,1,80,0,1
36169,-58.8235294117647,4,2,1,80,0,1
37169,-66.6666666666667,4,2,1,80,0,1
38170,-66.6666666666667,4,2,1,80,0,0
38503,-37.037037037037,4,2,1,80,0,1
38836,-58.8235294117647,4,2,1,80,0,1
41169,-41.6666666666667,4,2,1,80,0,1
43503,-83.3333333333333,4,2,1,80,0,1
43836,-48.780487804878,4,2,1,75,0,0
44086,-48.780487804878,4,2,1,5,0,0
44169,-57.1428571428571,4,2,1,75,0,0
44419,-57.1428571428571,4,2,1,5,0,0
44503,-68.9655172413793,4,2,1,75,0,0
44753,-68.9655172413793,4,2,1,5,0,0
44836,-86.9565217391304,4,2,1,75,0,0
45086,-86.9565217391304,4,2,1,5,0,0
45169,-71.4285714285714,4,2,1,75,0,0
49169,-83.3333333333333,4,2,1,75,0,0
54336,-100,4,2,1,75,0,0
55002,-100,4,2,1,65,0,0
57502,333.333333333333,4,2,1,75,1,0
57502,-48.780487804878,4,2,1,75,0,0
57752,-48.780487804878,4,2,1,5,0,0
57835,-57.1428571428571,4,2,1,75,0,0
58085,-57.1428571428571,4,2,1,5,0,0
58168,-68.9655172413793,4,2,1,75,0,0
58418,-68.9655172413793,4,2,1,5,0,0
58502,-86.9565217391304,4,2,1,75,0,0
58752,-86.9565217391304,4,2,1,5,0,0
58835,-71.4285714285714,4,2,1,75,0,0
62835,-83.3333333333333,4,2,1,75,0,0
68168,333.333333333333,3,2,1,55,1,0
68168,-133.333333333333,3,2,1,55,0,0
72168,-100,3,2,1,65,0,0
80501,-133.333333333333,3,2,1,40,0,0
81834,-100,3,2,1,70,0,0
81918,-100,3,2,1,5,0,0
82001,-58.8235294117647,3,2,1,70,0,0
82335,-100,3,2,1,70,0,0
82418,-100,3,2,1,5,0,0
82501,-58.8235294117647,3,2,1,70,0,0
82835,-100,3,2,1,70,0,0
82918,-100,3,2,1,5,0,0
83001,-58.8235294117647,3,2,1,70,0,0
83335,-100,3,2,1,70,0,0
83418,-100,3,2,1,5,0,0
83501,-58.8235294117647,3,2,1,70,0,0
84667,-40,3,2,1,70,0,1
87167,-37.037037037037,3,2,1,70,0,0

[Colours]
Combo1 : 255,140,140
Combo2 : 145,180,220
Combo3 : 255,180,110
Combo4 : 150,150,210

[HitObjects]
183,77,837,5,0,0:0:0:0:
238,24,1003,1,0,0:0:0:0:
358,31,1170,6,0,L|339:218,1,176,2|0,0:0|0:0,0:0:0:0:
398,272,2170,2,0,L|388:316,1,35.2
305,350,2503,6,0,B|282:293|196:246|159:294|143:330|149:367|196:393|226:360,1,263.99999194336,2|0,0:0|0:0,0:0:0:0:
305,350,3503,2,0,P|322:327|351:316,1,52.7999983886719
317,139,3836,6,0,B|353:143|379:169|375:215|347:243|347:243|350:218|338:198,1,176,2|0,0:0|0:0,0:0:0:0:
270,236,4836,2,0,L|235:243,1,35.2
83,344,5169,6,0,B|42:301|48:236|91:252|111:178|51:134,1,220,2|0,0:0|0:0,0:0:0:0:
138,286,6170,2,0,P|158:296|186:303,1,44
318,244,6503,6,0,P|365:257|425:165,1,176,2|0,0:0|0:0,0:0:0:0:
355,130,7503,2,0,P|329:140|321:160,1,35.2
191,244,7836,5,2,0:0:0:0:
318,244,8170,1,0,0:0:0:0:
190,243,8503,1,0,0:0:0:0:
318,244,8836,1,0,0:0:0:0:
258,120,9170,6,0,P|246:72|137:67,1,174.239999468262,2|0,0:0|0:0,0:0:0:0:
256,192,10503,5,2,0:0:0:0:
256,192,11503,1,0,0:0:0:0:
512,0,11836,6,0,L|468:8,1,44,2|0,3:2|0:0,0:0:0:0:
393,58,12169,2,0,L|349:49,1,44,0|0,3:2|0:0,0:0:0:0:
271,3,12502,5,0,3:2:0:0:
227,10,12669,1,2,0:1:0:0:
108,53,12836,5,0,3:2:0:0:
152,61,13003,1,2,0:1:0:0:
319,136,13169,6,0,P|335:161|338:188,1,44,2|0,3:2|0:0,0:0:0:0:
314,252,13503,2,0,P|289:268|262:271,1,44,0|0,3:2|0:0,0:0:0:0:
198,247,13836,5,2,3:3:0:0:
179,208,14003,1,2,0:3:0:0:
242,112,14169,5,2,3:3:0:0:
203,131,14336,1,2,0:3:0:0:
427,170,14503,6,0,L|434:219,1,44,2|0,3:2|0:0,0:0:0:0:
447,293,14836,2,0,L|454:342,1,44,0|0,3:2|0:0,0:0:0:0:
333,368,15170,6,0,L|327:325,1,44,0|0,3:2|0:0,0:0:0:0:
313,245,15503,2,0,L|307:202,1,44,0|0,3:2|0:0,0:0:0:0:
137,291,15836,5,0,3:2:0:0:
137,291,15919,1,0,3:2:0:0:
137,291,16003,6,0,B|120:243|145:167|212:174|212:174|179:195|175:248,1,220,14|0,1:2|3:2,0:0:0:0:
399,247,16253,2,0,B|366:284|288:301|260:239|260:239|295:257|342:235,1,220,14|0,1:2|3:2,0:0:0:0:
231,41,16503,2,0,B|279:50|333:109|294:164|294:164|291:125|249:95,1,220,14|10,1:2|0:0,0:0:0:0:
9,98,16836,5,8,1:3:0:0:
21,138,16919,1,8,1:3:0:0:
31,97,17003,5,4,1:3:0:0:
43,137,17086,1,4,1:3:0:0:
53,96,17169,6,0,B|104:96|104:96|109:92|109:92|114:95|114:95|170:96,1,114.399994763184,6|0,3:2|0:0,0:0:0:0:
165,95,17503,1,2,3:1:0:0:
280,268,17670,5,8,0:0:0:0:
299,225,17753,1,0,3:2:0:0:
116,296,17920,5,8,0:0:0:0:
97,250,18003,1,0,3:2:0:0:
223,356,18169,6,0,B|299:337|268:399|380:377,1,132.000005035401,10|0,0:0|0:0,0:0:0:0:
429,228,18503,6,0,P|350:196|285:308,1,198.000007553101,2|0,3:1|3:2,0:0:0:0:
421,346,18836,2,0,P|449:266|404:209,1,132.000005035401,2|8,3:1|0:0,0:0:0:0:
376,79,19169,2,0,P|345:157|390:214,1,132.000005035401,2|0,0:1|3:2,0:0:0:0:
429,228,19503,1,10,0:0:0:0:
376,79,19669,1,2,0:0:0:0:
230,42,19836,5,2,3:3:0:0:
36,203,20086,5,2,3:3:0:0:
21,154,20170,1,8,0:0:0:0:
230,42,20336,5,10,0:0:0:0:
136,281,20503,1,0,0:0:0:0:
298,183,20669,1,0,3:2:0:0:
298,183,20753,1,0,3:2:0:0:
298,183,20836,2,0,B|303:210|303:210|305:212|305:212|312:255,1,66.0000025177003,10|0,0:0|0:0,0:0:0:0:
431,329,21003,6,0,B|476:307|493:232|445:178|445:178|400:194|393:235,1,249.333338088989,2|0,1:1|0:0,0:0:0:0:
445,178,22003,5,10,0:0:0:0:
399,99,22086,5,10,0:0:0:0:
317,87,22169,5,10,0:0:0:0:
256,124,22253,5,10,0:0:0:0:
223,171,22336,5,10,0:0:0:0:
185,183,22419,5,10,0:0:0:0:
165,177,22503,6,0,B|109:159|85:91|130:38|130:38|129:77|155:103,1,224.40000428009,4|0,3:1|3:0,0:0:0:0:
208,44,22836,6,0,P|238:20|287:7,1,88,8|0,0:0|0:0,0:0:0:0:
326,303,23003,2,0,P|287:304|240:286,1,88,2|0,0:1|0:0,0:0:0:0:
388,27,23169,2,0,P|420:48|447:90,1,88,0|0,3:0|0:0,0:0:0:0:
171,220,23336,2,0,P|157:184|160:133,1,88,10|0,0:0|0:0,0:0:0:0:
456,180,23503,2,0,P|445:217|413:256,1,88,10|0,0:0|0:0,0:0:0:0:
306,160,23669,5,2,0:1:0:0:
306,160,23753,1,0,0:0:0:0:
306,160,23836,1,2,3:2:0:0:
43,107,24003,5,2,0:1:0:0:
39,113,24086,1,0,3:0:0:0:
37,119,24169,2,0,L|45:200,1,70.4,8|0,0:0|0:0,0:0:0:0:
55,292,24336,1,10,0:3:0:0:
55,298,24419,1,8,0:3:0:0:
56,305,24503,1,2,3:3:0:0:
403,64,24669,5,6,3:3:0:0:
357,185,24836,1,10,0:0:0:0:
348,199,24919,2,0,P|267:214|226:181,1,140.8,0|0,3:0|0:0,0:0:0:0:
256,107,25169,6,0,B|177:232|303:305|303:305|361:264|346:187,1,356.400001359558,2|0,3:2|3:0,0:0:0:0:
183,45,25503,6,0,B|162:40|162:40|156:37|156:37|149:38|149:38|59:22,1,74.8000014266968,8|0,0:0|0:0,0:0:0:0:
329,45,25670,2,0,B|350:40|350:40|356:37|356:37|363:38|363:38|453:22,1,74.8000014266968,2|0,0:1|0:0,0:0:0:0:
155,185,25836,6,0,P|111:173|65:170,1,74.8000014266968,0|0,3:0|0:0,0:0:0:0:
357,185,26003,2,0,P|401:173|447:170,1,74.8000014266968,2|0,3:1|0:0,0:0:0:0:
135,331,26169,6,0,P|90:344|55:343,1,74.8000014266968,8|0,0:0|0:0,0:0:0:0:
377,331,26336,2,0,P|422:344|457:343,1,74.8000014266968,2|0,0:1|0:0,0:0:0:0:
176,118,26503,5,2,3:2:0:0:
108,259,26669,5,2,0:1:0:0:
100,262,26753,1,0,3:0:0:0:
92,264,26836,1,8,0:0:0:0:
153,363,27003,1,10,0:3:0:0:
293,382,27169,1,0,3:0:0:0:
442,299,27336,1,10,0:0:0:0:
472,98,27503,1,10,0:0:0:0:
12,213,27753,5,2,0:0:0:0:
22,204,27836,2,0,B|119:134|217:206|156:295|261:339|379:259,1,356.400001359558,6|0,3:2|3:0,0:0:0:0:
417,214,28169,6,0,P|419:162|397:124,1,74.8000014266968,8|0,0:0|0:0,0:0:0:0:
272,24,28336,2,0,P|264:75|236:109,1,74.8000014266968,2|0,3:1|0:0,0:0:0:0:
329,286,28503,6,0,P|304:239|266:218,1,74.8000014266968,0|0,3:0|0:0,0:0:0:0:
136,104,28670,2,0,P|155:152|147:195,1,74.8000014266968,10|0,0:0|0:0,0:0:0:0:
243,366,28836,6,0,P|198:338|155:338,1,74.8000014266968,10|0,0:0|0:0,0:0:0:0:
46,231,29003,2,0,P|87:262|102:304,1,74.8000014266968,2|0,0:1|0:0,0:0:0:0:
91,377,29169,5,2,3:2:0:0:
229,164,29336,5,2,0:1:0:0:
232,170,29419,1,0,3:0:0:0:
235,176,29503,1,8,0:0:0:0:
283,249,29669,1,10,0:3:0:0:
402,277,29836,1,2,3:3:0:0:
492,188,30003,1,6,3:3:0:0:
445,2,30169,5,10,0:0:0:0:
430,11,30253,2,0,P|403:49|457:127,1,149.600002853394,0|0,3:0|0:0,0:0:0:0:
492,188,30503,6,0,P|461:199|415:190,1,66.0000025177003,2|0,3:2|3:0,0:0:0:0:
335,98,30669,5,2,0:1:0:0:
335,98,30753,1,0,3:0:0:0:
335,98,30836,2,0,L|343:171,1,66.0000025177003,8|8,0:0|0:0,0:0:0:0:
279,296,31003,5,2,0:1:0:0:
279,296,31087,1,2,0:0:0:0:
279,296,31170,2,0,L|287:223,1,61.5999981201172,0|0,3:0|3:0,0:0:0:0:
192,130,31336,5,2,3:1:0:0:
192,130,31420,1,2,0:0:0:0:
192,130,31503,2,0,L|200:203,1,57.1999973815919,8|8,0:0|0:0,0:0:0:0:
119,300,31669,5,2,0:1:0:0:
119,300,31753,1,2,0:0:0:0:
119,300,31836,2,0,L|127:227,1,52.7999983886719,2|0,3:2|3:0,0:0:0:0:
6,155,32003,5,2,0:1:0:0:
6,155,32086,1,0,3:0:0:0:
6,155,32170,2,0,L|11:227,1,48.4000014770508,8|0,0:0|0:0,0:0:0:0:
18,300,32336,5,10,0:3:0:0:
19,309,32419,1,8,0:3:0:0:
20,317,32503,1,0,3:0:0:0:
111,130,32669,5,10,0:0:0:0:
207,292,32836,6,0,L|247:290,1,22,10|0,0:0|0:0,0:0:0:0:
363,61,33170,6,0,B|380:121|355:190|285:206|285:206|242:141|282:95,1,290.400008862305,6|0,3:2|3:0,0:0:0:0:
363,61,33503,6,0,P|401:58|456:76,1,74.8000014266968,8|0,0:0|0:0,0:0:0:0:
449,212,33669,2,0,P|463:247|463:305,1,74.8000014266968,2|0,3:1|0:0,0:0:0:0:
331,340,33836,2,0,P|302:364|246:382,1,74.8000014266968,0|0,3:0|0:0,0:0:0:0:
172,268,34003,2,0,P|139:248|105:201,1,74.8000014266968,10|0,0:0|0:0,0:0:0:0:
192,95,34170,2,0,P|200:57|235:11,1,74.8000014266968,10|0,0:0|0:0,0:0:0:0:
341,203,34336,5,2,0:1:0:0:
346,208,34419,1,0,0:0:0:0:
351,213,34503,1,2,3:2:0:0:
192,95,34669,6,0,L|112:85,1,74.8000014266968,2|0,0:1|3:0,0:0:0:0:
364,119,34836,2,0,L|444:129,1,74.8000014266968,8|0,0:0|0:0,0:0:0:0:
168,267,35003,2,0,L|88:257,1,74.8000014266968,10|8,0:3|0:3,0:0:0:0:
340,291,35169,2,0,L|420:301,1,74.8000014266968,2|0,3:3|0:0,0:0:0:0:
260,191,35336,5,6,3:3:0:0:
77,350,35503,1,10,0:0:0:0:
67,334,35586,2,0,B|28:261|107:222|107:222|88:248|97:281,1,176,2|0,3:3|0:0,0:0:0:0:
168,267,35836,6,0,B|185:348|263:358|263:358|256:367|256:367|388:414|441:286,1,356.400001359558,2|0,3:2|3:0,0:0:0:0:
494,267,36170,6,0,B|488:239|488:239|491:234|491:234|483:191,1,74.8000014266968,8|0,0:0|0:0,0:0:0:0:
488,17,36336,2,0,B|482:45|482:45|485:50|485:50|477:93,1,74.8000014266968,2|0,0:1|0:0,0:0:0:0:
332,271,36503,6,0,L|329:184,1,74.8000014266968,0|0,3:0|0:0,0:0:0:0:
331,11,36670,2,0,L|328:98,1,74.8000014266968,2|0,3:1|0:0,0:0:0:0:
168,267,36836,6,0,P|171:223|188:187,1,74.8000014266968,8|0,0:0|0:0,0:0:0:0:
171,22,37002,2,0,P|174:61|191:102,1,74.8000014266968,2|0,0:1|0:0,0:0:0:0:
24,140,37169,5,2,3:2:0:0:
183,195,37336,2,0,L|259:189,2,66.0000025177003,2|0|8,0:1|3:0|0:0,0:0:0:0:
83,256,37669,1,10,0:3:0:0:
83,256,37836,2,0,B|40:243|-5:268|-5:268|16:243|26:234,1,132.000005035401,0|10,3:0|0:0,0:0:0:0:
240,323,38169,2,0,B|283:310|328:335|328:335|307:310|297:301,1,132.000005035401,10|0,0:0|0:0,0:0:0:0:
125,353,38419,5,0,0:0:0:0:
118,336,38503,2,0,B|79:207|199:142|199:142|245:203|197:259,1,356.400001359558,6|0,3:2|3:0,0:0:0:0:
13,230,38836,6,0,P|-3:180|7:137,1,74.8000014266968,8|0,0:0|0:0,0:0:0:0:
106,0,39003,2,0,P|127:46|164:71,1,74.8000014266968,6|0,3:3|0:0,0:0:0:0:
109,265,39170,6,0,P|122:216|149:182,1,74.8000014266968,0|0,3:0|0:0,0:0:0:0:
264,34,39337,2,0,P|258:85|278:124,1,74.8000014266968,10|0,0:0|0:0,0:0:0:0:
209,317,39503,6,0,P|244:277|285:265,1,74.8000014266968,10|0,0:0|0:0,0:0:0:0:
375,144,39670,2,0,P|344:185|341:229,1,74.8000014266968,2|0,0:1|0:0,0:0:0:0:
372,333,39836,5,2,3:2:0:0:
483,191,40003,5,2,0:1:0:0:
480,183,40086,1,0,3:0:0:0:
478,175,40169,1,8,0:0:0:0:
434,83,40336,1,10,0:3:0:0:
318,9,40503,1,2,3:3:0:0:
173,48,40669,1,6,3:3:0:0:
72,190,40836,1,10,0:0:0:0:
113,365,41003,1,2,3:2:0:0:
432,317,41169,6,0,P|425:150|188:197,1,422.399987109375,6|8,3:2|0:0,0:0:0:0:
298,373,41669,2,0,P|183:221|332:101,1,422.399987109375,6|8,3:2|0:0,0:0:0:0:
449,189,42169,2,0,P|374:364|195:296,1,422.399987109375,6|8,3:2|0:0,0:0:0:0:
195,296,42669,1,6,3:2:0:0:
214,151,42836,1,8,0:0:0:0:
332,101,43003,1,8,0:0:0:0:
449,189,43169,1,6,3:2:0:0:
433,317,43336,1,8,0:0:0:0:
296,379,43503,5,10,0:0:0:0:
252,363,43586,1,10,0:0:0:0:
217,332,43669,1,10,0:0:0:0:
197,290,43753,1,10,0:0:0:0:
188,246,43836,6,0,P|320:238|484:246,1,270.600004129028,6|0,3:2|0:0,0:0:0:0:
440,161,44170,6,0,P|324:167|181:161,1,231.000002202988,2|0,3:3|0:0,0:0:0:0:
227,89,44503,6,0,P|321:83|439:89,1,191.400005841065,2|0,3:3|0:0,0:0:0:0:
400,5,44836,6,0,P|331:9|246:5,1,151.800002895355,2|0,3:3|0:0,0:0:0:0:
105,20,45170,6,0,P|122:68|105:175,1,123.199996240234,6|0,3:2|0:0,0:0:0:0:
49,271,45503,1,2,3:3:0:0:
223,139,45670,1,8,0:0:0:0:
223,139,45753,1,8,0:0:0:0:
223,139,45836,1,6,3:2:0:0:
314,213,46003,2,0,L|383:210,2,61.5999981201172,8|8|2,0:0|0:0|3:3,0:0:0:0:
228,326,46336,1,8,0:0:0:0:
225,337,46420,1,8,0:0:0:0:
222,348,46503,6,0,B|109:311|151:403|-4:356,1,184.799994360352,6|0,3:2|0:0,0:0:0:0:
6,295,46836,2,0,B|1:242|-2:150,1,123.199996240234,2|8,3:3|0:0,0:0:0:0:
159,99,47170,2,0,B|158:158|151:244,1,123.199996240234,2|0,3:3|0:0,0:0:0:0:
6,295,47503,1,2,3:3:0:0:
159,99,47670,1,8,0:0:0:0:
230,363,47836,6,0,P|279:388|362:374,1,123.199996240234,2|0,3:3|3:0,0:0:0:0:
461,266,48170,2,0,P|411:240|328:254,1,123.199996240234,10|0,0:0|3:2,0:0:0:0:
192,186,48503,5,10,0:0:0:0:
284,24,48669,1,8,0:0:0:0:
477,172,48836,5,10,0:0:0:0:
439,195,48919,1,10,0:0:0:0:
395,194,49002,1,10,0:0:0:0:
359,168,49086,1,10,0:0:0:0:
344,126,49169,2,0,B|348:91|348:91|352:85|352:85|359:18,1,105.599996777344,6|8,3:2|0:0,0:0:0:0:
358,22,49503,1,2,0:3:0:0:
192,186,49669,2,0,B|196:221|196:221|200:227|200:227|207:294,1,105.599996777344,0|10,3:0|0:0,0:0:0:0:
206,289,50003,1,0,3:2:0:0:
29,121,50169,5,2,3:3:0:0:
137,65,50336,1,10,0:0:0:0:
212,120,50503,5,2,0:3:0:0:
333,140,50669,1,0,3:2:0:0:
185,357,50836,2,0,P|168:291|149:247,1,105.599996777344,10|0,0:0|0:0,0:0:0:0:
347,132,51169,2,0,P|364:198|383:242,1,105.599996777344,2|8,3:3|0:0,0:0:0:0:
169,27,51503,6,0,P|151:109|31:74,1,211.199993554688,2|10,0:3|0:0,0:0:0:0:
43,99,52003,1,0,3:2:0:0:
169,27,52169,2,0,P|230:23|288:62,1,105.599996777344,2|8,3:3|0:0,0:0:0:0:
347,132,52503,2,0,P|408:136|466:97,1,105.599996777344,2|0,0:3|3:2,0:0:0:0:
230,212,52836,2,0,P|201:268|213:333,1,105.599996777344,10|10,0:0|0:0,0:0:0:0:
497,247,53086,1,10,0:0:0:0:
484,240,53169,6,0,B|360:213|421:327|280:283,1,211.199993554688,6|2,3:2|3:3,0:0:0:0:
230,212,53669,2,0,P|202:154|70:191,1,211.199993554688,8|0,0:0|0:0,0:0:0:0:
77,175,54169,1,2,3:3:0:0:
230,212,54336,6,0,P|296:136|472:162,1,264,8|2,0:0|0:3,0:0:0:0:
494,351,55003,5,6,3:2:0:0:
20,38,55503,5,6,3:2:0:0:
492,38,56170,5,6,3:2:0:0:
27,347,56670,5,6,3:2:0:0:
342,81,57003,5,2,3:2:0:0:
403,234,57170,1,10,0:0:0:0:
286,347,57502,6,0,B|152:339|152:339|-3:349,1,270.600004129028,6|0,3:2|0:0,0:0:0:0:
38,254,57835,6,0,B|151:260|151:260|283:252,1,231.000002202988,2|0,3:3|0:0,0:0:0:0:
252,174,58168,6,0,B|155:168|155:168|44:175,1,191.400005841065,2|0,3:3|0:0,0:0:0:0:
79,85,58502,6,0,B|158:89|158:89|249:83,1,151.800002895355,2|0,3:3|0:0,0:0:0:0:
426,8,58835,6,0,B|402:52|402:52|426:148,1,123.199996240234,6|0,3:2|0:0,0:0:0:0:
461,241,59168,1,2,3:3:0:0:
358,313,59335,1,8,0:0:0:0:
358,313,59418,1,8,0:0:0:0:
358,313,59501,1,6,3:2:0:0:
275,186,59668,2,0,L|276:125,2,61.5999981201172,8|8|2,0:0|0:0|3:3,0:0:0:0:
204,326,60001,1,8,0:0:0:0:
201,337,60085,1,8,0:0:0:0:
198,348,60168,6,0,B|136:343|136:343|97:364|97:364|-28:356,1,184.799994360352,6|0,3:2|0:0,0:0:0:0:
7,280,60501,2,0,B|2:227|2:227|6:221|6:221|-1:135,1,123.199996240234,2|8,3:3|0:0,0:0:0:0:
164,70,60835,2,0,B|159:123|159:123|163:129|163:129|156:215,1,123.199996240234,2|0,3:3|0:0,0:0:0:0:
7,280,61168,1,2,3:3:0:0:
164,70,61335,1,8,0:0:0:0:
271,356,61501,6,0,B|222:384|222:384|139:376,1,123.199996240234,2|0,3:3|3:0,0:0:0:0:
7,280,61835,2,0,B|53:249|53:249|137:254,1,123.199996240234,10|0,0:0|3:2,0:0:0:0:
320,186,62168,5,10,0:0:0:0:
226,15,62334,1,8,0:0:0:0:
35,172,62501,5,10,0:0:0:0:
73,195,62584,1,10,0:0:0:0:
117,194,62667,1,10,0:0:0:0:
153,168,62751,1,10,0:0:0:0:
168,126,62835,2,0,P|154:77|152:11,1,105.599996777344,6|8,3:2|0:0,0:0:0:0:
151,22,63168,1,2,0:3:0:0:
265,208,63335,6,0,P|271:135|411:116,1,211.199993554688,0|0,3:0|3:2,0:0:0:0:
462,159,63835,2,0,L|471:276,1,105.599996777344,2|10,3:3|0:0,0:0:0:0:
371,370,64168,6,0,B|274:379|223:316|249:235|249:235|303:236|332:287,1,316.799990332032,2|0,0:3|0:0,0:0:0:0:
192,370,64835,6,0,P|133:381|75:361,1,105.599996777344,2|8,3:3|0:0,0:0:0:0:
31,290,65168,2,0,L|25:162,1,105.599996777344,2|0,0:3|3:2,0:0:0:0:
19,61,65501,1,10,0:0:0:0:
152,166,65668,1,0,3:2:0:0:
278,53,65835,2,0,P|330:37|401:71,1,105.599996777344,2|8,3:3|0:0,0:0:0:0:
436,274,66085,1,8,0:0:0:0:
415,278,66168,6,0,P|328:236|351:107,1,211.199993554688,2|10,0:3|0:0,0:0:0:0:
327,132,66668,1,0,3:2:0:0:
432,178,66835,2,0,P|430:251|293:315,1,211.199993554688,2|2,3:3|3:3,0:0:0:0:
323,321,67335,1,8,0:0:0:0:
247,274,67501,2,0,B|243:231|243:231|239:225|239:225|231:147,1,105.599996777344,10|4,1:3|1:3,0:0:0:0:
100,3,67835,5,10,1:3:0:0:
28,64,67946,5,8,0:3:0:0:
34,151,68057,5,8,0:3:0:0:
92,211,68168,6,0,P|121:266|120:338,1,132.000005035401,6|2,3:2|0:1,0:0:0:0:
0,298,68668,2,0,P|33:245|95:210,1,132.000005035401,0|0,3:0|3:0,0:0:0:0:
92,211,69168,1,2,3:1:0:0:
203,293,69335,2,0,P|247:315|345:283,1,132.000005035401,0|0,0:0|3:0,0:0:0:0:
413,246,69835,6,0,P|411:202|414:152,1,66.0000025177003,2|0,0:1|3:0,0:0:0:0:
303,56,70168,2,0,P|301:100|304:150,1,66.0000025177003,2|0,1:1|3:0,0:0:0:0:
186,218,70501,2,0,P|184:174|187:124,1,66.0000025177003,2|0,0:1|3:0,0:0:0:0:
60,51,70835,2,0,P|58:95|61:145,1,66.0000025177003,2|0,0:1|0:0,0:0:0:0:
63,262,71168,5,6,3:2:0:0:
76,278,71251,1,10,0:0:0:0:
114,293,71335,1,10,0:0:0:0:
152,284,71418,1,0,3:0:0:0:
199,255,71501,1,8,1:3:0:0:
263,243,71585,1,8,1:3:0:0:
333,268,71668,2,0,L|338:323,1,33.0000012588501,4|4,1:3|1:3,0:0:0:0:
344,384,71835,5,2,1:0:0:0:
158,127,72168,6,0,B|255:97|220:185|325:155,1,176,6|2,3:2|3:1,0:0:0:0:
455,105,72668,2,0,P|459:166|481:278,1,176,0|0,3:2|0:0,0:0:0:0:
385,377,73168,2,0,P|375:313|368:281,1,88,2|8,3:1|0:0,0:0:0:0:
277,184,73501,2,0,P|267:248|260:280,1,88,2|2,0:1|3:2,0:0:0:0:
105,378,73835,6,0,P|108:313|88:186,1,176,10|2,0:0|3:1,0:0:0:0:
27,309,74335,1,0,0:0:0:0:
58,127,74501,2,0,P|58:62|53:24,1,88,2|0,0:1|3:2,0:0:0:0:
207,233,74835,2,0,P|207:298|202:336,1,88,10|0,0:0|0:0,0:0:0:0:
317,88,75168,2,0,P|317:23|312:-15,1,88,2|8,3:1|0:0,0:0:0:0:
453,210,75501,6,0,P|453:275|448:313,1,88,2|0,3:1|3:2,0:0:0:0:
417,379,75835,1,10,0:0:0:0:
340,211,76001,5,10,0:0:0:0:
340,211,76085,1,10,0:0:0:0:
340,211,76168,2,0,B|355:284|297:302|236:276|262:194,1,176,6|2,3:2|0:1,0:0:0:0:
215,103,76668,2,0,B|230:30|172:12|111:38|137:120,1,176,0|0,3:2|0:0,0:0:0:0:
132,96,77167,1,2,3:1:0:0:
83,217,77335,2,0,B|98:290|40:308|-21:282|5:200,1,176,8|0,0:0|3:2,0:0:0:0:
171,163,77835,5,10,0:0:0:0:
281,380,78001,1,0,0:0:0:0:
484,214,78167,5,10,0:0:0:0:
473,108,78279,5,10,0:0:0:0:
381,66,78390,5,10,0:0:0:0:
301,99,78501,5,10,0:0:0:0:
276,173,78612,5,10,0:0:0:0:
317,231,78723,5,10,0:0:0:0:
373,226,78834,5,8,1:3:0:0:
397,186,78945,5,8,1:3:0:0:
389,171,79056,5,8,1:3:0:0:
378,175,79167,5,6,3:2:0:0:
205,112,80501,5,2,0:0:0:0:
159,199,80667,1,2,0:0:0:0:
159,199,80751,1,2,0:0:0:0:
159,199,80834,1,2,0:0:0:0:
213,282,81002,1,2,0:0:0:0:
311,277,81168,1,2,0:0:0:0:
356,189,81335,1,2,0:0:0:0:
302,107,81502,1,2,0:0:0:0:
29,9,81835,6,0,L|95:21,1,44,2|0,3:3|0:0,0:0:0:0:
259,14,82001,6,0,P|145:20|-14:78,1,224.40000428009,14|0,1:2|0:0,0:0:0:0:
20,120,82335,6,0,L|86:132,1,44,2|0,3:3|3:3,0:0:0:0:
250,125,82501,6,0,P|136:131|-23:189,1,224.40000428009,14|0,1:2|0:0,0:0:0:0:
11,231,82835,6,0,L|77:243,1,44,2|0,3:3|0:0,0:0:0:0:
241,236,83001,6,0,P|127:242|-32:300,1,224.40000428009,14|0,1:2|0:0,0:0:0:0:
2,342,83335,6,0,L|68:354,1,44,2|0,3:3|0:0,0:0:0:0:
232,347,83501,6,0,P|118:353|-41:411,1,224.40000428009,14|0,1:2|0:0,0:0:0:0:
2,342,83835,5,2,3:3:0:0:
64,139,84001,6,0,L|160:149,1,74.8000014266968,10|0,0:0|0:0,0:0:0:0:
246,158,84168,2,0,L|342:168,1,74.8000014266968,10|0,0:0|0:0,0:0:0:0:
428,177,84335,2,0,L|524:187,1,74.8000014266968,10|0,0:0|0:0,0:0:0:0:
262,35,84501,5,2,3:3:0:0:
157,222,84667,6,0,B|158:411|228:373|264:154|523:447|190:162|314:431|385:436|395:268,1,440,14|2,1:2|3:3,0:0:0:0:
399,190,85084,6,0,B|384:152|373:121|496:193|331:90|531:76|487:56|264:-59|411:80|390:30|283:56|352:122|250:23,1,330,6|0,0:0|0:0,0:0:0:0:
185,47,85417,6,0,B|85:26|107:50|145:95|103:134|38:144|8:146|2:69|18:117|27:198|43:244|54:247|118:228,1,330,0|14,0:0|1:2,0:0:0:0:
148,277,85751,6,0,B|166:207|193:260|219:263|230:248|258:219|259:235|285:208|272:174|258:147|222:217|210:215|200:162|219:124,1,220,0|0,3:2|0:0,0:0:0:0:
276,108,86001,6,0,B|335:171|325:119|328:103|347:79|399:73|422:86|445:95|418:164|402:163|382:153|382:135|447:193|453:207|446:210|369:227,1,220,10|14,3:2|1:2,0:0:0:0:
503,241,86251,6,0,B|425:237|449:256|466:275|475:291|474:310|458:324|420:306|404:293|433:274|444:269|426:260|406:260|407:308|409:322|395:344,1,220,0|0,3:2|0:0,0:0:0:0:
301,370,86501,5,6,3:3:0:0:
301,370,86584,2,0,B|321:340|279:340|312:331|284:319|284:319|301:297|301:297|281:296|281:296|301:281|301:281|280:272|280:272|301:260|301:260|279:257|279:257|290:245|290:245|267:189|198:165,1,330,4|0,0:0|1:3,0:0:0:0:
135,195,86917,6,0,B|122:227|87:247|58:250|52:219|79:175|92:132|93:105|37:162|12:144|28:119|70:83|131:56,1,220,4|10,1:3|0:0,0:0:0:0:
140,86,87167,6,0,B|290:41|202:156|388:100,1,237.600000906372,6|0,3:2|0:0,0:0:0:0:
0,190,87501,5,10,0:0:0:0:
159,378,87667,1,10,0:0:0:0:
458,337,87834,1,10,0:0:0:0:
512,0,88001,1,10,0:0:0:0:
