osu file format v14

[General]
AudioFilename: audio.mp3
AudioLeadIn: 0
PreviewTime: 22345
Countdown: 0
SampleSet: None
StackLeniency: 0.2
Mode: 0
LetterboxInBreaks: 0
WidescreenStoryboard: 1

[Editor]
Bookmarks: 23095,25512,33762,44429
DistanceSpacing: 1
BeatDivisor: 4
GridSize: 32
TimelineZoom: 3.099999

[Metadata]
Title:Lamp (TV Size)
TitleUnicode:Lamp (TV Size)
Artist:Co shu Nie
ArtistUnicode:Cö shu Nie
Creator:Lobelia
Version:Kasukana Hikari
Source:約束のネバーランド
Tags:the promised neverland ending 2 ED2 yakusoku no neverland emma ray norman コシュニエ anime japanese tv edit
BeatmapID:1991976
BeatmapSetID:954105

[Difficulty]
HPDrainRate:6
CircleSize:3
OverallDifficulty:8.5
ApproachRate:9.3
SliderMultiplier:1.6
SliderTickRate:1

[Events]
//Background and Video events
0,0,"bg.jpg",0,0
//Break Periods
//Storyboard Layer 0 (Background)
//Storyboard Layer 1 (Fail)
//Storyboard Layer 2 (Pass)
//Storyboard Layer 3 (Foreground)
//Storyboard Sound Samples

[TimingPoints]
815,731.707317073171,4,2,1,20,1,0
1180,666.666666666667,4,2,2,60,1,0
11846,333.333333333333,4,2,1,60,1,0
16012,-50,4,2,1,60,0,0
17179,-76.9230769230769,4,2,1,60,0,0
21012,-55.5555555555556,4,2,1,60,0,0
21512,-111.111111111111,4,2,1,60,0,0
22512,-66.6666666666667,4,2,1,60,0,0
23679,-133.333333333333,4,2,1,60,0,0
23845,-76.9230769230769,4,2,1,60,0,0
24179,-270.27027027027,4,2,1,60,0,0
24679,-76.9230769230769,4,2,1,60,0,0
25179,-66.6666666666667,4,2,1,60,0,0
27512,-55.5555555555556,4,2,1,60,0,0
27845,-66.6666666666667,4,2,1,60,0,0
29012,-133.333333333333,4,2,1,60,0,0
29179,-76.9230769230769,4,2,1,60,0,0
29512,-270.27027027027,4,2,1,60,0,0
30012,-76.9230769230769,4,2,1,60,0,0
32845,-62.5,4,2,1,60,0,0
33179,-66.6666666666667,4,2,1,60,0,0
34345,-133.333333333333,4,2,1,60,0,0
34512,-76.9230769230769,4,2,1,60,0,0
34845,-270.27027027027,4,2,1,60,0,0
35345,-76.9230769230769,4,2,1,60,0,0
35845,-66.6666666666667,4,2,1,60,0,0
38179,-55.5555555555556,4,2,1,60,0,0
38512,-66.6666666666667,4,2,1,60,0,0
39679,-133.333333333333,4,2,1,60,0,0
39845,-76.9230769230769,4,2,1,60,0,0
40179,-270.27027027027,4,2,1,60,0,0
40512,-76.9230769230769,4,2,1,60,0,0
41179,-55.5555555555556,4,2,1,60,0,0
42179,-76.9230769230769,4,2,1,60,0,0
42512,-62.5,4,2,1,60,0,0
43845,-66.6666666666667,4,2,1,60,0,0
44137,-66.6666666666667,4,2,1,5,0,0
44179,-66.6666666666667,4,2,1,60,0,0
44470,-66.6666666666667,4,2,1,5,0,0
44512,-66.6666666666667,4,2,1,60,0,0
44804,-66.6666666666667,4,2,1,5,0,0
44846,-66.6666666666667,4,2,1,60,0,0
45137,-66.6666666666667,4,2,1,5,0,0
45179,-66.6666666666667,4,2,1,60,0,0
45470,-66.6666666666667,4,2,1,5,0,0
45512,-66.6666666666667,4,2,1,60,0,0
45804,-66.6666666666667,4,2,1,5,0,0
45846,-66.6666666666667,4,2,1,60,0,0
46137,-66.6666666666667,4,2,1,5,0,0
46179,-66.6666666666667,4,2,1,60,0,0
46470,-66.6666666666667,4,2,1,5,0,0
46512,-66.6666666666667,4,2,1,60,0,0
46804,-66.6666666666667,4,2,1,5,0,0
46846,-66.6666666666667,4,2,1,60,0,0
47137,-66.6666666666667,4,2,1,5,0,0
47179,-66.6666666666667,4,2,1,60,0,0
47470,-66.6666666666667,4,2,1,5,0,0
47512,-66.6666666666667,4,2,1,60,0,0
47804,-66.6666666666667,4,2,1,5,0,0
47846,-66.6666666666667,4,2,1,60,0,0
50845,-66.6666666666667,4,2,1,60,0,0
52512,-100,4,2,1,60,0,0
53679,-66.6666666666667,4,2,1,60,0,0
54345,-100,4,2,1,60,0,0
55012,333.333333333333,4,2,1,60,1,0
55012,-66.6666666666667,4,2,1,60,0,0
56012,-133.333333333333,4,2,1,60,0,0
56178,-66.6666666666667,4,2,1,60,0,0
57178,-50,4,2,1,60,0,0
57512,333.333333333333,4,2,1,60,1,1
57512,-66.6666666666667,4,2,1,60,0,1
57803,-66.6666666666667,4,2,1,5,0,1
57845,-66.6666666666667,4,2,1,60,0,1
58136,-66.6666666666667,4,2,1,5,0,1
58178,-66.6666666666667,4,2,1,60,0,1
58469,-66.6666666666667,4,2,1,5,0,1
58512,-66.6666666666667,4,2,1,60,0,1
58803,-66.6666666666667,4,2,1,5,0,1
58845,-66.6666666666667,4,2,1,60,0,1
59136,-66.6666666666667,4,2,1,5,0,1
59178,-66.6666666666667,4,2,1,60,0,1
59469,-66.6666666666667,4,2,1,5,0,1
59512,-66.6666666666667,4,2,1,60,0,1
59803,-66.6666666666667,4,2,1,5,0,1
59845,-66.6666666666667,4,2,1,60,0,1
60136,-66.6666666666667,4,2,1,5,0,1
60178,-66.6666666666667,4,2,1,60,0,1
60469,-66.6666666666667,4,2,1,5,0,1
60512,-66.6666666666667,4,2,1,60,0,1
60803,-66.6666666666667,4,2,1,5,0,1
60845,-66.6666666666667,4,2,1,60,0,1
61136,-66.6666666666667,4,2,1,5,0,1
61178,-66.6666666666667,4,2,1,60,0,1
61469,-66.6666666666667,4,2,1,5,0,1
61511,-66.6666666666667,4,2,1,60,0,1
68178,-100,4,2,1,60,0,1
70845,-166.666666666667,4,2,1,60,0,1
71178,-50,4,2,1,60,0,1
71511,-83.3333333333333,4,2,1,60,0,1
72178,-100,4,2,1,60,0,1
78178,-500,4,2,1,60,0,1
79178,333.333333333333,4,2,1,60,1,0
79178,-66.6666666666667,4,2,1,60,0,0
79678,-133.333333333333,4,2,1,60,0,0
80511,333.333333333333,4,2,1,60,1,0
81844,333.333333333333,4,2,1,60,1,0
82010,333.333333333333,4,2,1,60,1,0
85010,333.333333333333,4,2,1,60,1,0
86510,-66.6666666666667,4,2,1,60,0,0
87510,333.333333333333,4,2,1,60,1,0
88010,-200,4,2,1,60,0,0

[Colours]
Combo1 : 224,181,137
Combo2 : 204,142,140
Combo3 : 154,164,209
Combo4 : 230,236,247

[HitObjects]
94,40,815,6,0,P|101:67|103:94,1,40
45,155,1180,6,0,P|88:126|114:250,1,240,2|0,0:0|0:0,0:0:0:0:
31,248,2346,1,0,0:0:0:0:
31,248,2513,6,0,B|183:212|107:319|255:283,1,240,2|0,0:0|0:0,0:0:0:0:
308,202,3680,1,0,0:0:0:0:
308,202,3846,6,0,B|276:296|349:337|422:292|397:213,1,240,2|0,0:0|0:0,0:0:0:0:
369,123,5013,1,0,0:0:0:0:
369,123,5180,6,0,B|290:80|223:145|223:145|202:104|157:96,1,240,2|0,0:0|0:0,0:0:0:0:
136,190,6346,1,0,0:0:0:0:
136,190,6513,6,0,P|48:164|78:73,1,200,2|0,0:0|0:0,0:0:0:0:
163,57,7513,2,0,L|162:101,1,40
136,190,7846,5,2,0:0:0:0:
136,190,8180,2,0,L|147:284,2,80
68,335,9180,6,0,B|190:282|190:375|301:331,1,240,2|0,0:0|0:0,0:0:0:0:
352,250,10346,1,0,0:0:0:0:
352,250,10513,6,0,P|345:294|452:242,1,240,2|0,0:0|0:0,0:0:0:0:
422,175,11680,1,0,0:0:0:0:
422,175,11846,6,0,P|421:133|405:95,1,80,10|0,0:0|0:0,0:0:0:0:
281,103,12179,2,0,P|268:151|275:190,1,80,10|0,0:0|0:0,0:0:0:0:
342,26,12512,1,10,0:0:0:0:
185,67,12679,5,2,0:0:0:0:
47,17,12845,2,0,P|42:58|47:103,1,80,2|0,0:0|0:0,0:0:0:0:
185,67,13179,1,2,0:0:0:0:
44,132,13345,5,2,0:0:0:0:
189,178,13512,2,0,P|193:138|186:97,1,80,2|0,0:0|0:0,0:0:0:0:
45,96,13845,5,2,0:0:0:0:
185,67,14012,1,2,0:0:0:0:
44,132,14179,2,0,P|37:174|44:218,1,80,2|0,0:0|0:0,0:0:0:0:
191,293,14512,6,0,P|150:280|99:295,1,80,8|0,0:0|0:0,0:0:0:0:
289,267,14845,2,0,P|307:233|344:208,1,80,8|0,0:0|0:0,0:0:0:0:
266,358,15179,2,0,B|256:275|215:289|213:205,1,160,8|2,0:0|0:0,0:0:0:0:
212,97,15679,1,2,0:0:0:0:
416,62,15845,5,0,1:0:0:0:
367,56,15929,1,0,1:0:0:0:
304,133,16012,6,0,P|304:56|245:3,1,160,4|0,1:0|0:0,0:0:0:0:
138,165,16262,2,0,P|109:99|145:24,1,160,4|0,1:0|0:0,0:0:0:0:
212,97,16512,2,0,L|227:183,1,80,4|0,1:0|0:0,0:0:0:0:
252,329,16679,1,4,1:0:0:0:
212,97,16845,5,8,0:0:0:0:
225,175,16929,1,8,0:0:0:0:
237,252,17012,1,8,0:0:0:0:
252,329,17095,1,8,0:0:0:0:
175,305,17179,6,0,L|333:273,1,155.999992858887,8|0,0:0|0:0,0:0:0:0:
461,249,17512,2,0,L|476:310,1,51.999997619629,2|0,0:0|0:0,0:0:0:0:
339,324,17679,2,0,L|327:270,1,51.999997619629,2|0,0:0|0:0,0:0:0:0:
442,169,17845,2,0,L|454:221,1,51.999997619629,2|0,0:0|0:0,0:0:0:0:
320,242,18012,2,0,L|296:131,1,103.999995239258,2|0,0:0|0:0,0:0:0:0:
422,71,18262,1,8,0:0:0:0:
289,102,18345,2,0,B|237:92|235:113|183:103,1,103.999995239258,10|0,0:0|0:0,0:0:0:0:
185,103,18762,6,0,L|191:39,1,51.999997619629,8|0,0:0|0:0,0:0:0:0:
17,29,19012,1,8,0:0:0:0:
21,59,19095,1,8,0:0:0:0:
25,90,19179,2,0,L|36:149,1,51.999997619629,8|0,0:0|0:0,0:0:0:0:
184,135,19345,1,8,0:0:0:0:
26,239,19512,5,8,0:0:0:0:
87,228,19595,1,8,0:0:0:0:
99,289,19679,1,8,0:0:0:0:
37,298,19762,1,8,0:0:0:0:
177,243,19845,6,0,P|223:254|267:309,1,103.999995239258,4|0,0:0|0:0,0:0:0:0:
354,258,20095,2,0,P|340:212|366:147,1,103.999995239258,4|0,0:0|0:0,0:0:0:0:
276,104,20345,2,0,P|241:136|171:143,1,103.999995239258,4|0,0:0|0:0,0:0:0:0:
437,213,20679,5,8,0:0:0:0:
463,168,20762,1,8,0:0:0:0:
489,212,20845,1,8,0:0:0:0:
465,258,20929,1,8,0:0:0:0:
356,159,21012,6,0,B|374:80|453:64|453:64|374:80|322:19,1,287.999991210938,10|0,0:0|0:0,0:0:0:0:
323,21,21512,6,0,P|244:36|282:105,1,179.999994506836,2|0,0:0|0:0,0:0:0:0:
356,159,22012,1,8,0:0:0:0:
300,145,22095,1,8,0:0:0:0:
244,160,22179,1,8,0:0:0:0:
207,204,22262,1,8,0:0:0:0:
150,213,22345,1,8,0:0:0:0:
94,195,22429,1,8,0:0:0:0:
65,145,22512,6,0,P|79:203|79:286,1,120.000004577637,4|0,0:0|0:0,0:0:0:0:
35,362,22762,1,8,0:0:0:0:
181,313,22845,2,0,B|215:341|215:341|302:327,1,120.000004577637,8|0,0:0|0:0,0:0:0:0:
289,328,23179,5,0,1:0:0:0:
304,245,23262,1,0,1:0:0:0:
386,230,23345,1,0,1:0:0:0:
424,305,23429,1,0,1:0:0:0:
365,365,23512,1,0,1:0:0:0:
331,163,23679,6,0,L|328:131,1,30.0000011444092,0|0,1:0|0:0,0:0:0:0:
392,60,23845,6,0,P|325:34|252:66,1,155.999992858887,8|0,0:0|0:0,0:0:0:0:
328,133,24179,6,0,L|331:162,1,29.6000007226563,2|0,0:0|0:0,0:0:0:0:
158,98,24512,2,0,L|155:73,1,14.8000003613281,2|0,0:0|0:0,0:0:0:0:
42,40,24679,6,0,L|59:148,1,103.999995239258,2|0,0:0|0:0,0:0:0:0:
79,241,24929,1,2,0:0:0:0:
86,271,25012,1,2,0:0:0:0:
86,271,25179,6,0,B|154:263|142:297|208:289,1,120.000004577637,8|0,0:0|0:0,0:0:0:0:
300,276,25429,1,8,0:0:0:0:
387,225,25512,2,0,P|404:278|375:346,1,120.000004577637,8|0,0:0|0:0,0:0:0:0:
383,336,25845,2,0,P|410:292|479:272,2,120.000004577637,0|0|0,1:0|1:0|1:0,0:0:0:0:
467,172,26345,1,2,0:0:0:0:
488,141,26429,1,2,0:0:0:0:
508,110,26512,5,10,0:0:0:0:
312,157,26679,1,2,0:0:0:0:
302,121,26762,1,2,0:0:0:0:
291,86,26845,5,10,0:0:0:0:
467,172,27012,1,2,0:0:0:0:
176,214,27179,5,10,0:0:0:0:
312,157,27345,1,10,0:0:0:0:
466,314,27512,2,0,B|442:237|485:246|462:149,1,143.999995605469,10|0,0:0|0:0,0:0:0:0:
407,57,27762,1,2,0:0:0:0:
312,157,27845,6,0,P|305:216|316:287,1,120.000004577637,12|0,0:0|0:0,0:0:0:0:
380,364,28095,1,8,0:0:0:0:
218,329,28179,2,0,B|164:356|164:356|107:332,1,120.000004577637,8|0,0:0|0:0,0:0:0:0:
109,332,28512,5,0,1:0:0:0:
29,307,28595,1,0,1:0:0:0:
35,223,28678,1,0,1:0:0:0:
114,196,28761,1,0,1:0:0:0:
161,265,28845,1,0,1:0:0:0:
43,111,29012,6,0,L|52:151,1,30.0000011444092,0|0,1:0|0:0,0:0:0:0:
19,24,29179,6,0,P|80:28|134:114,1,155.999992858887,8|0,0:0|0:0,0:0:0:0:
49,140,29512,6,0,L|42:108,1,29.6000007226563,2|0,0:0|0:0,0:0:0:0:
224,95,29845,2,0,L|219:122,1,14.8000003613281,2|0,0:0|0:0,0:0:0:0:
203,228,30012,6,0,L|322:211,1,103.999995239258,2|0,0:0|0:0,0:0:0:0:
409,196,30262,1,2,0:0:0:0:
440,192,30345,1,2,0:0:0:0:
440,192,30512,5,10,0:0:0:0:
322,314,30679,1,2,0:0:0:0:
313,264,30762,1,2,0:0:0:0:
305,213,30845,1,2,0:0:0:0:
431,140,31012,2,0,L|441:198,1,51.999997619629,2|0,0:0|0:0,0:0:0:0:
460,286,31179,2,0,L|345:307,1,103.999995239258,2|0,0:0|0:0,0:0:0:0:
203,228,31512,1,2,0:0:0:0:
326,68,31679,2,0,L|337:126,1,51.999997619629,2|0,0:0|0:0,0:0:0:0:
305,213,31845,6,0,L|203:228,1,103.999995239258,2|0,0:0|0:0,0:0:0:0:
105,242,32095,1,2,0:0:0:0:
195,176,32179,2,0,L|205:242,1,51.999997619629,10|0,0:0|0:0,0:0:0:0:
119,357,32345,1,0,1:0:0:0:
112,299,32429,1,0,1:0:0:0:
105,242,32512,1,8,1:2:0:0:
175,70,32679,1,8,0:0:0:0:
67,191,32845,6,0,L|195:176,1,128,8|0,0:0|0:0,0:0:0:0:
447,145,33179,6,0,P|433:203|433:286,1,120.000004577637,4|0,0:0|0:0,0:0:0:0:
477,362,33429,1,8,0:0:0:0:
331,313,33512,2,0,B|297:341|297:341|210:327,1,120.000004577637,8|0,0:0|0:0,0:0:0:0:
223,328,33846,5,0,1:0:0:0:
208,245,33929,1,0,1:0:0:0:
126,230,34012,1,0,1:0:0:0:
88,305,34096,1,0,1:0:0:0:
147,365,34179,1,0,1:0:0:0:
181,163,34346,6,0,L|184:131,1,30.0000011444092,0|0,1:0|0:0,0:0:0:0:
120,60,34512,6,0,P|187:34|260:66,1,155.999992858887,8|0,0:0|0:0,0:0:0:0:
184,133,34846,6,0,L|181:162,1,29.6000007226563,2|0,0:0|0:0,0:0:0:0:
346,117,35179,2,0,L|349:145,1,14.8000003613281,2|0,0:0|0:0,0:0:0:0:
358,228,35345,6,0,P|406:214|439:167,1,103.999995239258,2|0,0:0|0:0,0:0:0:0:
444,73,35595,1,2,0:0:0:0:
441,41,35679,1,2,0:0:0:0:
441,41,35845,6,0,P|393:12|326:22,1,120.000004577637,4|0,0:0|0:0,0:0:0:0:
252,87,36095,1,8,0:0:0:0:
161,137,36179,2,0,P|146:80|168:23,1,120.000004577637,8|0,0:0|0:0,0:0:0:0:
166,24,36512,2,0,P|122:72|64:85,2,120.000004577637,0|0|0,1:0|1:0|1:0,0:0:0:0:
74,178,37012,1,2,0:0:0:0:
59,210,37095,1,2,0:0:0:0:
44,243,37179,5,10,0:0:0:0:
241,199,37345,1,2,0:0:0:0:
247,234,37429,1,2,0:0:0:0:
254,269,37512,5,10,0:0:0:0:
74,178,37679,1,2,0:0:0:0:
357,92,37845,5,10,0:0:0:0:
241,199,38012,1,10,0:0:0:0:
79,35,38179,6,0,B|94:109|57:104|75:187,1,143.999995605469,10|0,0:0|0:0,0:0:0:0:
145,298,38429,1,2,0:0:0:0:
241,199,38512,6,0,P|250:141|236:82,1,120.000004577637,4|0,0:0|0:0,0:0:0:0:
162,6,38762,1,8,0:0:0:0:
311,20,38845,2,0,L|438:10,1,120.000004577637,8|0,0:0|0:0,0:0:0:0:
430,10,39179,5,0,1:0:0:0:
490,68,39262,1,0,1:0:0:0:
467,148,39345,1,0,1:0:0:0:
382,145,39429,1,0,1:0:0:0:
358,64,39512,1,0,1:0:0:0:
421,251,39679,6,0,L|423:205,1,30.0000011444092,0|0,1:0|0:0,0:0:0:0:
485,323,39845,6,0,P|427:348|346:314,1,155.999992858887,8|0,0:0|0:0,0:0:0:0:
422,221,40179,6,0,L|421:252,1,29.6000007226563,2|0,0:0|0:0,0:0:0:0:
259,350,40512,5,8,0:0:0:0:
254,299,40595,1,8,0:0:0:0:
276,252,40679,1,8,0:0:0:0:
321,225,40762,1,8,0:0:0:0:
373,228,40845,1,8,0:0:0:0:
421,250,40929,1,8,0:0:0:0:
345,313,41012,6,0,P|320:287|303:264,1,51.999997619629,8|0,0:0|0:0,0:0:0:0:
215,145,41179,6,0,P|203:178|178:208,5,71.9999978027344,10|0|0|0|0|0,1:2|1:0|1:0|1:0|1:0|1:0,1:0:0:0:
300,77,41679,6,0,P|335:72|367:56,5,71.9999978027344,8|0|0|0|0|0,1:2|1:0|1:0|1:0|1:0|1:0,1:0:0:0:
207,48,42179,6,0,B|126:66|141:15|48:35,1,155.999992858887,10|0,0:0|0:0,0:0:0:0:
92,192,42512,6,0,L|84:124,1,64,2|0,0:0|0:0,0:0:0:0:
27,275,42679,1,2,0:0:0:0:
27,275,42845,2,0,B|65:275|88:294|88:294|113:275|155:278,1,128,2|0,0:0|0:0,0:0:0:0:
151,369,43095,1,2,0:0:0:0:
92,192,43179,2,0,P|180:180|248:258,1,192,2|0,0:0|0:0,0:0:0:0:
249,349,43512,5,8,0:0:0:0:
288,261,43595,1,8,0:0:0:0:
383,246,43679,1,8,0:0:0:0:
442,321,43762,1,8,0:0:0:0:
349,347,43845,6,0,P|330:253|334:132,1,210.000008010865,6|0,0:0|0:0,0:0:0:0:
339,109,44179,2,0,P|232:132|130:114,1,210.000008010865,2|0,0:0|0:0,0:0:0:0:
107,100,44512,2,0,P|129:211|115:315,1,210.000008010865,2|0,0:0|0:0,0:0:0:0:
114,336,44845,2,0,P|205:319|326:343,1,210.000008010865,2|0,0:0|0:0,0:0:0:0:
349,350,45179,6,0,P|338:254|352:134,1,210.000008010865,6|0,0:0|0:0,0:0:0:0:
359,112,45513,2,0,P|250:125|150:98,1,210.000008010865,2|0,0:0|0:0,0:0:0:0:
129,82,45846,2,0,P|141:194|118:296,1,210.000008010865,2|0,0:0|0:0,0:0:0:0:
115,318,46179,2,0,P|207:308|325:343,1,210.000008010865,2|0,0:0|0:0,0:0:0:0:
349,350,46512,6,0,P|346:254|371:135,1,210.000008010865,6|0,0:0|0:0,0:0:0:0:
379,113,46846,2,0,P|269:117|172:81,1,210.000008010865,2|0,0:0|0:0,0:0:0:0:
153,63,47179,2,0,P|155:176|123:276,1,210.000008010865,2|0,0:0|0:0,0:0:0:0:
118,297,47512,2,0,P|210:296|325:340,1,210.000008010865,2|0,0:0|0:0,0:0:0:0:
349,350,47845,6,0,P|345:310|349:267,1,60.0000022888184,10|0,0:0|0:0,0:0:0:0:
379,113,48012,2,0,P|347:119|301:120,1,60.0000022888184,8|0,0:0|0:0,0:0:0:0:
153,63,48179,2,0,P|158:98|160:135,1,60.0000022888184,8|0,0:0|0:0,0:0:0:0:
118,297,48345,2,0,P|157:292|188:295,1,60.0000022888184,8|0,0:0|0:0,0:0:0:0:
349,350,48512,5,8,0:0:0:0:
408,343,48595,1,8,0:0:0:0:
448,297,48679,1,8,0:0:0:0:
451,237,48762,1,8,0:0:0:0:
429,181,48845,5,12,0:2:0:0:
379,113,48929,1,8,0:2:0:0:
426,43,49012,1,8,0:2:0:0:
504,72,49095,1,8,0:2:0:0:
511,156,49179,5,8,0:2:0:0:
252,210,49345,1,8,0:2:0:0:
426,43,49512,1,8,0:2:0:0:
168,272,49679,2,0,P|150:211|168:153,2,120.000004577637,0|0|0,1:0|0:0|0:0,0:0:0:0:
330,276,50179,1,0,0:0:0:0:
259,103,50345,1,0,0:2:0:0:
168,272,50512,2,0,P|83:255|10:314,1,180.000006866455
107,352,50845,5,0,0:0:0:0:
333,302,51012,1,0,0:0:0:0:
259,103,51179,1,0,0:0:0:0:
135,359,51345,1,0,0:0:0:0:
429,330,51512,2,0,P|412:240|331:202,1,180.000006866455
294,346,51845,6,0,P|316:328|334:296,1,60.0000022888184
252,153,52012,1,0,0:0:0:0:
436,98,52179,2,0,B|350:75|342:123|245:100,1,180.000006866455
111,30,52512,6,0,B|140:18|140:18|124:123,1,120
113,205,52845,1,0,0:0:0:0:
107,232,52929,1,0,0:0:0:0:
103,259,53012,2,0,L|158:252,1,40
252,153,53179,6,0,P|235:192|286:248,1,120
349,172,53512,1,0,0:0:0:0:
228,333,53679,6,0,B|320:367|320:308|404:340,1,180.000006866455
279,246,54012,1,0,0:0:0:0:
503,349,54179,2,0,P|500:313|479:279,1,60.0000022888184
349,172,54345,6,0,P|300:69|187:83,1,240
189,80,55012,6,0,P|50:97|44:232,1,300.000011444092
242,168,55512,2,0,B|186:199|127:167|127:167|166:223|139:283,1,240.000009155274
254,277,55928,5,0,0:0:0:0:
254,277,56012,2,0,P|278:289|294:295,1,30.0000011444092
242,168,56178,6,0,B|293:201|359:214|359:214|402:171|407:112|407:112|370:86|330:93,1,300.000011444092
189,80,56678,2,0,B|139:114|138:184|138:184|108:117|49:114,1,240.000009155274
49,114,57178,6,0,B|113:63|113:63|190:80,1,160
179,318,57512,6,0,P|198:224|194:103,1,210.000008010865
189,80,57846,2,0,P|296:103|398:85,1,210.000008010865
421,71,58179,2,0,P|399:182|413:286,1,210.000008010865
414,307,58512,2,0,P|323:290|202:314,1,210.000008010865
179,321,58846,6,0,P|190:225|176:105,1,210.000008010865
169,83,59180,2,0,P|278:96|378:69,1,210.000008010865
399,53,59513,2,0,P|387:165|410:267,1,210.000008010865
413,289,59846,2,0,P|321:279|203:314,1,210.000008010865
179,321,60179,6,0,P|182:225|157:106,1,210.000008010865
149,84,60513,2,0,P|259:88|356:52,1,210.000008010865
375,34,60846,2,0,P|373:147|405:247,1,210.000008010865
410,268,61179,2,0,P|318:267|203:311,1,210.000008010865
179,321,61512,6,0,P|183:281|179:238,1,60.0000022888184
149,84,61679,2,0,P|181:90|227:91,1,60.0000022888184
375,34,61846,2,0,P|370:69|368:106,1,60.0000022888184
410,268,62012,2,0,P|371:263|340:266,1,60.0000022888184
179,321,62178,5,0,0:0:0:0:
120,314,62261,1,0,0:0:0:0:
80,268,62345,1,0,0:0:0:0:
77,208,62428,1,0,0:0:0:0:
99,152,62511,5,0,0:0:0:0:
149,84,62595,1,0,0:0:0:0:
102,14,62678,1,0,0:0:0:0:
24,43,62761,1,0,0:0:0:0:
17,127,62845,5,0,0:0:0:0:
252,191,63011,1,0,0:0:0:0:
102,14,63178,1,0,0:0:0:0:
351,231,63345,2,0,P|357:178|323:113,2,120.000004577637
179,321,63845,1,0,0:0:0:0:
184,109,64011,1,0,0:0:0:0:
425,294,64178,6,0,P|353:330|268:284,1,180.000006866455
252,191,64511,2,0,L|377:168,1,120.000004577637
179,321,64845,1,0,0:0:0:0:
57,195,65011,2,0,P|51:163|52:128,1,60.0000022888184
199,79,65178,1,0,0:0:0:0:
60,227,65345,1,0,0:0:0:0:
206,111,65511,6,0,P|211:142|211:175,1,60.0000022888184
51,135,65678,1,0,0:0:0:0:
199,79,65845,2,0,B|263:73|262:105|325:97,1,120.000004577637
451,23,66178,1,0,0:0:0:0:
432,60,66261,1,0,0:0:0:0:
435,102,66345,2,0,P|438:134|452:167,1,60.0000022888184
502,291,66511,1,0,0:0:0:0:
459,248,66595,1,0,0:0:0:0:
399,244,66678,1,0,0:0:0:0:
345,271,66761,1,0,0:0:0:0:
321,326,66845,5,0,0:0:0:0:
266,351,66928,1,0,0:0:0:0:
206,344,67011,1,0,0:0:0:0:
164,300,67095,1,0,0:0:0:0:
151,189,67178,5,0,0:0:0:0:
95,211,67261,1,0,0:0:0:0:
37,193,67345,1,0,0:0:0:0:
7,140,67428,1,0,0:0:0:0:
21,81,67511,5,0,0:0:0:0:
55,56,67595,1,0,0:0:0:0:
96,50,67678,1,0,0:0:0:0:
134,65,67761,1,0,0:0:0:0:
161,96,67845,1,0,0:0:0:0:
201,108,67928,1,0,0:0:0:0:
242,106,68011,1,0,0:0:0:0:
279,86,68095,1,0,0:0:0:0:
341,20,68178,6,0,P|342:101|400:149,1,160
398,148,68678,1,0,0:0:0:0:
429,58,68845,1,0,0:0:0:0:
341,20,69011,1,0,0:0:0:0:
398,148,69178,2,0,P|439:151|479:138,1,80
429,58,69428,1,0,0:0:0:0:
279,86,69511,6,0,L|272:186,1,80
392,227,69845,2,0,L|397:147,1,80
279,86,70178,1,0,0:0:0:0:
262,259,70345,1,0,0:0:0:0:
397,147,70511,1,0,0:0:0:0:
279,86,70678,1,0,0:0:0:0:
200,226,70845,6,0,P|227:249|261:258,1,71.9999978027344
273,165,71178,6,0,B|199:192|193:129|113:158,1,160
56,232,71428,1,0,0:0:0:0:
156,293,71511,2,0,L|151:238,1,47.9999985351563
21,94,71678,2,0,L|26:153,1,47.9999985351563
369,153,71845,5,0,0:0:0:0:
347,100,71929,1,0,0:0:0:0:
298,71,72012,1,0,0:0:0:0:
241,74,72095,1,0,0:0:0:0:
273,165,72178,6,0,L|435:146,1,160
431,146,72678,1,0,0:0:0:0:
347,100,72845,1,0,0:0:0:0:
273,165,73011,1,0,0:0:0:0:
431,146,73178,2,0,P|443:107|434:63,1,80
347,100,73428,1,0,0:0:0:0:
273,165,73511,6,0,P|252:131|249:84,1,80
436,69,73845,2,0,P|442:108|431:146,1,80
298,258,74178,2,0,B|339:248|360:211|360:211|393:245|442:239,1,160
378,329,74678,1,0,0:0:0:0:
217,313,74845,6,0,P|200:277|205:224,1,80
298,258,75095,1,0,0:0:0:0:
200,237,75178,2,0,P|183:272|148:290,1,80
31,205,75511,2,0,P|29:244|52:277,1,80
167,147,75845,2,0,P|133:125|94:128,1,80
31,205,76095,1,0,0:0:0:0:
94,128,76178,6,0,P|136:114|99:31,1,160
100,31,76678,1,0,0:0:0:0:
14,77,76845,1,0,0:0:0:0:
94,128,77011,2,0,L|144:124,1,40
251,119,77178,2,0,P|263:158|266:202,1,80
223,293,77428,1,0,0:0:0:0:
266,196,77511,6,0,B|351:168|351:217|424:191,1,160
422,191,78011,1,0,0:0:0:0:
383,42,78178,6,0,P|376:73|386:109,1,64
422,191,78928,5,0,0:0:0:0:
460,162,79011,1,0,0:0:0:0:
479,117,79095,1,0,0:0:0:0:
383,103,79178,6,0,P|285:60|254:169,1,240.000009155274
249,160,79678,6,0,P|190:148|166:208,1,120.000004577637
406,329,80511,5,0,0:0:0:0:
344,256,80677,1,0,0:0:0:0:
304,247,80761,1,0,0:0:0:0:
265,257,80844,1,0,0:0:0:0:
311,341,81011,1,0,0:0:0:0:
406,329,81177,5,0,0:0:0:0:
304,247,81344,1,0,0:0:0:0:
214,344,81511,1,0,0:0:0:0:
91,72,81844,5,0,0:0:0:0:
76,322,82010,6,0,P|55:248|50:144,1,160
91,72,82426,1,0,0:0:0:0:
206,150,82510,2,0,P|133:168|40:163,1,160
45,65,82926,1,0,0:0:0:0:
206,150,83010,2,0,P|290:128|374:134,1,160
437,200,83426,1,0,0:0:0:0:
362,286,83510,2,0,P|345:218|367:120,1,160
361,130,84010,5,0,0:0:0:0:
361,130,84176,1,0,0:0:0:0:
361,130,84343,1,0,0:0:0:0:
361,130,84510,1,0,0:0:0:0:
440,347,84676,6,0,P|372:330|283:341,1,160
283,340,85176,1,0,0:0:0:0:
190,361,85260,2,0,P|188:315|213:275,1,80
270,247,85510,2,0,P|232:258|202:284,1,80
283,340,85760,1,0,0:0:0:0:
133,243,86010,6,0,L|219:295,1,80
283,340,86260,2,0,L|209:296,1,80
45,276,86510,6,0,P|70:174|200:181,1,240.000009155274
188,170,87010,1,0,0:0:0:0:
45,276,87176,2,0,P|31:205|33:147,1,120.000004577637
31,157,87510,5,0,0:0:0:0:
31,157,87676,1,0,0:0:0:0:
31,157,87843,1,0,0:0:0:0:
31,157,88010,6,0,L|124:143,1,80
