osu file format v14

[General]
AudioFilename: audio.mp3
AudioLeadIn: 0
PreviewTime: 56457
Countdown: 0
SampleSet: Soft
StackLeniency: 0.3
Mode: 0
LetterboxInBreaks: 0
WidescreenStoryboard: 1

[Editor]
DistanceSpacing: 1
BeatDivisor: 4
GridSize: 32
TimelineZoom: 1.6

[Metadata]
Title:asura
TitleUnicode:asura
Artist:Co shu Nie
ArtistUnicode:Còˆ shu Nie
Creator:enryotoki
Version:Agatsu's normal
Source:
Tags:Japanese Rock Aurora DeviousPanda iljaaz AIR Agatsu
BeatmapID:1977587
BeatmapSetID:945838

[Difficulty]
HPDrainRate:3
CircleSize:3.5
OverallDifficulty:4
ApproachRate:5
SliderMultiplier:1.1
SliderTickRate:1

[Events]
//Background and Video events
0,0,"0009fb04e8c5735da3ff0e8cc0a43f91bad9f96a_s2_n0.jpg",0,0
//Break Periods
//Storyboard Layer 0 (Background)
//Storyboard Layer 1 (Fail)
//Storyboard Layer 2 (Pass)
//Storyboard Layer 3 (Foreground)
//Storyboard Sound Samples

[TimingPoints]
126,333.333333333333,3,2,1,30,1,0
2792,-100,3,2,1,50,0,0
3125,-100,3,2,1,50,0,0
3959,-100,3,2,1,30,0,0
6125,-100,3,2,1,50,0,1
7125,-100,3,2,1,50,0,0
12792,-100,3,2,1,50,0,0
14125,333.333333333333,4,2,1,50,1,0
14125,-100,4,2,1,50,0,1
19124,-100,4,2,1,50,0,0
19458,-100,4,2,1,50,0,1
23458,-100,4,2,1,50,0,0
24791,-100,4,2,1,50,0,1
30124,-111.111111111111,4,2,1,30,0,0
32124,-111.111111111111,4,2,1,30,0,0
32791,-100,4,2,1,50,0,0
40782,-100,4,2,1,50,0,0
42821,333.333333333333,4,2,1,50,1,0
44821,-100,4,2,1,50,0,1
51458,333.333333333333,3,2,1,50,1,0
54458,-100,3,2,1,50,0,0
54541,-100,3,2,1,60,0,1
55707,-100,3,2,1,70,0,1
56124,-100,3,2,1,50,0,0
56457,-100,3,2,1,50,0,0
56958,333.333333333333,3,2,1,50,1,0
56958,-100,3,2,1,50,0,1
57958,-100,3,2,1,30,0,0
65624,333.333333333333,4,2,1,50,1,0
65624,-111.111111111111,4,2,1,30,0,0
68290,-100,4,2,1,50,0,1
68457,-100,4,2,1,50,0,0
68540,-100,4,2,1,50,0,1
68707,-100,4,2,1,50,0,0
68790,-100,4,2,1,50,0,1
68957,-100,4,2,1,50,0,0
69040,-100,4,2,1,50,0,1
69290,-100,4,2,1,50,0,0
69457,-100,4,2,1,50,0,0
70957,-100,4,2,1,50,0,1
75957,-100,4,2,1,50,0,0
76290,-100,4,2,1,50,0,1
77623,-100,4,2,1,50,0,0
77873,-100,4,2,1,50,0,0
78957,-100,4,2,1,40,0,0
88290,-100,4,2,1,60,0,1
88290,-100,4,2,1,50,0,1
89290,-100,4,2,1,70,0,0

[Colours]
Combo1 : 132,142,213
Combo2 : 207,133,133
Combo3 : 215,190,134
SliderBorder : 255,255,255

[HitObjects]
65,117,3125,6,0,L|58:20,2,82.5,8|8|8,0:0|1:0|0:0,0:0:0:0:
157,178,3959,2,0,P|200:180|257:166,2,82.5,12|10|6,0:0|0:0|0:0,0:0:0:0:
70,245,4792,1,8,0:0:0:0:
134,334,5125,2,0,L|243:327,1,110,10|8,0:0|0:0,0:0:0:0:
293,350,5625,1,8,0:0:0:0:
293,350,5792,1,2,0:0:0:0:
386,292,6125,6,0,L|450:294,2,55,2|8|8,1:0|0:0|0:0,0:0:0:0:
345,255,6625,1,2,0:0:0:0:
345,255,6792,1,2,0:0:0:0:
414,169,7125,2,0,P|426:117|414:60,1,110,2|2,0:0|0:0,0:0:0:0:
378,20,7625,1,2,0:0:0:0:
378,20,7792,1,2,0:0:0:0:
279,67,8125,6,0,P|210:53|102:84,1,165,6|2,0:0|0:0,0:0:0:0:
78,111,8792,1,8,0:0:0:0:
121,212,9125,2,0,L|113:331,1,110,2|0,0:0|0:0,0:0:0:0:
148,364,9625,1,8,0:0:0:0:
250,323,9959,1,8,0:0:0:0:
250,323,10125,6,0,L|242:213,1,110,6|2,0:0|0:0,0:0:0:0:
235,158,10625,1,8,1:0:0:0:
298,68,10959,2,0,P|351:59|411:77,1,110,2|2,0:0|0:0,0:0:0:0:
448,107,11459,1,2,0:0:0:0:
430,215,11792,6,0,L|439:330,1,110,2|2,0:0|0:0,0:0:0:0:
396,360,12292,2,0,P|345:368|290:351,1,110,2|2,0:0|0:0,0:0:0:0:
251,312,12792,1,6,0:0:0:0:
264,202,13125,2,0,L|261:87,1,110,2|2,0:0|0:0,0:0:0:0:
228,47,13625,1,10,1:0:0:0:
70,97,14125,6,0,L|61:218,1,110,6|8,0:0|0:0,0:0:0:0:
1,298,14791,1,2,0:0:0:0:
87,365,15124,2,0,L|206:356,1,110,8|6,0:0|0:0,0:0:0:0:
237,319,15624,2,0,L|296:328,1,55,2|8,0:0|0:0,0:0:0:0:
332,364,15958,1,2,0:0:0:0:
440,381,16291,2,0,P|466:324|458:274,1,110,2|0,0:0|0:0,0:0:0:0:
431,232,16791,6,0,L|442:118,1,110,6|8,0:0|0:0,0:0:0:0:
474,78,17291,1,2,0:0:0:0:
386,10,17624,2,0,P|330:8|281:34,1,110,2|0,0:0|0:0,0:0:0:0:
255,80,18124,2,0,L|267:198,1,110,6|8,0:0|0:0,0:0:0:0:
298,234,18624,1,2,0:0:0:0:
242,329,18958,2,0,P|185:345|129:329,1,110,2|8,0:0|1:0,0:0:0:0:
96,295,19458,6,0,L|90:180,1,110,6|8,0:0|0:0,0:0:0:0:
15,104,20124,1,2,0:0:0:0:
93,26,20458,2,0,L|209:35,1,110,8|6,0:0|0:0,0:0:0:0:
293,95,21124,2,0,L|358:89,1,55,8|0,0:0|0:0,0:0:0:0:
396,64,21458,2,0,P|419:106|410:175,1,110,2|8,0:0|0:0,0:0:0:0:
335,242,22124,6,0,L|221:231,1,110,6|8,0:0|0:0,0:0:0:0:
148,153,22791,2,0,L|72:158,1,55,8|2,0:0|0:0,0:0:0:0:
38,164,23124,2,0,P|19:213|30:280,1,110,8|6,0:0|0:0,0:0:0:0:
101,348,23791,1,8,0:0:0:0:
207,320,24124,2,0,L|266:330,1,55,8|2,0:0|0:0,0:0:0:0:
292,374,24458,2,0,L|351:364,1,55,8|8,0:0|0:0,0:0:0:0:
395,339,24791,6,0,L|403:225,1,110,6|8,0:0|0:0,0:0:0:0:
479,150,25458,1,2,0:0:0:0:
415,60,25791,2,0,P|357:42|294:55,1,110,8|6,0:0|0:0,0:0:0:0:
259,73,26291,2,0,L|263:137,1,55,2|8,0:0|0:0,0:0:0:0:
284,178,26624,1,2,0:0:0:0:
209,259,26958,2,0,L|91:250,1,110,2|0,0:0|0:0,0:0:0:0:
44,247,27458,6,0,P|33:186|55:130,1,110,6|8,0:0|0:0,0:0:0:0:
135,75,28124,2,0,L|198:77,1,55,2|2,0:0|0:0,0:0:0:0:
241,55,28458,1,8,0:0:0:0:
328,121,28791,2,0,L|333:238,1,110,6|8,0:0|0:0,0:0:0:0:
292,268,29291,1,8,0:0:0:0:
292,268,29458,2,0,L|286:332,1,55,8|8,0:0|1:0,0:0:0:0:
323,364,29791,2,0,L|392:372,1,55,2|2,0:0|0:0,0:0:0:0:
422,349,30124,6,0,P|498:308|512:240,2,148.49999546814,2|0|0,1:0|0:0|0:0,0:0:0:0:
311,250,31624,1,0,0:0:0:0:
394,127,32124,1,2,0:0:0:0:
321,59,32458,2,0,L|267:53,1,49.4999984893799,8|8,0:0|0:0,0:0:0:0:
227,86,32791,6,0,L|132:91,2,82.5,6|8|2,0:0|0:0|0:0,0:0:0:0:
263,127,33458,1,8,0:0:0:0:
215,226,33791,2,0,L|203:331,2,82.5,6|8|2,0:0|0:0|0:0,0:0:0:0:
165,200,34458,1,8,0:0:0:0:
61,237,34791,2,0,P|52:194|59:154,2,82.5,6|2|2,0:0|0:0|0:0,0:0:0:0:
31,284,35458,5,8,0:0:0:0:
112,357,35791,1,2,0:0:0:0:
112,357,35958,2,0,L|228:349,1,110,0|2,0:0|0:0,0:0:0:0:
264,314,36458,1,2,0:0:0:0:
372,330,36791,2,0,P|397:275|385:218,1,110,6|2,0:0|0:0,0:0:0:0:
353,186,37291,1,2,0:0:0:0:
353,186,37458,1,8,0:0:0:0:
243,199,37791,6,0,L|121:186,1,110,2|8,0:0|0:0,0:0:0:0:
78,184,38291,2,0,P|53:129|65:72,1,110,2|0,0:0|0:0,0:0:0:0:
94,38,38791,1,6,0:0:0:0:
199,68,39124,2,0,L|194:8,2,55,2|2|8,0:0|0:0|0:0,0:0:0:0:
291,128,39791,2,0,P|344:137|403:117,1,110,2|0,0:0|0:0,0:0:0:0:
439,86,40291,1,2,0:0:0:0:
439,86,40458,1,8,0:0:0:0:
495,179,40791,6,0,L|485:299,1,110,6|8,0:0|0:0,0:0:0:0:
474,342,41291,1,2,0:0:0:0:
474,342,41458,1,2,0:0:0:0:
371,302,41791,2,0,P|319:288|256:304,1,110,6|10,0:0|0:0,0:0:0:0:
221,333,42291,1,2,0:0:0:0:
221,333,42458,1,8,0:0:0:0:
121,285,42820,2,0,L|112:168,1,110,6|8,0:0|0:0,0:0:0:0:
75,134,43320,1,2,0:0:0:0:
75,134,43487,5,2,0:0:0:0:
156,60,43820,2,0,L|212:68,1,55,6|2,0:0|0:0,0:0:0:0:
246,109,44153,2,0,L|304:103,2,55,8|0|2,0:0|0:0|0:0,0:0:0:0:
187,202,44820,6,0,P|173:252|184:313,1,110,6|8,0:0|0:0,0:0:0:0:
281,356,45487,1,2,0:0:0:0:
281,356,45654,2,0,L|395:345,1,110,2|8,0:0|0:0,0:0:0:0:
484,287,46320,1,2,0:0:0:0:
484,287,46487,2,0,P|501:223|491:170,1,110,6|8,0:0|0:0,0:0:0:0:
385,166,47153,1,2,0:0:0:0:
385,166,47320,6,0,L|268:160,1,110,2|8,0:0|0:0,0:0:0:0:
165,173,47987,1,2,0:0:0:0:
165,173,48153,2,0,P|153:117|174:61,1,110,6|8,0:0|0:0,0:0:0:0:
261,7,48820,1,8,0:0:0:0:
261,7,48987,2,0,L|380:16,1,110,2|10,0:0|0:0,0:0:0:0:
479,30,49653,1,8,0:0:0:0:
479,30,49820,6,0,L|490:149,1,110,2|8,0:0|0:0,0:0:0:0:
494,194,50320,1,2,0:0:0:0:
384,194,50653,2,0,L|311:189,1,55,6|2,0:0|0:0,0:0:0:0:
278,168,50987,1,8,0:0:0:0:
130,242,51458,6,0,L|125:313,2,55,6|2|2,0:0|0:0|0:0,0:0:0:0:
81,216,51958,2,0,P|66:169|83:102,1,110,8|2,0:0|0:0,0:0:0:0:
118,72,52458,1,6,0:0:0:0:
220,112,52791,1,2,0:0:0:0:
220,112,52958,2,0,L|232:232,1,110,2|2,0:0|0:0,0:0:0:0:
234,276,53458,5,2,1:0:0:0:
461,229,54541,2,0,L|468:320,2,82.5,6|8|2,0:0|0:0|0:0,0:0:0:0:
422,189,55207,1,10,0:0:0:0:
353,142,55457,2,0,L|363:44,2,82.5,10|12|10,0:0|0:0|1:0,0:0:0:0:
63,140,56958,6,0,L|56:73,2,55,6|8|8,0:0|0:0|0:0,0:0:0:0:
38,189,57458,1,2,0:0:0:0:
38,189,57624,1,2,0:0:0:0:
69,294,57958,2,0,P|118:311|183:300,1,110,2|8,0:0|1:0,0:0:0:0:
217,268,58458,1,8,1:0:0:0:
217,268,58624,1,8,0:0:0:0:
186,161,58958,6,0,L|199:45,1,110,2|8,1:0|0:0,0:0:0:0:
244,21,59458,1,2,0:0:0:0:
244,21,59624,1,8,0:0:0:0:
338,77,59958,2,0,P|393:87|454:70,1,110,2|2,0:0|0:0,0:0:0:0:
488,40,60458,2,0,L|479:159,1,110,8|8,0:0|0:0,0:0:0:0:
442,189,60957,6,0,L|452:324,1,110,6|2,0:0|0:0,0:0:0:0:
426,348,61457,1,8,0:0:0:0:
321,313,61791,2,0,P|270:298|196:312,1,110,2|2,0:0|0:0,0:0:0:0:
170,338,62291,1,2,0:0:0:0:
72,287,62624,2,0,L|62:169,1,110,2|2,0:0|0:0,0:0:0:0:
23,138,63124,1,2,0:0:0:0:
23,138,63291,1,8,0:0:0:0:
109,70,63624,6,0,P|169:60|236:82,1,110,6|2,0:0|0:0,0:0:0:0:
261,102,64124,1,8,0:0:0:0:
200,193,64457,1,8,0:0:0:0:
200,193,64624,2,0,L|193:266,1,55,10|10,0:0|0:0,0:0:0:0:
157,287,64957,2,0,P|234:280|338:297,1,165,2|0,0:0|0:0,0:0:0:0:
367,308,65624,6,0,L|359:193,2,98.9999969787599,2|0|0,1:0|0:0|0:0,0:0:0:0:
463,329,66624,2,0,L|471:214,1,98.9999969787599,0|0,0:0|0:0,0:0:0:0:
416,146,67290,1,0,0:0:0:0:
416,146,67457,2,0,P|370:132|302:144,1,98.9999969787599,0|0,0:0|0:0,0:0:0:0:
182,227,68290,6,0,L|66:214,1,110,2|8,0:0|0:0,0:0:0:0:
22,236,68790,2,0,P|12:175|30:121,2,110,2|8|8,0:0|0:0|1:0,0:0:0:0:
49,284,69624,1,8,0:0:0:0:
141,344,69957,1,2,0:0:0:0:
141,344,70124,2,0,L|205:335,1,55,2|8,0:0|1:0,0:0:0:0:
236,300,70457,2,0,L|290:307,1,55,8|8,0:0|0:0,0:0:0:0:
331,343,70790,1,8,0:0:0:0:
331,343,70957,6,0,P|383:357|453:339,1,110,6|8,0:0|0:0,0:0:0:0:
494,252,71624,1,2,0:0:0:0:
416,174,71957,2,0,L|406:55,1,110,8|2,0:0|0:0,0:0:0:0:
310,10,72624,2,0,L|248:4,1,55,8|0,0:0|0:0,0:0:0:0:
219,46,72957,2,0,P|170:60|108:46,1,110,2|8,0:0|0:0,0:0:0:0:
23,111,73623,6,0,L|30:238,1,110,6|8,0:0|0:0,0:0:0:0:
95,309,74290,2,0,L|151:314,1,55,2|2,0:0|0:0,0:0:0:0:
194,346,74623,2,0,L|201:218,1,110,8|2,0:0|0:0,0:0:0:0:
137,145,75290,1,8,0:0:0:0:
214,67,75623,2,0,L|279:62,1,55,2|8,0:0|1:0,0:0:0:0:
307,22,75957,2,0,L|361:26,1,55,8|8,0:0|0:0,0:0:0:0:
416,36,76290,6,0,P|434:87|421:157,1,110,6|8,0:0|0:0,0:0:0:0:
338,206,76957,1,2,0:0:0:0:
244,147,77290,2,0,L|175:144,1,55,8|8,0:0|1:0,0:0:0:0:
146,109,77623,2,0,L|52:117,1,82.5,2|6,0:0|0:0,0:0:0:0:
14,244,78290,2,0,L|17:302,1,55,8|0,0:0|0:0,0:0:0:0:
55,338,78623,2,0,L|119:335,1,55,8|8,0:0|1:0,0:0:0:0:
156,304,78957,6,0,L|268:315,1,110,6|8,0:0|0:0,0:0:0:0:
363,364,79623,2,0,L|428:358,1,55,2|0,0:0|0:0,0:0:0:0:
473,355,79957,2,0,L|476:288,1,55,8|8,0:0|0:0,0:0:0:0:
506,254,80290,2,0,L|499:133,1,110,2|8,0:0|1:0,0:0:0:0:
410,79,80957,2,0,L|342:71,1,55,8|8,0:0|0:0,0:0:0:0:
306,97,81290,2,0,L|236:101,1,55,8|8,0:0|0:0,0:0:0:0:
209,63,81623,6,0,L|97:53,1,110,8|2,0:0|0:0,0:0:0:0:
19,129,82290,2,0,P|3:178|12:240,1,110,10|2,1:0|0:0,0:0:0:0:
42,280,82790,1,8,0:0:0:0:
42,280,82957,1,2,0:0:0:0:
100,372,83290,2,0,L|228:359,1,110,2|2,0:0|0:0,0:0:0:0:
264,364,83790,1,8,0:0:0:0:
264,364,83957,1,2,0:0:0:0:
308,263,84290,6,0,L|298:137,1,110,6|0,0:0|0:0,0:0:0:0:
326,105,84790,2,0,P|372:89|443:101,1,110,8|0,1:0|0:0,0:0:0:0:
479,123,85290,1,2,0:0:0:0:
427,219,85623,1,2,0:0:0:0:
427,219,85790,2,0,L|419:336,1,110,2|2,0:0|0:0,0:0:0:0:
379,366,86290,2,0,P|326:371|264:342,1,110,6|0,0:0|0:0,0:0:0:0:
237,309,86790,1,2,0:0:0:0:
305,158,87290,6,0,L|300:44,1,110,2|8,0:0|0:0,0:0:0:0:
256,13,87790,2,0,P|199:6|146:28,1,110,8|10,0:0|0:0,0:0:0:0:
119,69,88290,2,0,L|28:57,2,82.5,12|6|12,0:0|0:0|0:0,0:0:0:0:
148,115,88957,1,8,0:0:0:0:
100,214,89290,6,0,L|88:313,2,82.5,12|12|10,0:0|0:0|1:0,0:0:0:0:
