osu file format v14

[General]
AudioFilename: audio.mp3
AudioLeadIn: 0
PreviewTime: 14112
Countdown: 0
SampleSet: Normal
StackLeniency: 0.2
Mode: 0
LetterboxInBreaks: 0
WidescreenStoryboard: 0

[Editor]
DistanceSpacing: 1.2
BeatDivisor: 4
GridSize: 32
TimelineZoom: 3.199999

[Metadata]
Title:Asura
TitleUnicode:Asura
Artist:Co shu Nie
ArtistUnicode:Cö shu Nie
Creator:P4ndemonium
Version:another trash map by trash mapper
Source:
Tags:Aurora EP
BeatmapID:1892909
BeatmapSetID:907144

[Difficulty]
HPDrainRate:5
CircleSize:3.8
OverallDifficulty:9
ApproachRate:9.4
SliderMultiplier:2
SliderTickRate:1

[Events]
//Background and Video events
0,0,"good2 - Copy.jpg",0,0
//Break Periods
2,30395,31654
2,65691,67817
//Storyboard Layer 0 (Background)
//Storyboard Layer 1 (Fail)
//Storyboard Layer 2 (Pass)
//Storyboard Layer 3 (Foreground)
//Storyboard Sound Samples

[TimingPoints]
196,333.333333333333,3,1,0,40,1,0
4029,-50,3,1,0,40,0,0
4279,-66.6666666666667,3,1,0,40,0,0
4529,-50,3,1,0,40,0,0
6195,-50,3,1,0,40,0,0
6362,-57.1428571428571,3,1,0,40,0,0
6529,-66.6666666666667,3,1,0,40,0,0
6695,-80,3,1,0,40,0,0
6862,-100,3,1,0,40,0,0
7029,-133.333333333333,3,1,0,40,0,0
7195,-66.6666666666667,3,1,0,40,0,0
11529,-100,3,1,0,40,0,0
11862,-66.6666666666667,3,1,0,40,0,0
12529,-100,3,1,0,40,0,0
12862,-66.6666666666667,3,1,0,40,0,0
14195,333.333333333333,4,1,0,40,1,0
14195,-50,4,1,0,40,0,1
15028,-66.6666666666667,4,1,0,40,0,1
19528,-50,4,1,0,40,0,1
20361,-66.6666666666667,4,1,0,40,0,1
22194,-50,4,1,0,40,0,1
25694,-66.6666666666667,4,1,0,40,0,1
30194,-66.6666666666667,4,1,0,40,0,0
32194,-133.333333333333,4,1,0,40,0,0
32861,333.333333333333,3,1,0,40,1,0
32861,-66.6666666666667,4,1,0,40,0,0
40194,-100,4,1,0,40,0,0
42860,-66.6666666666667,4,1,0,40,0,0
44860,-100,4,1,0,40,0,0
50694,-66.6666666666667,4,1,0,40,0,0
51110,-100,4,1,0,40,0,0
51526,333.333333333333,3,1,0,40,1,0
51526,-66.6666666666667,3,1,0,40,0,0
52026,-80,3,1,0,40,0,0
52526,-100,3,1,0,40,0,0
53026,-133.333333333333,3,1,0,40,0,0
54526,-66.6666666666667,3,1,0,40,0,0
55525,-80,3,1,0,40,0,0
55775,-133.333333333333,3,1,0,40,0,0
56025,-400,3,1,0,40,0,0
57025,333.333333333333,3,1,0,40,1,0
57025,-66.6666666666667,3,1,0,40,0,0
57691,-57.1428571428571,3,1,0,40,0,0
57858,-50,3,1,0,40,0,0
58025,-66.6666666666667,3,1,0,40,0,0
58691,-200,3,1,0,40,0,0
59025,-66.6666666666667,3,1,0,40,0,0
65691,333.333333333333,4,1,0,40,1,0
68357,-66.6666666666667,4,1,0,40,0,1
71024,-50,4,1,0,40,0,1
71857,-66.6666666666667,4,1,0,40,0,1
73690,-50,4,1,0,40,0,1
77190,-66.6666666666667,4,1,0,40,0,1
77940,-100,4,1,0,40,0,1
78357,-66.6666666666667,4,1,0,40,0,1
79024,-50,4,1,0,40,0,1
79357,-66.6666666666667,4,1,0,40,0,1
79690,-100,4,1,0,40,0,1
80690,-50,4,1,0,40,0,1
81690,-100,4,1,0,40,0,1
82024,-66.6666666666667,4,1,0,40,0,1
82357,333.333333333333,3,1,0,40,1,0
82357,-100,3,1,0,40,0,0
86357,-100,3,1,0,40,0,1
88357,-50,3,1,0,40,0,0

[Colours]
Combo1 : 0,64,64
Combo2 : 0,128,192
Combo3 : 0,128,128
Combo4 : 255,255,0

[HitObjects]
116,60,3195,5,0,0:0:0:0:
195,47,3279,1,0,0:0:0:0:
256,192,3445,5,0,0:0:0:0:
396,324,3612,5,0,0:0:0:0:
317,337,3696,1,0,0:0:0:0:
255,278,3779,5,0,0:0:0:0:
242,275,3862,1,0,0:0:0:0:
230,273,3945,1,0,0:0:0:0:
159,316,4029,6,0,P|166:223|78:193,1,200
21,142,4279,6,0,P|15:72|81:49,1,150.000005722046
141,99,4529,6,0,P|277:140|376:38,1,300
478,120,4862,5,0,0:0:0:0:
419,164,4945,1,0,0:0:0:0:
392,233,5028,1,0,0:0:0:0:
405,306,5111,1,0,0:0:0:0:
454,361,5195,2,0,B|327:336|327:336|292:340|292:340|158:315,1,300
36,329,5529,5,0,0:0:0:0:
82,265,5612,1,0,0:0:0:0:
60,189,5695,1,0,0:0:0:0:
106,126,5779,1,0,0:0:0:0:
84,50,5862,1,0,0:0:0:0:
443,142,6195,6,0,P|421:98|428:50,1,100
418,133,6362,6,0,P|412:90|427:50,1,87.500000834465
400,117,6529,6,0,P|406:80|428:50,1,75.0000028610231
390,98,6695,6,0,P|404:70|428:50,1,62.5
388,79,6862,6,0,P|405:61|428:50,1,50
393,63,7029,6,0,P|409:54|428:50,1,37.5000014305115
512,223,7195,6,0,B|416:238|416:238|392:249|392:249|292:266,1,225.000008583069
399,378,7529,2,0,P|427:354|442:320,1,75.0000028610231
252,193,7695,2,0,P|224:217|210:251,1,75.0000028610231
406,137,7862,2,0,L|392:63,1,75.0000028610231
59,83,8029,5,0,0:0:0:0:
59,83,8112,1,0,0:0:0:0:
58,83,8195,2,0,P|130:87|171:147,1,150.000005722046
59,243,8445,1,0,0:0:0:0:
59,243,8529,2,0,B|19:260|40:268|-1:287,1,75.0000028610231
165,323,8695,2,0,B|196:352|174:352|206:384,1,75.0000028610231
326,179,8862,2,0,L|253:193,1,75.0000028610231
396,360,9029,5,0,0:0:0:0:
396,360,9112,1,0,0:0:0:0:
396,360,9195,2,0,B|357:384|357:384|381:280|381:280|390:275|390:275|403:214,1,225.000008583069
276,95,9529,2,0,B|266:42|266:42|277:24,1,75.0000028610231
473,157,9695,6,0,B|503:161|503:161|514:172|514:172|420:158|420:158|411:163|411:163|338:150,1,225.000008583069
78,104,10029,5,0,0:0:0:0:
78,104,10112,1,0,0:0:0:0:
78,104,10195,2,0,P|163:142|160:48,1,225.000008583069
137,39,10529,1,0,0:0:0:0:
0,310,10695,5,0,0:0:0:0:
23,229,10862,1,0,0:0:0:0:
23,229,10945,1,0,0:0:0:0:
23,229,11029,2,0,P|124:195|204:267,1,225.000008583069
209,296,11362,1,0,0:0:0:0:
348,175,11529,6,0,P|393:156|422:116,1,100
342,90,11779,5,0,0:0:0:0:
342,90,11862,2,0,B|322:216|322:216|306:248|306:248|284:381,1,300.000011444092
512,293,12362,6,0,P|480:312|444:308,1,75.0000028610231
305,357,12529,2,0,P|360:309|431:323,1,150
461,227,12862,6,0,B|445:131|445:131|434:107|434:107|417:7,1,225.000008583069
507,18,13195,1,0,0:0:0:0:
356,183,13362,1,0,0:0:0:0:
356,183,13445,1,0,0:0:0:0:
356,183,13529,1,0,0:0:0:0:
150,1,13695,5,0,0:0:0:0:
73,292,13862,5,0,0:0:0:0:
76,273,13945,1,0,0:0:0:0:
82,244,14029,5,0,0:0:0:0:
83,234,14112,1,0,0:0:0:0:
38,164,14195,6,0,P|221:187|285:13,2,400
147,33,15028,6,0,P|174:58|189:92,1,75.0000028610231
160,297,15194,2,0,P|255:348|355:305,1,225.000008583069
367,278,15528,1,0,0:0:0:0:
487,87,15694,6,0,P|461:60|425:51,1,75.0000028610231
178,139,15861,2,0,P|203:165|239:174,1,75.0000028610231
347,0,16028,2,0,B|336:67|336:67|328:83|328:83|318:147,1,150.000005722046
512,249,16361,2,0,P|444:222|428:152,1,150.000005722046
244,285,16694,5,0,0:0:0:0:
244,285,16778,1,0,0:0:0:0:
244,285,16861,2,0,P|349:268|410:355,1,225.000008583069
141,344,17194,2,0,L|154:270,1,75.0000028610231
0,91,17361,6,0,P|68:112|121:64,1,150.000005722046
317,18,17694,6,0,B|274:5|274:5|249:74|298:123|298:123|347:172|320:240,1,300.000011444092
512,175,18194,6,0,P|434:101|333:137,1,225.000008583069
325,168,18528,2,0,P|296:190|259:194,1,75.0000028610231
100,41,18694,6,0,B|167:52|167:52|183:60|183:60|246:70,1,150.000005722046
118,330,19028,5,0,0:0:0:0:
0,145,19194,2,0,P|29:122|66:118,1,75.0000028610231
329,360,19361,5,0,0:0:0:0:
329,360,19444,1,0,0:0:0:0:
329,360,19528,2,0,B|430:271|366:171|348:193|277:85|381:0,2,400
510,143,20361,6,0,P|485:115|451:101,1,75.0000028610231
191,237,20528,2,0,B|291:253|291:253|314:265|314:265|409:280,1,225.000008583069
442,284,20861,1,0,0:0:0:0:
212,326,21028,2,0,L|138:312,1,75.0000028610231
108,136,21194,6,0,P|174:166|191:237,1,150.000005722046
280,13,21528,2,0,P|221:55|151:34,1,150.000005722046
302,223,21861,2,0,P|294:150|347:101,1,150.000005722046
486,346,22194,6,0,P|389:244|261:302,1,300
178,326,22528,2,0,P|238:383|262:303,1,200
125,115,22861,6,0,P|85:139|94:186,1,100
302,223,23028,1,0,0:0:0:0:
0,136,23194,6,0,P|96:34|224:92,1,300
237,121,23528,5,0,0:0:0:0:
162,339,23694,1,0,0:0:0:0:
342,0,23861,5,0,0:0:0:0:
426,285,24028,1,0,0:0:0:0:
250,137,24194,5,0,0:0:0:0:
491,63,24361,1,0,0:0:0:0:
512,264,24528,5,0,0:0:0:0:
487,221,24611,1,0,0:0:0:0:
443,198,24694,1,0,0:0:0:0:
394,202,24777,1,0,0:0:0:0:
354,232,24861,6,0,P|173:256|123:79,2,400
254,0,25694,6,0,P|231:28|197:41,1,75.0000028610231
327,148,25861,2,0,P|332:41|432:4,1,225.000008583069
462,15,26194,1,0,0:0:0:0:
451,233,26361,6,0,L|377:219,1,75.0000028610231
115,321,26528,2,0,P|152:319|185:302,1,75.0000028610231
250,190,26694,2,0,B|261:257|261:257|269:273|269:273|279:337,1,150.000005722046
50,261,27028,1,0,0:0:0:0:
50,261,27111,1,0,0:0:0:0:
50,261,27194,2,0,P|47:188|103:142,1,150.000005722046
112,59,27444,5,0,0:0:0:0:
112,59,27528,2,0,P|188:135|293:113,1,225.000008583069
405,6,27861,2,0,B|394:73|394:73|386:89|386:89|376:153,1,150.000005722046
478,260,28111,5,0,0:0:0:0:
478,260,28194,2,0,P|432:316|359:313,1,150.000005722046
251,222,28528,2,0,B|262:289|262:289|270:305|270:305|280:369,1,150.000005722046
55,237,28861,2,0,P|100:180|173:183,1,150.000005722046
477,0,29194,5,0,0:0:0:0:
478,73,29277,1,0,0:0:0:0:
430,129,29360,1,0,0:0:0:0:
357,139,29443,1,0,0:0:0:0:
296,98,29527,1,0,0:0:0:0:
269,49,29612,1,0,0:0:0:0:
221,21,29695,1,0,0:0:0:0:
165,22,29778,1,0,0:0:0:0:
119,53,29862,1,0,0:0:0:0:
101,85,29945,1,0,0:0:0:0:
71,106,30028,1,0,0:0:0:0:
34,110,30111,1,0,0:0:0:0:
0,96,30195,1,0,0:0:0:0:
0,96,32194,6,0,L|13:169,1,75.0000028610231
171,307,32528,5,0,0:0:0:0:
208,281,32611,1,0,0:0:0:0:
234,318,32694,1,0,0:0:0:0:
271,292,32778,1,0,0:0:0:0:
296,329,32861,2,0,P|391:287|363:187,2,225.000008583069
363,30,33528,5,0,0:0:0:0:
348,42,33612,1,0,0:0:0:0:
339,58,33695,1,0,0:0:0:0:
335,75,33778,1,0,0:0:0:0:
343,106,33861,2,0,P|249:93|279:182,2,225.000008583069
71,188,34527,5,0,0:0:0:0:
69,170,34610,1,0,0:0:0:0:
63,153,34693,1,0,0:0:0:0:
52,139,34777,1,0,0:0:0:0:
22,130,34861,2,0,P|100:55|208:69,2,225.000008583069
54,304,35527,6,0,L|127:317,1,75.0000028610231
213,332,35694,2,0,L|286:345,1,75.0000028610231
490,242,35861,6,0,P|472:209|443:185,1,75.0000028610231
360,210,36027,2,0,P|347:245|349:283,1,75.0000028610231
501,118,36194,2,0,P|513:82|512:45,1,75.0000028610231
230,124,36361,2,0,P|248:157|277:181,1,75.0000028610231
407,336,36527,5,0,0:0:0:0:
394,323,36611,1,0,0:0:0:0:
377,316,36694,1,0,0:0:0:0:
359,312,36777,1,0,0:0:0:0:
349,282,36860,6,0,P|280:346|153:335,1,225.000008583069
139,322,37194,1,0,0:0:0:0:
57,183,37360,2,0,L|130:169,1,75.0000028610231
152,167,37527,1,0,0:0:0:0:
151,166,37860,6,0,P|149:64|251:50,1,225.000008583069
278,125,38194,2,0,P|310:143|347:144,1,75.0000028610231
421,189,38360,2,0,P|444:160|479:147,1,75.0000028610231
491,63,38527,1,0,0:0:0:0:
512,291,38694,5,0,0:0:0:0:
512,291,38777,1,0,0:0:0:0:
512,291,38860,2,0,L|364:264,1,150.000005722046
279,384,39194,5,0,0:0:0:0:
233,198,39360,1,0,0:0:0:0:
63,311,39527,1,0,0:0:0:0:
126,219,39694,1,0,0:0:0:0:
0,193,39860,1,0,0:0:0:0:
128,67,40027,5,0,0:0:0:0:
128,67,40110,1,0,0:0:0:0:
128,67,40194,2,0,L|136:116,1,50
238,278,40360,2,0,L|246:228,1,50
288,117,40527,6,0,L|238:108,1,50
77,227,40694,2,0,L|126:218,1,50
409,362,40860,6,0,P|371:332|359:284,1,100
435,183,41110,2,0,L|426:232,1,50
278,267,41277,1,0,0:0:0:0:
278,267,41360,2,0,L|245:229,1,50
364,114,41527,6,0,P|326:144|279:135,1,100
121,31,41860,6,0,L|103:129,1,100
168,239,42110,2,0,P|167:214|161:190,1,50
5,210,42277,1,0,0:0:0:0:
5,210,42360,2,0,P|14:186|28:166,1,50
113,325,42527,6,0,P|73:298|27:312,1,100
331,169,42860,6,0,P|272:258|167:238,2,225.000008583069
512,68,43527,5,0,0:0:0:0:
496,74,43610,2,0,L|482:147,1,75.0000028610231
477,364,43860,6,0,P|433:306|360:299,1,150.000005722046
283,253,44110,2,0,P|268:286|239:310,1,75.0000028610231
184,374,44277,1,0,0:0:0:0:
184,374,44360,2,0,P|162:343|156:307,1,75.0000028610231
131,226,44527,2,0,P|168:222|202:235,1,75.0000028610231
32,29,44694,5,0,0:0:0:0:
32,29,44777,1,0,0:0:0:0:
32,28,44860,2,0,P|80:83|76:156,1,150
151,223,45194,5,0,0:0:0:0:
131,226,45277,2,0,B|198:215|198:215|214:207|214:207|278:197,1,150.000005722046
342,282,45610,5,0,0:0:0:0:
336,264,45694,2,0,P|382:318|452:304,1,150
482,214,46027,5,0,0:0:0:0:
496,228,46110,2,0,P|457:165|466:92,1,150
412,4,46444,5,0,0:0:0:0:
424,16,46527,2,0,P|358:15|371:80,1,150
314,152,46860,5,0,0:0:0:0:
333,156,46944,2,0,L|185:129,1,150
91,179,47277,5,0,0:0:0:0:
106,167,47360,2,0,P|63:226|75:298,1,150
160,336,47611,5,0,0:0:0:0:
146,350,47694,2,0,P|208:311|281:320,1,150
369,379,48027,5,0,0:0:0:0:
356,366,48110,2,0,P|421:366|408:301,1,150
342,227,48444,5,0,0:0:0:0:
339,247,48527,2,0,B|350:180|350:180|358:164|358:164|368:100,1,150.000005722046
177,57,48860,6,0,P|174:40|167:25,2,33.3333333333333
155,49,49027,2,0,P|103:87|112:175,1,150
180,224,49360,5,0,0:0:0:0:
183,205,49443,2,0,B|172:272|172:272|164:288|164:288|154:352,1,150.000005722046
54,352,49777,5,0,0:0:0:0:
68,366,49860,2,0,P|29:303|38:230,1,150
105,166,50194,5,0,0:0:0:0:
87,157,50278,2,0,P|158:162|198:103,1,150
293,89,50610,5,0,0:0:0:0:
280,76,50694,2,0,B|304:109|350:109|343:92|384:92|412:129,2,150.000005722046
198,103,51110,6,0,B|187:170|187:170|179:186|179:186|169:250,1,150.000005722046
389,257,51527,6,0,P|442:208|512:224,2,150.000005722046
238,303,52026,6,0,P|193:343|134:330,2,125
419,337,52526,6,0,P|467:334|497:372,2,100
307,224,53026,6,0,P|270:225|249:196,2,75.0000028610231
312,136,53526,5,0,0:0:0:0:
32,0,54609,6,0,P|55:65|0:107,1,150.000005722046
130,206,54859,2,0,P|102:183|102:147,1,75.0000028610231
309,197,55026,6,0,P|260:142|188:140,1,150.000005722046
0,347,55275,2,0,P|72:344|121:289,1,150.000005722046
291,206,55525,6,0,L|269:329,1,125
386,235,55775,6,0,L|372:308,1,75.0000028610231
481,263,56025,6,0,L|476:288,1,25
476,288,56609,6,0,L|482:251,1,37.5
292,15,57025,6,0,L|305:88,1,75.0000028610231
431,179,57191,2,0,L|360:153,1,75.0000028610231
218,218,57358,2,0,L|275:169,1,75.0000028610231
112,116,57525,6,0,P|106:80|84:50,1,75.0000028610231
93,133,57691,6,0,P|99:90|84:50,1,87.500000834465
69,142,57858,6,0,P|91:98|84:50,1,100
0,270,58025,6,0,P|104:245|179:323,1,225.000008583069
330,384,58358,5,0,0:0:0:0:
383,349,58441,1,0,0:0:0:0:
386,307,58525,1,0,0:0:0:0:
372,282,58608,1,0,0:0:0:0:
357,270,58691,2,0,P|348:260|343:249,3,25
422,219,59025,6,0,B|437:123|437:123|448:99|448:99|465:-1,1,225.000008583069
279,137,59358,6,0,P|315:143|346:165,1,75.0000028610231
103,246,59525,2,0,P|82:276|49:294,1,75.0000028610231
192,26,59691,2,0,L|205:99,1,75.0000028610231
0,161,59858,5,0,0:0:0:0:
0,161,59941,1,0,0:0:0:0:
0,161,60025,2,0,P|104:136|179:214,1,225.000008583069
307,328,60358,2,0,P|343:322|373:300,1,75.0000028610231
355,24,60525,6,0,B|340:120|340:120|329:144|329:144|312:244,1,225.000008583069
470,383,60858,2,0,L|457:310,1,75.0000028610231
512,99,61024,6,0,P|407:123|332:45,1,225.000008583069
326,14,61358,1,0,0:0:0:0:
245,271,61524,2,0,P|275:249|311:243,1,75.0000028610231
156,161,61691,5,0,0:0:0:0:
156,161,61774,1,0,0:0:0:0:
156,161,61858,2,0,L|169:234,1,75.0000028610231
194,375,62024,1,0,0:0:0:0:
42,235,62191,5,0,0:0:0:0:
0,304,62358,2,0,P|51:353|120:333,1,150.000005722046
249,275,62608,5,0,0:0:0:0:
249,275,62691,2,0,B|345:290|345:290|369:301|369:301|469:318,1,225.000008583069
492,321,63024,1,0,0:0:0:0:
420,57,63191,6,0,P|359:29|305:85,2,150.000005722046
268,159,63608,5,0,0:0:0:0:
268,159,63691,2,0,P|163:183|88:105,1,225.000008583069
87,76,64024,1,0,0:0:0:0:
34,317,64191,5,0,0:0:0:0:
34,317,64274,1,0,0:0:0:0:
34,317,64358,1,0,0:0:0:0:
122,193,64524,1,0,0:0:0:0:
228,361,64691,5,0,0:0:0:0:
356,173,64858,1,0,0:0:0:0:
356,173,64941,1,0,0:0:0:0:
274,38,68357,5,0,0:0:0:0:
274,38,68441,2,0,P|306:58|325:90,1,75.0000028610231
234,206,68607,1,0,0:0:0:0:
234,206,68691,2,0,P|271:197|299:173,1,75.0000028610231
380,298,68857,1,0,0:0:0:0:
380,298,68941,2,0,P|366:263|370:226,1,75.0000028610231
512,186,69107,1,0,0:0:0:0:
512,186,69191,2,0,P|478:171|441:174,1,75.0000028610231
448,24,69357,2,0,P|438:60|413:88,1,75.0000028610231
64,0,69524,5,0,0:0:0:0:
129,34,69607,1,0,0:0:0:0:
162,100,69690,1,0,0:0:0:0:
151,173,69773,1,0,0:0:0:0:
100,226,69858,5,0,0:0:0:0:
82,244,69941,1,0,0:0:0:0:
71,266,70024,1,0,0:0:0:0:
68,291,70107,1,0,0:0:0:0:
72,315,70191,1,0,0:0:0:0:
83,337,70274,1,0,0:0:0:0:
101,355,70357,2,0,P|129:331|166:326,1,75.0000028610231
349,384,70524,5,0,0:0:0:0:
312,320,70607,1,0,0:0:0:0:
327,249,70690,1,0,0:0:0:0:
387,206,70773,1,0,0:0:0:0:
447,163,70858,1,0,0:0:0:0:
462,92,70941,1,0,0:0:0:0:
425,27,71024,6,0,P|329:178|485:264,2,400
183,46,71857,6,0,P|220:52|250:75,1,75.0000028610231
279,275,72024,2,0,P|203:352|95:340,1,225.000008583069
40,160,72357,2,0,B|107:149|107:149|123:141|123:141|187:131,1,150.000005722046
383,99,72607,5,0,0:0:0:0:
331,40,72691,2,0,P|278:90|282:163,1,150.000005722046
373,254,72940,2,0,P|446:258|497:206,1,150.000005722046
285,252,73190,2,0,L|231:305,1,75.0000028610231
3,363,73357,6,0,P|95:312|170:384,1,225.000008583069
162,0,73690,6,0,B|119:-13|119:-13|94:56|143:105|143:105|192:154|165:222,1,300.000011444092
232,305,74024,2,0,P|148:308|182:231,1,200
409,265,74357,6,0,P|444:299|492:309,1,100
267,65,74524,2,0,P|217:66|176:94,1,100
512,0,74690,6,0,B|490:57|478:23|455:78,1,100
288,383,74857,2,0,B|266:328|254:362|232:305,1,100
0,51,75024,5,0,0:0:0:0:
376,113,75190,1,0,0:0:0:0:
376,113,75274,1,0,0:0:0:0:
376,113,75357,1,0,0:0:0:0:
96,334,75524,5,0,0:0:0:0:
96,334,75607,1,0,0:0:0:0:
96,334,75690,1,0,0:0:0:0:
162,0,75857,1,0,0:0:0:0:
511,308,76024,5,0,0:0:0:0:
435,286,76107,1,0,0:0:0:0:
372,332,76191,1,0,0:0:0:0:
296,310,76274,1,0,0:0:0:0:
232,356,76357,2,0,B|127:273|185:169|205:191|270:79|162:0,2,400
319,65,77190,6,0,P|344:37|378:23,1,75.0000028610231
39,262,77357,5,0,0:0:0:0:
39,262,77440,1,0,0:0:0:0:
39,262,77524,1,0,0:0:0:0:
473,122,77690,1,0,0:0:0:0:
96,0,77940,6,0,L|93:16,12,16.6666666666667
10,118,78357,5,0,0:0:0:0:
10,118,78440,2,0,P|79:99|131:149,1,150.000005722046
294,265,78690,5,0,0:0:0:0:
312,261,78773,1,0,0:0:0:0:
330,258,78856,1,0,0:0:0:0:
349,255,78939,1,0,0:0:0:0:
380,270,79024,6,0,P|391:174|472:123,1,200
146,57,79274,5,0,0:0:0:0:
203,0,79357,2,0,P|258:48|267:120,1,150.000005722046
212,278,79607,5,0,0:0:0:0:
165,343,79690,2,0,P|119:325|95:282,1,100
10,142,79940,5,0,0:0:0:0:
0,158,80024,1,0,0:0:0:0:
82,172,80107,1,0,0:0:0:0:
164,186,80190,1,0,0:0:0:0:
246,201,80273,1,0,0:0:0:0:
294,265,80357,5,0,0:0:0:0:
312,261,80440,1,0,0:0:0:0:
330,258,80523,1,0,0:0:0:0:
349,255,80606,1,0,0:0:0:0:
414,302,80690,6,0,B|433:290|433:290|446:221|446:221|461:206|461:206|473:120,1,200
327,146,80940,6,0,B|321:165|321:165|300:82|300:82|286:77|286:77|269:0,1,200
132,274,81190,6,0,B|149:264|149:264|163:185,1,100
20,83,81357,5,0,0:0:0:0:
56,0,81440,1,0,0:0:0:0:
146,9,81524,1,0,0:0:0:0:
164,97,81607,1,0,0:0:0:0:
86,142,81690,2,0,P|69:160|58:183,1,50
453,183,81857,2,0,P|442:160|426:142,1,50
256,384,82024,5,0,0:0:0:0:
256,365,82107,1,0,0:0:0:0:
256,346,82190,1,0,0:0:0:0:
256,327,82273,1,0,0:0:0:0:
204,256,82357,5,0,0:0:0:0:
199,236,82440,1,0,0:0:0:0:
200,216,82523,1,0,0:0:0:0:
207,198,82606,1,0,0:0:0:0:
218,181,82690,1,0,0:0:0:0:
235,170,82773,1,0,0:0:0:0:
309,122,82857,5,0,0:0:0:0:
313,102,82940,1,0,0:0:0:0:
312,82,83023,1,0,0:0:0:0:
305,64,83106,1,0,0:0:0:0:
294,47,83190,1,0,0:0:0:0:
277,36,83273,1,0,0:0:0:0:
198,73,83357,5,0,0:0:0:0:
179,76,83440,1,0,0:0:0:0:
161,79,83523,1,0,0:0:0:0:
142,82,83606,1,0,0:0:0:0:
124,85,83690,1,0,0:0:0:0:
105,88,83773,1,0,0:0:0:0:
41,148,83857,5,0,0:0:0:0:
38,167,83940,1,0,0:0:0:0:
35,185,84023,1,0,0:0:0:0:
32,204,84106,1,0,0:0:0:0:
29,222,84190,1,0,0:0:0:0:
26,241,84273,1,0,0:0:0:0:
79,312,84357,5,0,0:0:0:0:
108,338,84440,1,0,0:0:0:0:
147,348,84523,1,0,0:0:0:0:
185,339,84606,1,0,0:0:0:0:
216,314,84690,1,0,0:0:0:0:
232,278,84773,1,0,0:0:0:0:
262,195,84857,5,0,0:0:0:0:
297,161,84940,1,0,0:0:0:0:
345,147,85024,1,0,0:0:0:0:
393,157,85107,1,0,0:0:0:0:
432,189,85190,1,0,0:0:0:0:
450,235,85273,1,0,0:0:0:0:
422,319,85357,5,0,0:0:0:0:
350,352,85440,1,0,0:0:0:0:
271,344,85523,1,0,0:0:0:0:
207,297,85606,1,0,0:0:0:0:
176,224,85690,1,0,0:0:0:0:
186,146,85773,1,0,0:0:0:0:
223,66,85857,5,0,0:0:0:0:
218,46,85940,1,0,0:0:0:0:
208,29,86023,1,0,0:0:0:0:
191,18,86106,1,0,0:0:0:0:
172,13,86190,1,0,0:0:0:0:
152,15,86273,1,0,0:0:0:0:
69,48,86357,5,0,0:0:0:0:
47,123,86440,1,0,0:0:0:0:
76,196,86523,1,0,0:0:0:0:
144,237,86606,1,0,0:0:0:0:
222,228,86690,1,0,0:0:0:0:
278,173,86773,1,0,0:0:0:0:
281,87,86857,5,0,0:0:0:0:
337,32,86940,1,0,0:0:0:0:
415,23,87024,1,0,0:0:0:0:
483,64,87107,1,0,0:0:0:0:
512,137,87190,1,0,0:0:0:0:
491,213,87273,1,0,0:0:0:0:
483,301,87357,5,0,0:0:0:0:
415,256,87440,1,0,0:0:0:0:
334,269,87523,1,0,0:0:0:0:
285,334,87606,1,0,0:0:0:0:
210,366,87690,1,0,0:0:0:0:
132,339,87773,1,0,0:0:0:0:
95,267,87857,2,0,P|86:243|73:222,1,50
7,20,88023,5,0,0:0:0:0:
33,25,88078,1,0,0:0:0:0:
59,30,88134,1,0,0:0:0:0:
85,34,88189,1,0,0:0:0:0:
112,39,88245,1,0,0:0:0:0:
138,44,88300,1,0,0:0:0:0:
159,30,88357,6,0,P|215:76|228:149,1,150.000005722046
164,357,88607,2,0,P|176:284|232:237,1,150.000005722046
375,214,88857,2,0,P|339:208|306:189,1,75.0000028610231
498,10,89023,6,0,L|471:157,1,150.000005722046
0,384,89357,6,0,B|38:264|65:342|103:218,1,200
512,384,89606,6,0,B|473:264|446:342|408:218,1,200
255,240,89856,6,0,B|254:195|318:149|302:174|378:197|426:109|405:39|330:-4|268:40|268:40|224:-23|141:-4|109:50|102:118|183:154|176:127|222:176|215:232|215:232|210:266|189:289|168:300,1,800
