osu file format v14

[General]
AudioFilename: audio.mp3
AudioLeadIn: 0
PreviewTime: 56541
Countdown: 0
SampleSet: Normal
StackLeniency: 0.7
Mode: 1
LetterboxInBreaks: 0
WidescreenStoryboard: 1

[Editor]
DistanceSpacing: 0.8
BeatDivisor: 4
GridSize: 4
TimelineZoom: 2.3

[Metadata]
Title:Asura
TitleUnicode:Asura
Artist:Co shu Nie
ArtistUnicode:Còˆ shu Nie
Creator:Marfuri
Version:futsuu
Source:
Tags:
BeatmapID:1947567
BeatmapSetID:929340

[Difficulty]
HPDrainRate:6
CircleSize:2
OverallDifficulty:3
ApproachRate:10
SliderMultiplier:1.4
SliderTickRate:1

[Events]
//Background and Video events
0,0,"e.jpg",0,90
//Break Periods
//Storyboard Layer 0 (Background)
//Storyboard Layer 1 (Fail)
//Storyboard Layer 2 (Pass)
//Storyboard Layer 3 (Foreground)
//Storyboard Layer 4 (Overlay)
//Storyboard Sound Samples

[TimingPoints]
459,333.333333333333,3,1,1,50,1,0
3125,-100,3,1,1,60,0,0
14125,333.333333333333,4,1,1,60,1,0
14125,-100,4,1,1,70,0,1
30124,-100,4,1,1,60,0,0
40803,-100,4,1,1,70,0,1
51458,333.333333333333,3,1,1,60,1,0
51458,-100,3,1,1,60,0,0
56958,-100,3,1,1,70,0,1
65624,333.333333333333,4,1,1,60,1,0
65624,-100,4,1,1,50,0,0
68290,-100,4,1,1,70,0,1
70957,-100,4,1,1,60,0,0
79888,-100,4,1,1,70,0,1
88290,-100,4,1,1,70,0,0

[HitObjects]
256,192,459,12,0,2792,0:0:0:0:
272,225,3125,5,0,0:0:0:0:
183,181,3958,1,12,0:0:0:0:
266,182,4458,1,0,0:0:0:0:
181,176,5125,1,0,0:0:0:0:
376,137,5458,1,8,0:0:0:0:
273,170,5625,1,8,0:0:0:0:
266,182,5792,1,0,0:0:0:0:
211,180,6125,1,0,0:0:0:0:
152,192,6458,1,8,0:0:0:0:
260,232,6792,1,8,0:0:0:0:
168,168,7125,1,0,0:0:0:0:
368,183,7458,1,0,0:0:0:0:
368,183,7625,1,8,0:0:0:0:
378,228,8125,1,0,0:0:0:0:
276,99,8458,1,8,0:0:0:0:
260,232,8792,1,8,0:0:0:0:
375,222,9125,1,0,0:0:0:0:
248,216,9458,1,8,0:0:0:0:
172,140,9625,1,0,0:0:0:0:
254,202,9958,1,0,0:0:0:0:
348,216,10125,1,8,0:0:0:0:
296,117,10625,1,0,0:0:0:0:
342,197,10958,1,8,0:0:0:0:
164,160,11458,1,0,0:0:0:0:
360,203,11792,1,8,0:0:0:0:
272,152,12292,1,0,0:0:0:0:
360,203,12792,1,0,0:0:0:0:
272,152,13125,1,8,0:0:0:0:
231,205,14125,1,0,0:0:0:0:
280,160,14458,1,8,0:0:0:0:
272,213,14791,1,0,0:0:0:0:
366,248,15124,1,8,0:0:0:0:
272,213,15624,1,0,0:0:0:0:
150,162,15791,1,0,0:0:0:0:
359,220,15958,1,8,0:0:0:0:
359,220,16291,1,0,0:0:0:0:
319,171,16791,1,0,0:0:0:0:
399,207,17291,1,8,0:0:0:0:
363,220,17624,1,0,0:0:0:0:
298,107,18124,1,8,0:0:0:0:
280,152,18458,1,0,0:0:0:0:
374,221,18624,1,8,0:0:0:0:
370,218,18958,1,0,0:0:0:0:
296,160,19458,1,0,0:0:0:0:
280,152,19791,1,0,0:0:0:0:
280,152,20124,1,0,0:0:0:0:
280,152,20458,1,8,0:0:0:0:
316,220,21124,1,8,0:0:0:0:
296,160,21458,1,0,0:0:0:0:
296,160,21791,1,0,0:0:0:0:
296,160,22124,1,8,0:0:0:0:
260,80,22791,1,0,0:0:0:0:
320,229,23124,1,8,0:0:0:0:
140,169,23791,1,0,0:0:0:0:
348,196,24124,1,8,0:0:0:0:
264,228,24291,1,0,0:0:0:0:
184,164,24458,1,8,0:0:0:0:
329,268,24791,1,0,0:0:0:0:
264,228,25124,1,8,0:0:0:0:
220,168,25458,1,0,0:0:0:0:
353,265,25791,1,8,0:0:0:0:
284,216,26291,1,0,0:0:0:0:
322,184,26458,1,0,0:0:0:0:
152,160,26624,1,0,0:0:0:0:
356,224,26958,1,8,0:0:0:0:
241,193,27458,1,8,0:0:0:0:
376,244,27791,1,0,0:0:0:0:
302,157,28124,1,0,0:0:0:0:
376,244,28458,1,8,0:0:0:0:
376,244,28791,1,0,0:0:0:0:
302,157,29458,1,0,0:0:0:0:
409,224,32124,1,0,0:0:0:0:
409,224,32791,1,4,0:0:0:0:
128,184,33458,1,6,0:0:0:0:
410,227,33791,1,4,0:0:0:0:
200,192,34458,1,12,0:0:0:0:
281,180,34791,1,0,0:0:0:0:
400,240,35458,1,8,0:0:0:0:
292,172,35791,1,0,0:0:0:0:
166,181,36791,1,0,0:0:0:0:
368,200,37458,1,0,0:0:0:0:
269,182,37791,1,8,0:0:0:0:
408,244,38291,1,0,0:0:0:0:
222,161,39124,1,0,0:0:0:0:
160,228,39291,1,0,0:0:0:0:
240,244,39458,1,8,0:0:0:0:
222,161,39791,1,8,0:0:0:0:
240,244,40291,1,0,0:0:0:0:
272,180,40791,1,0,0:0:0:0:
360,228,41291,1,8,0:0:0:0:
360,236,41791,1,0,0:0:0:0:
368,224,42291,1,0,0:0:0:0:
360,240,42458,1,8,0:0:0:0:
272,180,42791,1,0,0:0:0:0:
364,236,43124,1,8,0:0:0:0:
296,232,43291,1,0,0:0:0:0:
104,228,43458,1,8,0:0:0:0:
360,172,43791,1,0,0:0:0:0:
200,184,44124,1,8,0:0:0:0:
172,220,44291,1,8,0:0:0:0:
364,236,44458,1,0,0:0:0:0:
289,193,44791,1,8,0:0:0:0:
289,193,45624,1,0,0:0:0:0:
289,193,46458,1,8,0:0:0:0:
120,168,47124,1,0,0:0:0:0:
302,184,47374,1,8,0:0:0:0:
302,184,48124,1,0,0:0:0:0:
208,188,48958,1,8,0:0:0:0:
124,160,49458,1,0,0:0:0:0:
302,184,49791,1,8,0:0:0:0:
232,140,50624,1,0,0:0:0:0:
272,88,51124,1,0,0:0:0:0:
302,184,51458,1,8,0:0:0:0:
368,144,51624,1,0,0:0:0:0:
364,152,51791,1,8,0:0:0:0:
264,188,52124,1,8,0:0:0:0:
302,184,52458,1,0,0:0:0:0:
364,152,52791,1,0,0:0:0:0:
364,152,52958,1,0,0:0:0:0:
272,188,53124,1,0,0:0:0:0:
276,96,53458,1,12,0:0:0:0:
304,160,54541,1,12,0:0:0:0:
312,248,54958,1,12,0:0:0:0:
304,160,55207,1,12,0:0:0:0:
304,160,55457,1,12,0:0:0:0:
308,168,55957,1,4,0:0:0:0:
343,123,56958,1,0,0:0:0:0:
196,232,57291,1,0,0:0:0:0:
343,123,57958,1,8,0:0:0:0:
196,232,58291,1,0,0:0:0:0:
196,232,58457,1,8,0:0:0:0:
196,232,58624,1,0,0:0:0:0:
208,209,58957,1,0,0:0:0:0:
208,209,59291,1,8,0:0:0:0:
344,244,59457,1,0,0:0:0:0:
340,177,59958,1,0,0:0:0:0:
404,296,60291,1,8,0:0:0:0:
404,296,60457,1,0,0:0:0:0:
341,177,60957,1,8,0:0:0:0:
256,96,61291,1,0,0:0:0:0:
404,296,61457,1,8,0:0:0:0:
360,178,61791,1,0,0:0:0:0:
332,300,62124,1,8,0:0:0:0:
332,300,62291,1,0,0:0:0:0:
368,216,62791,1,8,0:0:0:0:
164,212,63124,1,0,0:0:0:0:
399,196,63624,1,0,0:0:0:0:
399,196,64124,1,8,0:0:0:0:
402,195,65624,1,8,0:0:0:0:
316,194,67624,1,0,0:0:0:0:
327,193,68290,1,0,0:0:0:0:
280,248,68624,1,0,0:0:0:0:
360,194,68790,1,8,0:0:0:0:
96,168,69124,1,0,0:0:0:0:
336,236,69457,1,0,0:0:0:0:
260,94,69624,1,8,0:0:0:0:
292,252,69957,1,8,0:0:0:0:
327,118,70124,1,0,0:0:0:0:
292,252,70457,1,0,0:0:0:0:
187,169,70957,1,0,0:0:0:0:
364,264,71290,1,0,0:0:0:0:
272,147,71624,1,8,0:0:0:0:
292,240,71957,1,0,0:0:0:0:
363,218,72624,1,0,0:0:0:0:
316,248,72957,1,8,0:0:0:0:
384,260,73290,1,0,0:0:0:0:
384,260,73623,1,8,0:0:0:0:
316,248,74290,1,0,0:0:0:0:
352,263,74623,1,8,0:0:0:0:
384,268,75623,1,0,0:0:0:0:
220,192,75790,1,8,0:0:0:0:
160,20,75957,1,0,0:0:0:0:
288,220,76290,1,8,0:0:0:0:
264,208,76623,1,0,0:0:0:0:
316,248,76957,1,0,0:0:0:0:
320,173,77290,1,8,0:0:0:0:
328,172,77873,1,4,0:0:0:0:
360,279,78957,1,0,0:0:0:0:
320,248,79290,1,0,0:0:0:0:
320,248,79623,1,0,0:0:0:0:
386,263,79957,1,8,0:0:0:0:
248,224,80290,1,8,0:0:0:0:
386,263,80623,1,0,0:0:0:0:
248,224,80957,1,0,0:0:0:0:
414,303,81290,1,8,0:0:0:0:
248,224,81623,1,0,0:0:0:0:
186,169,82290,1,0,0:0:0:0:
248,224,82790,1,8,0:0:0:0:
319,166,83290,1,0,0:0:0:0:
260,288,83457,1,0,0:0:0:0:
196,220,83623,1,0,0:0:0:0:
416,300,83790,1,8,0:0:0:0:
412,288,84290,1,0,0:0:0:0:
216,192,84790,1,0,0:0:0:0:
216,192,85290,1,8,0:0:0:0:
356,348,85623,1,0,0:0:0:0:
356,348,85790,1,8,0:0:0:0:
284,182,86290,1,8,0:0:0:0:
208,208,86623,1,0,0:0:0:0:
331,193,86790,1,8,0:0:0:0:
329,236,87290,1,0,0:0:0:0:
208,208,87623,1,0,0:0:0:0:
276,212,87790,1,8,0:0:0:0:
396,261,88290,1,4,0:0:0:0:
312,232,88790,1,4,0:0:0:0:
312,232,88957,1,12,0:0:0:0:
200,188,89290,1,0,0:0:0:0:
288,192,89540,1,4,0:0:0:0:
394,240,89790,1,12,0:0:0:0:
