osu file format v14

[General]
AudioFilename: asphyxia.mp3
AudioLeadIn: 0
PreviewTime: 131998
Countdown: 0
SampleSet: Normal
StackLeniency: 0.2
Mode: 0
LetterboxInBreaks: 0
WidescreenStoryboard: 1

[Editor]
Bookmarks: 15144,28305,50368,88180,105635,123089,133998,171835
DistanceSpacing: 0.5
BeatDivisor: 4
GridSize: 4
TimelineZoom: 4.099998

[Metadata]
Title:asphyxia
TitleUnicode:asphyxia
Artist:Co shu Nie
ArtistUnicode:Cö shu Nie
Creator:Gillstar
Version:semaphore's extra
Source:東京喰種トーキョーグール:re
Tags:tokyo ghoul re 東京喰種トーキョーグール:re deca impurepug sparhten semaphore fser m3gb3g neonlights amity fixxis kowari anime japanese
BeatmapID:1902799
BeatmapSetID:895512

[Difficulty]
HPDrainRate:6
CircleSize:4
OverallDifficulty:8
ApproachRate:9.5
SliderMultiplier:2.6
SliderTickRate:1

[Events]
//Background and Video events
0,0,"tokijo gul.jpg",0,0
//Break Periods
2,9058,13845
2,105835,113837
//Storyboard Layer 0 (Background)
//Storyboard Layer 1 (Fail)
//Storyboard Layer 2 (Pass)
//Storyboard Layer 3 (Foreground)
//Storyboard Sound Samples

[TimingPoints]
278,512.820512820513,4,2,1,40,1,0
278,-133.333333333333,4,2,1,40,0,0
5682,540.540540540541,4,2,1,40,1,0
6507,588.235294117647,4,2,1,40,1,0
6605,-100,4,2,1,40,0,0
8858,392.156862745098,4,2,2,60,1,0
9032,382.165605095541,4,2,1,30,1,0
9477,384.615384615385,4,2,1,30,1,0
10450,368.098159509202,4,2,1,30,1,0
10843,375,4,2,1,30,1,0
11218,397.350993377483,4,2,1,30,1,0
12026,397.350993377483,4,2,1,30,1,0
12622,419.58041958042,4,2,1,30,1,0
13582,384.615384615385,4,2,1,30,1,0
14370,387.096774193548,4,2,1,30,1,0
15144,387.096774193548,4,1,2,40,1,0
15144,-90.9090909090909,4,1,2,40,0,0
26950,-100,4,2,2,50,0,0
27531,-200,4,2,1,50,0,0
28305,387.096774193548,4,2,2,40,1,0
28305,-133.333333333333,4,2,2,40,0,0
38079,-133.333333333333,4,2,2,40,0,0
39143,387.096774193548,3,2,2,40,1,0
40304,-100,3,2,2,50,0,0
41465,-133.333333333333,3,2,2,50,0,0
48433,-66.6666666666667,3,2,2,50,0,0
49981,-500,3,1,2,50,0,0
50368,363.636363636364,3,1,2,50,1,1
50368,-80,3,1,2,50,0,1
52368,363.636363636364,3,1,2,50,1,1
52368,-80,3,1,2,50,0,1
56549,363.636363636364,3,1,2,50,1,1
56549,-80,3,1,2,50,0,1
60730,363.636363636364,3,1,2,50,1,1
60730,-80,3,1,2,50,0,1
64911,363.636363636364,3,1,2,50,1,1
64911,-80,3,1,2,50,0,1
69092,363.636363636364,3,1,2,50,1,1
69092,-80,3,1,2,50,0,1
73273,363.636363636364,3,1,2,50,1,1
73273,-80,3,1,2,50,0,1
77454,363.636363636364,3,1,2,50,1,1
77454,-80,3,1,2,50,0,1
81635,363.636363636364,3,1,2,50,1,1
81635,-80,3,1,2,50,0,1
82680,-80,3,1,2,5,0,1
82725,-80,3,1,2,50,0,1
83816,-100,3,1,2,50,0,0
83862,-100,3,1,2,50,0,0
84544,-100,3,1,2,50,0,0
84953,-100,3,1,2,5,0,0
85271,-100,3,1,2,50,0,0
85998,-80,3,1,2,50,0,0
89635,-80,3,2,2,50,0,0
92544,-100,3,2,2,50,0,0
99089,-66.6666666666667,3,2,2,50,0,0
99816,-100,3,2,2,50,0,0
100180,-66.6666666666667,3,2,2,50,0,0
100907,-100,3,2,2,50,0,0
105635,-133.333333333333,3,2,2,50,0,0
123089,-80,3,1,2,50,0,0
126362,-133.333333333333,3,2,2,50,0,0
127453,-80,3,1,2,50,0,0
129635,-133.333333333333,3,1,2,50,0,0
129998,-100,3,2,2,50,0,0
131816,-133.333333333333,3,2,2,50,0,0
133998,-133.333333333333,3,1,2,50,0,1
135998,363.636363636364,3,1,2,50,1,1
135998,-133.333333333333,3,1,2,50,0,1
140179,363.636363636364,3,1,2,50,1,1
140179,-133.333333333333,3,1,2,50,0,1
144360,363.636363636364,3,1,2,50,1,1
144360,-133.333333333333,3,1,2,50,0,1
148541,363.636363636364,3,1,2,50,1,1
148541,-80,3,1,2,50,0,1
152722,363.636363636364,3,1,2,50,1,1
152722,-80,3,1,2,50,0,1
156903,363.636363636364,3,1,2,50,1,1
156903,-80,3,1,2,50,0,1
161084,363.636363636364,3,1,2,50,1,1
161084,-80,3,1,2,50,0,1
165265,363.636363636364,3,1,2,50,1,1
165265,-80,3,1,2,50,0,1
166355,-400,3,2,2,50,0,1
166745,363.636363636364,3,2,2,50,1,0
167456,363.636363636364,3,2,2,50,1,0
169637,-80,3,1,2,50,0,0
170865,-80,3,1,2,5,0,0
170910,-66.6666666666667,3,1,2,50,0,0
171835,363.636363636364,3,2,2,50,1,0
173653,425.531914893617,3,2,1,50,1,0

[Colours]
Combo1 : 250,137,185
Combo2 : 194,205,254
Combo3 : 255,119,119
Combo4 : 80,105,165

[HitObjects]
477,234,278,6,0,B|379:210|402:302|280:294,1,195.00000743866,2|0,0:0|0:0,0:0:0:0:
301,295,1303,2,0,L|199:275,2,97.50000371933,2|0|0,0:0|0:0|0:0,0:0:0:0:
134,356,2072,1,0,0:0:0:0:
115,334,2201,1,0,0:0:0:0:
100,313,2329,6,0,P|105:243|101:110,1,195.00000743866,2|0,0:0|0:0,0:0:0:0:
101,118,3098,1,0,0:0:0:0:
234,71,3354,5,2,0:0:0:0:
158,34,3611,1,0,0:0:0:0:
244,160,3867,1,0,0:0:0:0:
378,106,4124,1,0,0:0:0:0:
378,106,4380,6,0,P|445:117|512:222,1,195.00000743866,2|0,0:0|0:0,0:0:0:0:
512,218,5406,1,2,0:0:0:0:
474,283,5682,5,2,0:0:0:0:
503,351,5952,2,0,P|439:350|366:355,1,130,2|2,0:0|0:0,0:0:0:0:
115,232,6507,5,2,0:0:0:0:
115,232,6605,1,0,0:0:0:0:
129,198,6703,1,0,0:0:0:0:
121,162,6801,1,0,0:0:0:0:
134,123,6899,1,0,0:0:0:0:
137,144,6997,1,0,0:0:0:0:
164,175,7095,5,0,0:0:0:0:
171,165,7193,1,0,0:0:0:0:
190,157,7291,1,0,0:0:0:0:
222,155,7389,1,0,0:0:0:0:
212,144,7487,1,0,0:0:0:0:
212,144,7585,1,0,0:0:0:0:
244,160,7683,5,2,0:0:0:0:
256,164,7781,1,0,0:0:0:0:
258,172,7879,1,0,0:0:0:0:
265,175,7977,1,0,0:0:0:0:
213,307,8173,2,0,P|164:304|114:308,2,86.6666666666667,0|0|0,0:0|0:0|0:0,0:0:0:0:
469,23,8858,5,6,0:0:0:0:
498,163,14370,6,0,L|398:172,1,65,2|0,0:0|0:0,0:0:0:0:
499,177,14563,2,0,L|399:186,1,65,2|0,0:0|0:0,0:0:0:0:
335,0,14757,5,0,0:0:0:0:
269,27,14853,1,0,0:0:0:0:
202,53,14950,1,0,0:0:0:0:
134,79,15047,1,0,0:0:0:0:
151,33,15144,6,0,B|193:96|193:96|176:170,1,143.000004364014,6|8,0:0|0:0,0:0:0:0:
61,245,15434,2,0,B|19:182|19:182|36:108,1,143.000004364014,6|8,0:0|0:0,0:0:0:0:
76,327,15724,1,2,0:0:0:0:
76,327,15821,1,0,0:0:0:0:
138,276,15918,6,0,L|234:266,1,71.5000021820069,12|0,0:0|0:0,0:0:0:0:
345,316,16111,1,8,0:0:0:0:
274,329,16208,1,8,0:0:0:0:
343,346,16305,2,0,P|350:266|346:182,1,143.000004364014,6|4,0:0|0:0,0:0:0:0:
381,49,16595,1,0,0:0:0:0:
319,94,16692,6,0,B|242:86|267:129|182:123,1,143.000004364014,6|0,0:0|0:0,0:0:0:0:
127,13,16982,1,2,0:0:0:0:
113,83,17079,2,0,L|104:1,1,71.5000021820069,8|0,0:0|0:0,0:0:0:0:
0,110,17273,2,0,L|9:192,1,71.5000021820069,4|8,0:0|0:0,0:0:0:0:
209,268,17466,6,0,L|238:184,1,71.5000021820069,6|0,0:0|0:0,0:0:0:0:
144,318,17660,2,0,L|56:334,1,71.5000021820069,6|0,0:0|0:0,0:0:0:0:
231,337,17853,5,8,0:0:0:0:
308,298,17982,5,8,0:0:0:0:
303,384,18111,5,8,0:0:0:0:
396,332,18240,6,0,P|392:257|396:188,1,143.000004364014,6|8,0:0|0:0,0:0:0:0:
467,0,18531,2,0,P|471:75|467:144,1,143.000004364014,2|8,0:0|0:0,0:0:0:0:
311,78,18821,1,8,0:0:0:0:
380,98,18918,1,2,0:0:0:0:
306,111,19014,6,0,L|232:99,1,71.5000021820069,12|0,0:0|0:0,0:0:0:0:
107,59,19208,1,0,0:0:0:0:
176,39,19305,1,2,0:0:0:0:
104,32,19402,2,0,P|99:111|107:194,1,143.000004364014,12|0,0:0|0:0,0:0:0:0:
27,247,19692,1,0,0:0:0:0:
84,290,19789,6,0,B|162:267|151:346|248:324,1,143.000004364014,6|0,0:0|0:0,0:0:0:0:
288,202,20079,1,2,0:0:0:0:
277,272,20176,2,0,L|263:191,1,71.5000021820069,12|0,0:0|0:0,0:0:0:0:
353,314,20369,2,0,L|339:395,1,71.5000021820069,4|8,0:0|0:0,0:0:0:0:
441,232,20563,6,0,L|514:244,1,71.5000021820069,6|0,0:0|0:0,0:0:0:0:
454,46,20756,2,0,L|381:34,1,71.5000021820069,2|0,0:0|0:0,0:0:0:0:
307,56,20950,5,8,0:0:0:0:
300,62,21014,1,0,0:0:0:0:
293,68,21079,1,0,0:0:0:0:
286,74,21143,1,8,0:0:0:0:
279,80,21208,1,0,0:0:0:0:
272,87,21273,1,0,0:0:0:0:
264,92,21337,6,0,L|177:109,1,71.5000021820069,6|0,0:0|0:0,0:0:0:0:
131,60,21531,2,0,P|60:80|27:159,1,143.000004364014,6|8,0:0|0:0,0:0:0:0:
99,200,21821,1,0,0:0:0:0:
83,269,21918,2,0,L|78:183,1,71.5000021820069,4|0,0:0|0:0,0:0:0:0:
275,334,22111,6,0,L|351:362,1,71.5000021820069,2|0,0:0|0:0,0:0:0:0:
196,332,22305,1,4,0:0:0:0:
126,345,22402,1,0,0:0:0:0:
194,365,22498,2,0,P|199:286|192:210,1,143.000004364014,8|4,0:0|0:0,0:0:0:0:
311,181,22789,1,0,0:0:0:0:
360,128,22885,6,0,B|439:117|416:163|497:153,1,143.000004364014,2|4,0:0|0:0,0:0:0:0:
447,238,23176,1,0,0:0:0:0:
457,308,23273,2,0,L|466:227,1,71.5000021820069,8|2,0:0|0:0,0:0:0:0:
282,262,23466,2,0,L|273:343,1,71.5000021820069,4|0,0:0|0:0,0:0:0:0:
177,53,23660,5,2,0:0:0:0:
234,94,23756,2,0,P|306:76|336:10,1,143.000004364014,8|0,0:0|0:0,0:0:0:0:
167,127,24047,2,0,P|125:123|71:133,1,71.5000021820069,12|0,0:0|0:0,0:0:0:0:
32,0,24240,2,0,P|74:4|128:-6,1,71.5000021820069,4|0,0:0|0:0,0:0:0:0:
35,180,24434,5,6,0:0:0:0:
35,180,24531,2,0,P|40:254|36:332,1,143.000004364014,0|2,0:0|0:0,0:0:0:0:
126,384,24821,2,0,L|211:374,1,71.5000021820069,8|0,0:0|0:0,0:0:0:0:
289,284,25014,1,4,0:0:0:0:
218,298,25111,1,0,0:0:0:0:
287,314,25208,6,0,P|294:234|287:168,1,143.000004364014,2|4,0:0|0:0,0:0:0:0:
360,69,25498,1,0,0:0:0:0:
304,23,25595,2,0,B|236:-14|242:61|156:42,1,143.000004364014,8|0,0:0|0:0,0:0:0:0:
33,21,25885,1,8,0:0:0:0:
103,10,25982,6,0,L|26:-1,1,71.5000021820069,6|0,0:0|0:0,0:0:0:0:
0,118,26176,1,8,0:0:0:0:
70,129,26273,2,0,L|-7:140,1,71.5000021820069,8|6,0:0|0:0,0:0:0:0:
213,216,26466,1,0,0:0:0:0:
157,261,26563,2,0,L|140:346,1,71.5000021820069,8|8,0:0|0:0,0:0:0:0:
359,349,26756,6,0,L|336:246,2,95.3333362426759,6|0|0,0:0|0:0|0:0,0:0:0:0:
382,360,27143,5,2,0:0:0:0:
452,328,27240,1,2,0:0:0:0:
475,250,27337,1,2,0:0:0:0:
492,261,27434,1,2,0:0:0:0:
506,178,27531,6,0,P|504:125|509:72,1,97.5,0|0,0:0|0:0,0:0:0:0:
481,61,27918,2,0,L|481:13,2,32.5,0|0|0,0:0|0:0|0:0,0:0:0:0:
107,12,28305,6,0,P|113:67|113:115,1,97.50000371933,2|0,0:0|0:0,0:0:0:0:
68,310,28595,2,0,P|57:227|60:131,1,146.250005578995,2|0,0:0|0:0,0:0:0:0:
342,344,29079,6,0,B|384:322|384:322|443:340,1,97.50000371933,2|0,0:0|0:0,0:0:0:0:
504,369,29369,2,0,P|509:312|499:189,1,146.250005578995,2|0,0:0|0:0,0:0:0:0:
320,21,29853,6,0,L|217:33,1,97.50000371933,2|0,0:0|0:0,0:0:0:0:
293,113,30143,2,0,P|346:129|413:36,1,146.250005578995,2|0,0:0|0:0,0:0:0:0:
212,208,30627,6,0,B|196:254|196:254|214:300,1,97.50000371933,2|0,0:0|0:0,0:0:0:0:
293,384,30917,2,0,P|230:377|125:378,1,146.250005578995,2|0,0:0|0:0,0:0:0:0:
50,59,31401,6,0,L|153:71,1,97.50000371933,2|0,0:0|0:0,0:0:0:0:
95,150,31692,2,0,P|99:203|94:304,1,146.250005578995,2|0,0:0|0:0,0:0:0:0:
406,384,32175,6,0,L|393:282,1,97.50000371933,2|0,0:0|0:0,0:0:0:0:
342,221,32466,1,2,0:0:0:0:
368,180,32563,2,0,L|373:108,1,48.750001859665,0|0,0:0|0:0,0:0:0:0:
454,216,32756,1,4,0:0:0:0:
400,54,32950,6,0,B|360:28|360:28|307:38,1,97.50000371933,2|4,0:0|0:0,0:0:0:0:
245,85,33240,2,0,P|249:137|244:251,1,146.250005578995,2|0,0:0|0:0,0:0:0:0:
45,352,33724,6,0,P|44:315|47:292,1,48.750001859665,2|0,0:0|0:0,0:0:0:0:
90,234,33917,1,0,0:0:0:0:
53,201,34014,2,0,L|69:64,1,97.50000371933,2|0,0:0|0:0,0:0:0:0:
107,42,34304,2,0,L|165:19,1,48.750001859665,4|0,0:0|0:0,0:0:0:0:
224,335,34498,6,0,L|336:346,1,97.50000371933,2|0,0:0|0:0,0:0:0:0:
368,332,34788,1,2,0:0:0:0:
321,318,34885,1,0,0:0:0:0:
378,167,35079,1,0,0:0:0:0:
508,276,35272,6,0,B|457:291|457:291|415:267,1,97.50000371933,2|0,0:0|0:0,0:0:0:0:
378,167,35563,2,0,P|384:116|384:24,1,97.50000371933,2|0,0:0|0:0,0:0:0:0:
384,45,35853,1,0,0:0:0:0:
266,213,36046,6,0,L|163:227,1,97.50000371933,2|0,0:0|0:0,0:0:0:0:
121,213,36337,1,2,0:0:0:0:
167,199,36434,1,0,0:0:0:0:
137,46,36627,1,0,0:0:0:0:
0,136,36821,6,0,B|45:155|45:155|95:144,1,97.50000371933,2|0,0:0|0:0,0:0:0:0:
137,46,37111,2,0,L|249:66,1,97.50000371933,2|0,0:0|0:0,0:0:0:0:
256,54,37401,1,0,0:0:0:0:
287,220,37595,5,2,0:0:0:0:
322,375,37788,1,0,0:0:0:0:
279,351,37885,1,2,0:0:0:0:
325,336,37982,1,0,0:0:0:0:
402,360,38079,5,8,0:0:0:0:
484,329,38175,1,8,0:0:0:0:
484,329,38369,1,0,0:0:0:0:
449,202,38563,1,2,0:0:0:0:
490,81,38756,1,2,0:0:0:0:
382,0,38950,1,6,0:0:0:0:
320,40,39143,5,0,0:0:0:0:
320,40,39530,1,0,0:0:0:0:
320,40,39917,1,0,0:0:0:0:
93,103,40304,6,0,P|162:96|294:109,1,195,6|0,0:0|0:0,0:0:0:0:
316,121,40691,2,0,P|247:128|115:115,1,195,6|0,0:0|0:0,0:0:0:0:
93,103,41078,2,0,P|162:96|294:109,1,195,6|0,0:0|0:0,0:0:0:0:
397,0,41465,6,0,L|404:109,1,97.50000371933,6|2,0:0|0:0,0:0:0:0:
451,157,41852,1,4,0:0:0:0:
404,220,42046,1,8,0:0:0:0:
418,294,42239,2,0,P|350:298|300:309,1,97.50000371933,2|8,0:0|0:0,0:0:0:0:
268,356,42530,1,8,0:0:0:0:
268,356,42626,6,0,B|157:333|194:393|79:371,1,195.00000743866,6|6,0:0|0:0,0:0:0:0:
48,199,43207,1,2,0:0:0:0:
26,294,43401,2,0,L|15:172,1,97.50000371933,8|0,0:0|0:0,0:0:0:0:
89,23,43788,6,0,P|147:18|234:130,1,195.00000743866,6|2,0:0|0:0,0:0:0:0:
153,261,44368,2,0,P|145:207|154:160,1,97.50000371933,12|6,0:0|0:0,0:0:0:0:
339,314,44755,1,8,0:0:0:0:
339,314,44852,1,8,0:0:0:0:
339,314,44949,6,0,P|393:310|501:315,1,146.250005578995,6|2,0:0|0:0,0:0:0:0:
508,318,45336,1,12,0:0:0:0:
342,175,45530,1,8,0:0:0:0:
318,169,45626,1,8,0:0:0:0:
293,170,45723,1,2,0:0:0:0:
259,183,45820,1,0,0:0:0:0:
222,187,45917,1,0,0:0:0:0:
186,180,46013,1,0,0:0:0:0:
152,165,46110,6,0,B|261:138|231:220|351:200,1,195.00000743866,6|8,0:0|0:0,0:0:0:0:
217,344,46691,1,4,0:0:0:0:
324,357,46884,2,0,L|421:385,1,97.50000371933,2|0,0:0|0:0,0:0:0:0:
85,251,47272,6,0,P|87:200|82:144,1,97.50000371933,12|4,0:0|0:0,0:0:0:0:
26,104,47659,1,6,0:0:0:0:
128,23,47852,1,8,0:0:0:0:
128,23,47949,2,0,L|241:43,1,97.50000371933,8|0,0:0|0:0,0:0:0:0:
328,63,48239,1,8,0:0:0:0:
328,63,48336,1,8,0:0:0:0:
405,41,48433,6,0,P|445:128|451:254,1,195.00000743866,6|0,0:0|0:0,0:0:0:0:
388,288,48723,2,0,P|397:191|437:103,1,195.00000743866,6|0,0:0|0:0,0:0:0:0:
512,38,49013,2,0,L|405:-8,1,97.50000371933,12|0,0:0|0:0,0:0:0:0:
197,346,49207,1,8,0:0:0:0:
197,346,49304,1,8,0:0:0:0:
140,290,49401,6,0,P|144:186|136:74,1,195.00000743866,6|0,0:0|0:0,0:0:0:0:
120,61,49691,2,0,P|116:165|124:277,1,195.00000743866,6|0,0:0|0:0,0:0:0:0:
45,29,49981,6,0,L|-4:39,1,39,12|0,0:0|0:0,0:0:0:0:
11,329,50368,6,0,L|117:361,1,81.25,6|0,0:0|0:0,0:0:0:0:
155,306,50549,1,8,0:0:0:0:
228,340,50640,2,0,P|236:265|232:172,1,162.5,0|8,0:0|0:0,0:0:0:0:
205,144,50913,2,0,P|199:189|207:251,1,81.25,2|0,0:0|0:0,0:0:0:0:
374,355,51095,6,0,L|294:386,1,81.25,12|0,0:0|0:0,0:0:0:0:
425,286,51277,1,8,0:0:0:0:
506,285,51368,1,8,0:0:0:0:
431,255,51458,6,0,P|427:171|433:86,1,162.5,6|8,0:0|0:0,0:0:0:0:
331,143,51731,2,0,P|333:183|327:223,1,81.25,2|0,0:0|0:0,0:0:0:0:
243,0,51913,1,8,0:0:0:0:
186,58,52004,6,0,P|101:67|61:148,1,162.5,6|2,0:0|0:0,0:0:0:0:
138,247,52277,1,0,0:0:0:0:
57,258,52368,6,0,L|159:277,1,81.25,6|0,0:0|0:0,0:0:0:0:
295,341,52549,1,8,0:0:0:0:
230,290,52640,2,0,P|225:206|234:119,1,162.5,2|8,0:0|0:0,0:0:0:0:
316,79,52913,6,0,L|391:29,1,81.25,6|0,0:0|0:0,0:0:0:0:
234,39,53095,2,0,L|162:-1,1,81.25,12|0,0:0|0:0,0:0:0:0:
317,177,53277,1,8,0:0:0:0:
392,146,53368,1,8,0:0:0:0:
456,194,53458,6,0,P|462:283|454:368,1,162.5,6|0,0:0|0:0,0:0:0:0:
382,319,53731,1,2,0:0:0:0:
303,341,53822,2,0,L|387:288,1,81.25,12|0,0:0|0:0,0:0:0:0:
228,363,54004,2,0,L|140:316,1,81.25,2|0,0:0|0:0,0:0:0:0:
40,347,54186,5,12,0:0:0:0:
51,274,54277,1,0,0:0:0:0:
63,201,54368,1,2,0:0:0:0:
76,129,54458,1,0,0:0:0:0:
70,213,54549,6,0,B|148:178|149:243|249:232,1,162.5,6|8,0:0|0:0,0:0:0:0:
269,140,54822,2,0,L|256:43,1,81.25,2|0,0:0|0:0,0:0:0:0:
341,218,55004,1,8,0:0:0:0:
354,289,55095,2,0,L|364:208,1,81.25,6|0,0:0|0:0,0:0:0:0:
290,345,55277,6,0,L|214:375,1,81.25,8|0,0:0|0:0,0:0:0:0:
474,328,55458,1,8,0:0:0:0:
406,355,55549,1,8,0:0:0:0:
477,369,55640,6,0,P|487:278|478:204,1,162.5,6|8,0:0|0:0,0:0:0:0:
489,28,55913,1,0,0:0:0:0:
428,68,56004,2,0,P|421:119|426:161,1,81.25,8|0,0:0|0:0,0:0:0:0:
367,15,56186,6,0,L|277:29,1,81.25,6|0,0:0|0:0,0:0:0:0:
115,67,56368,2,0,L|246:93,1,121.875,8|0,0:0|0:0,0:0:0:0:
251,122,56549,6,0,L|256:309,1,162.5,6|0,0:0|0:0,0:0:0:0:
273,284,56821,2,0,L|268:97,1,162.5,8|0,0:0|0:0,0:0:0:0:
190,328,57094,2,0,P|142:322|100:326,1,81.25,6|0,0:0|0:0,0:0:0:0:
72,194,57276,1,0,0:0:0:0:
5,223,57367,2,0,P|93:227|171:222,1,162.5,8|0,0:0|0:0,0:0:0:0:
476,27,57639,6,0,P|395:49|356:119,1,162.5,6|0,0:0|0:0,0:0:0:0:
439,296,57912,2,0,P|460:214|419:146,1,162.5,12|0,0:0|0:0,0:0:0:0:
280,183,58185,2,0,P|320:189|361:191,1,81.25,6|0,0:0|0:0,0:0:0:0:
257,54,58367,5,2,0:0:0:0:
199,73,58458,1,0,0:0:0:0:
140,56,58549,1,0,0:0:0:0:
105,6,58639,1,0,0:0:0:0:
105,6,58730,6,0,L|108:91,1,81.25,6|0,0:0|0:0,0:0:0:0:
159,151,58912,1,8,0:0:0:0:
80,170,59003,2,0,P|68:251|77:340,1,162.5,6|8,0:0|0:0,0:0:0:0:
98,357,59276,2,0,P|102:310|97:266,1,81.25,6|0,0:0|0:0,0:0:0:0:
201,384,59458,6,0,L|292:362,1,81.25,8|0,0:0|0:0,0:0:0:0:
410,313,59639,1,8,0:0:0:0:
330,296,59730,1,8,0:0:0:0:
410,282,59821,6,0,P|419:198|414:119,1,162.5,6|8,0:0|0:0,0:0:0:0:
429,25,60094,2,0,L|510:5,1,81.25,2|0,0:0|0:0,0:0:0:0:
264,24,60276,1,8,0:0:0:0:
337,58,60367,6,0,L|279:-2,1,81.25,6|0,0:0|0:0,0:0:0:0:
97,77,60549,1,8,0:0:0:0:
42,136,60639,1,0,0:0:0:0:
84,205,60730,6,0,B|176:186|154:246|265:230,1,162.5,6|8,0:0|0:0,0:0:0:0:
300,304,61002,2,0,L|291:386,1,81.25,2|0,0:0|0:0,0:0:0:0:
303,140,61184,1,8,0:0:0:0:
338,213,61275,6,0,L|329:131,1,81.25,6|0,0:0|0:0,0:0:0:0:
191,38,61457,2,0,L|182:120,1,81.25,8|0,0:0|0:0,0:0:0:0:
369,27,61639,1,2,0:0:0:0:
289,10,61730,1,0,0:0:0:0:
368,0,61820,6,0,P|448:17|479:107,1,162.5,12|0,0:0|0:0,0:0:0:0:
416,223,62093,1,0,0:0:0:0:
416,223,62184,2,0,P|411:172|419:123,1,81.25,12|0,0:0|0:0,0:0:0:0:
511,181,62366,2,0,P|516:232|508:281,1,81.25,2|0,0:0|0:0,0:0:0:0:
340,334,62548,5,12,0:0:0:0:
267,341,62639,1,0,0:0:0:0:
194,349,62730,1,2,0:0:0:0:
122,357,62820,1,0,0:0:0:0:
122,357,62911,6,0,P|129:267|121:182,1,162.5,6|8,0:0|0:0,0:0:0:0:
93,171,63184,2,0,P|87:215|94:266,1,81.25,2|0,0:0|0:0,0:0:0:0:
20,22,63366,1,8,0:0:0:0:
67,88,63457,6,0,L|-4:41,1,81.25,6|0,0:0|0:0,0:0:0:0:
151,103,63639,2,0,L|227:65,1,81.25,12|0,0:0|0:0,0:0:0:0:
296,200,63820,1,8,0:0:0:0:
224,185,63911,1,8,0:0:0:0:
296,172,64002,6,0,P|376:195|399:285,1,162.5,6|8,0:0|0:0,0:0:0:0:
334,364,64275,2,0,L|234:390,1,81.25,0|8,0:0|0:0,0:0:0:0:
345,340,64457,1,0,0:0:0:0:
435,351,64548,6,0,L|569:393,1,81.25,6|0,0:0|0:0,0:0:0:0:
465,190,64730,2,0,L|331:148,1,81.25,12|0,0:0|0:0,0:0:0:0:
22,220,64911,6,0,B|101:197|101:270|203:248,1,162.5,6|8,0:0|0:0,0:0:0:0:
240,306,65183,2,0,L|216:393,1,81.25,2|8,0:0|0:0,0:0:0:0:
269,207,65365,1,0,0:0:0:0:
269,207,65456,5,8,0:0:0:0:
222,150,65547,1,8,0:0:0:0:
175,93,65638,1,0,0:0:0:0:
128,36,65729,1,8,0:0:0:0:
194,66,65820,5,8,0:0:0:0:
447,0,66001,2,0,P|452:42|446:88,1,81.25,6|0,0:0|0:0,0:0:0:0:
344,177,66183,6,0,L|245:215,1,81.25,8|0,0:0|0:0,0:0:0:0:
437,216,66365,2,0,L|519:282,1,81.25,8|0,0:0|0:0,0:0:0:0:
422,119,66547,2,0,L|438:14,1,81.25,12|0,0:0|0:0,0:0:0:0:
374,301,66729,6,0,L|443:358,1,81.25,8|0,0:0|0:0,0:0:0:0:
75,352,66911,2,0,L|138:301,1,81.25,8|0,0:0|0:0,0:0:0:0:
256,352,67092,6,0,P|260:311|254:253,1,81.25,6|0,0:0|0:0,0:0:0:0:
331,235,67274,1,8,0:0:0:0:
249,241,67365,2,0,P|247:156|256:74,1,162.5,2|8,0:0|0:0,0:0:0:0:
282,56,67638,2,0,P|284:98|281:144,1,81.25,2|0,0:0|0:0,0:0:0:0:
118,56,67820,6,0,L|186:12,1,81.25,12|0,0:0|0:0,0:0:0:0:
79,163,68001,1,8,0:0:0:0:
0,141,68092,1,8,0:0:0:0:
80,128,68183,6,0,P|82:213|73:295,1,162.5,6|8,0:0|0:0,0:0:0:0:
172,384,68456,2,0,P|170:328|174:289,1,81.25,2|0,0:0|0:0,0:0:0:0:
282,56,68638,1,8,0:0:0:0:
317,128,68729,6,0,P|402:141|432:230,1,162.5,6|2,0:0|0:0,0:0:0:0:
384,267,69001,1,0,0:0:0:0:
441,324,69092,6,0,B|351:304|378:366|267:348,1,162.5,6|8,0:0|0:0,0:0:0:0:
232,248,69364,2,0,L|246:156,1,81.25,2|0,0:0|0:0,0:0:0:0:
140,384,69546,1,8,0:0:0:0:
152,303,69637,2,0,L|164:383,1,81.25,6|0,0:0|0:0,0:0:0:0:
76,177,69819,6,0,P|100:98|182:66,1,162.5,12|8,0:0|0:0,0:0:0:0:
224,154,70092,1,8,0:0:0:0:
274,91,70182,6,0,L|230:255,1,162.5,6|0,0:0|0:0,0:0:0:0:
161,291,70455,1,2,0:0:0:0:
87,254,70546,6,0,P|46:255|-2:270,1,81.25,12|0,0:0|0:0,0:0:0:0:
85,384,70728,2,0,P|126:383|174:368,1,81.25,2|0,0:0|0:0,0:0:0:0:
340,320,70910,1,12,0:0:0:0:
355,316,71001,1,0,0:0:0:0:
362,330,71092,1,2,0:0:0:0:
347,335,71182,1,0,0:0:0:0:
253,384,71273,6,0,P|260:293|253:207,1,162.5,6|8,0:0|0:0,0:0:0:0:
162,149,71546,2,0,P|158:194|162:237,1,81.25,2|0,0:0|0:0,0:0:0:0:
304,65,71728,1,0,0:0:0:0:
227,92,71819,2,0,L|294:38,1,81.25,6|0,0:0|0:0,0:0:0:0:
417,157,72001,6,0,L|325:129,1,81.25,8|0,0:0|0:0,0:0:0:0:
467,218,72182,1,8,0:0:0:0:
408,274,72273,1,8,0:0:0:0:
439,349,72364,6,0,P|385:350|336:361,1,81.25,6|0,0:0|0:0,0:0:0:0:
434,178,72546,2,0,P|487:188|533:207,1,81.25,8|0,0:0|0:0,0:0:0:0:
364,7,72728,2,0,P|313:26|271:53,1,81.25,8|0,0:0|0:0,0:0:0:0:
475,80,72910,6,0,L|495:-18,1,81.25,6|0,0:0|0:0,0:0:0:0:
262,170,73092,2,0,L|242:268,1,81.25,8|0,0:0|0:0,0:0:0:0:
24,30,73273,6,0,P|108:56|146:139,1,162.5,6|0,0:0|0:0,0:0:0:0:
87,249,73545,2,0,P|83:204|90:161,1,81.25,8|0,0:0|0:0,0:0:0:0:
173,304,73727,1,0,0:0:0:0:
173,304,73818,6,0,P|177:349|170:392,1,81.25,6|0,0:0|0:0,0:0:0:0:
0,298,74000,1,0,0:0:0:0:
0,298,74091,2,0,P|-4:253|3:210,1,81.25,8|0,0:0|0:0,0:0:0:0:
262,170,74273,1,0,0:0:0:0:
186,198,74363,6,0,B|280:173|249:266|387:234,1,162.5,6|0,0:0|0:0,0:0:0:0:
447,319,74636,1,8,0:0:0:0:
468,249,74727,1,0,0:0:0:0:
489,179,74818,1,0,0:0:0:0:
512,109,74909,6,0,L|335:175,1,162.5,6|2,0:0|0:0,0:0:0:0:
241,0,75182,1,0,0:0:0:0:
262,10,75273,1,0,0:0:0:0:
283,20,75363,1,0,0:0:0:0:
198,96,75454,6,0,L|92:124,1,81.25,6|0,0:0|0:0,0:0:0:0:
71,183,75636,1,8,0:0:0:0:
0,142,75727,2,0,P|-8:223|0:304,1,162.5,6|8,0:0|0:0,0:0:0:0:
32,334,76000,2,0,P|36:292|33:247,1,81.25,6|0,0:0|0:0,0:0:0:0:
154,199,76182,6,0,L|241:230,1,81.25,8|0,0:0|0:0,0:0:0:0:
342,279,76363,1,8,0:0:0:0:
263,301,76454,1,8,0:0:0:0:
342,319,76545,6,0,P|350:238|342:157,1,162.5,6|8,0:0|0:0,0:0:0:0:
272,35,76818,2,0,P|268:75|272:116,1,81.25,2|0,0:0|0:0,0:0:0:0:
434,177,77000,1,8,0:0:0:0:
434,177,77091,6,0,P|438:136|434:96,1,81.25,6|0,0:0|0:0,0:0:0:0:
190,56,77273,1,8,0:0:0:0:
112,75,77363,1,0,0:0:0:0:
190,95,77454,6,0,B|90:82|124:137|19:126,1,162.5,6|8,0:0|0:0,0:0:0:0:
134,185,77726,2,0,L|124:276,1,81.25,2|0,0:0|0:0,0:0:0:0:
81,358,77908,1,8,0:0:0:0:
0,368,77999,2,0,L|83:331,1,81.25,6|0,0:0|0:0,0:0:0:0:
155,335,78181,6,0,L|220:383,1,81.25,8|0,0:0|0:0,0:0:0:0:
395,369,78363,1,2,0:0:0:0:
424,293,78454,1,0,0:0:0:0:
372,230,78544,6,0,L|177:275,1,162.5,12|0,0:0|0:0,0:0:0:0:
213,266,78817,1,0,0:0:0:0:
213,266,78909,2,0,L|280:310,1,81.25,12|0,0:0|0:0,0:0:0:0:
474,186,79090,6,0,P|480:145|476:101,1,81.25,2|0,0:0|0:0,0:0:0:0:
263,27,79272,2,0,P|257:68|261:112,1,81.25,12|0,0:0|0:0,0:0:0:0:
352,207,79454,1,2,0:0:0:0:
352,207,79544,1,0,0:0:0:0:
352,207,79635,6,0,L|390:29,1,162.5,6|8,0:0|0:0,0:0:0:0:
131,95,79908,2,0,L|38:124,1,81.25,2|0,0:0|0:0,0:0:0:0:
230,183,80090,1,8,0:0:0:0:
191,254,80181,2,0,L|212:158,1,81.25,6|0,0:0|0:0,0:0:0:0:
20,228,80363,6,0,L|91:294,1,81.25,12|0,0:0|0:0,0:0:0:0:
252,364,80544,1,8,0:0:0:0:
172,345,80635,1,8,0:0:0:0:
251,329,80726,6,0,P|284:257|382:223,1,162.5,6|8,0:0|0:0,0:0:0:0:
493,263,80999,2,0,P|460:274|408:276,1,81.25,0|8,0:0|0:0,0:0:0:0:
433,100,81181,1,0,0:0:0:0:
433,100,81272,6,0,P|466:89|518:87,1,81.25,6|0,0:0|0:0,0:0:0:0:
512,171,81454,2,0,P|479:182|427:184,1,81.25,12|0,0:0|0:0,0:0:0:0:
230,79,81635,6,0,L|252:-14,1,81.25,6|0,0:0|0:0,0:0:0:0:
95,127,81816,1,8,0:0:0:0:
98,45,81907,2,0,L|120:138,1,81.25,2|8,0:0|0:0,0:0:0:0:
15,227,82089,1,0,0:0:0:0:
15,227,82180,5,8,0:0:0:0:
80,260,82271,1,8,0:0:0:0:
144,293,82362,1,0,0:0:0:0:
208,326,82453,1,8,0:0:0:0:
179,276,82544,6,0,L|60:314,1,121.875,8|0,0:0|0:0,0:0:0:0:
62,313,82725,6,0,L|165:346,1,81.25,6|0,0:0|0:0,0:0:0:0:
272,119,82907,2,0,L|211:173,1,81.25,8|0,0:0|0:0,0:0:0:0:
213,189,83089,2,0,L|287:124,1,81.25,8|0,0:0|0:0,0:0:0:0:
340,367,83271,6,0,L|322:287,1,81.25,12|0,0:0|0:0,0:0:0:0:
451,50,83453,2,0,L|418:154,1,81.25,8|0,0:0|0:0,0:0:0:0:
437,139,83635,2,0,L|461:61,1,81.25,8|0,0:0|0:0,0:0:0:0:
256,32,83816,6,0,L|202:44,1,32.5,0|0,0:0|0:0,0:0:0:0:
224,39,84544,1,0,0:0:0:0:
143,21,84725,1,0,0:0:0:0:
50,103,84907,6,0,L|38:141,1,32.5,0|0,0:0|0:0,0:0:0:0:
40,133,85271,1,0,0:0:0:0:
78,200,85453,1,0,0:0:0:0:
0,209,85635,1,0,0:0:0:0:
0,209,85816,1,0,0:0:0:0:
207,361,85998,6,0,B|177:284|177:284|220:206,1,162.5,6|8,0:0|0:0,0:0:0:0:
295,181,86271,2,0,L|283:282,1,81.25,2|0,0:0|0:0,0:0:0:0:
442,116,86453,1,8,0:0:0:0:
442,116,86544,5,2,0:0:0:0:
372,92,86635,1,0,0:0:0:0:
299,88,86725,1,12,0:0:0:0:
227,104,86816,1,0,0:0:0:0:
263,111,86907,2,0,L|276:20,1,81.25,8|8,0:0|0:0,0:0:0:0:
173,161,87089,6,0,B|87:141|108:194|15:181,1,162.5,6|8,0:0|0:0,0:0:0:0:
83,272,87362,1,0,0:0:0:0:
59,341,87453,2,0,L|49:252,1,81.25,8|0,0:0|0:0,0:0:0:0:
281,210,87635,2,0,L|271:299,1,81.25,8|0,0:0|0:0,0:0:0:0:
169,368,87816,2,0,L|179:279,1,81.25,8|0,0:0|0:0,0:0:0:0:
382,264,87998,2,0,L|392:353,1,81.25,8|0,0:0|0:0,0:0:0:0:
489,267,88180,6,0,P|496:182|488:98,1,162.5,6|2,0:0|0:0,0:0:0:0:
445,15,88453,1,0,0:0:0:0:
372,26,88544,2,0,L|471:46,1,81.25,12|0,0:0|0:0,0:0:0:0:
404,176,88725,2,0,L|305:156,1,81.25,0|8,0:0|0:0,0:0:0:0:
238,31,88907,5,0,0:0:0:0:
188,85,88998,1,0,0:0:0:0:
138,138,89089,1,8,0:0:0:0:
87,191,89180,1,0,0:0:0:0:
108,121,89271,6,0,B|243:63|197:226|394:177,1,243.75,6|0,0:0|0:0,0:0:0:0:
450,384,89635,1,8,0:0:0:0:
438,367,89725,1,8,0:0:0:0:
426,349,89816,1,8,0:0:0:0:
414,331,89907,1,8,0:0:0:0:
402,313,89998,1,8,0:0:0:0:
390,295,90089,1,8,0:0:0:0:
378,277,90180,1,8,0:0:0:0:
366,259,90271,1,8,0:0:0:0:
352,243,90362,6,0,L|198:176,1,162.5,6|8,0:0|0:0,0:0:0:0:
72,274,90635,2,0,L|207:174,1,162.5,6|8,0:0|0:0,0:0:0:0:
184,15,90907,2,0,L|202:181,1,162.5,6|8,0:0|0:0,0:0:0:0:
338,267,91180,2,0,L|198:175,1,162.5,6|8,0:0|0:0,0:0:0:0:
57,249,91453,6,0,L|207:174,1,162.5,6|8,0:1|0:0,0:0:0:0:
212,14,91725,2,0,L|202:181,1,162.5,6|8,0:0|0:0,0:0:0:0:
320,290,91998,2,0,L|198:174,1,162.5,6|8,0:0|0:0,0:0:0:0:
46,223,92271,2,0,L|207:175,1,162.5,6|2,0:0|0:0,0:0:0:0:
460,23,92544,6,0,P|465:96|461:152,1,130,6|0,0:1|0:0,0:0:0:0:
402,194,92816,1,2,0:0:0:0:
402,194,92907,2,0,L|334:183,1,65,4|0,0:0|0:0,0:0:0:0:
449,258,93089,1,2,0:0:0:0:
369,356,93271,2,0,L|233:367,1,130,12|0,0:0|0:0,0:0:0:0:
57,248,93635,5,2,0:0:0:0:
57,248,93725,2,0,P|53:171|64:90,1,130,12|2,0:0|0:0,0:0:0:0:
118,65,93998,2,0,L|186:55,1,65,4|0,0:0|0:0,0:0:0:0:
47,34,94180,1,2,0:0:0:0:
141,166,94362,2,0,B|246:131|227:223|337:199,1,195,12|0,0:0|0:0,0:0:0:0:
355,191,94725,5,6,0:0:0:0:
383,280,94907,2,0,P|452:285|531:280,1,130,2|12,0:0|0:0,0:0:0:0:
489,305,95180,2,0,P|420:300|341:305,1,130,2|0,0:0|0:0,0:0:0:0:
329,289,95453,2,0,B|228:268|252:367|122:334,1,195,12|0,0:0|0:0,0:0:0:0:
117,331,95816,5,6,0:0:0:0:
62,143,95998,2,0,L|71:65,1,65,8|0,0:0|0:0,0:0:0:0:
121,203,96180,2,0,L|199:212,1,65,6|0,0:0|0:0,0:0:0:0:
260,53,96362,1,8,0:0:0:0:
292,49,96453,1,8,0:0:0:0:
322,59,96544,5,8,0:0:0:0:
350,74,96635,1,2,0:0:0:0:
380,85,96725,1,2,0:0:0:0:
412,81,96816,1,2,0:0:0:0:
412,81,96907,6,0,L|400:194,1,97.5,6|0,0:0|0:0,0:0:0:0:
400,194,97089,1,8,0:0:0:0:
456,352,97271,2,0,L|513:385,1,65,6|0,0:0|0:0,0:0:0:0:
319,315,97453,1,8,0:0:0:0:
502,173,97635,1,8,0:0:0:0:
502,173,97725,1,8,0:0:0:0:
502,173,97816,1,4,0:0:0:0:
303,170,97998,6,0,B|205:127|221:227|100:199,1,195,6|0,0:0|0:0,0:0:0:0:
88,192,98362,1,6,0:0:0:0:
141,287,98544,2,0,L|149:359,1,65,8|8,0:0|0:0,0:0:0:0:
104,105,98725,1,8,0:0:0:0:
115,74,98816,1,2,0:0:0:0:
126,43,98907,1,2,0:0:0:0:
138,12,98998,1,2,0:0:0:0:
206,61,99089,6,0,P|313:95|369:215,1,195.00000743866,6|8,0:0|0:0,0:0:0:0:
309,243,99362,2,0,P|284:133|360:24,1,195.00000743866,6|8,0:0|0:0,0:0:0:0:
404,27,99635,2,0,L|510:55,1,97.50000371933,6|0,0:0|0:0,0:0:0:0:
453,176,99816,1,8,0:0:0:0:
459,207,99907,1,6,0:0:0:0:
465,238,99998,1,0,0:0:0:0:
471,269,100089,1,8,0:0:0:0:
487,345,100180,6,0,B|458:307|458:307|285:339,1,195.00000743866,6|8,0:0|0:0,0:0:0:0:
172,306,100453,2,0,B|185:260|185:260|358:228,1,195.00000743866,6|8,0:0|0:0,0:0:0:0:
444,132,100725,2,0,L|333:151,1,97.50000371933,6|0,0:0|0:0,0:0:0:0:
159,152,100907,1,8,0:0:0:0:
127,142,100998,1,6,0:0:0:0:
96,132,101089,1,2,0:0:0:0:
65,123,101180,1,2,0:0:0:0:
24,54,101271,6,0,P|30:124|25:252,2,195,6|2|2,0:0|0:0|0:0,0:0:0:0:
24,54,101998,1,12,0:0:0:0:
149,0,102180,1,4,0:0:0:0:
292,141,102362,5,6,0:0:0:0:
292,141,102453,2,0,L|433:120,1,130,8|2,0:0|0:0,0:0:0:0:
451,113,102725,1,6,0:0:0:0:
418,19,102907,1,2,0:0:0:0:
333,224,103089,1,12,0:0:0:0:
421,205,103271,1,4,0:0:0:0:
376,330,103453,5,4,0:0:0:0:
376,330,103635,2,0,P|299:326|227:335,1,130,2|4,0:0|0:0,0:0:0:0:
217,345,103907,2,0,P|294:349|366:340,1,130,2|2,0:0|0:0,0:0:0:0:
375,359,104180,1,12,0:0:0:0:
240,235,104362,1,0,0:0:0:0:
176,248,104453,1,8,0:0:0:0:
239,261,104544,5,6,0:0:0:0:
79,165,104725,2,0,P|76:78|84:17,1,130,8|6,0:0|0:0,0:0:0:0:
80,35,105089,1,8,0:0:0:0:
141,13,105180,1,8,0:0:0:0:
203,30,105271,1,8,0:0:0:0:
247,77,105362,1,2,0:0:0:0:
310,89,105453,1,2,0:0:0:0:
371,68,105544,1,2,0:0:0:0:
371,68,105635,5,4,0:0:0:0:
458,300,114362,6,0,P|463:211|458:104,1,195.00000743866,4|8,0:0|0:0,0:0:0:0:
458,105,114907,1,0,0:0:0:0:
302,47,115089,1,8,0:0:0:0:
403,12,115271,1,0,0:0:0:0:
236,150,115453,6,0,B|130:132|169:196|49:180,1,195.00000743866,8|8,0:0|0:0,0:0:0:0:
115,135,115998,1,0,0:0:0:0:
40,99,116180,1,8,0:0:0:0:
73,285,116362,1,0,0:0:0:0:
97,280,116453,1,8,0:0:0:0:
121,275,116544,6,0,L|343:346,1,195.00000743866,4|8,0:0|0:0,0:0:0:0:
306,334,117089,1,0,0:0:0:0:
456,246,117271,2,0,L|369:324,1,97.50000371933,8|0,0:0|0:0,0:0:0:0:
320,243,117635,6,0,B|292:138|356:168|331:53,1,195.00000743866,8|8,0:0|0:0,0:0:0:0:
331,53,118180,1,2,0:0:0:0:
221,0,118362,2,0,L|109:28,1,97.50000371933,8|8,0:0|0:0,0:0:0:0:
121,72,118635,1,0,0:0:0:0:
81,44,118725,6,0,P|73:112|81:245,1,195.00000743866,4|8,0:0|0:0,0:0:0:0:
79,238,119271,1,2,0:0:0:0:
225,326,119453,1,8,0:0:0:0:
123,333,119635,1,2,0:0:0:0:
263,233,119816,6,0,P|328:230|424:319,2,195.00000743866,12|12|12,0:0|0:0|0:0,0:0:0:0:
263,233,120725,1,0,0:0:0:0:
81,44,120907,6,0,B|194:24|153:88|281:72,1,195.00000743866,12|4,0:0|0:0,0:0:0:0:
179,33,121453,1,2,0:0:0:0:
270,0,121635,1,0,0:0:0:0:
362,154,121816,1,2,0:0:0:0:
200,316,121998,5,12,0:0:0:0:
98,301,122180,1,0,0:0:0:0:
140,366,122362,5,12,0:0:0:0:
152,251,122544,1,0,0:0:0:0:
123,129,122725,2,0,L|13:153,1,97.50000371933,12|8,0:0|0:0,0:0:0:0:
47,164,122998,1,8,0:0:0:0:
79,189,123089,6,0,B|155:225|155:225|233:205,1,162.5,6|8,0:0|0:0,0:0:0:0:
294,69,123362,2,0,B|218:33|218:33|140:53,1,162.5,0|0,0:0|0:0,0:0:0:0:
342,130,123635,2,0,L|448:110,1,81.25,8|0,0:0|0:0,0:0:0:0:
421,269,123816,6,0,L|342:254,1,81.25,6|0,0:0|0:0,0:0:0:0:
217,285,123998,1,0,0:0:0:0:
286,307,124089,1,0,0:0:0:0:
213,317,124180,6,0,P|207:232|214:145,1,162.5,6|0,0:0|0:0,0:0:0:0:
278,111,124453,1,0,0:0:0:0:
292,40,124544,2,0,P|295:82|291:126,1,81.25,12|0,0:0|0:0,0:0:0:0:
483,175,124725,1,2,0:0:0:0:
366,322,124907,6,0,B|236:267|270:409|106:370,1,243.75,12|0,0:0|0:0,0:0:0:0:
71,347,125271,6,0,L|67:250,1,81.25,6|0,0:0|0:0,0:0:0:0:
0,112,125453,2,0,P|82:135|120:214,1,162.5,8|6,0:0|0:0,0:0:0:0:
181,235,125725,1,0,0:0:0:0:
237,188,125816,2,0,L|256:103,1,81.25,8|0,0:0|0:0,0:0:0:0:
422,0,125998,6,0,L|441:85,1,81.25,6|0,0:0|0:0,0:0:0:0:
409,146,126180,1,8,0:0:0:0:
337,130,126271,1,8,0:0:0:0:
474,190,126362,6,0,P|480:275|476:385,1,195.00000743866,6|12,0:0|0:0,0:0:0:0:
476,384,126907,1,2,0:0:0:0:
316,246,127089,5,12,0:0:0:0:
251,280,127180,1,2,0:0:0:0:
186,314,127271,1,0,0:0:0:0:
121,348,127362,1,2,0:0:0:0:
193,337,127453,6,0,P|200:254|196:162,1,162.5,6|8,0:0|0:0,0:0:0:0:
139,129,127725,1,0,0:0:0:0:
204,97,127816,2,0,L|285:129,1,81.25,6|0,0:0|0:0,0:0:0:0:
342,273,127998,2,0,L|329:186,1,81.25,8|0,0:0|0:0,0:0:0:0:
361,118,128180,6,0,L|424:67,1,81.25,6|0,0:0|0:0,0:0:0:0:
498,61,128362,1,8,0:0:0:0:
428,36,128453,1,8,0:0:0:0:
410,186,128544,6,0,P|485:218|511:304,1,162.5,6|0,0:0|0:0,0:0:0:0:
439,384,128816,1,2,0:0:0:0:
439,384,128907,2,0,P|433:334|439:281,1,81.25,12|0,0:0|0:0,0:0:0:0:
197,174,129089,2,0,P|203:224|197:277,1,81.25,2|0,0:0|0:0,0:0:0:0:
309,384,129271,6,0,B|303:344|303:344|318:293,1,81.25,12|0,0:0|0:0,0:0:0:0:
337,231,129453,2,0,B|343:191|343:191|328:140,1,81.25,0|0,0:0|0:0,0:0:0:0:
204,21,129635,6,0,L|55:45,1,146.250005578995,12|0,0:0|0:0,0:0:0:0:
103,156,129998,5,8,0:0:0:0:
103,156,130089,1,8,0:0:0:0:
103,156,130180,1,8,0:0:0:0:
103,156,130271,1,8,0:0:0:0:
103,156,130362,5,8,0:0:0:0:
114,144,130453,1,8,0:0:0:0:
104,130,130544,1,8,0:0:0:0:
87,127,130635,1,8,0:0:0:0:
73,135,130725,5,8,0:0:0:0:
50,166,130816,1,8,0:0:0:0:
56,204,130907,1,8,0:0:0:0:
85,229,130998,1,8,0:0:0:0:
123,235,131089,5,8,0:0:0:0:
186,222,131180,1,8,0:0:0:0:
220,167,131271,1,8,0:0:0:0:
230,102,131362,1,8,0:0:0:0:
188,51,131453,5,8,0:0:0:0:
107,24,131544,1,8,0:0:0:0:
33,65,131635,1,8,0:0:0:0:
7,144,131725,1,8,0:0:0:0:
7,144,131816,5,0,0:0:0:0:
109,316,133998,6,0,L|264:302,3,146.250005578995,6|6|2|0,0:0|0:0|0:0|0:0,0:0:0:0:
345,308,134907,1,0,0:0:0:0:
299,325,134998,1,0,0:0:0:0:
347,332,135089,6,0,P|355:247|349:135,1,195.00000743866,6|4,0:0|0:0,0:0:0:0:
349,137,135635,1,0,0:0:0:0:
213,13,135816,1,8,0:0:0:0:
245,78,135907,1,8,0:0:0:0:
216,145,135998,6,0,B|135:131|163:168|73:160,2,146.250005578995,6|6|2,0:0|0:0|0:0,0:0:0:0:
216,145,136725,1,4,0:0:0:0:
401,69,136907,1,2,0:0:0:0:
492,283,137088,6,0,P|474:341|340:369,1,195.00000743866,12|4,0:0|0:0,0:0:0:0:
277,263,137634,1,2,0:0:0:0:
373,299,137816,5,0,0:0:0:0:
207,337,137998,1,0,0:0:0:0:
43,369,138179,6,0,P|38:308|49:181,2,146.250005578995,6|6|2,0:0|0:0|0:0,0:0:0:0:
43,369,138907,1,4,0:0:0:0:
148,277,139088,1,2,0:0:0:0:
101,166,139270,6,0,L|113:67,1,97.50000371933,12|2,0:0|0:0,0:0:0:0:
386,120,139634,2,0,L|398:219,1,97.50000371933,12|2,0:0|0:0,0:0:0:0:
207,337,139998,1,8,0:0:0:0:
225,321,140088,1,8,0:0:0:0:
243,305,140179,6,0,P|248:219|242:124,3,146.250005578995,6|2|12|2,0:0|0:0|0:0|0:0,0:0:0:0:
240,135,141088,1,0,0:0:0:0:
307,24,141269,6,0,L|420:83,1,97.50000371933,6|0,0:0|0:0,0:0:0:0:
454,228,141542,2,0,L|448:100,1,97.50000371933,2|0,0:0|0:0,0:0:0:0:
474,55,141815,1,6,0:0:0:0:
351,165,141997,1,12,0:0:0:0:
363,358,142179,1,2,0:0:0:0:
363,358,142269,1,2,0:0:0:0:
363,358,142360,6,0,P|296:354|216:359,2,146.250005578995,6|6|2,0:0|0:0|0:0,0:0:0:0:
363,358,143088,1,0,0:0:0:0:
228,190,143269,1,0,0:0:0:0:
84,42,143451,6,0,L|71:249,1,195.00000743866,12|4,0:0|0:0,0:0:0:0:
20,320,143997,1,0,0:0:0:0:
214,373,144179,1,8,0:0:0:0:
226,326,144269,1,8,0:0:0:0:
217,277,144360,6,0,P|221:217|215:114,3,146.250005578995,6|6|2|0,0:0|0:0|0:0|0:0,0:0:0:0:
259,117,145269,1,2,0:0:0:0:
303,97,145360,1,0,0:0:0:0:
351,83,145450,6,0,B|436:61|410:107|494:89,2,146.250005578995,12|0|2,0:0|0:0|0:0,0:0:0:0:
351,83,146178,2,0,L|307:239,1,146.250005578995,12|0,0:0|0:0,0:0:0:0:
295,270,146541,5,6,0:0:0:0:
420,232,146723,1,0,0:0:0:0:
442,240,146814,1,6,0:0:0:0:
464,248,146905,1,0,0:0:0:0:
345,335,147087,1,2,0:0:0:0:
188,368,147269,5,0,0:0:0:0:
277,384,147450,1,2,0:0:0:0:
185,217,147632,6,0,P|100:230|45:326,1,195.00000743866,12|12,0:0|0:0,0:0:0:0:
45,317,148178,1,0,0:0:0:0:
256,192,148360,2,0,L|307:206,1,48.750001859665,8|8,0:0|0:0,0:0:0:0:
467,67,148541,6,0,P|471:154|465:264,1,162.5,6|8,0:0|0:0,0:0:0:0:
443,259,148813,2,0,P|441:211|446:160,1,81.25,6|0,0:0|0:0,0:0:0:0:
328,82,148995,1,8,0:0:0:0:
390,30,149086,2,0,L|309:66,1,81.25,6|0,0:0|0:0,0:0:0:0:
230,51,149268,6,0,L|164:3,1,81.25,8|0,0:0|0:0,0:0:0:0:
261,128,149450,1,8,0:0:0:0:
183,153,149541,1,8,0:0:0:0:
262,163,149631,6,0,B|292:242|292:242|272:327,1,162.5,6|2,0:0|0:0,0:0:0:0:
119,347,149904,2,0,B|89:268|89:268|109:183,1,162.5,8|0,0:0|0:0,0:0:0:0:
40,56,150177,2,0,L|47:143,1,81.25,8|8,0:0|0:0,0:0:0:0:
192,255,150359,5,8,0:0:0:0:
259,209,150450,1,2,0:0:0:0:
326,164,150541,1,2,0:0:0:0:
393,120,150631,1,2,0:0:0:0:
314,141,150722,6,0,L|409:131,1,81.25,6|0,0:0|0:0,0:0:0:0:
437,202,150904,1,8,0:0:0:0:
504,155,150995,2,0,P|516:246|512:322,1,162.5,2|8,0:0|0:0,0:0:0:0:
488,349,151268,2,0,P|484:297|489:261,1,81.25,2|0,0:0|0:0,0:0:0:0:
398,384,151450,6,0,L|297:367,1,81.25,12|0,0:0|0:0,0:0:0:0:
193,285,151631,1,8,0:0:0:0:
270,308,151722,1,8,0:0:0:0:
189,319,151813,6,0,P|184:227|195:151,1,162.5,6|8,0:0|0:0,0:0:0:0:
96,199,152086,2,0,P|99:239|95:279,1,81.25,2|0,0:0|0:0,0:0:0:0:
0,37,152268,1,8,0:0:0:0:
73,2,152359,2,0,P|155:19|199:91,1,162.5,6|2,0:0|0:0,0:0:0:0:
271,113,152631,1,0,0:0:0:0:
367,132,152722,6,0,L|464:170,1,81.25,6|0,0:0|0:0,0:0:0:0:
341,52,152903,1,8,0:0:0:0:
284,110,152994,2,0,P|289:197|281:283,1,162.5,2|8,0:0|0:0,0:0:0:0:
350,311,153267,2,0,L|417:357,1,81.25,6|0,0:0|0:0,0:0:0:0:
142,348,153449,6,0,L|215:312,1,81.25,12|0,0:0|0:0,0:0:0:0:
65,296,153631,1,8,0:0:0:0:
142,319,153722,1,8,0:0:0:0:
63,334,153812,6,0,P|58:247|66:161,1,162.5,6|0,0:0|0:0,0:0:0:0:
121,111,154085,1,0,0:0:0:0:
81,40,154176,2,0,L|0:46,1,81.25,12|0,0:0|0:0,0:0:0:0:
192,10,154358,1,2,0:0:0:0:
256,59,154449,1,0,0:0:0:0:
324,14,154540,5,12,0:0:0:0:
324,14,154631,2,0,P|395:36|422:134,1,162.5,0|0,0:0|0:0,0:0:0:0:
463,203,154903,6,0,L|374:182,1,81.25,6|0,0:0|0:0,0:0:0:0:
319,236,155085,1,8,0:0:0:0:
252,188,155176,2,0,P|243:271|249:353,1,162.5,2|8,0:0|0:0,0:0:0:0:
276,384,155449,2,0,P|279:334|275:293,1,81.25,6|0,0:0|0:0,0:0:0:0:
89,291,155631,6,0,L|168:272,1,81.25,8|0,0:0|0:0,0:0:0:0:
165,126,155812,1,8,0:0:0:0:
87,149,155903,1,8,0:0:0:0:
161,180,155994,2,0,P|170:97|164:15,1,162.5,6|8,0:0|0:0,0:0:0:0:
350,133,156267,1,0,0:0:0:0:
280,90,156358,6,0,L|184:108,1,81.25,8|0,0:0|0:0,0:0:0:0:
347,213,156540,2,0,L|410:286,1,81.25,6|0,0:0|0:0,0:0:0:0:
420,92,156722,2,0,L|452:0,1,81.25,8|0,0:0|0:0,0:0:0:0:
240,255,156903,6,0,B|153:228|176:312|38:283,1,162.5,6|0,0:0|0:0,0:0:0:0:
34,225,157175,2,0,L|47:141,1,81.25,8|0,0:0|0:0,0:0:0:0:
167,0,157357,1,0,0:0:0:0:
90,27,157448,6,0,P|170:45|200:138,1,162.5,6|0,0:0|0:0,0:0:0:0:
328,97,157721,2,0,L|265:157,1,81.25,8|0,0:0|0:0,0:0:0:0:
447,314,157903,1,0,0:0:0:0:
376,352,157993,6,0,P|371:264|377:169,1,162.5,6|0,0:0|0:0,0:0:0:0:
439,58,158266,2,0,P|441:102|438:149,1,81.25,12|0,0:0|0:0,0:0:0:0:
204,262,158448,1,0,0:0:0:0:
285,263,158539,6,0,L|207:240,1,81.25,6|0,0:0|0:0,0:0:0:0:
5,255,158721,1,2,0:0:0:0:
62,210,158812,1,0,0:0:0:0:
120,166,158903,1,0,0:0:0:0:
178,123,158993,1,0,0:0:0:0:
108,146,159084,6,0,L|203:138,1,81.25,6|0,0:0|0:0,0:0:0:0:
260,99,159266,1,8,0:0:0:0:
293,173,159357,2,0,P|301:88|295:11,1,162.5,6|8,0:0|0:0,0:0:0:0:
422,80,159630,2,0,L|327:72,1,81.25,6|0,0:0|0:0,0:0:0:0:
478,139,159812,6,0,L|518:225,1,81.25,8|0,0:0|0:0,0:0:0:0:
423,333,159993,1,8,0:0:0:0:
445,254,160084,1,8,0:0:0:0:
460,333,160175,6,0,B|385:358|385:358|306:322,1,162.5,6|8,0:0|0:0,0:0:0:0:
223,323,160448,2,0,L|148:375,1,81.25,2|0,0:0|0:0,0:0:0:0:
274,176,160630,1,8,0:0:0:0:
261,256,160721,6,0,L|252:164,1,81.25,6|0,0:0|0:0,0:0:0:0:
156,72,160903,1,8,0:0:0:0:
163,0,160993,1,0,0:0:0:0:
179,71,161084,6,0,B|271:40|247:125|368:104,1,162.5,6|8,0:0|0:0,0:0:0:0:
407,47,161356,2,0,L|415:138,1,81.25,2|0,0:0|0:0,0:0:0:0:
512,158,161538,1,8,0:0:0:0:
482,233,161629,2,0,L|490:141,1,81.25,6|0,0:0|0:0,0:0:0:0:
426,294,161811,6,0,L|343:332,1,81.25,8|0,0:0|0:0,0:0:0:0:
217,245,161993,1,2,0:0:0:0:
292,275,162084,1,0,0:0:0:0:
213,290,162174,6,0,P|204:196|211:121,1,162.5,12|0,0:0|0:0,0:0:0:0:
386,27,162447,1,0,0:0:0:0:
322,77,162538,2,0,L|214:49,1,81.25,12|0,0:0|0:0,0:0:0:0:
100,117,162720,6,0,L|178:37,1,81.25,2|0,0:0|0:0,0:0:0:0:
35,173,162902,1,12,0:0:0:0:
110,204,162993,2,0,P|119:298|112:373,1,162.5,0|0,0:0|0:0,0:0:0:0:
331,212,163265,6,0,B|402:251|402:251|488:231,1,162.5,6|8,0:0|0:0,0:0:0:0:
450,156,163538,1,2,0:0:0:0:
503,94,163629,2,0,L|482:12,1,81.25,0|8,0:0|0:0,0:0:0:0:
243,56,163811,2,0,L|222:138,1,81.25,6|0,0:0|0:0,0:0:0:0:
365,81,163993,6,0,L|350:-4,1,81.25,12|0,0:0|0:0,0:0:0:0:
294,164,164174,1,8,0:0:0:0:
230,215,164265,1,8,0:0:0:0:
158,177,164356,6,0,P|76:195|37:266,1,162.5,6|8,0:0|0:0,0:0:0:0:
101,384,164629,2,0,P|105:337|99:290,1,81.25,0|8,0:0|0:0,0:0:0:0:
18,132,164811,1,0,0:0:0:0:
0,52,164902,6,0,P|-4:99|2:146,1,81.25,6|0,0:0|0:0,0:0:0:0:
173,81,165084,2,0,P|177:34|171:-13,1,81.25,12|0,0:0|0:0,0:0:0:0:
230,215,165265,6,0,B|324:198|295:244|389:228,1,162.5,6|8,0:0|0:0,0:0:0:0:
422,81,165537,1,0,0:0:0:0:
365,139,165628,2,0,L|418:54,1,81.25,8|0,0:0|0:0,0:0:0:0:
342,313,165810,5,8,0:0:0:0:
342,313,165901,2,0,L|389:401,1,81.25,8|0,0:0|0:0,0:0:0:0:
228,201,166083,1,8,0:0:0:0:
228,201,166174,2,0,L|127:197,1,81.25,8|0,0:0|0:0,0:0:0:0:
84,156,166355,6,0,L|34:170,1,48.75,0|0,0:0|0:0,0:0:0:0:
186,25,166745,5,0,0:0:0:0:
186,25,166835,1,0,0:0:0:0:
186,25,166926,1,0,0:0:0:0:
179,98,167108,5,0,0:0:0:0:
328,207,167290,1,0,0:0:0:0:
487,315,167456,6,0,P|491:265|489:182,1,130,6|0,0:0|0:0,0:0:0:0:
475,155,167728,1,2,0:0:0:0:
462,185,167819,1,8,0:0:0:0:
412,0,168001,1,2,0:0:0:0:
498,68,168183,2,0,L|348:109,1,130,8|2,0:0|0:0,0:0:0:0:
147,263,168546,6,0,P|145:224|149:183,1,65,12|0,0:0|0:0,0:0:0:0:
215,319,168728,1,2,0:0:0:0:
215,319,168819,1,2,0:0:0:0:
215,319,168910,2,0,P|217:358|213:399,1,65,4|0,0:0|0:0,0:0:0:0:
56,300,169092,5,8,0:0:0:0:
45,269,169183,1,0,0:0:0:0:
48,236,169274,1,2,0:0:0:0:
59,205,169365,1,2,0:0:0:0:
77,178,169456,1,2,0:0:0:0:
76,145,169546,1,2,0:0:0:0:
67,115,169637,6,0,L|178:133,1,81.25,6|0,0:0|0:0,0:0:0:0:
388,170,169819,1,8,0:0:0:0:
320,197,169910,1,8,0:0:0:0:
275,138,170001,2,0,P|276:95|282:50,1,81.25,6|0,0:0|0:0,0:0:0:0:
122,296,170183,5,8,0:0:0:0:
178,249,170274,2,0,P|183:165|176:86,1,162.5,8|8,0:0|0:0,0:0:0:0:
198,325,170546,2,0,L|295:355,1,81.25,8|0,0:0|0:0,0:0:0:0:
318,306,170728,6,0,L|183:327,1,121.875,6|0,0:0|0:0,0:0:0:0:
177,330,170910,6,0,P|174:283|180:224,1,97.50000371933,12|0,0:0|0:0,0:0:0:0:
397,263,171092,2,0,P|400:310|394:369,1,97.50000371933,12|0,0:0|0:0,0:0:0:0:
285,230,171274,6,0,P|282:183|288:124,1,97.50000371933,12|0,0:0|0:0,0:0:0:0:
503,184,171456,2,0,P|506:231|500:290,1,97.50000371933,12|0,0:0|0:0,0:0:0:0:
371,126,171637,2,0,P|368:79|374:20,1,97.50000371933,12|0,0:0|0:0,0:0:0:0:
64,192,171835,5,4,0:0:0:0:
104,126,172198,1,0,0:0:0:0:
87,56,172562,1,0,0:0:0:0:
18,30,172744,1,0,0:0:0:0:
44,283,172925,5,0,0:0:0:0:
114,263,173289,1,0,0:0:0:0:
176,307,173471,1,0,0:0:0:0:
300,311,173653,5,0,0:0:0:0:
300,311,173865,1,0,0:0:0:0:
