osu file format v14

[General]
AudioFilename: asphyxia.mp3
AudioLeadIn: 0
PreviewTime: 131998
Countdown: 0
SampleSet: Normal
StackLeniency: 0.5
Mode: 0
LetterboxInBreaks: 0
WidescreenStoryboard: 1

[Editor]
Bookmarks: 15144,28305,50368,88180,105635,123089,133998,171835
DistanceSpacing: 1
BeatDivisor: 4
GridSize: 4
TimelineZoom: 1.7

[Metadata]
Title:asphyxia
TitleUnicode:asphyxia
Artist:Co shu Nie
ArtistUnicode:Cö shu Nie
Creator:Gillstar
Version:m3gb3g's normal
Source:東京喰種トーキョーグール:re
Tags:tokyo ghoul re 東京喰種トーキョーグール:re deca impurepug sparhten semaphore fser m3gb3g neonlights amity fixxis kowari anime japanese
BeatmapID:1902800
BeatmapSetID:895512

[Difficulty]
HPDrainRate:3
CircleSize:4
OverallDifficulty:3
ApproachRate:5
SliderMultiplier:0.999999999999999
SliderTickRate:1

[Events]
//Background and Video events
0,0,"tokijo gul.jpg",0,0
//Break Periods
2,9059,13944
2,105835,112071
2,114561,119707
//Storyboard Layer 0 (Background)
//Storyboard Layer 1 (Fail)
//Storyboard Layer 2 (Pass)
//Storyboard Layer 3 (Foreground)
//Storyboard Sound Samples

[TimingPoints]
278,512.820512820513,4,2,1,40,1,0
278,-100,4,2,1,40,0,0
5682,540.540540540541,4,2,1,40,1,0
6507,588.235294117647,4,2,1,40,1,0
8858,392.156862745098,4,2,2,60,1,0
9032,382.165605095541,4,2,1,30,1,0
9477,384.615384615385,4,2,1,30,1,0
10450,368.098159509202,4,2,1,30,1,0
10843,375,4,2,1,30,1,0
11218,397.350993377483,4,2,1,30,1,0
12026,397.350993377483,4,2,1,30,1,0
12622,419.58041958042,4,2,1,30,1,0
13582,384.615384615385,4,2,1,30,1,0
14370,387.096774193548,4,2,1,30,1,0
15144,387.096774193548,4,1,2,40,1,0
15144,-100,4,1,2,40,0,0
26950,-100,4,2,2,50,0,0
27531,-100,4,2,1,50,0,0
28305,387.096774193548,4,2,2,40,1,0
28305,-100,4,2,2,40,0,0
39143,387.096774193548,3,2,2,40,1,0
41465,-100,3,2,2,40,0,0
48433,-100,3,2,2,40,0,0
49981,-100,3,2,2,40,0,0
50368,363.636363636364,3,1,2,50,1,1
50368,-100,3,1,2,50,0,1
52368,363.636363636364,3,1,2,50,1,1
52368,-100,3,1,2,50,0,1
56549,363.636363636364,3,1,2,50,1,1
56549,-100,3,1,2,50,0,1
60730,363.636363636364,3,1,2,50,1,1
60730,-100,3,1,2,50,0,1
64911,363.636363636364,3,1,2,50,1,1
64911,-100,3,1,2,50,0,1
69092,363.636363636364,3,1,2,50,1,1
69092,-100,3,1,2,50,0,1
73273,363.636363636364,3,1,2,50,1,1
73273,-100,3,1,2,50,0,1
77454,363.636363636364,3,1,2,50,1,1
77454,-100,3,1,2,50,0,1
81635,363.636363636364,3,1,2,50,1,1
81635,-100,3,1,2,50,0,1
82680,-100,3,1,2,50,0,1
82725,-100,3,1,2,50,0,1
83816,-100,3,1,2,50,0,0
83862,-100,3,1,2,50,0,0
84544,-100,3,1,2,50,0,0
84953,-100,3,1,2,5,0,0
85271,-100,3,1,2,50,0,0
85998,-100,3,1,2,50,0,0
89635,-100,3,2,2,50,0,0
92544,-100,3,2,2,50,0,0
99089,-100,3,2,2,50,0,0
99816,-100,3,2,2,50,0,0
100180,-100,3,2,2,50,0,0
100907,-100,3,2,2,50,0,0
105635,-100,3,2,2,50,0,0
123089,-100,3,1,2,50,0,0
126362,-100,3,2,2,50,0,0
127453,-100,3,1,2,50,0,0
129635,-100,3,1,2,50,0,0
129998,-100,3,2,2,50,0,0
131816,-100,3,2,2,50,0,0
133998,-100,3,1,2,50,0,1
135998,363.636363636364,3,1,2,50,1,1
135998,-100,3,1,2,50,0,1
140179,363.636363636364,3,1,2,50,1,1
140179,-100,3,1,2,50,0,1
144360,363.636363636364,3,1,2,50,1,1
144360,-100,3,1,2,50,0,1
148541,363.636363636364,3,1,2,50,1,1
148541,-100,3,1,2,50,0,1
152722,363.636363636364,3,1,2,50,1,1
152722,-100,3,1,2,50,0,1
156903,363.636363636364,3,1,2,50,1,1
156903,-100,3,1,2,50,0,1
161084,363.636363636364,3,1,2,50,1,1
161084,-100,3,1,2,50,0,1
165265,363.636363636364,3,1,2,50,1,1
165265,-100,3,1,2,50,0,1
166355,-100,3,2,2,50,0,1
166745,363.636363636364,3,2,2,50,1,0
167456,363.636363636364,3,2,2,50,1,0
169637,-100,3,2,2,50,0,0
170865,-100,3,2,2,50,0,0
170910,-100,3,2,2,50,0,0
171835,363.636363636364,3,2,2,50,1,0
173653,425.531914893617,3,2,1,50,1,0

[Colours]
Combo1 : 250,137,185
Combo2 : 194,205,254
Combo3 : 255,119,119
Combo4 : 80,105,165

[HitObjects]
303,153,278,6,0,P|342:184|358:244,1,100,2|0,0:0|0:0,0:0:0:0:
259,245,1303,2,0,P|212:263|152:247,1,100,2|0,0:0|0:0,0:0:0:0:
202,160,2329,2,0,P|209:110|253:66,1,100,2|0,0:0|0:0,0:0:0:0:
294,158,3354,2,0,L|260:271,1,100,2|0,0:0|0:0,0:0:0:0:
230,347,4380,6,0,P|185:368|136:362,1,100,2|0,0:0|0:0,0:0:0:0:
51,308,5406,1,2,0:0:0:0:
142,265,5952,1,2,0:0:0:0:
230,219,6507,5,2,0:0:0:0:
256,192,6654,12,6,8859,0:0:0:0:
106,48,15144,6,0,P|155:47|197:72,1,100,6|0,0:0|0:0,0:0:0:0:
216,118,15724,1,2,0:0:0:0:
216,118,15918,2,0,L|208:241,1,100,12|6,0:0|0:0,0:0:0:0:
296,266,16692,2,0,L|304:143,1,100,6|8,0:0|0:0,0:0:0:0:
396,132,17466,2,0,P|445:132|487:107,1,100,6|8,0:0|0:0,0:0:0:0:
406,48,18240,6,0,P|356:47|314:72,1,100,6|0,0:0|0:0,0:0:0:0:
296,118,18820,1,8,0:0:0:0:
296,118,19014,2,0,L|304:241,1,100,12|12,0:0|0:0,0:0:0:0:
216,266,19788,2,0,L|208:143,1,100,6|12,0:0|0:0,0:0:0:0:
119,210,20563,2,0,P|93:209|73:222,1,50,6|2,0:0|0:0,0:0:0:0:
50,266,20950,2,0,P|49:291|62:312,1,50,8|8,0:0|0:0,0:0:0:0:
106,336,21337,6,0,P|155:336|197:311,1,100,6|8,0:0|0:0,0:0:0:0:
216,266,21917,1,4,0:0:0:0:
216,266,22111,2,0,L|208:143,1,100,2|8,0:0|0:0,0:0:0:0:
296,118,22885,2,0,L|304:241,1,100,2|8,0:0|0:0,0:0:0:0:
396,252,23659,2,0,P|445:251|487:276,1,100,2|12,0:0|0:0,0:0:0:0:
406,336,24433,6,0,P|356:336|314:311,1,100,6|8,0:0|0:0,0:0:0:0:
296,266,25013,1,4,0:0:0:0:
296,266,25208,2,0,L|299:204,1,50,2|4,0:0|0:0,0:0:0:0:
302,166,25595,1,8,0:0:0:0:
216,118,25982,6,0,L|131:158,2,75,6|0|8,0:0|0:0|0:0,0:0:0:0:
235,71,26756,2,0,L|135:55,1,100,6|2,0:0|0:0,0:0:0:0:
37,39,27531,2,0,P|30:83|43:132,1,75,0|0,0:0|0:0,0:0:0:0:
6,234,28305,6,0,B|39:245|39:245|124:232,1,99.9999999999999,2|0,0:0|0:0,0:0:0:0:
199,261,29079,1,2,0:0:0:0:
269,189,29466,1,0,0:0:0:0:
367,207,29853,2,0,P|381:249|399:294,1,74.9999999999999,2|2,0:0|0:0,0:0:0:0:
410,349,30434,1,0,0:0:0:0:
474,272,30821,2,0,B|493:168,1,99.9999999999999,0|0,0:0|0:0,0:0:0:0:
503,125,31401,6,0,B|456:131|456:131|413:100,1,99.9999999999999,2|0,0:0|0:0,0:0:0:0:
373,70,31982,1,0,0:0:0:0:
122,65,32756,2,0,B|61:55|26:117,2,99.9999999999999,4|4|0,0:0|0:0|0:0,0:0:0:0:
172,67,33724,2,0,B|250:36,2,74.9999999999999,2|2|4,0:0|0:0|0:0,0:0:0:0:
144,108,34498,6,0,P|136:169|135:213,1,99.9999999999999,2|0,0:0|0:0,0:0:0:0:
163,303,35272,1,2,0:0:0:0:
261,288,35659,1,0,0:0:0:0:
350,333,36046,6,0,P|397:350|455:332,1,99.9999999999999,2|0,0:0|0:0,0:0:0:0:
502,257,36821,1,2,0:0:0:0:
399,247,37208,1,0,0:0:0:0:
344,166,37595,6,0,P|350:102|335:64,1,100,2|0,0:0|0:0,0:0:0:0:
303,34,38175,1,8,0:0:0:0:
255,122,38563,2,0,L|227:181,2,50,2|2|6,0:0|0:0|0:0,0:0:0:0:
220,87,39143,2,0,L|114:88,2,100,0|0|0,0:0|0:0|0:0,0:0:0:0:
303,34,40304,5,6,0:0:0:0:
324,131,40691,1,6,0:0:0:0:
345,228,41078,1,6,0:0:0:0:
345,228,41465,2,0,P|382:260|431:265,2,100,6|4|2,0:0|0:0|0:0,0:0:0:0:
246,194,42626,2,0,L|143:206,2,100,6|6|8,0:0|0:0|0:0,0:0:0:0:
267,291,43788,6,0,L|234:394,1,100,6|2,0:0|0:0,0:0:0:0:
190,367,44368,2,0,P|176:319|116:300,1,100,12|8,0:0|0:0,0:0:0:0:
94,267,44949,2,0,L|61:364,2,100,6|12|2,0:0|0:0|0:0,0:0:0:0:
13,207,46110,6,0,P|52:173|162:189,1,150,6|4,0:0|0:0,0:0:0:0:
231,54,47272,2,0,L|220:154,1,100,12|6,0:0|0:0,0:0:0:0:
204,252,48046,1,2,0:0:0:0:
113,294,48433,6,0,L|37:285,2,75,6|6|12,0:0|0:0|0:0,0:0:0:0:
199,344,49401,2,0,L|275:335,2,75,6|6|12,0:0|0:0|0:0,0:0:0:0:
96,313,50368,6,0,L|44:365,2,75,6|0|2,0:0|0:0|0:0,0:0:0:0:
131,278,51095,1,12,0:0:0:0:
200,205,51458,2,0,L|217:310,1,100,6|0,0:0|0:0,0:0:0:0:
223,353,52004,1,6,0:0:0:0:
302,291,52368,6,0,L|380:358,1,100,6|0,0:0|0:0,0:0:0:0:
427,356,52913,2,0,P|468:337|481:284,1,100,6|8,0:0|0:0,0:0:0:0:
473,237,53458,2,0,L|464:179,1,50,6|0,0:0|0:0,0:0:0:0:
455,138,53822,2,0,P|435:113|352:109,1,100,12|12,0:0|0:0,0:0:0:0:
329,9,54549,6,0,P|313:51|274:91,1,100,6|0,0:0|0:0,0:0:0:0:
225,96,55095,1,6,0:0:0:0:
140,43,55458,1,8,0:0:0:0:
105,78,55640,2,0,L|118:180,1,99.9999999999999,6|8,0:0|0:0,0:0:0:0:
155,212,56186,1,6,0:0:0:0:
148,311,56549,6,0,B|95:318|95:318|37:280,1,100,6|0,0:0|0:0,0:0:0:0:
29,250,57094,2,0,B|6:191|6:191|19:135,1,100,6|0,0:0|0:0,0:0:0:0:
39,112,57639,2,0,B|101:147|101:147|141:137,1,100,6|0,0:0|0:0,0:0:0:0:
178,129,58185,1,6,0:0:0:0:
316,70,58730,6,0,P|365:57|405:98,1,100,6|0,0:0|0:0,0:0:0:0:
446,107,59276,2,0,L|428:209,1,100,6|8,0:0|0:0,0:0:0:0:
451,250,59821,2,0,P|402:251|376:300,1,100,6|0,0:0|0:0,0:0:0:0:
383,340,60367,1,6,0:0:0:0:
290,377,60730,6,0,L|274:274,1,100,6|0,0:0|0:0,0:0:0:0:
295,232,61275,2,0,P|246:244|198:232,1,100,6|2,0:0|0:0,0:0:0:0:
156,205,61820,2,0,L|148:146,1,50,12|0,0:0|0:0,0:0:0:0:
124,111,62184,2,0,P|169:129|222:121,1,100,12|12,0:0|0:0,0:0:0:0:
317,105,62911,6,0,L|288:209,1,100,6|0,0:0|0:0,0:0:0:0:
245,224,63457,1,6,0:0:0:0:
148,199,63820,1,8,0:0:0:0:
104,223,64002,2,0,P|90:281|125:315,1,99.9999999999999,6|8,0:0|0:0,0:0:0:0:
163,310,64548,2,0,L|212:302,1,50,6|12,0:0|0:0,0:0:0:0:
262,297,64911,6,0,P|310:322|360:318,1,100,6|8,0:0|0:0,0:0:0:0:
399,342,65456,1,8,0:0:0:0:
471,273,65820,1,8,0:0:0:0:
482,224,66001,2,0,B|479:198|479:198|403:226,1,100,6|8,0:0|0:0,0:0:0:0:
363,244,66547,1,12,0:0:0:0:
242,337,67092,6,0,L|245:226,1,100,6|0,0:0|0:0,0:0:0:0:
269,192,67638,2,0,L|374:161,1,100,2|8,0:0|0:0,0:0:0:0:
412,148,68183,2,0,B|439:151|439:151|394:82,1,100,6|0,0:0|0:0,0:0:0:0:
370,48,68729,1,6,0:0:0:0:
272,26,69092,6,0,P|218:28|175:49,1,100,6|0,0:0|0:0,0:0:0:0:
127,37,69637,2,0,P|95:74|75:122,1,100,6|8,0:0|0:0,0:0:0:0:
42,158,70182,2,0,L|54:213,1,50,6|0,0:0|0:0,0:0:0:0:
41,255,70546,2,0,P|89:267|131:310,1,100,12|12,0:0|0:0,0:0:0:0:
214,346,71273,6,0,B|256:319|256:319|298:345,1,100,6|0,0:0|0:0,0:0:0:0:
340,318,71819,1,6,0:0:0:0:
439,318,72182,1,8,0:0:0:0:
481,291,72364,2,0,P|488:262|467:191,1,100,6|8,0:0|0:0,0:0:0:0:
439,155,72910,1,6,0:0:0:0:
356,211,73273,6,0,B|281:208|281:208|262:235,1,100,6|0,0:0|0:0,0:0:0:0:
235,189,73818,2,0,B|160:186|160:186|141:213,1,100,6|0,0:0|0:0,0:0:0:0:
108,173,74363,2,0,B|33:170|33:170|14:197,1,100,6|0,0:0|0:0,0:0:0:0:
12,240,74909,1,6,0:0:0:0:
117,345,75454,6,0,P|167:355|215:329,1,100,6|0,0:0|0:0,0:0:0:0:
257,350,76000,2,0,P|285:324|320:253,1,100,6|8,0:0|0:0,0:0:0:0:
364,263,76545,2,0,P|380:218|364:144,1,100,6|0,0:0|0:0,0:0:0:0:
354,120,77091,1,6,0:0:0:0:
269,66,77454,6,0,P|215:68|172:89,1,100,6|0,0:0|0:0,0:0:0:0:
124,77,77999,2,0,P|92:114|72:162,1,100,6|2,0:0|0:0,0:0:0:0:
39,198,78544,2,0,L|51:253,1,50,12|0,0:0|0:0,0:0:0:0:
38,295,78908,2,0,P|86:307|128:350,1,100,12|12,0:0|0:0,0:0:0:0:
214,301,79635,6,0,B|245:287|245:287|276:301|276:301|309:287,1,100,6|0,0:0|0:0,0:0:0:0:
354,301,80181,1,6,0:0:0:0:
445,340,80544,1,8,0:0:0:0:
475,300,80726,2,0,P|486:251|476:202,1,100,6|8,0:0|0:0,0:0:0:0:
435,173,81272,1,6,0:0:0:0:
391,263,81635,6,0,P|351:294|275:255,1,100,6|8,0:0|0:0,0:0:0:0:
286,241,82180,2,0,P|250:274|191:233,1,100,8|8,0:0|0:0,0:0:0:0:
186,213,82725,2,0,B|146:250|146:250|113:240|120:186,1,100,6|8,0:0|0:0,0:0:0:0:
101,169,83271,2,0,B|36:158|36:158|6:176,1,100,12|8,0:0|0:0,0:0:0:0:
25,223,83816,5,0,0:0:0:0:
487,223,85998,6,0,B|462:231|462:231|416:223|416:223|380:233,1,100,6|0,0:0|0:0,0:0:0:0:
364,273,86544,2,0,P|318:291|269:282,1,100,2|8,0:0|0:0,0:0:0:0:
219,284,87089,6,0,L|160:302,2,50,6|8|8,0:0|0:0|0:0,0:0:0:0:
201,236,87635,2,0,L|155:210,2,50,8|8|8,0:0|0:0|0:0,0:0:0:0:
238,203,88180,5,6,0:0:0:0:
311,134,88544,2,0,L|287:29,1,99.9999999999999,12|0,0:0|0:0,0:0:0:0:
215,105,89271,2,0,L|110:129,2,99.9999999999999,6|8|8,0:0|0:0|0:0,0:0:0:0:
311,134,90362,6,0,P|333:171|328:217,1,75,6|6,0:0|0:0,0:0:0:0:
352,276,90907,2,0,P|310:276|273:250,1,75,6|6,0:0|0:0,0:0:0:0:
210,241,91453,2,0,P|232:205|273:186,1,75,6|6,0:1|0:0,0:0:0:0:
311,134,91998,2,0,P|273:115|229:121,1,75,6|6,0:0|0:0,0:0:0:0:
175,76,92544,6,0,P|145:105|137:150,2,75,6|0|0,0:1|0:0|0:0,0:0:0:0:
151,31,93271,2,0,L|88:13,1,50,12|0,0:0|0:0,0:0:0:0:
56,36,93635,1,2,0:0:0:0:
21,129,93998,1,4,0:0:0:0:
50,169,94180,2,0,L|32:232,1,50,0|12,0:0|0:0,0:0:0:0:
136,219,94725,6,0,P|185:222|231:265,1,100,6|12,0:0|0:0,0:0:0:0:
255,291,95271,1,0,0:0:0:0:
304,283,95453,2,0,L|284:168,1,100,12|6,0:0|0:0,0:0:0:0:
337,97,96180,2,0,P|358:118|395:127,1,50,6|8,0:0|0:0,0:0:0:0:
381,171,96544,6,0,P|438:150|464:98,1,100,8|6,0:0|0:0,0:0:0:0:
416,30,97271,1,6,0:0:0:0:
370,9,97453,2,0,L|255:28,1,100,0|0,0:0|0:0,0:0:0:0:
242,66,97998,1,6,0:0:0:0:
305,143,98362,1,6,0:0:0:0:
268,235,98725,2,0,L|205:248,1,50,8|2,0:0|0:0,0:0:0:0:
175,220,99089,6,0,P|164:178|128:149,1,75,6|6,0:0|0:0,0:0:0:0:
103,90,99634,2,0,P|73:119|65:164,1,75,6|6,0:0|0:0,0:0:0:0:
28,216,100180,2,0,P|69:225|111:210,1,75,6|6,0:0|0:0,0:0:0:0:
175,220,100725,2,0,P|161:260|126:287,1,75,6|0,0:0|0:0,0:0:0:0:
157,354,101271,6,0,L|67:352,2,74.9999999999999,6|0|2,0:0|0:0|0:0,0:0:0:0:
230,286,102180,1,4,0:0:0:0:
254,242,102362,2,0,P|286:255|320:326,1,100,6|6,0:0|0:0,0:0:0:0:
306,356,102907,2,0,L|417:353,1,99.9999999999999,2|4,0:0|0:0,0:0:0:0:
456,349,103453,6,0,B|481:330|481:330|463:304|463:304|488:285|488:285|470:259|470:259|496:240|496:240|477:214|477:214|503:196|503:196|468:176|443:141,1,300,4|6,0:0|0:0,0:0:0:0:
147,183,105635,5,4,0:0:0:0:
138,101,113271,6,0,L|129:213,1,99.9999999999999,12|0,0:0|0:0,0:0:0:0:
160,240,113816,2,0,B|203:277|263:207|310:252,1,150,2|4,0:0|0:0,0:0:0:0:
81,239,120907,6,0,P|134:180|169:178,1,100,12|4,0:0|0:0,0:0:0:0:
186,142,121453,2,0,P|239:201|274:203,1,100,2|2,0:0|0:0,0:0:0:0:
272,250,121998,5,12,0:0:0:0:
364,289,122362,1,12,0:0:0:0:
433,217,122725,1,12,0:0:0:0:
383,129,123089,5,6,0:0:0:0:
256,192,123180,12,6,126362,0:0:0:0:
210,326,127453,6,0,P|262:301|281:173,1,200,6|0,0:0|0:0,0:0:0:0:
249,133,128362,1,8,0:0:0:0:
204,111,128544,2,0,L|106:94,1,99.9999999999999,6|12,0:0|0:0,0:0:0:0:
23,151,129271,2,0,L|37:213,1,50,12|0,0:0|0:0,0:0:0:0:
23,248,129635,6,0,P|66:226|189:308,1,200,12|8,0:0|0:0,0:0:0:0:
232,381,130725,2,0,P|300:314|394:335,1,200,8|8,0:0|0:0,0:0:0:0:
486,374,131816,5,0,0:0:0:0:
119,309,133998,6,0,P|79:312|41:350,2,75,6|6|2,0:0|0:0|0:0,0:0:0:0:
166,325,134725,1,0,0:0:0:0:
139,228,135089,2,0,P|94:189|40:185,1,100,6|4,0:0|0:0,0:0:0:0:
10,205,135634,1,0,0:0:0:0:
17,105,135998,6,0,B|28:57|28:57|83:46,1,100,6|0,0:0|0:0,0:0:0:0:
124,28,136543,2,0,P|181:65|194:95,1,100,2|2,0:0|0:0,0:0:0:0:
240,109,137088,2,0,L|232:158,1,50,12|0,0:0|0:0,0:0:0:0:
186,180,137452,2,0,P|156:219|161:268,1,100,4|0,0:0|0:0,0:0:0:0:
259,285,138179,6,0,P|300:251|351:259,1,99.9999999999999,6|0,0:0|0:0,0:0:0:0:
387,281,138725,1,2,0:0:0:0:
439,196,139088,1,2,0:0:0:0:
432,146,139270,2,0,L|416:37,1,100,12|12,0:0|0:0,0:0:0:0:
377,16,139816,1,2,0:0:0:0:
326,102,140179,6,0,P|281:117|221:91,1,100,6|0,0:0|0:0,0:0:0:0:
231,151,140724,2,0,L|115:166,1,100,12|0,0:0|0:0,0:0:0:0:
103,205,141269,2,0,B|114:267|114:267|147:284|164:272,1,100,6|0,0:0|0:0,0:0:0:0:
199,281,141815,1,6,0:0:0:0:
348,291,142360,6,0,P|301:268|291:213,1,100,6|0,0:0|0:0,0:0:0:0:
239,214,142906,2,0,P|276:174|284:130,1,100,2|0,0:0|0:0,0:0:0:0:
334,131,143451,2,0,P|303:104|285:46,1,100,12|4,0:0|0:0,0:0:0:0:
314,9,143997,1,0,0:0:0:0:
404,51,144360,6,0,L|442:167,1,100,6|0,0:0|0:0,0:0:0:0:
400,182,144905,2,0,P|383:228|400:278,1,100,2|2,0:0|0:0,0:0:0:0:
389,324,145450,2,0,L|330:332,1,50,12|0,0:0|0:0,0:0:0:0:
306,368,145814,2,0,L|187:352,1,100,0|12,0:0|0:0,0:0:0:0:
107,361,146541,6,0,P|77:325|67:268,1,100,6|0,0:0|0:0,0:0:0:0:
81,226,147087,1,2,0:0:0:0:
159,164,147450,1,2,0:0:0:0:
206,178,147632,2,0,P|213:227|195:272,1,100,12|12,0:0|0:0,0:0:0:0:
225,312,148178,2,0,L|158:322,1,50,0|8,0:0|0:0,0:0:0:0:
147,360,148541,6,0,L|110:261,1,100,6|0,0:0|0:0,0:0:0:0:
93,219,149086,1,6,0:0:0:0:
163,148,149450,1,8,0:0:0:0:
204,175,149631,2,0,L|316:165,1,100,6|0,0:0|0:0,0:0:0:0:
340,131,150177,1,8,0:0:0:0:
429,251,150722,6,0,P|415:238|346:264,1,100,6|0,0:0|0:0,0:0:0:0:
340,310,151268,2,0,P|294:287|240:315,1,100,2|8,0:0|0:0,0:0:0:0:
212,335,151813,2,0,P|206:289|160:255,1,100,6|0,0:0|0:0,0:0:0:0:
116,266,152359,1,6,0:0:0:0:
18,244,152722,6,0,L|37:134,1,100,6|0,0:0|0:0,0:0:0:0:
60,102,153267,2,0,P|86:145|133:159,1,100,6|8,0:0|0:0,0:0:0:0:
169,125,153812,2,0,L|218:122,1,50,6|0,0:0|0:0,0:0:0:0:
244,165,154176,2,0,L|353:174,1,100,12|12,0:0|0:0,0:0:0:0:
437,207,154903,6,0,P|445:255|439:312,1,100,6|0,0:0|0:0,0:0:0:0:
417,350,155449,1,6,0:0:0:0:
331,298,155812,1,8,0:0:0:0:
293,331,155994,2,0,P|247:344|181:316,1,100,6|8,0:0|0:0,0:0:0:0:
162,293,156540,1,6,0:0:0:0:
65,266,156903,6,0,B|83:223|83:223|70:171,1,100,6|0,0:0|0:0,0:0:0:0:
119,165,157448,2,0,B|102:121|102:121|122:68,1,100,6|0,0:0|0:0,0:0:0:0:
87,34,157993,2,0,B|119:16|119:16|184:28,1,100,6|0,0:0|0:0,0:0:0:0:
216,63,158539,1,6,0:0:0:0:
140,193,159084,6,0,P|124:239|136:287,1,100,6|0,0:0|0:0,0:0:0:0:
185,295,159630,2,0,P|217:331|275:339,1,100,6|8,0:0|0:0,0:0:0:0:
315,343,160175,2,0,B|330:335|341:313|341:313|292:249,1,100,6|0,0:0|0:0,0:0:0:0:
273,226,160721,1,6,0:0:0:0:
372,212,161084,6,0,L|297:120,1,100,6|0,0:0|0:0,0:0:0:0:
330,89,161629,2,0,L|217:95,1,100,6|2,0:0|0:0,0:0:0:0:
195,58,162174,2,0,L|163:110,1,50,12|0,0:0|0:0,0:0:0:0:
140,142,162538,2,0,L|178:235,1,99.9999999999999,12|12,0:0|0:0,0:0:0:0:
269,192,163265,6,0,P|314:213|341:259,1,100,6|0,0:0|0:0,0:0:0:0:
324,302,163811,1,6,0:0:0:0:
235,346,164174,1,8,0:0:0:0:
211,301,164356,2,0,P|178:272|117:277,1,100,6|8,0:0|0:0,0:0:0:0:
79,297,164902,1,6,0:0:0:0:
13,221,165265,6,0,L|40:103,1,100,6|8,0:0|0:0,0:0:0:0:
84,135,165810,2,0,P|122:103|171:98,1,100,8|8,0:0|0:0,0:0:0:0:
185,145,166355,2,0,L|281:195,1,100,0|0,0:0|0:0,0:0:0:0:
434,314,167456,6,0,L|372:338,1,50,6|0,0:0|0:0,0:0:0:0:
338,341,167819,1,8,0:0:0:0:
288,331,168001,2,0,P|261:277|258:216,1,100,2|2,0:0|0:0,0:0:0:0:
273,191,168546,5,12,0:0:0:0:
339,115,168910,1,4,0:0:0:0:
369,154,169092,1,8,0:0:0:0:
462,117,169456,1,2,0:0:0:0:
490,157,169637,6,0,L|470:258,1,100,6|6,0:0|0:0,0:0:0:0:
500,295,170183,2,0,P|458:322|408:323,1,100,8|8,0:0|0:0,0:0:0:0:
360,311,170728,6,0,L|326:361,2,50,6|0|12,0:0|0:0|0:0,0:0:0:0:
349,261,171274,2,0,L|298:246,2,50,0|12|0,0:0|0:0|0:0,0:0:0:0:
