osu file format v14

[General]
AudioFilename: asphyxia.mp3
AudioLeadIn: 0
PreviewTime: 131998
Countdown: 0
SampleSet: Soft
StackLeniency: 0.2
Mode: 0
LetterboxInBreaks: 0
WidescreenStoryboard: 0

[Editor]
Bookmarks: 15144,28305,50368,88180,105635,123089,133998,171835
DistanceSpacing: 0.5
BeatDivisor: 8
GridSize: 4
TimelineZoom: 4.099998

[Metadata]
Title:asphyxia
TitleUnicode:asphyxia
Artist:Co shu Nie
ArtistUnicode:Cö shu Nie
Creator:Gillstar
Version:constriction
Source:東京喰種トーキョーグール:re
Tags:tokyo ghoul re 東京喰種トーキョーグール:re deca impurepug sparhten semaphore fser m3gb3g neonlights amity fixxis kowari anime japanese
BeatmapID:1871128
BeatmapSetID:895512

[Difficulty]
HPDrainRate:5
CircleSize:4
OverallDifficulty:9
ApproachRate:9.7
SliderMultiplier:2.5
SliderTickRate:1

[Events]
//Background and Video events
0,0,"61800997_p0_master1200.jpg",0,0
//Break Periods
//Storyboard Layer 0 (Background)
//Storyboard Layer 1 (Fail)
//Storyboard Layer 2 (Pass)
//Storyboard Layer 3 (Foreground)
//Storyboard Sound Samples

[TimingPoints]
278,512.820512820513,4,2,1,40,1,0
5682,540.540540540541,4,2,1,40,1,0
6507,588.235294117647,4,2,1,40,1,0
8858,392.156862745098,4,2,2,60,1,0
9032,382.165605095541,4,2,1,30,1,0
9032,-166.666666666667,4,2,1,30,0,0
9477,384.615384615385,4,2,1,30,1,0
10450,368.098159509202,4,2,1,30,1,0
10634,-166.666666666667,4,2,1,30,0,0
10843,375,4,2,1,30,1,0
11218,397.350993377483,4,2,1,30,1,0
12026,397.350993377483,4,2,1,30,1,0
12224,-166.666666666667,4,2,1,30,0,0
12622,419.58041958042,4,2,1,30,1,0
13582,384.615384615385,4,2,1,30,1,0
14370,387.096774193548,4,2,1,30,1,0
14757,-83.3333333333333,4,2,1,30,0,0
14950,-83.3333333333333,4,2,1,30,0,0
15144,387.096774193548,4,1,2,40,1,0
15144,-71.4285714285714,4,1,2,50,0,0
26950,-100,4,2,2,50,0,0
27531,-125,4,2,1,50,0,0
27821,-100,4,2,1,50,0,0
28305,387.096774193548,4,2,2,40,1,0
39143,387.096774193548,3,2,2,40,1,0
40304,-142.857142857143,3,2,2,50,0,0
40691,-111.111111111111,3,2,2,50,0,0
41078,-90.9090909090909,3,2,2,50,0,0
42626,-142.857142857143,3,2,2,50,0,0
48433,-83.3333333333333,3,2,2,50,0,0
49981,-83.3333333333333,3,1,2,50,0,0
50368,363.636363636364,3,1,2,50,1,1
50368,-62.5,3,1,2,50,0,1
52368,363.636363636364,3,1,2,50,1,1
52368,-62.5,3,1,2,50,0,1
56549,363.636363636364,3,1,2,50,1,1
56549,-100,3,1,2,50,0,1
58730,-62.5,3,1,2,50,0,1
60730,363.636363636364,3,1,2,50,1,1
60730,-62.5,3,1,2,50,0,1
64911,363.636363636364,3,1,2,50,1,1
64911,-62.5,3,1,2,50,0,1
66001,-55.5555555555556,3,1,2,50,0,1
66729,-62.5,3,1,2,50,0,1
69092,363.636363636364,3,1,2,50,1,1
69092,-62.5,3,1,2,50,0,1
73273,363.636363636364,3,1,2,50,1,1
75454,-62.5,3,1,2,50,0,1
77454,363.636363636364,3,1,2,50,1,1
77454,-62.5,3,1,2,50,0,1
81635,363.636363636364,3,1,2,50,1,1
81635,-62.5,3,1,2,50,0,1
82680,-100,3,1,2,5,0,1
82725,-55.5555555555556,3,1,2,50,0,1
83453,-62.5,3,1,2,50,0,1
83816,-250,3,1,2,50,0,0
84953,-250,3,1,2,5,0,0
85271,-250,3,1,2,50,0,0
85998,-62.5,3,1,2,50,0,1
88180,-71.4285714285714,3,1,2,50,0,0
89271,-200,3,1,2,50,0,0
89635,-200,3,2,2,50,0,0
90362,-62.5,3,2,2,50,0,0
92544,-83.3333333333333,3,2,2,50,0,0
95816,-62.5,3,2,2,50,0,0
96907,-83.3333333333333,3,2,2,50,0,0
99089,-62.5,3,2,2,50,0,0
100180,-83.3333333333333,3,2,2,50,0,0
101271,-100,3,2,2,50,0,0
103453,-83.3333333333333,3,2,2,50,0,0
106362,-125,3,2,2,50,0,0
120907,-83.3333333333333,3,2,2,50,0,0
123089,-83.3333333333333,3,1,2,50,0,0
123816,-100,3,1,2,50,0,0
124725,-83.3333333333333,3,1,2,50,0,0
126362,-100,3,2,2,50,0,0
127453,-83.3333333333333,3,1,2,50,0,0
129635,-333.333333333333,3,1,2,50,0,0
129998,-333.333333333333,3,2,2,50,0,0
133998,-62.5,3,1,2,50,0,1
135998,363.636363636364,3,1,2,50,1,1
135998,-62.5,3,1,2,50,0,1
140179,363.636363636364,3,1,2,50,1,1
140179,-100,3,1,2,50,0,1
142360,-62.5,3,1,2,50,0,1
144360,363.636363636364,3,1,2,50,1,1
144360,-62.5,3,1,2,50,0,1
148541,363.636363636364,3,1,2,50,1,1
148541,-62.5,3,1,2,50,0,1
152722,363.636363636364,3,1,2,50,1,1
152722,-62.5,3,1,2,50,0,1
156903,363.636363636364,3,1,2,50,1,1
159084,-62.5,3,1,2,50,0,1
161084,363.636363636364,3,1,2,50,1,1
161084,-62.5,3,1,2,50,0,1
165265,363.636363636364,3,1,2,50,1,1
165265,-62.5,3,1,2,50,0,1
166355,-100,3,2,2,50,0,1
166745,363.636363636364,3,2,2,50,1,0
167456,363.636363636364,3,2,2,50,1,0
167456,-125,3,2,2,50,0,0
169637,-62.5,3,1,2,50,0,1
170728,-55.5555555555556,3,1,2,50,0,1
170865,-55.5555555555556,3,1,2,5,0,1
170910,-55.5555555555556,3,1,2,50,0,1
171456,-62.5,3,1,2,50,0,1
171835,363.636363636364,3,2,2,50,1,0
173653,425.531914893617,3,2,2,50,1,0
173653,-250,3,2,1,50,0,0

[Colours]
Combo1 : 213,106,0
Combo2 : 219,13,44

[HitObjects]
27,356,278,5,2,0:0:0:0:
105,347,1303,5,2,0:0:0:0:
183,338,2329,5,2,0:0:0:0:
261,329,3354,5,2,0:0:0:0:
339,320,4380,5,2,0:0:0:0:
417,311,5406,5,2,0:0:0:0:
345,369,5682,5,2,0:0:0:0:
330,259,5952,1,2,0:0:0:0:
315,149,6222,1,2,0:0:0:0:
300,39,6507,5,2,0:0:0:0:
303,73,6605,1,0,0:0:0:0:
276,69,6703,5,0,0:0:0:0:
283,101,6801,1,0,0:0:0:0:
263,98,6899,5,0,0:0:0:0:
275,128,6997,1,0,0:0:0:0:
253,129,7095,5,0,0:0:0:0:
270,156,7193,1,0,0:0:0:0:
255,167,7291,5,0,0:0:0:0:
276,190,7389,1,0,0:0:0:0:
265,206,7487,5,0,0:0:0:0:
289,225,7585,1,0,0:0:0:0:
355,143,7683,5,2,0:0:0:0:
352,177,7781,1,0,0:0:0:0:
379,173,7879,5,0,0:0:0:0:
372,205,7977,1,0,0:0:0:0:
392,202,8075,5,0,0:0:0:0:
380,232,8173,1,0,0:0:0:0:
402,233,8271,5,0,0:0:0:0:
385,260,8369,1,0,0:0:0:0:
400,271,8467,5,0,0:0:0:0:
379,294,8565,1,0,0:0:0:0:
390,310,8663,5,0,0:0:0:0:
366,329,8761,1,0,0:0:0:0:
287,306,8858,5,6,0:0:0:0:
244,246,9032,2,0,L|239:207,3,24.9999992370606,0|0|2|2,0:0|0:0|0:0|0:0,0:0:0:0:
261,148,9477,1,2,0:0:0:0:
197,105,9669,1,2,0:0:0:0:
197,105,10053,1,2,0:0:0:0:
83,127,10450,5,2,0:0:0:0:
131,65,10634,2,0,L|135:29,2,18.7499994277954,0|0|2,0:0|0:0|0:0,0:0:0:0:
59,23,10843,5,2,0:0:0:0:
12,86,10936,1,2,0:0:0:0:
131,190,11218,1,2,0:0:0:0:
131,190,11482,1,2,0:0:0:0:
75,243,11615,5,0,0:0:0:0:
7,215,11714,1,2,0:0:0:0:
193,292,12026,5,2,0:0:0:0:
117,307,12224,2,0,L|113:339,2,18.7499994277954,2|0|2,0:0|0:0|0:0,0:0:0:0:
67,249,12622,1,2,0:0:0:0:
11,302,12831,5,2,0:0:0:0:
11,302,13181,1,2,0:0:0:0:
65,243,13582,5,2,0:0:0:0:
143,247,13774,5,2,0:0:0:0:
145,228,13838,1,2,0:0:0:0:
146,209,13902,1,2,0:0:0:0:
147,191,13966,1,2,0:0:0:0:
112,119,14094,1,2,0:0:0:0:
150,50,14370,5,2,0:0:0:0:
150,50,14563,1,2,0:0:0:0:
229,86,14757,6,0,B|237:48|237:48|224:-12,1,74.9999977111817,0|0,0:0|0:0,0:0:0:0:
72,16,14950,2,0,B|64:54|64:54|71:89,1,74.9999977111817,0|0,0:0|0:0,0:0:0:0:
231,245,15144,6,0,L|420:233,1,174.999994659424,6|8,0:0|0:0,0:0:0:0:
454,167,15434,1,6,0:0:0:0:
464,151,15531,2,0,P|463:107|458:63,1,87.499997329712,0|8,0:0|0:0,0:0:0:0:
326,271,15724,2,0,P|321:315|321:359,1,87.499997329712,2|0,0:0|0:0,0:0:0:0:
307,165,15918,5,12,0:0:0:0:
250,115,16014,1,0,0:0:0:0:
199,173,16111,1,8,0:0:0:0:
256,227,16208,1,8,0:0:0:0:
303,175,16305,6,0,P|207:175|137:237,1,174.999994659424,6|4,0:0|0:0,0:0:0:0:
77,324,16595,1,0,0:0:0:0:
61,338,16692,2,0,P|54:279|46:231,1,87.499997329712,6|0,0:0|0:0,0:0:0:0:
190,354,16885,2,0,P|207:313|226:274,1,87.499997329712,0|2,0:0|0:0,0:0:0:0:
234,134,17079,6,0,L|121:143,1,87.499997329712,8|0,0:0|0:0,0:0:0:0:
0,49,17273,1,4,0:0:0:0:
64,99,17369,1,8,0:0:0:0:
122,43,17466,2,0,L|235:52,1,87.499997329712,6|0,0:0|0:0,0:0:0:0:
434,234,17660,2,0,P|434:186|443:121,1,87.499997329712,6|0,0:0|0:0,0:0:0:0:
312,35,17853,5,8,0:0:0:0:
343,134,17982,5,8,0:0:0:0:
296,223,18111,5,8,0:0:0:0:
406,321,18240,6,0,B|327:290|327:290|241:316,1,174.999994659424,6|8,0:0|0:0,0:0:0:0:
154,264,18531,1,2,0:0:0:0:
141,249,18627,2,0,L|225:223,1,87.499997329712,0|8,0:0|0:0,0:0:0:0:
412,222,18821,2,0,L|492:255,1,87.499997329712,8|2,0:0|0:0,0:0:0:0:
206,28,19014,6,0,P|203:64|202:129,1,87.499997329712,12|0,0:0|0:0,0:0:0:0:
315,239,19208,2,0,P|318:203|319:138,1,87.499997329712,0|2,0:0|0:0,0:0:0:0:
447,91,19402,6,0,B|349:82|398:147|282:144,1,174.999994659424,12|0,0:0|0:0,0:0:0:0:
78,97,19692,1,0,0:0:0:0:
69,76,19789,2,0,P|155:99|146:206,1,174.999994659424,6|0,0:0|0:0,0:0:0:0:
279,359,20079,1,2,0:0:0:0:
211,314,20176,1,12,0:0:0:0:
220,236,20273,1,0,0:0:0:0:
292,206,20369,1,4,0:0:0:0:
354,253,20466,1,8,0:0:0:0:
436,257,20563,5,6,0:0:0:0:
488,188,20660,1,0,0:0:0:0:
455,110,20756,1,2,0:0:0:0:
369,100,20853,1,0,0:0:0:0:
320,175,20950,6,0,P|297:188|261:198,1,43.749998664856,8|0,0:0|0:0,0:0:0:0:
287,215,21047,2,0,P|260:218|223:214,1,43.749998664856,0|0,0:0|0:0,0:0:0:0:
234,232,21143,2,0,P|208:225|175:207,1,43.749998664856,8|0,0:0|0:0,0:0:0:0:
178,227,21240,2,0,P|156:211|132:182,1,43.749998664856,0|0,0:0|0:0,0:0:0:0:
110,137,21337,6,0,P|142:207|143:338,1,174.999994659424,6|6,0:0|0:0,0:0:0:0:
28,302,21627,1,0,0:0:0:0:
18,296,21724,2,0,P|47:331|72:375,1,87.499997329712,8|0,0:0|0:0,0:0:0:0:
252,274,21918,2,0,P|248:320|233:369,1,87.499997329712,4|0,0:0|0:0,0:0:0:0:
132,297,22111,2,0,P|136:250|144:210,1,87.499997329712,2|0,0:0|0:0,0:0:0:0:
42,38,22305,2,0,P|83:60|116:84,1,87.499997329712,4|0,0:0|0:0,0:0:0:0:
238,135,22498,2,0,P|150:164|35:157,1,174.999994659424,8|4,0:0|0:0,0:0:0:0:
199,56,22789,5,0,0:0:0:0:
206,43,22885,2,0,B|253:38|253:38|305:64,1,87.499997329712,2|0,0:0|0:0,0:0:0:0:
402,280,23079,2,0,B|374:241|374:241|370:183,1,87.499997329712,4|0,0:0|0:0,0:0:0:0:
395,39,23273,1,8,0:0:0:0:
473,41,23369,1,2,0:0:0:0:
480,119,23466,1,4,0:0:0:0:
401,117,23563,1,0,0:0:0:0:
251,184,23660,6,0,P|282:153|319:130,1,87.499997329712,2|8,0:0|0:0,0:0:0:0:
451,345,23853,2,0,P|455:301|468:260,1,87.499997329712,0|0,0:0|0:0,0:0:0:0:
306,368,24047,2,0,P|329:270|398:199,1,174.999994659424,12|4,0:0|0:0,0:0:0:0:
412,72,24337,5,0,0:0:0:0:
395,56,24434,2,0,B|316:29|316:29|228:70,1,174.999994659424,6|0,0:0|0:0,0:0:0:0:
147,227,24724,1,2,0:0:0:0:
156,244,24821,2,0,L|199:150,1,87.499997329712,8|0,0:0|0:0,0:0:0:0:
157,36,25014,5,4,0:0:0:0:
105,90,25111,1,0,0:0:0:0:
50,44,25208,2,0,L|86:123,1,87.499997329712,2|0,0:0|0:0,0:0:0:0:
223,329,25402,2,0,L|259:249,1,87.499997329712,4|0,0:0|0:0,0:0:0:0:
274,137,25595,2,0,B|124:134|191:256|24:257,1,262.499991989136,8|8,0:0|0:0,0:0:0:0:
38,241,25982,5,6,0:0:0:0:
68,211,26079,1,0,0:0:0:0:
90,277,26176,1,8,0:0:0:0:
145,178,26273,1,8,0:0:0:0:
177,311,26369,6,0,P|233:301|282:266,1,87.499997329712,6|0,0:0|0:0,0:0:0:0:
294,75,26563,2,0,P|238:85|189:120,1,87.499997329712,8|8,0:0|0:0,0:0:0:0:
362,283,26756,5,6,0:0:0:0:
417,184,26853,1,0,0:0:0:0:
439,250,26950,1,0,0:0:0:0:
469,220,27047,1,0,0:0:0:0:
475,214,27143,5,2,0:0:0:0:
475,205,27240,1,2,0:0:0:0:
471,197,27337,1,2,0:0:0:0:
466,189,27434,1,2,0:0:0:0:
462,185,27531,6,0,L|450:285,1,100,0|0,0:0|0:0,0:0:0:0:
379,373,27821,2,0,L|340:161,1,187.5,0|0,0:0|0:0,0:0:0:0:
27,28,28305,5,2,0:0:0:0:
27,28,28595,1,2,0:0:0:0:
105,37,29079,5,2,0:0:0:0:
105,37,29369,1,2,0:0:0:0:
183,46,29853,5,2,0:0:0:0:
183,46,30143,1,2,0:0:0:0:
261,55,30627,5,2,0:0:0:0:
261,55,30917,1,2,0:0:0:0:
339,64,31401,5,2,0:0:0:0:
339,64,31692,1,2,0:0:0:0:
417,73,32175,5,2,0:0:0:0:
417,73,32466,1,2,0:0:0:0:
345,15,32756,5,4,0:0:0:0:
330,125,33143,1,4,0:0:0:0:
315,235,33434,1,0,0:0:0:0:
182,125,33724,5,2,0:0:0:0:
197,235,34014,1,2,0:0:0:0:
212,345,34304,1,4,0:0:0:0:
485,356,34498,5,2,0:0:0:0:
485,356,34788,1,2,0:0:0:0:
407,347,35272,5,2,0:0:0:0:
407,347,35562,1,2,0:0:0:0:
329,338,36046,5,2,0:0:0:0:
329,338,36336,1,2,0:0:0:0:
251,329,36820,5,2,0:0:0:0:
251,329,37110,1,2,0:0:0:0:
173,320,37594,5,2,0:0:0:0:
173,320,37885,1,2,0:0:0:0:
95,311,38079,5,8,0:0:0:0:
95,311,38175,1,8,0:0:0:0:
43,252,38563,5,2,0:0:0:0:
94,194,38756,1,2,0:0:0:0:
79,120,38950,1,6,0:0:0:0:
166,219,39143,5,0,0:0:0:0:
166,219,39530,1,0,0:0:0:0:
166,219,39917,1,0,0:0:0:0:
50,198,40304,6,0,B|89:144|89:144|175:142,1,131.249995994568,6|0,0:0|0:0,0:0:0:0:
150,41,40691,2,0,B|224:83|224:83|245:183,1,168.749994850159,6|0,0:0|0:0,0:0:0:0:
326,101,41078,2,0,B|315:204|315:204|213:284,1,206.250006294251,6|0,0:0|0:0,0:0:0:0:
26,270,41465,5,6,0:0:0:0:
86,322,41659,1,2,0:0:0:0:
130,256,41852,1,4,0:0:0:0:
83,200,42046,5,8,0:0:0:0:
83,200,42239,1,2,0:0:0:0:
136,145,42433,1,8,0:0:0:0:
136,145,42530,1,8,0:0:0:0:
136,145,42626,6,0,P|127:101|119:45,1,87.499997329712,6|0,0:0|0:0,0:0:0:0:
118,39,43013,2,0,P|111:82|102:125,1,87.499997329712,6|2,0:0|0:0,0:0:0:0:
27,213,43401,2,0,P|91:208|159:204,1,131.249995994568,8|0,0:0|0:0,0:0:0:0:
337,146,43788,6,0,P|286:141|218:136,1,87.499997329712,6|0,0:0|0:0,0:0:0:0:
173,127,44175,1,2,0:0:0:0:
186,51,44368,1,12,0:0:0:0:
186,51,44562,1,6,0:0:0:0:
273,58,44755,1,8,0:0:0:0:
273,58,44852,1,8,0:0:0:0:
273,58,44949,6,0,P|260:100|250:154,1,87.499997329712,6|0,0:0|0:0,0:0:0:0:
339,119,45239,1,2,0:0:0:0:
347,111,45336,2,0,P|334:153|324:207,1,87.499997329712,12|8,0:0|0:0,0:0:0:0:
335,318,45626,1,8,0:0:0:0:
400,354,45723,2,0,P|439:302|415:205,1,131.249995994568,2|0,0:0|0:0,0:0:0:0:
473,35,46110,6,0,P|443:83|438:168,1,131.249995994568,6|0,0:0|0:0,0:0:0:0:
439,167,46497,1,8,0:0:0:0:
354,191,46691,2,0,P|356:147|351:104,1,87.499997329712,4|2,0:0|0:0,0:0:0:0:
241,19,47272,6,0,P|254:61|264:115,1,87.499997329712,12|4,0:0|0:0,0:0:0:0:
175,80,47562,1,0,0:0:0:0:
167,72,47659,2,0,P|180:114|190:168,1,87.499997329712,6|8,0:0|0:0,0:0:0:0:
88,208,47949,1,8,0:0:0:0:
90,124,48046,2,0,P|103:166|113:220,1,87.499997329712,2|8,0:0|0:0,0:0:0:0:
249,348,48336,5,8,0:0:0:0:
195,235,48433,2,0,P|150:293|193:392,1,149.999995422363,6|0,0:0|0:0,0:0:0:0:
339,360,48723,2,0,P|351:288|306:230,1,149.999995422363,6|0,0:0|0:0,0:0:0:0:
251,172,49013,1,12,0:0:0:0:
253,160,49207,5,8,0:0:0:0:
236,82,49304,1,8,0:0:0:0:
353,37,49401,2,0,B|380:105|380:105|357:187,1,149.999995422363,6|0,0:0|0:0,0:0:0:0:
137,41,49691,2,0,B|110:109|110:109|133:191,1,149.999995422363,6|0,0:0|0:0,0:0:0:0:
252,4,49981,1,12,0:0:0:0:
457,70,50368,6,0,P|415:66|353:45,1,100,6|0,0:0|0:0,0:0:0:0:
388,160,50549,2,0,P|297:158|262:282,1,200,8|0,0:0|0:0,0:0:0:0:
362,326,50822,1,8,0:0:0:0:
452,352,50913,1,2,0:0:0:0:
512,284,51004,1,0,0:0:0:0:
452,341,51095,6,0,L|469:226,1,100,12|0,0:0|0:0,0:0:0:0:
277,369,51277,2,0,L|260:254,1,100,8|8,0:0|0:0,0:0:0:0:
367,110,51458,2,0,P|360:190|365:330,1,200,6|8,0:0|0:0,0:0:0:0:
364,354,51731,5,2,0:0:0:0:
382,342,51822,1,0,0:0:0:0:
353,315,51913,1,8,0:0:0:0:
394,265,52004,1,6,0:0:0:0:
348,209,52095,1,0,0:0:0:0:
376,141,52186,1,2,0:0:0:0:
336,77,52277,1,0,0:0:0:0:
449,88,52368,6,0,B|467:137|467:137|454:184,1,100,6|0,0:0|0:0,0:0:0:0:
260,107,52549,1,8,0:0:0:0:
192,65,52640,2,0,B|174:114|174:114|188:160,1,100,2|0,0:0|0:0,0:0:0:0:
36,331,52822,1,8,0:0:0:0:
112,369,52913,2,0,P|118:326|114:262,1,100,6|0,0:0|0:0,0:0:0:0:
93,19,53095,2,0,B|70:66|18:96,1,100,12|0,0:0|0:0,0:0:0:0:
13,246,53277,1,8,0:0:0:0:
102,153,53368,1,8,0:0:0:0:
24,171,53458,6,0,P|143:183|203:261,1,200,6|0,0:0|0:0,0:0:0:0:
434,336,53731,1,2,0:0:0:0:
462,346,53822,2,0,P|406:365|348:359,1,100,12|0,0:0|0:0,0:0:0:0:
182,326,54004,2,0,P|238:307|296:313,1,100,2|0,0:0|0:0,0:0:0:0:
455,344,54186,5,12,0:0:0:0:
447,269,54277,1,0,0:0:0:0:
395,210,54368,1,2,0:0:0:0:
424,139,54458,1,0,0:0:0:0:
484,194,54549,6,0,P|485:245|456:288,1,100,6|0,0:0|0:0,0:0:0:0:
324,145,54731,2,0,P|367:118|419:121,1,100,8|2,0:0|0:0,0:0:0:0:
367,304,54913,2,0,P|322:279|299:233,1,100,0|8,0:0|0:0,0:0:0:0:
400,10,55095,6,0,L|394:215,1,200,6|8,0:0|0:0,0:0:0:0:
145,340,55368,1,0,0:0:0:0:
226,380,55458,1,8,0:0:0:0:
291,317,55549,1,8,0:0:0:0:
225,371,55640,2,0,L|219:171,1,200,6|8,0:0|0:0,0:0:0:0:
49,63,55913,5,0,0:0:0:0:
38,58,56004,2,0,B|87:47|87:47|145:56,1,100,8|0,0:0|0:0,0:0:0:0:
331,156,56186,2,0,B|282:167|282:167|224:158,1,100,6|0,0:0|0:0,0:0:0:0:
36,254,56368,2,0,B|85:265|85:265|143:256,1,100,8|0,0:0|0:0,0:0:0:0:
86,159,56549,6,0,P|101:238|97:352,2,187.5,6|8|6,0:0|0:0|0:0,0:0:0:0:
252,113,57367,2,0,L|254:51,1,62.5,8|0,0:0|0:0,0:0:0:0:
426,159,57639,2,0,P|411:238|415:352,2,187.5,6|12|6,0:0|0:0|0:0,0:0:0:0:
351,175,58367,5,2,0:0:0:0:
370,99,58458,1,0,0:0:0:0:
448,84,58549,1,0,0:0:0:0:
503,139,58639,1,0,0:0:0:0:
475,209,58730,6,0,P|421:232|372:271,1,100,6|0,0:0|0:0,0:0:0:0:
294,122,58912,1,8,0:0:0:0:
292,110,59003,2,0,P|270:164|263:226,1,100,6|0,0:0|0:0,0:0:0:0:
108,133,59185,1,8,0:0:0:0:
101,125,59276,2,0,P|119:180|153:233,1,100,6|0,0:0|0:0,0:0:0:0:
290,290,59458,6,0,B|164:269|217:375|102:356,1,200,8|8,0:0|0:0,0:0:0:0:
20,217,59730,1,8,0:0:0:0:
27,193,59821,2,0,P|47:237|57:294,1,100,6|0,0:0|0:0,0:0:0:0:
173,191,60003,1,8,0:0:0:0:
171,162,60094,2,0,P|214:182|258:220,1,100,2|0,0:0|0:0,0:0:0:0:
175,47,60276,1,8,0:0:0:0:
154,26,60367,2,0,P|200:13|258:13,1,100,6|0,0:0|0:0,0:0:0:0:
73,196,60549,5,8,0:0:0:0:
18,142,60639,1,0,0:0:0:0:
48,78,60730,2,0,B|131:123|131:123|173:237,1,200,6|8,0:0|0:0,0:0:0:0:
404,315,61002,2,0,L|276:356,1,100,2|0,0:0|0:0,0:0:0:0:
149,299,61184,1,8,0:0:0:0:
73,308,61275,2,0,P|153:337|251:274,1,200,6|8,0:0|0:0,0:0:0:0:
465,76,61548,5,0,0:0:0:0:
421,104,61639,1,2,0:0:0:0:
358,66,61730,1,0,0:0:0:0:
404,9,61820,2,0,L|186:49,1,200,12|0,0:0|0:0,0:0:0:0:
71,224,62093,1,0,0:0:0:0:
67,237,62184,6,0,P|42:193|27:145,1,100,12|0,0:0|0:0,0:0:0:0:
231,60,62366,2,0,P|211:105|202:154,1,100,2|0,0:0|0:0,0:0:0:0:
88,7,62548,2,0,P|93:56|110:103,1,100,12|0,0:0|0:0,0:0:0:0:
318,320,62730,1,2,0:0:0:0:
239,365,62820,1,0,0:0:0:0:
173,312,62911,6,0,P|129:328|61:375,1,100,6|0,0:0|0:0,0:0:0:0:
339,312,63093,2,0,P|383:328|451:375,1,100,8|2,0:0|0:0,0:0:0:0:
168,298,63275,2,0,P|124:314|56:361,1,100,0|8,0:0|0:0,0:0:0:0:
121,177,63457,2,0,P|219:193|247:291,1,200,6|12,0:0|0:0,0:0:0:0:
473,168,63730,1,0,0:0:0:0:
413,141,63820,1,8,0:0:0:0:
436,170,63911,1,8,0:0:0:0:
462,131,64002,6,0,P|364:147|336:245,1,200,6|8,0:0|0:0,0:0:0:0:
470,323,64275,1,0,0:0:0:0:
477,340,64366,2,0,B|422:345|422:345|373:321,1,100,8|0,0:0|0:0,0:0:0:0:
296,131,64548,2,0,B|327:176|327:176|331:230,1,100,6|0,0:0|0:0,0:0:0:0:
213,384,64730,2,0,B|236:333|236:333|281:303,1,100,12|0,0:0|0:0,0:0:0:0:
511,245,64911,6,0,L|394:231,1,100,6|0,0:0|0:0,0:0:0:0:
245,241,65092,1,8,0:0:0:0:
192,181,65183,1,2,0:0:0:0:
239,120,65274,1,8,0:0:0:0:
312,148,65365,1,0,0:0:0:0:
373,96,65456,1,8,0:0:0:0:
330,31,65547,1,8,0:0:0:0:
253,41,65638,5,0,0:0:0:0:
253,41,65729,1,8,0:0:0:0:
253,41,65820,1,8,0:0:0:0:
253,41,65911,1,0,0:0:0:0:
253,41,66001,6,0,B|231:94|231:94|248:148,1,112.499996566773,6|0,0:0|0:0,0:0:0:0:
473,168,66183,2,0,L|362:189,1,112.499996566773,8|0,0:0|0:0,0:0:0:0:
32,251,66365,6,0,L|142:229,1,112.499996566773,8|0,0:0|0:0,0:0:0:0:
252,378,66547,2,0,B|274:325|274:325|257:271,1,112.499996566773,12|0,0:0|0:0,0:0:0:0:
13,50,66729,6,0,P|56:80|82:123,1,100,8|0,0:0|0:0,0:0:0:0:
169,27,66911,2,0,P|178:75|167:124,1,100,8|0,0:0|0:0,0:0:0:0:
30,239,67092,6,0,L|159:220,1,100,6|0,0:0|0:0,0:0:0:0:
105,326,67274,1,8,0:0:0:0:
93,337,67365,2,0,L|222:318,1,100,2|0,0:0|0:0,0:0:0:0:
178,135,67547,1,8,0:0:0:0:
166,124,67638,2,0,L|295:143,1,100,2|0,0:0|0:0,0:0:0:0:
298,354,67820,2,0,B|279:305|279:305|293:256,1,100,12|0,0:0|0:0,0:0:0:0:
463,212,68001,1,8,0:0:0:0:
476,226,68092,1,8,0:0:0:0:
482,239,68183,6,0,L|353:220,1,100,6|0,0:0|0:0,0:0:0:0:
407,326,68365,1,8,0:0:0:0:
419,337,68456,2,0,L|290:318,1,100,2|0,0:0|0:0,0:0:0:0:
334,135,68638,1,8,0:0:0:0:
346,124,68729,2,0,L|217:143,1,100,6|0,0:0|0:0,0:0:0:0:
85,289,68911,1,2,0:0:0:0:
17,251,69001,1,0,0:0:0:0:
93,266,69092,6,0,P|91:327|69:374,1,100,6|0,0:0|0:0,0:0:0:0:
129,164,69273,1,8,0:0:0:0:
128,143,69364,2,0,P|165:191|179:241,1,100,2|0,0:0|0:0,0:0:0:0:
57,32,69546,1,8,0:0:0:0:
21,101,69637,2,0,B|114:47|114:47|204:76,2,200,6|12|8,0:0|0:0|0:0,0:0:0:0:
272,26,70092,5,8,0:0:0:0:
282,18,70182,2,0,B|300:65|300:65|274:133,1,100,6|0,0:0|0:0,0:0:0:0:
177,286,70364,2,0,B|223:268|223:268|270:286,1,100,0|2,0:0|0:0,0:0:0:0:
442,258,70546,2,0,L|254:192,1,200,12|2,0:0|0:0,0:0:0:0:
349,350,70819,1,0,0:0:0:0:
364,368,70910,2,0,L|353:253,1,100,12|0,0:0|0:0,0:0:0:0:
512,29,71092,1,2,0:0:0:0:
456,73,71182,1,0,0:0:0:0:
400,25,71273,6,0,P|398:73|399:138,1,100,6|0,0:0|0:0,0:0:0:0:
506,354,71455,1,8,0:0:0:0:
437,306,71546,1,2,0:0:0:0:
489,193,71637,2,0,B|389:180|404:285|299:276,1,200,0|6,0:0|0:0,0:0:0:0:
87,350,71910,1,0,0:0:0:0:
82,364,72001,2,0,P|82:315|81:262,1,100,8|0,0:0|0:0,0:0:0:0:
248,189,72182,1,8,0:0:0:0:
283,118,72273,1,8,0:0:0:0:
171,161,72364,6,0,P|175:283|173:370,1,200,6|8,0:0|0:0,0:0:0:0:
259,340,72637,1,0,0:0:0:0:
276,362,72728,2,0,B|289:315|289:315|274:263,1,100,8|0,0:0|0:0,0:0:0:0:
81,113,72910,2,0,B|68:160|68:160|83:212,1,100,6|0,0:0|0:0,0:0:0:0:
298,155,73092,2,0,B|311:108|311:108|296:56,1,100,8|0,0:0|0:0,0:0:0:0:
80,25,73273,6,0,P|174:50|178:151,2,187.5,6|8|6,0:0|0:0|0:0,0:0:0:0:
251,261,74091,2,0,L|245:192,1,62.5,8|0,0:0|0:0,0:0:0:0:
449,257,74363,2,0,P|355:282|351:383,2,187.5,6|8|6,0:0|0:0|0:0,0:0:0:0:
447,269,75091,5,2,0:0:0:0:
411,203,75182,1,0,0:0:0:0:
475,156,75273,1,0,0:0:0:0:
417,100,75363,1,0,0:0:0:0:
453,32,75454,6,0,P|441:137|445:241,1,200,6|8,0:0|0:0,0:0:0:0:
318,314,75727,2,0,P|369:330|412:362,1,100,6|0,0:0|0:0,0:0:0:0:
286,234,75909,1,8,0:0:0:0:
207,200,76000,2,0,P|258:183|301:151,1,100,6|0,0:0|0:0,0:0:0:0:
69,272,76182,6,0,B|173:288|173:288|214:391,1,200,8|8,0:0|0:0,0:0:0:0:
117,150,76454,1,8,0:0:0:0:
43,176,76545,2,0,P|-6:211|1:341,1,200,6|8,0:0|0:0,0:0:0:0:
116,374,76818,2,0,P|165:339|158:209,1,200,2|8,0:0|0:0,0:0:0:0:
43,41,77091,2,0,L|252:107,1,200,6|8,0:0|0:0,0:0:0:0:
474,213,77363,5,0,0:0:0:0:
484,221,77454,2,0,L|472:112,1,100,6|0,0:0|0:0,0:0:0:0:
250,118,77635,1,8,0:0:0:0:
240,128,77726,2,0,P|237:32|369:35,1,200,2|8,0:0|0:0,0:0:0:0:
312,288,77999,2,0,B|269:258|269:258|246:212,1,100,6|0,0:0|0:0,0:0:0:0:
363,85,78181,2,0,B|351:136|351:136|364:184,1,100,8|0,0:0|0:0,0:0:0:0:
484,243,78363,5,2,0:0:0:0:
417,288,78454,1,0,0:0:0:0:
454,359,78544,2,0,B|360:329|360:329|243:369,1,200,12|0,0:0|0:0,0:0:0:0:
35,319,78817,1,0,0:0:0:0:
0,252,78908,2,0,L|103:287,1,100,12|0,0:0|0:0,0:0:0:0:
247,284,79090,2,0,L|342:252,1,100,2|0,0:0|0:0,0:0:0:0:
161,351,79272,5,12,0:0:0:0:
111,203,79363,1,0,0:0:0:0:
186,172,79454,2,0,L|169:275,1,100,2|0,0:0|0:0,0:0:0:0:
169,270,79635,6,0,P|123:247|97:202,1,100,6|0,0:0|0:0,0:0:0:0:
284,150,79817,2,0,P|288:200|262:245,1,100,8|2,0:0|0:0,0:0:0:0:
122,116,79999,2,0,P|164:87|216:87,1,100,0|8,0:0|0:0,0:0:0:0:
486,122,80181,2,0,L|275:66,1,200,6|12,0:0|0:0,0:0:0:0:
43,43,80454,5,0,0:0:0:0:
17,90,80544,1,8,0:0:0:0:
90,114,80635,1,8,0:0:0:0:
135,50,80726,2,0,B|231:65|188:173|327:156,1,200,6|8,0:0|0:0,0:0:0:0:
417,302,80999,1,0,0:0:0:0:
462,243,81090,2,0,L|343:256,1,100,8|0,0:0|0:0,0:0:0:0:
220,106,81272,2,0,B|202:151|202:151|223:208,1,100,6|0,0:0|0:0,0:0:0:0:
274,371,81454,2,0,B|292:326|292:326|271:269,1,100,12|0,0:0|0:0,0:0:0:0:
362,99,81635,6,0,L|481:112,1,100,6|0,0:0|0:0,0:0:0:0:
272,47,81816,1,8,0:0:0:0:
197,24,81907,1,2,0:0:0:0:
140,78,81998,1,8,0:0:0:0:
146,151,82089,1,0,0:0:0:0:
89,198,82180,1,8,0:0:0:0:
18,174,82271,1,8,0:0:0:0:
19,81,82362,5,0,0:0:0:0:
27,83,82453,1,8,0:0:0:0:
30,90,82544,1,8,0:0:0:0:
28,97,82635,1,0,0:0:0:0:
21,88,82725,6,0,B|80:74|80:74|142:93,1,112.499996566773,6|0,0:0|0:0,0:0:0:0:
242,333,82907,2,0,B|183:347|183:347|121:328,1,112.499996566773,8|0,0:0|0:0,0:0:0:0:
285,84,83089,6,0,B|344:70|344:70|406:89,1,112.499996566773,8|0,0:0|0:0,0:0:0:0:
506,329,83271,2,0,B|447:343|447:343|397:327,1,112.499996566773,12|0,0:0|0:0,0:0:0:0:
461,142,83453,6,0,L|451:241,1,100,8|0,0:0|0:0,0:0:0:0:
317,307,83635,2,0,L|307:208,1,100,8|0,0:0|0:0,0:0:0:0:
212,19,83816,6,0,L|204:84,2,50,0|0|0,0:0|0:0|0:0,0:0:0:0:
128,92,84362,2,0,P|135:141|141:203,1,100,0|0,0:0|0:0,0:0:0:0:
124,264,84907,1,0,0:0:0:0:
124,264,85271,6,0,L|130:313,3,50,0|0|0|0,0:0|0:0|0:0|0:0,0:0:0:0:
65,190,85998,6,0,P|38:223|39:305,1,100,6|0,0:0|0:0,0:0:0:0:
190,373,86180,1,8,0:0:0:0:
194,384,86271,2,0,P|221:351|220:269,1,100,2|0,0:0|0:0,0:0:0:0:
148,142,86453,1,8,0:0:0:0:
83,102,86544,2,0,L|195:94,1,100,2|0,0:0|0:0,0:0:0:0:
377,140,86725,1,12,0:0:0:0:
448,143,86816,1,0,0:0:0:0:
468,213,86907,1,8,0:0:0:0:
406,255,86998,1,8,0:0:0:0:
345,211,87089,6,0,L|228:205,1,100,6|0,0:0|0:0,0:0:0:0:
271,28,87271,2,0,B|289:75|289:75|273:146,1,100,8|0,0:0|0:0,0:0:0:0:
226,375,87453,1,8,0:0:0:0:
168,319,87544,1,0,0:0:0:0:
321,383,87635,2,0,B|303:336|303:336|319:265,1,100,8|0,0:0|0:0,0:0:0:0:
470,64,87816,2,0,P|431:87|380:136,1,100,8|0,0:0|0:0,0:0:0:0:
404,382,87998,1,8,0:0:0:0:
470,341,88089,1,0,0:0:0:0:
321,383,88180,6,0,L|308:272,1,87.499997329712,6|0,0:0|0:0,0:0:0:0:
103,115,88362,2,0,P|148:128|193:162,1,87.499997329712,2|0,0:0|0:0,0:0:0:0:
422,254,88544,6,0,P|399:241|363:231,1,43.749998664856,12|0,0:0|0:0,0:0:0:0:
389,214,88635,2,0,P|362:211|325:215,1,43.749998664856,0|0,0:0|0:0,0:0:0:0:
336,197,88725,2,0,P|310:204|277:222,1,43.749998664856,0|0,0:0|0:0,0:0:0:0:
280,202,88816,2,0,P|258:218|234:247,1,43.749998664856,8|0,0:0|0:0,0:0:0:0:
237,250,88907,2,0,P|214:263|178:273,1,43.749998664856,0|0,0:0|0:0,0:0:0:0:
204,290,88998,2,0,P|177:293|140:289,1,43.749998664856,0|0,0:0|0:0,0:0:0:0:
151,307,89089,2,0,P|125:300|92:282,1,43.749998664856,8|0,0:0|0:0,0:0:0:0:
95,302,89179,2,0,P|73:286|49:257,1,43.749998664856,0|0,0:0|0:0,0:0:0:0:
49,197,89271,6,0,P|53:144|49:85,1,93.75,6|0,0:0|0:0,0:0:0:0:
51,82,89635,5,8,0:0:0:0:
97,134,89725,1,8,0:0:0:0:
68,197,89816,1,8,0:0:0:0:
25,257,89907,1,8,0:0:0:0:
73,313,89998,1,8,0:0:0:0:
113,244,90089,1,8,0:0:0:0:
62,190,90180,1,8,0:0:0:0:
9,140,90271,1,8,0:0:0:0:
134,60,90362,6,0,P|252:66|301:156,1,200,6|8,0:0|0:0,0:0:0:0:
245,337,90635,2,0,P|165:249|194:151,1,200,6|8,0:0|0:0,0:0:0:0:
480,225,90907,2,0,B|443:309|443:309|329:349,1,200,6|8,0:0|0:0,0:0:0:0:
211,63,91180,2,0,B|310:32|310:32|405:82,1,200,6|8,0:0|0:0,0:0:0:0:
225,340,91453,6,0,B|133:291|133:291|101:189,1,200,6|8,0:1|0:0,0:0:0:0:
382,174,91725,2,0,L|476:138,1,100,6|0,0:0|0:0,0:0:0:0:
298,101,91907,1,8,0:0:0:0:
281,106,91998,2,0,L|330:19,1,100,6|0,0:0|0:0,0:0:0:0:
128,101,92180,5,8,0:0:0:0:
110,118,92271,1,6,0:0:0:0:
36,90,92362,1,0,0:0:0:0:
79,23,92453,1,2,0:0:0:0:
158,27,92544,6,0,P|180:96|177:188,1,149.999995422363,6|0,0:1|0:0,0:0:0:0:
31,195,92816,1,2,0:0:0:0:
19,193,92907,2,0,L|100:212,1,74.9999977111817,4|0,0:0|0:0,0:0:0:0:
244,343,93089,2,0,L|163:362,1,74.9999977111817,2|0,0:0|0:0,0:0:0:0:
30,333,93271,2,0,L|244:232,1,224.999993133545,12|0,0:0|0:0,0:0:0:0:
372,171,93635,5,2,0:0:0:0:
381,166,93725,2,0,P|383:125|401:11,1,149.999995422363,12|2,0:0|0:0,0:0:0:0:
292,90,93998,2,0,P|295:48|288:7,1,74.9999977111817,4|0,0:0|0:0,0:0:0:0:
478,174,94180,2,0,P|475:132|482:91,1,74.9999977111817,2|0,0:0|0:0,0:0:0:0:
386,23,94362,2,0,P|378:126|390:265,1,224.999993133545,12|0,0:0|0:0,0:0:0:0:
309,353,94725,6,0,P|307:316|301:268,1,74.9999977111817,6|0,0:0|0:0,0:0:0:0:
179,86,94907,2,0,P|212:140|228:232,1,149.999995422363,2|12,0:0|0:0,0:0:0:0:
99,335,95180,1,2,0:0:0:0:
93,344,95271,2,0,L|18:350,1,74.9999977111817,0|0,0:0|0:0,0:0:0:0:
46,259,95453,2,0,P|163:273|183:386,1,224.999993133545,12|0,0:0|0:0,0:0:0:0:
310,337,95816,6,0,B|294:287|294:287|306:240,1,100,6|0,0:0|0:0,0:0:0:0:
483,235,95998,2,0,B|495:282|495:282|480:332,1,100,8|0,0:0|0:0,0:0:0:0:
398,364,96180,1,6,0:0:0:0:
398,364,96362,5,8,0:0:0:0:
375,288,96453,1,8,0:0:0:0:
412,224,96544,1,8,0:0:0:0:
355,175,96635,1,2,0:0:0:0:
378,105,96725,1,2,0:0:0:0:
451,113,96816,1,2,0:0:0:0:
484,185,96907,6,0,B|423:145|423:145|339:163,2,149.999995422363,6|8|6,0:0|0:0|0:0,0:0:0:0:
420,43,97453,1,8,0:0:0:0:
420,43,97635,5,8,0:0:0:0:
343,54,97725,1,8,0:0:0:0:
269,69,97816,1,4,0:0:0:0:
194,81,97907,1,0,0:0:0:0:
34,119,97998,6,0,B|162:103|103:220|232:199,1,224.999993133545,6|0,0:0|0:0,0:0:0:0:
398,243,98362,2,0,P|431:258|460:283,1,74.9999977111817,6|0,0:0|0:0,0:0:0:0:
337,294,98544,1,8,0:0:0:0:
302,229,98635,1,8,0:0:0:0:
339,170,98725,1,8,0:0:0:0:
339,170,98816,1,2,0:0:0:0:
339,170,98907,1,2,0:0:0:0:
339,170,98998,1,2,0:0:0:0:
441,261,99089,6,0,B|360:316|360:316|235:285|233:283,1,200,6|8,0:0|0:0,0:0:0:0:
367,33,99362,2,0,B|455:75|455:75|490:199|490:202,1,200,6|8,0:0|0:0,0:0:0:0:
193,214,99635,2,0,B|185:116|185:116|275:23|277:22,1,200,6|8,0:0|0:0,0:0:0:0:
440,274,99907,2,0,B|350:314|350:314|232:261|231:259,1,200,6|8,0:0|0:0,0:0:0:0:
123,351,100180,6,0,P|145:324|190:292,1,74.9999977111817,6|0,0:0|0:0,0:0:0:0:
23,277,100362,1,8,0:0:0:0:
15,269,100453,2,0,P|14:234|28:180,1,74.9999977111817,6|0,0:0|0:0,0:0:0:0:
167,108,100635,1,8,0:0:0:0:
177,105,100725,2,0,P|126:184|122:262,1,149.999995422363,6|8,0:0|0:0,0:0:0:0:
164,300,100998,5,6,0:0:0:0:
107,352,101089,1,2,0:0:0:0:
60,292,101180,1,2,0:0:0:0:
116,241,101271,6,0,L|304:275,2,187.5,6|2|2,0:0|0:0|0:0,0:0:0:0:
72,41,101998,5,12,0:0:0:0:
132,94,102180,1,4,0:0:0:0:
200,51,102362,2,0,L|12:85,1,187.5,6|2,0:0|0:0,0:0:0:0:
256,108,102725,1,6,0:0:0:0:
312,51,102907,2,0,L|486:84,1,125,2|12,0:0|0:0,0:0:0:0:
256,108,103271,1,4,0:0:0:0:
180,122,103453,6,0,P|190:160|191:210,1,74.9999977111817,4|0,0:0|0:0,0:0:0:0:
336,153,103635,2,0,P|319:188|287:227,1,74.9999977111817,2|0,0:0|0:0,0:0:0:0:
421,270,103816,1,4,0:0:0:0:
430,273,103907,2,0,P|394:289|345:299,1,74.9999977111817,2|0,0:0|0:0,0:0:0:0:
418,126,104089,5,2,0:0:0:0:
482,174,104180,2,0,B|373:157|373:157|263:252,1,224.999993133545,12|8,0:0|0:0,0:0:0:0:
123,344,104544,1,6,0:0:0:0:
196,362,104725,2,0,P|202:292|200:205,1,149.999995422363,8|6,0:0|0:0,0:0:0:0:
46,98,105089,5,8,0:0:0:0:
102,153,105180,1,8,0:0:0:0:
171,113,105271,1,8,0:0:0:0:
166,118,105362,1,2,0:0:0:0:
162,124,105453,1,2,0:0:0:0:
161,132,105544,1,2,0:0:0:0:
158,138,105635,5,4,0:0:0:0:
158,138,105998,1,8,0:0:0:0:
158,138,106362,2,0,P|264:135|365:171,1,200,8|8,0:0|0:0,0:0:0:0:
352,164,107089,1,8,0:0:0:0:
395,231,107271,5,0,0:0:0:0:
332,274,107453,1,8,0:0:0:0:
194,382,107635,1,0,0:0:0:0:
129,343,107816,6,0,L|344:353,1,200,4|8,0:0|0:0,0:0:0:0:
328,352,108544,1,8,0:0:0:0:
412,371,108725,1,0,0:0:0:0:
412,371,108907,2,0,P|407:284|507:276,1,200,8|8,0:0|0:0,0:0:0:0:
500,270,109453,5,0,0:0:0:0:
457,207,109635,1,8,0:0:0:0:
493,81,109816,1,0,0:0:0:0:
508,153,109998,6,0,P|412:142|301:75,1,200,4|8,0:0|0:0,0:0:0:0:
321,93,110725,1,8,0:0:0:0:
245,59,110907,5,0,0:0:0:0:
247,135,111089,1,8,0:0:0:0:
247,135,111453,5,8,0:0:0:0:
176,169,111816,1,8,0:0:0:0:
30,153,111998,6,0,P|32:186|31:206,1,50,2|0,0:0|0:0,0:0:0:0:
115,363,112180,2,0,P|108:271|110:194,1,150,4|0,0:0|0:0,0:0:0:0:
162,44,112544,2,0,P|182:75|196:141,1,100,8|0,0:0|0:0,0:0:0:0:
280,121,112907,2,0,P|275:157|243:217,1,100,8|0,0:0|0:0,0:0:0:0:
119,275,113271,6,0,L|342:314,1,200,12|0,0:0|0:0,0:0:0:0:
457,307,113816,2,0,L|484:283,1,25,2|0,0:0|0:0,0:0:0:0:
449,298,113907,2,0,L|451:261,1,25,0|0,0:0|0:0,0:0:0:0:
432,303,113998,2,0,L|408:276,1,25,0|0,0:0|0:0,0:0:0:0:
423,311,114089,2,0,L|386:308,1,25,0|0,0:0|0:0,0:0:0:0:
423,323,114180,2,0,L|396:347,1,25,0|0,0:0|0:0,0:0:0:0:
431,332,114271,2,0,L|428:368,1,25,0|0,0:0|0:0,0:0:0:0:
451,334,114362,6,0,P|448:244|455:134,1,200,4|8,0:0|0:0,0:0:0:0:
454,134,115089,1,8,0:0:0:0:
454,134,115453,1,8,0:0:0:0:
454,134,115816,1,8,0:0:0:0:
509,83,115998,5,0,0:0:0:0:
456,30,116180,1,8,0:0:0:0:
396,79,116362,1,0,0:0:0:0:
396,79,116453,5,8,0:0:0:0:
396,79,116544,2,0,P|314:85|204:125,1,200,4|8,0:0|0:0,0:0:0:0:
203,125,117271,1,8,0:0:0:0:
203,125,117635,6,0,P|216:71|231:24,1,100,8|0,0:0|0:0,0:0:0:0:
99,154,117998,2,0,P|85:100|71:53,1,100,8|2,0:0|0:0,0:0:0:0:
49,235,118362,1,8,0:0:0:0:
127,232,118544,1,8,0:0:0:0:
158,303,118725,6,0,L|263:311,1,100,4|0,0:0|0:0,0:0:0:0:
388,168,119089,2,0,L|288:175,1,100,8|2,0:0|0:0,0:0:0:0:
343,353,119453,2,0,B|360:305|360:305|343:245,1,100,8|2,0:0|0:0,0:0:0:0:
211,122,119816,2,0,B|194:170|194:170|211:230,1,100,12|0,0:0|0:0,0:0:0:0:
367,90,120180,5,12,0:0:0:0:
367,90,120544,1,12,0:0:0:0:
367,90,120907,6,0,P|437:186|327:318,1,299.999990844727,12|4,0:0|0:0,0:0:0:0:
145,294,121453,2,0,P|75:198|185:66,1,299.999990844727,2|2,0:0|0:0,0:0:0:0:
269,37,121998,1,12,0:0:0:0:
269,37,122362,1,12,0:0:0:0:
269,37,122725,5,12,0:0:0:0:
265,111,122816,1,0,0:0:0:0:
262,185,122907,1,8,0:0:0:0:
258,258,122998,1,8,0:0:0:0:
256,334,123089,5,6,0:0:0:0:
153,315,123271,1,8,0:0:0:0:
33,224,123453,5,0,0:0:0:0:
136,205,123635,1,8,0:0:0:0:
265,111,123816,6,0,L|9:63,2,250,6|6|12,0:0|0:0|0:0,0:0:0:0:
494,57,124725,1,2,0:0:0:0:
434,9,124907,2,0,P|375:56|392:164,1,149.999995422363,12|0,0:0|0:0,0:0:0:0:
374,360,125271,2,0,P|386:271|377:201,1,149.999995422363,6|8,0:0|0:0,0:0:0:0:
462,139,125635,6,0,P|464:177|471:225,1,74.9999977111817,6|0,0:0|0:0,0:0:0:0:
381,118,125816,1,8,0:0:0:0:
311,153,125907,1,0,0:0:0:0:
241,126,125998,2,0,B|216:197|216:197|243:291,1,149.999995422363,6|8,0:0|0:0,0:0:0:0:
123,279,126271,5,8,0:0:0:0:
112,275,126362,2,0,P|148:323|187:385,1,125,6|0,0:0|0:0,0:0:0:0:
331,244,126635,1,0,0:0:0:0:
337,236,126725,2,0,P|334:296|323:368,1,125,12|2,0:0|0:0,0:0:0:0:
235,267,127089,2,0,P|211:205|107:147,1,187.5,12|2,0:0|0:0,0:0:0:0:
15,67,127453,6,0,P|88:59|162:24,1,149.999995422363,6|8,0:0|0:0,0:0:0:0:
105,278,127816,2,0,P|61:218|-5:172,1,149.999995422363,6|8,0:0|0:0,0:0:0:0:
232,109,128180,2,0,P|202:176|195:257,1,149.999995422363,6|8,0:0|0:0,0:0:0:0:
378,368,128453,5,8,0:0:0:0:
457,365,128544,2,0,B|435:295|435:295|356:253,1,149.999995422363,6|0,0:0|0:0,0:0:0:0:
409,175,128816,1,2,0:0:0:0:
415,166,128907,2,0,B|343:150|343:150|268:197,1,149.999995422363,12|2,0:0|0:0,0:0:0:0:
219,104,129271,2,0,B|174:161|174:161|185:250,1,149.999995422363,12|0,0:0|0:0,0:0:0:0:
263,326,129635,6,0,L|269:254,1,56.2499982833863,12|0,0:0|0:0,0:0:0:0:
278,187,129998,5,8,0:0:0:0:
223,131,130089,1,8,0:0:0:0:
146,146,130180,1,8,0:0:0:0:
131,223,130271,1,8,0:0:0:0:
193,271,130362,1,8,0:0:0:0:
195,346,130453,1,8,0:0:0:0:
125,376,130544,1,8,0:0:0:0:
57,340,130635,1,8,0:0:0:0:
61,265,130725,5,8,0:0:0:0:
128,216,130816,1,8,0:0:0:0:
125,133,130907,1,8,0:0:0:0:
66,85,130998,1,8,0:0:0:0:
4,129,131089,1,8,0:0:0:0:
60,183,131180,1,8,0:0:0:0:
121,140,131271,1,8,0:0:0:0:
188,175,131362,1,8,0:0:0:0:
253,130,131453,5,8,0:0:0:0:
304,194,131544,1,8,0:0:0:0:
393,173,131634,1,8,0:0:0:0:
456,248,131725,1,8,0:0:0:0:
449,262,131816,5,0,0:0:0:0:
154,41,133998,6,0,B|207:46|207:46|244:86,1,100,6|0,0:0|0:0,0:0:0:0:
58,191,134180,2,0,B|35:142|35:142|51:90,1,100,0|6,0:0|0:0,0:0:0:0:
292,191,134362,1,0,0:0:0:0:
217,218,134453,1,0,0:0:0:0:
168,159,134544,2,0,P|329:204|350:340,1,300,2|0,0:0|0:0,0:0:0:0:
157,368,134907,5,0,0:0:0:0:
127,276,134998,1,0,0:0:0:0:
133,355,135089,2,0,P|28:298|143:89,1,400,6|4,0:0|0:0,0:0:0:0:
407,33,135635,5,0,0:0:0:0:
354,92,135725,1,0,0:0:0:0:
406,150,135816,1,8,0:0:0:0:
459,92,135907,1,8,0:0:0:0:
407,33,135998,6,0,P|353:29|286:15,1,100,6|0,0:0|0:0,0:0:0:0:
468,214,136179,1,0,0:0:0:0:
476,220,136270,2,0,P|432:251|371:283,1,100,6|0,0:0|0:0,0:0:0:0:
478,114,136452,1,0,0:0:0:0:
482,106,136543,2,0,P|387:127|315:209,1,200,2|4,0:0|0:0,0:0:0:0:
146,181,136816,1,0,0:0:0:0:
133,172,136907,2,0,P|171:212|187:259,1,100,2|0,0:0|0:0,0:0:0:0:
302,378,137088,6,0,P|268:358|236:302,1,100,12|0,0:0|0:0,0:0:0:0:
257,100,137270,2,0,P|256:139|224:195,1,100,0|0,0:0|0:0,0:0:0:0:
20,286,137452,2,0,P|54:266|118:266,1,100,4|0,0:0|0:0,0:0:0:0:
438,221,137634,2,0,B|291:216|334:361|155:334,1,300,2|0,0:0|0:0,0:0:0:0:
175,63,137998,1,0,0:0:0:0:
103,34,138088,1,0,0:0:0:0:
42,75,138179,6,0,B|125:120|125:120|167:234,1,200,6|0,0:0|0:0,0:0:0:0:
248,116,138452,1,6,0:0:0:0:
254,110,138543,2,0,P|251:52|249:6,1,100,0|0,0:0|0:0,0:0:0:0:
470,75,138725,2,0,B|387:120|387:120|345:234,1,200,2|4,0:0|0:0,0:0:0:0:
254,128,138997,1,0,0:0:0:0:
248,122,139088,2,0,P|251:64|253:18,1,100,2|0,0:0|0:0,0:0:0:0:
141,223,139270,6,0,P|264:257|265:351,1,200,12|2,0:0|0:0,0:0:0:0:
164,322,139543,1,0,0:0:0:0:
151,322,139634,2,0,P|115:327|53:338,1,100,12|0,0:0|0:0,0:0:0:0:
388,300,139816,2,0,P|424:305|486:316,1,100,2|0,0:0|0:0,0:0:0:0:
273,181,139998,1,8,0:0:0:0:
199,206,140088,1,8,0:0:0:0:
138,163,140179,6,0,P|48:186|57:304,2,187.5,6|2|12,0:0|0:0|0:0,0:0:0:0:
251,38,140997,2,0,P|253:72|251:117,1,62.5,2|0,0:0|0:0,0:0:0:0:
374,163,141269,2,0,P|464:186|455:304,2,187.5,6|2|6,0:0|0:0|0:0,0:0:0:0:
296,147,141997,5,12,0:0:0:0:
315,223,142088,1,0,0:0:0:0:
393,238,142179,1,2,0:0:0:0:
448,183,142269,1,2,0:0:0:0:
421,75,142360,6,0,L|370:165,1,100,6|0,0:0|0:0,0:0:0:0:
214,38,142542,1,0,0:0:0:0:
204,32,142633,2,0,L|222:133,1,100,6|0,0:0|0:0,0:0:0:0:
41,143,142815,1,0,0:0:0:0:
16,163,142906,2,0,B|196:163|93:282|278:311,1,300,2|0,0:0|0:0,0:0:0:0:
74,356,143269,2,0,P|69:307|48:250,1,100,0|0,0:0|0:0,0:0:0:0:
66,48,143451,2,0,L|277:63,2,200,12|0|4,0:0|0:0|0:0,0:0:0:0:
77,48,143997,5,0,0:0:0:0:
112,27,144088,1,0,0:0:0:0:
176,68,144179,1,8,0:0:0:0:
253,54,144269,1,8,0:0:0:0:
309,108,144360,6,0,P|395:170|389:283,1,200,6|0,0:0|0:0,0:0:0:0:
122,266,144632,2,0,P|132:160|233:109,1,200,6|0,0:0|0:0,0:0:0:0:
348,337,144905,2,0,P|251:380|273:224,1,300,2|0,0:0|0:0,0:0:0:0:
494,51,145269,5,2,0:0:0:0:
431,85,145360,1,0,0:0:0:0:
366,53,145450,2,0,B|262:41|262:41|166:102,2,200,12|0|0,0:0|0:0|0:0,0:0:0:0:
86,81,145905,1,0,0:0:0:0:
82,70,145996,2,0,B|108:25|108:25|154:0,1,100,2|0,0:0|0:0,0:0:0:0:
204,196,146178,2,0,B|152:195|152:195|106:168,1,100,12|0,0:0|0:0,0:0:0:0:
264,23,146360,1,0,0:0:0:0:
291,100,146450,1,0,0:0:0:0:
290,15,146541,6,0,P|289:110|295:223,1,200,6|0,0:0|0:0,0:0:0:0:
437,211,146814,1,6,0:0:0:0:
448,203,146905,2,0,L|362:277,1,100,0|0,0:0|0:0,0:0:0:0:
207,262,147087,2,0,L|132:197,1,100,2|0,0:0|0:0,0:0:0:0:
125,200,147450,6,0,L|200:265,1,100,2|0,0:0|0:0,0:0:0:0:
348,353,147632,2,0,P|380:256|485:190,1,200,12|0,0:0|0:0,0:0:0:0:
473,349,147905,1,0,0:0:0:0:
483,357,147996,2,0,B|438:329|438:329|413:282,1,100,12|0,0:0|0:0,0:0:0:0:
282,247,148178,2,0,B|292:196|292:196|328:156,1,100,0|0,0:0|0:0,0:0:0:0:
449,0,148360,1,8,0:0:0:0:
432,72,148450,1,8,0:0:0:0:
490,116,148541,6,0,P|408:70|289:71,1,200,6|8,0:0|0:0,0:0:0:0:
23,74,148813,2,0,P|105:120|224:119,1,200,6|8,0:0|0:0,0:0:0:0:
381,208,149086,2,0,P|330:219|291:244,1,100,6|0,0:0|0:0,0:0:0:0:
205,130,149268,2,0,P|173:171|159:215,1,100,8|0,0:0|0:0,0:0:0:0:
4,325,149450,1,8,0:0:0:0:
65,367,149541,1,8,0:0:0:0:
137,346,149631,6,0,L|239:333,1,100,6|0,0:0|0:0,0:0:0:0:
486,212,149813,1,2,0:0:0:0:
425,254,149904,1,8,0:0:0:0:
353,233,149995,2,0,L|251:220,1,100,0|0,0:0|0:0,0:0:0:0:
41,134,150177,5,8,0:0:0:0:
64,62,150269,1,8,0:0:0:0:
137,54,150360,1,8,0:0:0:0:
160,124,150450,1,2,0:0:0:0:
103,173,150541,1,2,0:0:0:0:
140,237,150632,1,2,0:0:0:0:
137,309,150722,6,0,B|109:268|109:268|105:217,1,100,6|0,0:0|0:0,0:0:0:0:
18,161,150904,1,8,0:0:0:0:
13,155,150995,2,0,B|47:120|47:120|97:108,1,100,2|0,0:0|0:0,0:0:0:0:
147,17,151177,1,8,0:0:0:0:
149,8,151268,2,0,B|188:36|188:36|209:83,1,100,2|0,0:0|0:0,0:0:0:0:
306,357,151450,1,12,0:0:0:0:
236,314,151541,1,0,0:0:0:0:
255,237,151631,1,8,0:0:0:0:
335,235,151722,1,8,0:0:0:0:
375,309,151813,6,0,B|403:268|403:268|407:217,1,100,6|0,0:0|0:0,0:0:0:0:
494,161,151995,1,8,0:0:0:0:
499,155,152086,2,0,B|465:120|465:120|415:108,1,100,2|0,0:0|0:0,0:0:0:0:
365,17,152268,1,8,0:0:0:0:
363,8,152359,2,0,B|324:36|324:36|303:83,1,100,6|0,0:0|0:0,0:0:0:0:
164,167,152541,5,2,0:0:0:0:
90,192,152631,1,0,0:0:0:0:
33,145,152722,2,0,P|89:70|203:64,1,200,6|8,0:0|0:0,0:0:0:0:
226,287,152994,2,0,L|108:275,1,100,2|0,0:0|0:0,0:0:0:0:
240,127,153176,1,8,0:0:0:0:
250,115,153267,2,0,B|263:161|263:161|251:211,1,100,6|0,0:0|0:0,0:0:0:0:
49,330,153449,2,0,B|35:283|35:283|47:233,1,100,12|0,0:0|0:0,0:0:0:0:
319,336,153631,5,8,0:0:0:0:
384,372,153722,1,8,0:0:0:0:
455,347,153812,2,0,P|452:276|483:150,2,200,6|0|12,0:0|0:0|0:0,0:0:0:0:
379,148,154267,1,0,0:0:0:0:
378,132,154358,2,0,P|396:85|405:36,1,100,2|0,0:0|0:0,0:0:0:0:
480,160,154540,1,12,0:0:0:0:
438,216,154631,1,0,0:0:0:0:
368,227,154722,1,0,0:0:0:0:
306,194,154812,1,0,0:0:0:0:
263,132,154903,6,0,P|265:78|271:32,1,100,6|0,0:0|0:0,0:0:0:0:
235,250,155085,2,0,P|228:299|227:349,1,100,8|2,0:0|0:0,0:0:0:0:
43,165,155267,1,0,0:0:0:0:
0,107,155358,1,8,0:0:0:0:
33,41,155449,2,0,P|133:41|165:133,1,200,6|8,0:0|0:0,0:0:0:0:
19,312,155722,1,0,0:0:0:0:
84,321,155812,1,8,0:0:0:0:
54,299,155903,1,8,0:0:0:0:
39,344,155994,6,0,B|118:277|118:277|234:250,1,200,6|8,0:0|0:0,0:0:0:0:
432,282,156267,1,0,0:0:0:0:
442,286,156358,2,0,L|327:271,1,100,8|0,0:0|0:0,0:0:0:0:
159,358,156540,2,0,L|274:343,1,100,6|0,0:0|0:0,0:0:0:0:
379,158,156722,2,0,L|264:173,1,100,8|0,0:0|0:0,0:0:0:0:
106,232,156903,6,0,P|108:143|86:40,2,187.5,6|8|6,0:0|0:0|0:0,0:0:0:0:
253,289,157721,2,0,P|255:323|253:368,1,62.5,8|0,0:0|0:0,0:0:0:0:
406,232,157993,2,0,P|404:143|426:40,2,187.5,6|12|6,0:0|0:0|0:0,0:0:0:0:
407,257,158721,5,2,0:0:0:0:
435,190,158812,1,0,0:0:0:0:
393,132,158903,1,0,0:0:0:0:
424,68,158993,1,0,0:0:0:0:
385,3,159084,6,0,L|190:67,1,200,6|8,0:0|0:0,0:0:0:0:
229,198,159357,2,0,P|279:205|342:202,1,100,6|0,0:0|0:0,0:0:0:0:
110,52,159539,1,8,0:0:0:0:
103,38,159630,2,0,P|53:45|-10:42,1,100,6|0,0:0|0:0,0:0:0:0:
153,145,159812,6,0,P|67:154|26:260,1,200,8|8,0:0|0:0,0:0:0:0:
241,355,160084,1,8,0:0:0:0:
325,363,160175,2,0,B|365:271|365:271|320:156,1,200,6|8,0:0|0:0,0:0:0:0:
154,360,160448,2,0,B|114:268|114:268|150:175,1,200,2|8,0:0|0:0,0:0:0:0:
246,39,160721,2,0,P|235:116|245:250,1,200,6|8,0:0|0:0,0:0:0:0:
422,373,160993,5,0,0:0:0:0:
429,381,161084,2,0,P|439:321|456:283,1,100,6|0,0:0|0:0,0:0:0:0:
336,96,161265,1,8,0:0:0:0:
331,87,161356,2,0,P|277:170|309:265,1,200,2|8,0:0|0:0,0:0:0:0:
501,189,161629,2,0,B|455:176|455:176|405:188,1,100,6|0,0:0|0:0,0:0:0:0:
240,343,161811,2,0,B|286:356|286:356|336:344,1,100,8|0,0:0|0:0,0:0:0:0:
66,360,161993,5,2,0:0:0:0:
10,309,162084,1,0,0:0:0:0:
148,364,162174,2,0,P|146:267|148:162,1,200,12|0,0:0|0:0,0:0:0:0:
343,44,162447,1,0,0:0:0:0:
347,35,162538,2,0,P|348:84|353:134,1,100,12|0,0:0|0:0,0:0:0:0:
247,219,162720,2,0,P|241:161|241:95,1,100,2|0,0:0|0:0,0:0:0:0:
60,61,162902,1,12,0:0:0:0:
127,26,162993,1,0,0:0:0:0:
55,54,163084,2,0,P|53:103|48:153,1,100,0|0,0:0|0:0,0:0:0:0:
263,311,163265,6,0,B|249:260|249:260|212:229,1,100,6|0,0:0|0:0,0:0:0:0:
0,234,163447,2,0,B|50:247|50:247|95:231,1,100,8|2,0:0|0:0,0:0:0:0:
202,45,163629,2,0,B|165:81|165:81|156:129,1,100,0|8,0:0|0:0,0:0:0:0:
54,351,163811,2,0,L|264:316,1,200,6|12,0:0|0:0,0:0:0:0:
381,138,164084,5,0,0:0:0:0:
430,161,164174,1,8,0:0:0:0:
467,95,164265,1,8,0:0:0:0:
393,67,164356,2,0,P|323:121|326:238,1,200,6|8,0:0|0:0,0:0:0:0:
444,324,164629,1,0,0:0:0:0:
477,256,164720,2,0,P|427:276|378:302,1,100,8|0,0:0|0:0,0:0:0:0:
274,153,164902,2,0,P|249:200|228:251,1,100,6|0,0:0|0:0,0:0:0:0:
88,298,165084,2,0,P|73:250|62:201,1,100,12|0,0:0|0:0,0:0:0:0:
162,4,165265,2,0,P|143:98|161:217,2,200,6|8|8,0:0|0:0|0:0,0:0:0:0:
161,10,165719,5,0,0:0:0:0:
132,75,165810,1,8,0:0:0:0:
159,142,165901,1,8,0:0:0:0:
142,211,165992,1,0,0:0:0:0:
188,275,166083,1,8,0:0:0:0:
135,332,166174,1,8,0:0:0:0:
61,304,166265,1,0,0:0:0:0:
64,227,166355,1,0,0:0:0:0:
417,334,167456,6,0,P|426:280|441:235,1,100,6|0,0:0|0:0,0:0:0:0:
345,247,167728,1,2,0:0:0:0:
341,243,167819,2,0,P|333:193|317:146,1,100,8|2,0:0|0:0,0:0:0:0:
153,47,168183,6,0,L|33:56,1,100,8|2,0:0|0:0,0:0:0:0:
224,130,168546,2,0,L|124:137,1,100,12|2,0:0|0:0,0:0:0:0:
27,197,168819,1,2,0:0:0:0:
22,201,168910,2,0,P|68:219|113:250,1,100,4|8,0:0|0:0,0:0:0:0:
156,336,169274,5,2,0:0:0:0:
156,336,169365,1,2,0:0:0:0:
156,336,169456,1,2,0:0:0:0:
156,336,169546,1,2,0:0:0:0:
156,336,169637,6,0,B|203:350|203:350|266:340,1,100,6|0,0:0|0:0,0:0:0:0:
416,328,169819,1,8,0:0:0:0:
348,284,169910,1,8,0:0:0:0:
376,213,170001,1,6,0:0:0:0:
454,220,170092,1,0,0:0:0:0:
499,153,170183,1,8,0:0:0:0:
439,102,170274,1,8,0:0:0:0:
492,42,170365,5,0,0:0:0:0:
492,42,170456,1,8,0:0:0:0:
492,42,170546,1,8,0:0:0:0:
492,42,170637,1,0,0:0:0:0:
492,42,170728,6,0,L|370:63,1,112.499996566773,6|0,0:0|0:0,0:0:0:0:
184,128,170910,2,0,B|172:74|172:74|193:1,1,112.499996566773,12|0,0:0|0:0,0:0:0:0:
476,174,171092,6,0,B|488:228|488:228|472:282,1,112.499996566773,12|0,0:0|0:0,0:0:0:0:
128,271,171274,2,0,L|238:290,1,112.499996566773,12|0,0:0|0:0,0:0:0:0:
278,83,171456,6,0,L|297:206,1,100,12|0,0:0|0:0,0:0:0:0:
340,356,171637,2,0,L|365:240,1,100,12|0,0:0|0:0,0:0:0:0:
379,181,171835,5,4,0:0:0:0:
379,181,172198,1,0,0:0:0:0:
438,224,172562,1,0,0:0:0:0:
391,286,172744,1,0,0:0:0:0:
329,236,172925,5,0,0:0:0:0:
329,236,173289,1,0,0:0:0:0:
278,289,173471,1,0,0:0:0:0:
206,281,173653,2,0,P|201:308|199:339,1,50,0|0,0:0|0:0,0:0:0:0:
