osu file format v14

[General]
AudioFilename: audio.mp3
AudioLeadIn: 0
PreviewTime: 22430
Countdown: 0
SampleSet: Soft
StackLeniency: 0.5
Mode: 0
LetterboxInBreaks: 0
WidescreenStoryboard: 1

[Editor]
Bookmarks: 11847,16014,22514,33180,43847,67179,76845,98178,120178,144510,155510
DistanceSpacing: 1.1
BeatDivisor: 4
GridSize: 16
TimelineZoom: 2.3

[Metadata]
Title:Lamp
TitleUnicode:Lamp
Artist:Co shu Nie
ArtistUnicode:Cö shu Nie
Creator:Seto Kousuke
Version:Hard
Source:The Promised Neverland
Tags:Yakusoku no Neverland 約束のネバーランド Anime Japanese Shirahane Suou Enerugi Faito spoes
BeatmapID:2237506
BeatmapSetID:1018766

[Difficulty]
HPDrainRate:4
CircleSize:4
OverallDifficulty:6
ApproachRate:8
SliderMultiplier:1.5
SliderTickRate:1

[Events]
//Background and Video events
0,0,"Lamp.jpg",0,0
//Break Periods
//Storyboard Layer 0 (Background)
//Storyboard Layer 1 (Fail)
//Storyboard Layer 2 (Pass)
//Storyboard Layer 3 (Foreground)
//Storyboard Layer 4 (Overlay)
//Storyboard Sound Samples

[TimingPoints]
1236,333.333333333333,4,2,2,30,1,0
1236,-285.714285714284,4,2,2,30,0,0
11902,-181.818181818181,4,2,1,50,0,0
15902,-181.818181818181,4,2,1,65,0,0
16069,-100,4,2,1,65,0,0
21069,-222.222222222221,4,2,1,65,0,0
22069,-100,4,2,1,65,0,0
22569,-100,4,2,1,80,0,1
43902,-100,4,2,1,70,0,0
55069,333.333333333333,4,2,1,70,1,0
55569,-181.818181818181,4,2,1,70,0,0
56235,333.333333333333,4,2,1,70,1,0
56735,-181.818181818181,4,2,1,70,0,0
57568,333.333333333333,4,2,1,70,1,0
67234,333.333333333333,3,2,1,60,1,0
71234,-100,3,2,1,70,0,0
75567,333.333333333333,4,2,1,70,1,0
76900,333.333333333333,4,2,1,70,1,0
98233,-100,4,2,1,80,0,1
120233,333.333333333333,4,2,1,70,1,0
120233,-100,4,2,1,70,0,0
131399,333.333333333333,4,2,1,70,1,0
131899,-181.818181818182,4,2,1,70,0,0
132565,333.333333333333,4,2,1,70,1,0
133065,-181.818181818182,4,2,1,70,0,0
133898,333.333333333333,4,2,1,70,1,0
144565,333.333333333333,3,2,1,60,1,0
148565,-100,3,2,1,70,0,0
155565,333.333333333333,4,2,1,70,1,0
156898,-100,4,2,2,50,0,0
158231,-100,4,2,1,70,0,0
161065,333.333333333333,4,2,1,70,1,0
163009,333.333333333333,4,2,1,70,1,0
163565,333.333333333333,4,2,1,70,1,0
163898,333.333333333333,4,2,1,70,1,0
165231,333.333333333333,4,2,1,70,1,0
166897,333.333333333333,6,2,1,70,1,0

[Colours]
Combo1 : 126,139,101
Combo2 : 194,167,112
Combo3 : 172,174,160
Combo4 : 146,99,91

[HitObjects]
77,183,1236,6,0,P|99:191|223:147,1,157.499995193482,2|0,0:0|0:0,0:0:0:0:
301,90,2569,2,0,L|299:259,1,157.499995193482,2|0,0:0|0:0,0:0:0:0:
237,347,3902,2,0,P|309:317|386:328,1,157.499995193482,2|0,0:0|0:0,0:0:0:0:
483,334,5235,2,0,L|484:171,1,157.499995193482,2|0,0:0|0:0,0:0:0:0:
505,70,6569,6,0,P|480:88|362:59,1,157.499995193482,2|0,0:0|0:0,0:0:0:0:
276,27,7902,2,0,P|258:23|112:48,1,157.499995193482,2|0,0:0|0:0,0:0:0:0:
29,74,9235,2,0,P|15:99|49:218,1,157.499995193482,2|0,0:0|0:0,0:0:0:0:
109,289,10569,1,2,0:0:0:0:
109,289,11902,6,0,L|20:294,2,82.5000025177003,0|0|0,3:0|3:0|3:0,0:0:0:0:
181,248,12902,1,0,3:0:0:0:
240,305,13235,2,0,L|329:310,2,82.5000025177003,0|0|0,3:0|3:0|3:0,0:0:0:0:
181,248,14235,1,0,3:0:0:0:
240,190,14569,6,0,L|339:192,2,82.5000025177003,0|0|0,3:0|3:0|3:0,0:0:0:0:
188,125,15569,1,0,3:0:0:0:
255,77,15902,1,0,3:0:0:0:
255,77,15985,1,0,3:0:0:0:
255,77,16069,6,0,P|311:87|393:73,2,112.5,10|10|10,0:2|0:2|0:2,0:0:0:0:
190,25,16735,1,10,0:2:0:0:
134,86,16902,2,0,L|89:73,3,37.5,4|4|4|4,0:3|0:3|0:3|0:3,0:0:0:0:
56,79,17235,6,0,P|32:158|65:237,1,150,4|0,3:2|3:0,0:0:0:0:
124,259,17735,2,0,B|201:291|201:235|274:260,1,150,8|0,0:2|3:0,0:0:0:0:
341,299,18235,2,0,P|350:335|336:378,1,75,8|0,0:2|0:0,0:0:0:0:
441,368,18569,2,0,P|424:310|448:232,1,112.5,2|0,3:2|3:0,0:0:0:0:
459,228,18902,1,0,3:0:0:0:
425,152,19069,2,0,P|371:116|276:150,1,150,8|0,0:2|3:0,0:0:0:0:
226,83,19569,2,0,P|213:109|217:163,1,75,8|0,0:2|0:0,0:0:0:0:
142,214,19902,6,0,P|196:202|244:230,2,112.5,2|0|8,3:2|3:0|0:2,0:0:0:0:
35,89,20735,1,0,3:0:0:0:
35,89,20819,1,0,3:0:0:0:
35,89,20902,1,0,3:0:0:0:
16,169,21069,6,0,B|27:222|2:222|15:274,1,101.249996910095,2|0,3:2|0:0,0:0:0:0:
255,323,22069,6,0,L|242:368,5,37.5,8|8|8|8|8|8,0:2|0:2|0:2|0:2|0:2|0:2,0:0:0:0:
297,307,22569,6,0,P|353:293|409:313,1,112.5,4|0,3:2|3:0,0:0:0:0:
436,334,22902,2,0,L|434:228,1,75,8|4,0:2|0:2,0:0:0:0:
479,189,23235,1,0,3:0:0:0:
424,126,23402,1,0,3:0:0:0:
424,126,23569,2,0,P|385:118|326:137,1,75,8|2,0:2|0:2,0:0:0:0:
291,66,23902,2,0,P|266:146|312:204,1,150,2|8,3:2|0:2,0:0:0:0:
236,267,24402,2,0,P|255:269|273:275,2,37.5,8|0|4,0:2|3:0|0:3,0:0:0:0:
178,209,24735,1,2,3:2:0:0:
119,267,24902,2,0,P|108:311|117:352,1,75,10|0,0:2|0:0,0:0:0:0:
25,343,25235,6,0,P|33:276|10:207,1,112.5,0|0,3:0|3:0,0:0:0:0:
1,197,25569,2,0,L|96:192,1,75,8|0,0:2|3:0,0:0:0:0:
137,138,25902,1,0,3:0:0:0:
94,66,26069,1,0,3:0:0:0:
94,66,26235,2,0,L|-3:74,1,75,8|0,0:2|3:0,0:0:0:0:
170,31,26569,6,0,P|238:20|320:42,1,150,0|8,3:0|0:2,0:0:0:0:
454,128,27235,2,0,P|444:91|460:46,2,75,0|8|8,3:0|0:2|0:2,0:0:0:0:
488,289,27902,6,0,P|400:262|357:288,1,112.5,4|0,3:2|3:0,0:0:0:0:
348,248,28235,2,0,L|349:334,1,75,8|4,0:2|0:2,0:0:0:0:
278,367,28569,1,0,3:0:0:0:
214,315,28735,1,0,3:0:0:0:
214,315,28902,2,0,P|169:312|115:314,1,75,8|2,0:2|0:2,0:0:0:0:
90,379,29235,2,0,P|101:343|95:225,1,150,2|8,3:2|0:2,0:0:0:0:
17,87,29902,2,0,P|14:49|25:13,1,75,4|2,0:3|3:2,0:0:0:0:
107,16,30235,2,0,P|117:51|115:89,1,75,10|0,0:2|0:0,0:0:0:0:
60,151,30569,6,0,B|141:130|138:189|223:155,1,150,0|8,3:0|0:2,0:0:0:0:
266,103,31069,1,2,3:1:0:0:
326,158,31235,2,0,B|407:179|404:120|489:154,1,150,0|8,3:0|0:2,0:0:0:0:
509,221,31735,1,2,3:1:0:0:
480,298,31902,2,0,L|381:296,1,75,0|2,3:0|0:1,0:0:0:0:
334,339,32235,2,0,L|235:337,1,75,8|8,0:2|0:2,0:0:0:0:
252,341,32485,1,8,0:2:0:0:
245,345,32569,2,0,L|247:255,2,75,0|0|8,3:0|3:0|0:2,0:0:0:0:
83,376,33235,6,0,L|86:235,1,112.5,4|0,3:2|3:0,0:0:0:0:
49,242,33569,2,0,P|45:199|60:164,1,75,8|4,0:2|0:2,0:0:0:0:
120,117,33902,1,0,3:0:0:0:
188,163,34069,1,0,3:0:0:0:
188,163,34235,2,0,L|276:163,1,75,8|2,0:2|0:2,0:0:0:0:
331,209,34569,2,0,P|285:181|347:120,1,150,2|8,3:2|0:2,0:0:0:0:
387,19,35069,2,0,P|384:38|386:57,2,37.5,8|0|4,0:2|3:0|0:3,0:0:0:0:
471,52,35402,1,2,3:2:0:0:
468,134,35569,2,0,L|466:223,1,75,10|0,0:2|0:0,0:0:0:0:
503,283,35902,6,0,P|441:259|394:305,1,112.5,0|0,3:0|3:0,0:0:0:0:
367,265,36235,2,0,L|370:356,1,75,8|0,0:2|3:0,0:0:0:0:
292,371,36569,1,0,3:0:0:0:
214,342,36735,1,0,3:0:0:0:
214,342,36902,2,0,L|216:267,1,75,8|0,0:2|3:0,0:0:0:0:
139,235,37235,6,0,P|186:249|254:176,1,150,0|8,3:0|0:2,0:0:0:0:
124,82,37902,2,0,L|26:84,2,75,0|8|8,3:0|0:2|0:2,0:0:0:0:
280,29,38569,6,0,P|324:24|410:36,1,112.5,4|0,3:2|3:0,0:0:0:0:
431,19,38902,2,0,L|418:117,1,75,8|4,0:2|0:2,0:0:0:0:
355,144,39235,1,0,3:0:0:0:
414,209,39402,1,0,3:0:0:0:
414,209,39569,2,0,L|413:287,1,75,8|2,0:2|0:2,0:0:0:0:
367,353,39902,6,0,P|299:332|207:346,1,150,2|8,3:2|0:2,0:0:0:0:
167,278,40402,1,8,0:2:0:0:
167,278,40485,1,0,3:0:0:0:
167,278,40569,2,0,P|140:308|138:347,2,75,4|8|8,0:3|0:2|0:2,0:0:0:0:
232,227,41069,1,0,3:0:0:0:
182,161,41235,6,0,B|126:153|126:153|80:172|80:172|31:162,1,150,4|8,3:2|0:2,0:0:0:0:
29,80,41735,2,0,B|71:88|71:88|117:69|117:69|173:77,1,150,4|8,3:2|0:2,0:0:0:0:
244,35,42235,2,0,P|295:54|233:108,1,150,4|8,3:2|0:2,0:0:0:0:
255,199,42735,2,0,P|324:193|409:224,1,150,4|8,3:2|0:2,0:0:0:0:
446,149,43235,2,0,L|442:320,1,150,4|8,3:2|0:2,0:0:0:0:
289,360,43902,6,0,B|215:377|218:335|139:359,3,150,4|2|2|2,3:2|3:2|3:2|3:2,0:0:0:0:
53,218,45235,2,0,P|50:295|-10:354,2,150,2|2|4,3:2|3:2|3:2,0:0:0:0:
5,59,46235,1,2,3:2:0:0:
156,124,46569,2,0,B|218:124|218:124|248:143|248:143|328:144,1,150,4|2,3:2|3:2,0:0:0:0:
352,79,47069,1,8,0:2:0:0:
352,79,47235,2,0,P|388:142|348:217,1,150,2|2,3:2|3:2,0:0:0:0:
294,259,47735,1,8,0:2:0:0:
294,259,47902,6,0,P|284:296|298:338,1,75,2|0,3:2|3:3,0:0:0:0:
366,368,48235,2,0,L|466:368,1,75,8|0,0:2|3:3,0:0:0:0:
485,297,48569,1,8,0:2:0:0:
485,297,48735,1,8,0:2:0:0:
425,239,48902,2,0,L|387:239,3,37.5,2|8|8|8,3:2|0:2|0:2|0:2,0:0:0:0:
459,216,49235,5,4,3:2:0:0:
461,133,49402,2,0,L|461:47,1,75,8|2,0:2|0:2,0:0:0:0:
386,93,49735,1,0,3:3:0:0:
386,93,49902,2,0,P|311:102|238:72,1,150,10|2,0:2|3:2,0:0:0:0:
172,32,50402,1,8,0:2:0:0:
133,105,50569,6,0,L|135:196,1,75,2|0,0:2|3:3,0:0:0:0:
52,181,50902,2,0,L|50:106,1,75,10|0,0:2|3:3,0:0:0:0:
89,33,51235,1,2,3:2:0:0:
133,105,51402,2,0,L|135:196,1,75,8|2,0:2|0:2,0:0:0:0:
96,253,51735,1,0,3:3:0:0:
160,304,51902,6,0,P|195:309|252:300,1,75,10|0,0:2|3:3,0:0:0:0:
307,342,52235,2,0,P|312:307|303:249,1,75,2|8,3:2|0:2,0:0:0:0:
348,194,52569,2,0,P|313:189|256:198,1,75,2|0,0:2|3:3,0:0:0:0:
198,158,52902,2,0,P|193:193|202:250,1,75,10|8,0:2|0:2,0:0:0:0:
96,253,53235,6,0,P|103:196|90:88,1,150,4|2,3:2|0:2,0:0:0:0:
28,54,53735,2,0,P|85:80|193:46,1,150,8|8,0:2|0:2,0:0:0:0:
237,19,54235,1,4,3:2:0:0:
312,52,54401,2,0,B|310:89|320:115|320:115|300:145|300:145|313:169|307:216,1,150,8|0,0:2|3:3,0:0:0:0:
276,268,54901,1,0,0:0:0:0:
312,342,55069,6,0,P|350:345|349:256,1,150,4|0,3:2|0:0,0:0:0:0:
276,268,55569,6,0,L|136:268,1,123.75000377655,4|0,3:2|0:0,0:0:0:0:
126,346,56235,6,0,P|146:292|67:251,1,150,4|0,3:2|0:0,0:0:0:0:
15,164,56735,6,0,P|61:169|114:160,1,82.5000025177003,4|0,3:2|3:3,0:0:0:0:
151,107,57235,1,10,0:2:0:0:
151,107,57568,6,0,B|235:80|231:138|302:113,3,150,4|2|2|2,3:2|3:2|3:2|3:2,0:0:0:0:
410,234,58901,2,0,P|387:174|432:86,2,150,2|2|4,3:2|3:2|3:2,0:0:0:0:
504,369,59901,1,2,3:2:0:0:
341,342,60234,2,0,P|271:332|159:344,1,150,4|2,3:2|3:2,0:0:0:0:
119,377,60734,1,8,0:2:0:0:
119,377,60901,2,0,P|61:358|46:267,1,150,2|2,3:2|3:2,0:0:0:0:
84,207,61401,1,8,0:2:0:0:
84,207,61567,6,0,L|191:211,1,75,2|0,3:2|3:3,0:0:0:0:
159,126,61901,2,0,L|84:123,1,75,8|0,0:2|3:3,0:0:0:0:
11,163,62234,1,8,0:2:0:0:
8,80,62401,1,8,0:2:0:0:
80,41,62567,2,0,L|129:40,3,37.5,2|8|0|8,3:2|0:2|0:0|0:2,0:0:0:0:
145,71,62901,5,4,3:2:0:0:
221,41,63067,2,0,P|290:24|376:54,1,150,8|0,0:2|3:3,0:0:0:0:
444,25,63567,2,0,L|437:188,1,150,10|2,0:2|3:2,0:0:0:0:
499,229,64067,1,8,0:2:0:0:
443,290,64234,6,0,B|401:301|401:301|336:268|273:288,1,150,2|10,3:2|0:2,0:0:0:0:
151,358,64901,1,2,3:2:0:0:
151,358,65234,2,0,L|53:351,1,75,2|0,0:2|3:3,0:0:0:0:
32,282,65567,5,10,0:2:0:0:
32,282,65734,1,0,3:3:0:0:
92,225,65901,2,0,P|99:185|93:147,1,75,2|8,3:2|0:2,0:0:0:0:
74,71,66234,2,0,L|-2:73,1,75,2|0,0:2|3:3,0:0:0:0:
148,27,66567,2,0,L|255:30,1,75,10|8,0:2|0:2,0:0:0:0:
275,93,66901,2,0,L|267:194,1,75,4|8,3:2|0:2,0:0:0:0:
368,80,67234,6,0,L|395:235,1,150,4|2,3:2|3:3,0:0:0:0:
456,282,67734,1,0,3:3:0:0:
456,282,67900,2,0,P|453:341|420:358,1,75,2|0,0:3|3:3,0:0:0:0:
364,369,68234,2,0,L|275:362,1,75,2|0,3:2|0:0,0:0:0:0:
236,299,68567,5,2,3:3:0:0:
236,299,68734,1,0,3:3:0:0:
175,354,68900,2,0,L|96:354,1,75,2|0,3:3|3:3,0:0:0:0:
81,272,69234,2,0,L|160:272,1,75,2|0,3:3|3:3,0:0:0:0:
167,190,69567,2,0,L|88:190,1,75,2|0,0:3|3:3,0:0:0:0:
73,108,69901,2,0,L|152:108,1,75,2|0,0:2|3:0,0:0:0:0:
203,46,70234,5,2,3:2:0:0:
203,46,70400,1,8,0:2:0:0:
265,99,70567,1,4,0:3:0:0:
339,63,70734,2,0,L|395:66,2,37.5,0|0|2,3:3|3:3|0:2,0:0:0:0:
339,63,71234,6,0,B|370:138|315:140|348:216,1,150,4|0,3:2|3:3,0:0:0:0:
402,269,71734,1,0,3:3:0:0:
325,297,71900,2,0,L|226:290,1,75,8|0,0:2|0:0,0:0:0:0:
199,357,72234,5,2,3:2:0:0:
199,357,72400,2,0,P|229:309|190:225,1,150,8|0,0:2|3:3,0:0:0:0:
188,225,72817,1,0,3:3:0:0:
181,221,72900,2,0,L|100:222,1,75,8|0,0:2|3:3,0:0:0:0:
56,141,73234,6,0,L|225:143,1,150,2|2,3:2|0:2,0:0:0:0:
279,179,73734,1,0,3:3:0:0:
333,117,73900,2,0,P|340:82|335:41,1,75,10|0,0:2|0:0,0:0:0:0:
260,7,74234,5,2,3:2:0:0:
200,63,74400,2,0,L|113:62,1,75,8|0,0:2|3:3,0:0:0:0:
52,84,74733,2,0,P|49:65|43:48,2,37.5,0|0|8,3:3|3:3|0:2,0:0:0:0:
17,165,75067,1,4,3:2:0:0:
17,165,75567,6,0,L|20:263,1,75,2|8,3:2|0:2,0:0:0:0:
118,245,75900,2,0,L|73:332,1,75,2|8,3:2|0:2,0:0:0:0:
77,315,76150,1,8,0:2:0:0:
70,318,76233,2,0,P|124:313|171:325,1,75,8|0,0:2|3:3,0:0:0:0:
226,301,76567,2,0,L|225:338,3,37.5,4|4|4|4,0:3|0:3|0:3|0:3,0:0:0:0:
208,263,76900,6,0,P|191:212|230:148,1,112.5,4|0,3:2|3:3,0:0:0:0:
251,144,77233,2,0,L|335:140,1,75,2|8,3:2|0:2,0:0:0:0:
430,268,77733,1,8,0:2:0:0:
430,268,77816,1,4,0:3:0:0:
430,268,77900,1,4,0:3:0:0:
483,205,78066,6,0,P|502:163|441:75,1,150,4|2,3:2|3:2,0:0:0:0:
383,36,78566,2,0,L|285:36,1,75,8|2,0:2|3:2,0:0:0:0:
249,95,78900,2,0,L|251:153,2,37.5,8|8|4,0:2|0:2|0:3,0:0:0:0:
182,45,79233,1,12,0:2:0:0:
128,108,79400,1,8,0:2:0:0:
128,108,79483,1,8,0:2:0:0:
128,108,79566,6,0,B|147:183|98:182|129:267,1,150,4|2,3:2|3:2,0:0:0:0:
178,318,80066,1,8,0:2:0:0:
257,294,80233,2,0,L|337:296,1,75,2|0,0:2|3:3,0:0:0:0:
400,342,80566,2,0,P|414:300|396:252,1,75,10|8,0:2|0:2,0:0:0:0:
349,212,80900,6,0,L|274:210,1,75,4|0,3:2|3:3,0:0:0:0:
194,232,81233,1,2,0:2:0:0:
194,232,81400,2,0,L|190:72,1,150,8|0,0:2|3:3,0:0:0:0:
130,25,81900,2,0,P|92:18|46:35,1,75,10|0,0:2|0:0,0:0:0:0:
15,98,82233,6,0,L|17:257,1,150,4|8,3:2|0:2,0:0:0:0:
0,329,82733,2,0,P|12:278|90:306,1,150,4|8,3:2|0:2,0:0:0:0:
161,260,83233,2,0,P|170:294|158:348,1,75,4|0,3:2|0:0,0:0:0:0:
262,356,83566,6,0,P|254:302|298:206,1,150,0|0,3:0|0:0,0:0:0:0:
368,193,84066,2,0,L|196:163,1,150,0|4,3:0|0:3,0:0:0:0:
137,167,84566,1,0,3:3:0:0:
137,167,84733,1,4,0:3:0:0:
80,107,84899,6,0,P|76:59|93:27,1,75,4|0,3:2|0:0,0:0:0:0:
167,17,85233,2,0,L|252:15,1,75,2|8,3:2|0:2,0:0:0:0:
301,72,85566,2,0,L|378:56,1,75,0|2,3:3|0:2,0:0:0:0:
448,19,85899,2,0,L|461:105,1,75,0|8,3:3|0:2,0:0:0:0:
412,162,86233,5,4,3:2:0:0:
412,162,86399,1,4,0:3:0:0:
458,230,86566,2,0,L|446:313,1,75,8|8,0:2|0:2,0:0:0:0:
371,336,86899,2,0,L|378:384,2,37.5,0|0|4,3:3|3:3|0:3,0:0:0:0:
306,283,87233,1,12,0:2:0:0:
306,283,87566,6,0,P|239:258|184:272,2,112.5,4|0|8,3:2|3:3|0:2,0:0:0:0:
454,212,88399,1,8,0:2:0:0:
454,212,88483,1,8,0:2:0:0:
454,212,88566,1,0,3:3:0:0:
396,145,88733,6,0,L|226:128,1,150,4|0,3:2|3:3,0:0:0:0:
192,67,89233,2,0,P|137:60|105:73,1,75,8|2,0:2|0:2,0:0:0:0:
54,117,89566,2,0,P|31:118|2:114,2,37.5,8|8|4,0:2|0:2|0:3,0:0:0:0:
121,164,89899,2,0,P|126:225|106:251,1,75,8|8,0:2|0:2,0:0:0:0:
56,287,90233,6,0,P|104:261|209:313,1,150,4|2,3:2|3:2,0:0:0:0:
252,342,90733,1,8,0:2:0:0:
303,278,90899,2,0,L|299:178,1,75,2|0,0:2|3:3,0:0:0:0:
373,163,91233,2,0,L|369:63,1,75,10|8,0:2|0:2,0:0:0:0:
316,25,91566,5,0,3:3:0:0:
316,25,91733,1,0,3:3:0:0:
248,71,91899,1,2,0:2:0:0:
248,71,92066,2,0,P|195:53|85:68,1,150,8|0,0:2|3:3,0:0:0:0:
96,65,92483,1,0,3:3:0:0:
90,69,92566,2,0,L|79:211,1,112.5,4|0,0:3|0:0,0:0:0:0:
42,194,92899,6,0,P|106:180|136:237,2,112.5,4|2|2,3:2|3:2|3:2,0:0:0:0:
73,270,93566,1,2,3:2:0:0:
228,214,93899,2,0,L|370:213,2,112.5,2|2|2,3:2|3:2|3:2,0:0:0:0:
181,144,94566,1,2,3:2:0:0:
250,99,94733,2,0,L|304:99,2,37.5,8|8|0,0:2|0:2|3:3,0:0:0:0:
46,24,95399,5,8,0:2:0:0:
46,24,95483,1,8,0:2:0:0:
46,24,95566,2,0,P|33:67|43:117,1,75,4|8,3:2|0:2,0:0:0:0:
87,160,95899,2,0,P|86:207|74:239,1,75,8|0,0:2|3:3,0:0:0:0:
14,288,96233,1,8,0:2:0:0:
14,288,96399,1,8,0:2:0:0:
53,360,96566,1,8,0:2:0:0:
118,309,96733,1,4,0:3:0:0:
118,309,96816,1,0,3:3:0:0:
118,309,96899,2,0,P|163:309|204:313,1,75,12|0,0:2|3:3,0:0:0:0:
268,244,97233,6,0,L|296:344,2,75,12|0|12,0:2|3:3|0:2,0:0:0:0:
190,215,97733,1,8,0:2:0:0:
254,164,97899,2,0,L|345:164,1,75,8|8,0:2|0:2,0:0:0:0:
342,69,98233,6,0,P|293:78|201:57,1,112.5,4|0,3:2|3:0,0:0:0:0:
194,51,98566,2,0,L|167:143,1,75,8|4,0:2|0:2,0:0:0:0:
92,103,98899,2,0,L|103:189,1,75,0|0,3:0|3:0,0:0:0:0:
28,217,99233,1,8,0:2:0:0:
75,290,99399,1,2,0:2:0:0:
75,290,99566,2,0,P|147:270|224:311,1,150,2|8,3:2|0:2,0:0:0:0:
301,269,100066,2,0,P|296:287|295:306,2,37.5,8|0|4,0:2|3:0|0:3,0:0:0:0:
372,226,100399,1,2,3:2:0:0:
311,170,100566,2,0,L|224:173,1,75,10|0,0:2|0:0,0:0:0:0:
215,77,100899,6,0,P|281:88|327:77,1,112.5,0|0,3:0|3:0,0:0:0:0:
365,73,101233,2,0,L|402:163,1,75,8|0,0:2|3:0,0:0:0:0:
473,120,101566,2,0,L|477:207,1,75,0|0,3:0|3:0,0:0:0:0:
420,255,101899,1,8,0:2:0:0:
478,320,102066,1,0,3:0:0:0:
478,320,102233,6,0,P|407:310|322:327,1,150,0|8,3:0|0:2,0:0:0:0:
264,373,102733,1,8,0:2:0:0:
264,373,102816,1,8,0:2:0:0:
264,373,102899,2,0,P|219:363|172:374,1,75,0|8,3:0|0:2,0:0:0:0:
108,376,103233,1,8,0:2:0:0:
83,213,103566,6,0,P|128:189|213:215,1,112.5,4|0,3:2|3:0,0:0:0:0:
229,196,103899,2,0,L|198:106,1,75,8|4,0:2|0:2,0:0:0:0:
259,62,104233,2,0,L|183:37,1,75,0|0,3:0|3:0,0:0:0:0:
125,92,104566,1,8,0:2:0:0:
56,45,104733,1,2,0:2:0:0:
56,45,104899,6,0,P|26:97|43:193,1,150,2|8,3:2|0:2,0:0:0:0:
82,342,105566,2,0,P|36:342|6:361,2,75,4|2|10,0:3|3:2|0:2,0:0:0:0:
200,227,106233,6,0,P|255:222|310:302,1,150,0|8,3:0|0:2,0:0:0:0:
392,295,106733,1,2,3:1:0:0:
392,295,106899,2,0,P|387:229|398:143,1,150,0|8,3:0|0:2,0:0:0:0:
460,92,107399,1,2,3:1:0:0:
399,35,107566,2,0,P|361:28|316:38,1,75,0|2,3:0|0:1,0:0:0:0:
258,82,107899,2,0,P|253:133|257:166,1,75,8|8,0:2|0:2,0:0:0:0:
315,213,108233,2,0,L|355:214,4,37.5,0|0|0|0|8,3:0|3:0|3:0|3:0|0:2,0:0:0:0:
315,213,108899,6,0,P|316:271|247:291,1,112.5,4|0,3:2|3:0,0:0:0:0:
231,297,109233,2,0,L|147:292,1,75,8|4,0:2|0:2,0:0:0:0:
80,325,109566,1,0,3:0:0:0:
21,266,109733,1,0,3:0:0:0:
21,266,109899,2,0,L|31:183,1,75,8|2,0:2|0:2,0:0:0:0:
4,112,110233,6,0,P|41:170|116:138,1,150,2|8,3:2|0:2,0:0:0:0:
189,168,110733,2,0,P|187:198|196:227,2,37.5,8|0|4,0:2|3:0|0:3,0:0:0:0:
245,107,111066,1,2,3:2:0:0:
313,152,111233,2,0,L|400:155,1,75,10|0,0:2|0:0,0:0:0:0:
462,119,111566,6,0,P|428:188|459:241,1,112.5,0|0,3:0|3:0,0:0:0:0:
464,248,111899,2,0,L|371:247,1,75,8|0,0:2|3:0,0:0:0:0:
342,316,112233,2,0,L|301:252,1,75,0|0,3:0|3:0,0:0:0:0:
342,181,112566,1,8,0:2:0:0:
283,123,112733,1,0,3:0:0:0:
283,123,112899,6,0,L|196:125,1,75,0|0,3:0|0:0,0:0:0:0:
136,167,113233,1,8,0:2:0:0:
70,116,113399,1,8,0:2:0:0:
70,116,113483,1,8,0:2:0:0:
70,116,113566,2,0,P|65:60|77:30,2,75,0|8|8,3:0|0:2|0:2,0:0:0:0:
17,272,114233,6,0,P|74:244|123:278,1,112.5,4|0,3:2|3:0,0:0:0:0:
142,294,114566,2,0,L|137:376,1,75,8|4,0:2|0:2,0:0:0:0:
228,373,114899,2,0,L|232:298,1,75,0|0,3:0|3:0,0:0:0:0:
190,226,115233,1,8,0:2:0:0:
248,168,115399,1,2,0:2:0:0:
248,168,115566,6,0,P|320:181|405:167,1,150,2|8,3:2|0:2,0:0:0:0:
442,101,116066,2,0,L|447:51,2,37.5,8|0|4,0:2|3:0|0:3,0:0:0:0:
507,167,116399,1,8,0:2:0:0:
507,167,116483,1,8,0:2:0:0:
507,167,116566,1,8,0:2:0:0:
447,320,116899,6,0,P|376:318|267:323,1,150,4|4,3:2|0:3,0:0:0:0:
236,377,117399,2,0,P|270:352|205:266,1,150,4|4,3:2|0:3,0:0:0:0:
169,313,117899,2,0,L|64:316,1,75,4|8,3:2|0:2,0:0:0:0:
61,223,118233,2,0,L|166:226,1,75,4|4,0:3|3:2,0:0:0:0:
170,137,118566,2,0,L|65:140,1,75,8|8,0:2|0:2,0:0:0:0:
36,81,118899,1,4,3:2:0:0:
192,27,119233,6,0,L|241:32,3,37.5,8|8|8|8,0:2|0:2|0:2|0:2,0:0:0:0:
259,58,119566,2,0,L|308:53,3,37.5,4|8|8|8,3:2|0:2|0:2|0:2,0:0:0:0:
327,27,119899,2,0,L|376:32,3,37.5,2|8|8|8,3:2|0:2|0:2|0:2,0:0:0:0:
398,55,120233,6,0,B|426:133|369:132|399:209,3,150,4|2|2|2,3:2|3:2|3:2|3:2,0:0:0:0:
281,319,121566,2,0,P|358:322|417:382,2,150,2|2|4,3:2|3:2|3:2,0:0:0:0:
122,367,122566,1,2,3:2:0:0:
187,216,122900,2,0,B|187:154|187:154|206:124|206:124|207:44,1,150,4|2,3:2|3:2,0:0:0:0:
138,25,123399,1,8,0:2:0:0:
68,70,123566,2,0,B|68:122|68:122|87:152|87:152|87:214,1,150,2|2,3:2|3:2,0:0:0:0:
17,257,124066,1,8,0:2:0:0:
17,257,124233,6,0,P|66:295|151:264,1,150,2|8,3:2|0:2,0:0:0:0:
212,223,124733,1,0,3:3:0:0:
277,273,124899,2,0,L|289:368,1,75,8|8,0:2|0:2,0:0:0:0:
384,354,125233,2,0,L|377:316,3,37.5,2|8|8|8,3:2|0:2|0:2|0:2,0:0:0:0:
421,370,125566,5,4,3:2:0:0:
492,328,125733,2,0,L|469:171,1,150,8|0,0:2|3:3,0:0:0:0:
505,104,126233,2,0,P|484:147|391:112,1,150,10|2,0:2|3:2,0:0:0:0:
434,56,126733,1,8,0:2:0:0:
355,30,126899,2,0,L|263:30,1,75,2|0,0:2|3:3,0:0:0:0:
198,14,127233,2,0,P|241:30|204:116,1,150,10|2,0:2|3:2,0:0:0:0:
250,189,127732,2,0,P|214:196|160:170,1,75,8|2,0:2|0:2,0:0:0:0:
135,113,128066,1,0,3:3:0:0:
70,164,128232,6,0,L|70:262,1,75,10|0,0:2|3:3,0:0:0:0:
5,291,128566,2,0,L|81:324,1,75,2|8,3:2|0:2,0:0:0:0:
146,280,128899,2,0,L|156:359,1,75,2|0,0:2|3:3,0:0:0:0:
238,353,129232,2,0,L|247:278,1,75,10|0,0:2|0:0,0:0:0:0:
196,212,129566,6,0,P|242:234|349:201,1,150,4|2,3:2|0:2,0:0:0:0:
403,259,130066,2,0,P|419:214|352:133,1,150,8|8,0:2|0:2,0:0:0:0:
298,87,130566,1,4,3:2:0:0:
298,87,130732,2,0,L|188:86,2,75,8|2|0,0:2|3:2|3:3,0:0:0:0:
149,149,131399,6,0,P|183:85|144:26,1,150,4|0,3:2|0:0,0:0:0:0:
75,90,131899,6,0,L|75:224,1,123.75000377655,4|0,3:2|0:0,0:0:0:0:
20,275,132565,6,0,P|60:238|132:310,1,150,4|0,3:2|0:0,0:0:0:0:
217,327,133065,6,0,L|228:234,1,82.5000025177003,4|0,3:2|3:3,0:0:0:0:
282,189,133565,1,10,0:2:0:0:
282,189,133898,6,0,P|334:201|449:172,2,150,4|2|2,3:2|3:2|3:2,0:0:0:0:
187,53,134898,1,2,3:2:0:0:
59,157,135231,2,0,B|38:205|38:205|50:329,1,150,2|2,3:2|3:2,0:0:0:0:
212,300,135898,2,0,B|221:202|221:202|200:154,1,150,4|2,3:2|3:2,0:0:0:0:
132,106,136398,1,0,0:0:0:0:
132,106,136564,6,0,P|192:114|297:106,1,150,4|2,3:2|3:2,0:0:0:0:
337,48,137064,1,8,0:2:0:0:
337,48,137231,2,0,L|333:213,1,150,2|2,3:2|3:2,0:0:0:0:
385,262,137731,1,8,0:2:0:0:
342,332,137898,2,0,L|238:351,1,75,2|0,3:2|3:3,0:0:0:0:
241,267,138231,2,0,L|137:286,1,75,8|0,0:2|3:3,0:0:0:0:
102,331,138564,1,8,0:2:0:0:
102,331,138731,1,8,0:2:0:0:
45,270,138898,2,0,L|-8:263,3,37.5,2|8|8|8,3:2|0:2|0:2|0:2,0:0:0:0:
76,246,139231,5,4,3:2:0:0:
28,178,139398,2,0,P|24:105|95:55,1,150,8|0,0:2|3:3,0:0:0:0:
159,42,139898,2,0,B|238:19|234:64|323:40,1,150,10|2,0:2|3:2,0:0:0:0:
382,10,140398,1,8,0:2:0:0:
452,52,140564,2,0,P|475:121|437:207,1,150,2|10,0:2|0:2,0:0:0:0:
332,307,141231,1,2,3:2:0:0:
332,307,141564,6,0,P|250:294|154:306,1,150,2|10,0:2|0:2,0:0:0:0:
113,342,142064,1,0,3:3:0:0:
113,342,142231,2,0,L|101:260,1,75,2|8,3:2|0:2,0:0:0:0:
20,281,142564,2,0,L|30:206,1,75,2|0,0:2|3:3,0:0:0:0:
111,186,142898,2,0,L|100:111,1,75,10|8,0:2|0:2,0:0:0:0:
40,54,143231,6,0,P|100:84|195:38,1,150,4|4,3:2|3:2,0:0:0:0:
337,24,143898,2,0,P|345:65|344:105,1,75,0|0,3:3|3:3,0:0:0:0:
426,108,144231,2,0,P|402:159|367:177,1,75,4|0,0:3|3:3,0:0:0:0:
422,244,144565,6,0,P|346:246|307:173,1,150,2|2,3:2|3:3,0:0:0:0:
258,123,145065,1,0,3:3:0:0:
199,181,145231,2,0,L|191:266,1,75,2|0,0:3|3:3,0:0:0:0:
108,259,145565,2,0,L|100:184,1,75,2|0,3:2|0:0,0:0:0:0:
32,138,145898,6,0,P|24:100|47:57,1,75,2|0,0:3|3:3,0:0:0:0:
108,25,146231,2,0,L|197:32,1,75,2|0,3:3|3:3,0:0:0:0:
238,93,146565,2,0,L|318:79,1,75,2|0,0:3|3:3,0:0:0:0:
366,17,146898,2,0,L|453:54,1,75,2|0,0:3|3:3,0:0:0:0:
474,118,147231,1,2,0:2:0:0:
375,250,147565,5,2,3:2:0:0:
450,281,147731,2,0,L|469:334,2,37.5,8|8|0,0:2|0:0|3:3,0:0:0:0:
382,330,148065,2,0,L|363:383,2,37.5,8|8|2,0:2|0:2|0:2,0:0:0:0:
382,330,148565,6,0,P|325:317|226:341,1,150,4|0,3:2|3:3,0:0:0:0:
177,277,149065,1,0,3:3:0:0:
177,277,149231,2,0,P|155:314|157:354,1,75,8|0,0:2|0:0,0:0:0:0:
71,344,149565,1,2,3:2:0:0:
71,344,149731,2,0,P|83:276|49:196,1,150,8|0,0:2|3:3,0:0:0:0:
47,198,150148,1,0,3:3:0:0:
40,194,150231,2,0,L|141:189,1,75,8|0,0:2|0:0,0:0:0:0:
176,245,150565,6,0,P|146:210|205:126,1,150,2|2,3:2|0:2,0:0:0:0:
254,79,151065,1,0,3:3:0:0:
300,146,151231,2,0,L|310:241,1,75,10|0,0:2|0:0,0:0:0:0:
419,277,151565,1,2,3:2:0:0:
419,277,151731,6,0,L|400:105,1,150,8|0,0:2|3:3,0:0:0:0:
386,46,152231,1,8,0:2:0:0:
306,67,152398,1,0,3:3:0:0:
306,67,152481,1,0,3:3:0:0:
306,67,152565,6,0,P|244:78|158:51,1,150,4|0,3:2|3:3,0:0:0:0:
84,24,153065,1,0,3:3:0:0:
84,24,153231,2,0,P|85:84|81:187,1,150,8|2,0:2|3:2,0:0:0:0:
28,236,153731,2,0,P|63:202|148:256,1,150,8|0,0:2|3:3,0:0:0:0:
217,200,154231,2,0,P|228:245|213:283,1,75,8|0,0:2|3:3,0:0:0:0:
240,352,154565,6,0,L|163:359,2,50,4|8|8,3:2|0:2|0:2,0:0:0:0:
156,337,154898,2,0,L|79:344,2,50,8|0|0,0:2|3:3|3:3,0:0:0:0:
87,313,155231,2,0,L|10:320,2,50,4|4|4,0:3|0:3|0:3,0:0:0:0:
114,264,155565,1,4,3:2:0:0:
325,71,156898,5,2,0:0:0:0:
245,49,157065,2,0,L|235:9,2,37.5,0|0|2,0:0|0:0|0:0,0:0:0:0:
263,129,157398,1,0,0:0:0:0:
263,129,157565,2,0,L|170:127,2,75,2|2|2,0:0|0:0|0:0,0:0:0:0:
411,58,158231,5,0,3:3:0:0:
411,58,158398,2,0,P|435:116|409:207,1,150,12|0,0:2|3:3,0:0:0:0:
458,269,158898,2,0,P|435:235|332:274,1,150,12|0,0:2|3:3,0:0:0:0:
282,193,159398,2,0,P|316:245|279:344,1,150,12|0,0:2|3:3,0:0:0:0:
220,357,159898,2,0,L|45:341,1,150,12|10,0:2|0:2,0:0:0:0:
12,284,160398,1,8,0:2:0:0:
12,284,160565,2,0,L|25:201,1,75,8|8,0:2|0:2,0:0:0:0:
4,129,160898,1,8,0:2:0:0:
4,129,161065,6,0,P|58:153|145:102,1,150,4|0,3:2|3:3,0:0:0:0:
197,61,161565,1,8,0:2:0:0:
197,61,161648,2,0,P|247:96|250:169,1,112.5,4|0,3:2|3:3,0:0:0:0:
332,177,162065,1,8,0:2:0:0:
332,177,162148,2,0,L|361:52,1,112.5,4|0,3:2|3:3,0:0:0:0:
439,74,162565,1,8,0:2:0:0:
439,74,162648,2,0,L|464:183,1,112.5,4|0,3:2|3:3,0:0:0:0:
443,234,163009,6,0,L|433:310,5,50,8|8|8|8|8|4,0:2|0:2|0:2|0:2|0:2|3:2,0:0:0:0:
287,356,163898,1,8,0:2:0:0:
211,323,164064,2,0,L|117:324,2,75,8|8|8,0:2|0:2|0:2,0:0:0:0:
307,81,165231,5,2,3:2:0:0:
307,81,165397,2,0,L|210:84,2,75,8|8|0,0:2|0:2|3:3,0:0:0:0:
375,35,165897,2,0,L|370:210,1,150,0|0,3:3|3:3,0:0:0:0:
163,320,166731,1,0,3:3:0:0:
163,320,166897,6,0,P|157:222|72:303,1,225,10|0,0:2|0:0,0:0:0:0:
80,336,167563,2,0,P|52:366|1:375,2,75
64,51,168563,5,8,0:2:0:0:
64,51,168730,1,0,3:3:0:0:
134,94,168897,2,0,L|256:102,2,112.5,2|0|0,3:2|3:3|3:3,0:0:0:0:
