osu file format v14

[General]
AudioFilename: audio.mp3
AudioLeadIn: 0
PreviewTime: 22430
Countdown: 0
SampleSet: Soft
StackLeniency: 0.7
Mode: 0
LetterboxInBreaks: 0
WidescreenStoryboard: 0

[Editor]
Bookmarks: 11847,16014,22514,33180,43847,67179,76845,98178,120178,144510,155510
DistanceSpacing: 1.1
BeatDivisor: 4
GridSize: 16
TimelineZoom: 2.2

[Metadata]
Title:Lamp
TitleUnicode:Lamp
Artist:Co shu Nie
ArtistUnicode:Cö shu Nie
Creator:Seto Kousuke
Version:Extreme
Source:The Promised Neverland
Tags:Yakusoku no Neverland 約束のネバーランド Anime Japanese Shirahane Suou Enerugi Faito spoes
BeatmapID:2131792
BeatmapSetID:1018766

[Difficulty]
HPDrainRate:5
CircleSize:4.3
OverallDifficulty:9
ApproachRate:9.3
SliderMultiplier:2
SliderTickRate:1

[Events]
//Background and Video events
0,0,"Lamp.jpg",0,0
//Break Periods
//Storyboard Layer 0 (Background)
//Storyboard Layer 1 (Fail)
//Storyboard Layer 2 (Pass)
//Storyboard Layer 3 (Foreground)
//Storyboard Layer 4 (Overlay)
//Storyboard Sound Samples

[TimingPoints]
1236,333.333333333333,4,2,2,30,1,0
1236,-666.666666666658,4,2,2,30,0,0
9235,-1000,4,2,2,30,0,0
11902,-100,4,2,1,50,0,0
15902,-100,4,2,1,65,0,0
17235,-66.6666666666667,4,2,1,65,0,0
21069,-285.714285714284,4,2,1,65,0,0
22569,-52.6315789473684,4,2,1,80,0,1
23902,-43.4782608695652,4,2,1,80,0,1
24902,-52.6315789473684,4,2,1,80,0,1
27569,-333.333333333333,4,2,1,80,0,1
27902,-52.6315789473684,4,2,1,80,0,1
34569,-43.4782608695652,4,2,1,80,0,1
35569,-52.6315789473684,4,2,1,80,0,1
41235,-66.6666666666667,4,2,1,80,0,1
43902,-71.4285714285714,4,2,1,70,0,0
49235,-100,4,2,1,70,0,0
55069,333.333333333333,4,2,1,70,1,0
55069,-76.9230769230769,4,2,1,70,0,0
55569,-100,4,2,1,70,0,0
56235,333.333333333333,4,2,1,70,1,0
57568,333.333333333333,4,2,1,70,1,0
57568,-71.4285714285714,4,2,1,70,0,0
62901,-100,4,2,1,70,0,0
67234,333.333333333333,3,2,1,60,1,0
67234,-133.333333333333,3,2,1,60,0,0
70900,-285.714285714284,3,2,1,60,0,0
71234,-100,3,2,1,70,0,0
75067,-285.714285714284,3,2,1,70,0,0
75567,333.333333333333,4,2,1,70,1,0
76900,333.333333333333,4,2,1,70,1,0
76900,-76.9230769230769,4,2,1,70,0,0
92566,-181.818181818181,4,2,1,70,0,0
92899,-90.9090909090909,4,2,1,70,0,0
93149,-76.9230769230769,4,2,1,70,0,0
93399,-66.6666666666667,4,2,1,70,0,0
93566,-100,4,2,1,70,0,0
93899,-71.4285714285714,4,2,1,70,0,0
94149,-62.5,4,2,1,70,0,0
96566,-83.3333333333333,4,2,1,70,0,0
97399,-66.6666666666667,4,2,1,70,0,0
97566,-55.5555555555556,4,2,1,70,0,0
97733,-47.6190476190476,4,2,1,70,0,0
97899,-55.5555555555556,4,2,1,70,0,0
98066,-66.6666666666667,4,2,1,70,0,0
98233,-52.6315789473684,4,2,1,80,0,1
99566,-47.6190476190476,4,2,1,80,0,1
99899,-43.4782608695652,4,2,1,80,0,1
100566,-52.6315789473684,4,2,1,80,0,1
103233,-333.333333333333,4,2,1,80,0,1
103566,-52.6315789473684,4,2,1,80,0,1
106233,-76.9230769230769,4,2,1,80,0,1
107566,-62.5,4,2,1,80,0,1
108899,-52.6315789473684,4,2,1,80,0,1
110233,-47.6190476190476,4,2,1,80,0,1
110899,-52.6315789473684,4,2,1,80,0,1
116899,-100,4,2,1,80,0,1
120233,333.333333333333,4,2,1,70,1,0
120233,-71.4285714285714,4,2,1,70,0,0
125566,-100,4,2,1,70,0,0
131399,333.333333333333,4,2,1,70,1,0
131399,-76.9230769230769,4,2,1,70,0,0
131899,-111.111111111111,4,2,1,70,0,0
132565,333.333333333333,4,2,1,70,1,0
133898,333.333333333333,4,2,1,70,1,0
133898,-71.4285714285714,4,2,1,70,0,0
139231,-100,4,2,1,70,0,0
144565,333.333333333333,3,2,1,60,1,0
147231,-285.714285714284,3,2,1,60,0,0
147565,-100,3,2,1,60,0,0
148231,-399.999999999997,3,2,1,60,0,0
148565,-100,3,2,1,70,0,0
155565,333.333333333333,4,2,1,70,1,0
155565,-285.714285714284,4,2,1,70,0,0
156898,-285.714285714284,4,2,2,50,0,0
158231,-66.6666666666667,4,2,1,70,0,0
161065,333.333333333333,4,2,1,70,1,0
161065,-52.6315789473684,4,2,1,70,0,0
163009,333.333333333333,4,2,1,70,1,0
163109,-52.6315789473684,4,2,1,70,0,0
163565,333.333333333333,4,2,1,70,1,0
163565,-50,4,2,1,70,0,0
163898,333.333333333333,4,2,1,70,1,0
164398,-399.999999999997,4,2,1,70,0,0
165231,333.333333333333,4,2,1,70,1,0
166897,333.333333333333,6,2,1,70,1,0
166897,-200,6,2,1,70,0,0
168897,-1000,6,2,1,70,0,0

[Colours]
Combo1 : 126,139,101
Combo2 : 194,167,112
Combo3 : 172,174,160
Combo4 : 146,99,91

[HitObjects]
389,204,1236,6,0,B|386:196|349:199|300:207,1,89.9999972534181,2|0,0:0|0:0,0:0:0:0:
128,72,2569,2,0,B|121:87|138:105|144:162,1,89.9999972534181,2|0,0:0|0:0,0:0:0:0:
308,340,3902,2,0,B|300:347|248:341|214:339,1,89.9999972534181,2|0,0:0|0:0,0:0:0:0:
394,210,5235,2,0,B|436:213|448:205|484:213,1,89.9999972534181,2|0,0:0|0:0,0:0:0:0:
300,39,6569,6,0,B|313:48|299:99|301:132,1,89.9999972534181,2|0,0:0|0:0,0:0:0:0:
235,333,7902,2,0,B|218:328|157:327|145:331,1,89.9999972534181,2|0,0:0|0:0,0:0:0:0:
190,77,9235,6,0,P|208:89|236:141,1,80,2|2,0:0|0:0,0:0:0:0:
236,139,11902,5,0,3:0:0:0:
320,139,12235,1,0,3:0:0:0:
313,240,12569,1,0,3:0:0:0:
211,267,12902,1,0,3:0:0:0:
279,330,13235,1,0,3:0:0:0:
193,359,13568,1,0,3:0:0:0:
133,278,13902,1,0,3:0:0:0:
193,203,14235,1,0,3:0:0:0:
73,168,14569,5,0,3:0:0:0:
185,74,14902,1,0,3:0:0:0:
316,150,15235,1,0,3:0:0:0:
208,285,15569,1,0,3:0:0:0:
58,158,15902,5,0,3:0:0:0:
128,141,15985,1,0,3:0:0:0:
120,215,16069,2,0,P|118:248|91:294,1,50,10|0,0:2|0:0,0:0:0:0:
2,113,16235,1,0,3:0:0:0:
57,58,16319,2,0,P|90:53|140:72,1,50,10|0,0:2|0:0,0:0:0:0:
243,220,16485,1,0,3:0:0:0:
243,220,16569,2,0,P|209:221|161:198,1,50,10|0,0:2|0:0,0:0:0:0:
402,14,16735,1,10,0:2:0:0:
402,14,16902,5,4,0:3:0:0:
359,54,16985,1,4,0:3:0:0:
398,87,17069,1,4,0:3:0:0:
372,110,17152,1,4,0:3:0:0:
383,122,17235,6,0,B|320:87|233:123|233:123|191:92|210:38,1,225.000008583069,4|0,3:2|0:0,0:0:0:0:
343,192,17569,2,0,P|306:186|270:195,1,75.0000028610231,0|0,3:0|0:0,0:0:0:0:
105,115,17735,2,0,P|191:158|204:63,1,225.000008583069,8|0,0:2|0:0,0:0:0:0:
130,31,18069,1,0,3:0:0:0:
45,172,18235,2,0,P|42:202|48:265,1,75.0000028610231,8|0,0:2|0:0,0:0:0:0:
17,93,18402,1,0,0:0:0:0:
30,337,18569,6,0,B|84:345|121:293|121:293|141:318|202:333,1,150.000005722046,2|0,3:2|0:0,0:0:0:0:
235,309,18819,1,0,3:0:0:0:
263,234,18902,2,0,P|229:226|183:251,1,75.0000028610231,0|0,3:0|0:0,0:0:0:0:
334,380,19069,6,0,B|326:311|326:311|360:259|360:259|355:146,1,225.000008583069,8|0,0:2|0:0,0:0:0:0:
505,151,19402,2,0,P|476:165|423:162,1,75.0000028610231,0|0,3:0|0:0,0:0:0:0:
174,102,19569,2,0,P|255:74|315:116,1,150.000005722046,8|0,0:2|0:0,0:0:0:0:
438,0,19819,1,0,0:0:0:0:
504,54,19902,6,0,P|423:82|363:40,1,150.000005722046,2|0,3:2|0:0,0:0:0:0:
248,231,20152,2,0,P|234:188|251:128,1,75.0000028610231,0|2,3:0|3:2,0:0:0:0:
38,108,20402,2,0,P|100:178|169:85,1,225.000008583069,8|0,0:2|0:0,0:0:0:0:
43,33,20735,1,0,3:0:0:0:
106,73,20819,1,0,3:0:0:0:
170,31,20902,1,0,3:0:0:0:
0,331,21069,6,0,P|42:313|96:334,1,104.999996795654,2|0,3:2|0:0,0:0:0:0:
115,352,22069,5,8,0:2:0:0:
128,335,22152,1,8,0:2:0:0:
162,343,22235,1,8,0:2:0:0:
186,298,22319,1,8,0:2:0:0:
240,323,22402,1,8,0:2:0:0:
282,268,22485,1,8,0:2:0:0:
328,320,22569,6,0,P|377:269|280:299,1,284.999992389679,4|0,3:2|3:0,0:0:0:0:
341,341,22902,2,0,P|360:270|338:149,1,189.999994926453,8|4,0:2|0:2,0:0:0:0:
246,31,23152,1,0,3:0:0:0:
205,97,23235,2,0,P|248:106|300:89,1,94.9999974632264,0|0,3:0|0:0,0:0:0:0:
478,90,23402,2,0,P|434:99|383:82,1,94.9999974632264,0|0,3:0|0:0,0:0:0:0:
127,42,23569,1,8,0:2:0:0:
13,208,23735,1,2,3:2:0:0:
130,359,23902,6,0,B|269:399|264:319|409:354,1,230.000004386902,2|0,3:2|3:0,0:0:0:0:
431,349,24152,1,0,3:0:0:0:
355,364,24235,2,0,B|263:337|268:417|129:377,1,230.000004386902,8|8,0:2|0:2,0:0:0:0:
23,299,24485,1,0,3:0:0:0:
55,373,24569,1,4,0:3:0:0:
211,215,24735,1,2,3:2:0:0:
135,0,24902,2,0,P|82:104|171:262,1,284.999992389679,10|0,0:2|3:0,0:0:0:0:
96,300,25235,6,0,P|47:202|146:247,1,284.999992389679,0|0,3:0|3:0,0:0:0:0:
70,318,25569,2,0,P|59:221|79:115,1,189.999994926453,8|0,0:2|3:0,0:0:0:0:
231,13,25819,1,0,3:0:0:0:
259,85,25902,2,0,P|262:133|258:196,1,94.9999974632264,0|0,3:0|0:0,0:0:0:0:
311,356,26069,2,0,P|308:308|311:261,1,94.9999974632264,0|0,3:0|0:0,0:0:0:0:
402,41,26235,1,8,0:2:0:0:
468,236,26402,1,0,3:0:0:0:
381,22,26569,5,0,3:0:0:0:
50,23,26735,1,0,3:0:0:0:
51,52,26818,1,0,3:0:0:0:
52,81,26902,1,8,0:2:0:0:
210,18,27069,1,8,0:2:0:0:
211,47,27152,1,8,0:2:0:0:
212,76,27236,1,0,3:0:0:0:
409,21,27402,1,8,0:2:0:0:
237,218,27569,6,0,L|237:188,1,29.9999990844727,8|0,0:2|0:0,0:0:0:0:
240,180,27902,6,0,P|175:240|294:234,1,284.999992389679,4|0,3:2|3:0,0:0:0:0:
258,160,28235,2,0,P|152:146|61:170,1,189.999994926453,8|4,0:2|0:2,0:0:0:0:
22,24,28485,1,0,3:0:0:0:
84,64,28569,2,0,P|124:61|199:34,1,94.9999974632264,0|0,3:0|0:0,0:0:0:0:
330,172,28735,2,0,P|351:136|371:60,1,94.9999974632264,0|0,3:0|0:0,0:0:0:0:
142,277,28902,1,8,0:2:0:0:
363,354,29069,1,2,3:2:0:0:
467,110,29235,6,0,P|440:206|480:311,1,189.999994926453,2|0,3:2|0:0,0:0:0:0:
512,354,29485,1,0,3:0:0:0:
449,288,29569,2,0,P|344:265|242:288,1,189.999994926453,8|8,0:2|0:2,0:0:0:0:
121,294,29819,1,0,3:0:0:0:
194,336,29902,1,4,0:3:0:0:
276,146,30069,1,2,3:2:0:0:
59,89,30235,1,10,0:2:0:0:
41,164,30319,1,0,3:0:0:0:
102,212,30402,2,0,P|142:219|210:206,1,94.9999974632264,0|0,0:0|3:0,0:0:0:0:
397,55,30569,5,0,3:0:0:0:
264,61,30735,1,2,3:1:0:0:
280,85,30819,1,0,3:0:0:0:
295,59,30902,1,8,0:2:0:0:
394,191,31068,1,2,3:1:0:0:
410,215,31152,1,0,3:0:0:0:
425,189,31235,1,0,3:0:0:0:
495,51,31402,1,2,3:1:0:0:
264,61,31569,1,8,0:2:0:0:
264,61,31653,1,0,3:0:0:0:
264,61,31735,2,0,P|258:119|267:176,1,94.9999974632264,2|0,3:1|0:0,0:0:0:0:
362,316,31902,6,0,B|324:269|260:264|260:264|218:284|210:324,1,189.999994926453,0|2,3:0|0:1,0:0:0:0:
55,355,32152,1,0,3:0:0:0:
123,304,32235,2,0,P|130:251|113:191,1,94.9999974632264,8|0,0:2|0:0,0:0:0:0:
29,54,32402,1,8,0:2:0:0:
77,110,32485,1,8,0:2:0:0:
101,40,32569,1,0,3:0:0:0:
19,258,32735,5,0,3:0:0:0:
406,80,32902,1,8,0:2:0:0:
406,80,33235,6,0,P|369:174|360:60,1,284.999992389679,4|0,3:2|3:0,0:0:0:0:
426,83,33569,2,0,P|442:209|408:302,1,189.999994926453,8|4,0:2|0:2,0:0:0:0:
214,320,33819,1,0,3:0:0:0:
283,370,33902,2,0,P|292:323|287:277,1,94.9999974632264,0|0,3:0|0:0,0:0:0:0:
138,281,34069,2,0,P|132:327|141:374,1,94.9999974632264,0|0,3:0|0:0,0:0:0:0:
305,181,34235,1,8,0:2:0:0:
107,181,34402,1,2,3:2:0:0:
195,10,34569,6,0,B|168:124|249:121|202:236,1,230.000004386902,2|0,3:2|3:0,0:0:0:0:
218,316,34819,1,0,3:0:0:0:
221,235,34902,2,0,B|268:122|187:125|214:11,1,230.000004386902,8|8,0:2|0:2,0:0:0:0:
372,9,35152,1,0,3:0:0:0:
312,70,35235,1,4,0:3:0:0:
125,57,35402,1,2,3:2:0:0:
65,275,35569,2,0,B|167:344|273:261|273:261|251:231|197:235,1,284.999992389679,10|0,0:2|3:0,0:0:0:0:
147,221,35902,6,0,P|111:112|204:170,1,284.999992389679,0|0,3:0|3:0,0:0:0:0:
112,243,36235,2,0,P|103:145|128:48,1,189.999994926453,8|0,0:2|3:0,0:0:0:0:
377,33,36485,1,0,3:0:0:0:
381,111,36569,2,0,P|388:158|379:222,1,94.9999974632264,0|0,3:0|0:0,0:0:0:0:
483,345,36735,2,0,P|436:352|372:343,1,94.9999974632264,0|0,3:0|0:0,0:0:0:0:
176,373,36902,1,8,0:2:0:0:
9,253,37069,1,0,3:0:0:0:
198,383,37235,5,0,3:0:0:0:
298,123,37402,1,0,3:0:0:0:
299,152,37485,1,0,3:0:0:0:
300,181,37569,1,8,0:2:0:0:
49,90,37735,1,8,0:2:0:0:
50,119,37818,1,8,0:2:0:0:
51,148,37902,1,0,3:0:0:0:
177,4,38069,1,8,0:2:0:0:
171,262,38235,1,8,0:2:0:0:
171,262,38569,6,0,P|277:259|175:316,1,284.999992389679,4|0,3:2|3:0,0:0:0:0:
136,243,38902,2,0,P|259:223|363:235,1,189.999994926453,8|4,0:2|0:2,0:0:0:0:
476,112,39152,1,0,3:0:0:0:
401,144,39235,2,0,P|364:144|288:127,1,94.9999974632264,0|0,3:0|0:0,0:0:0:0:
107,144,39402,2,0,P|144:144|220:127,1,94.9999974632264,0|0,3:0|0:0,0:0:0:0:
369,49,39569,1,8,0:2:0:0:
145,48,39735,1,2,3:2:0:0:
250,382,39902,6,0,P|268:273|250:169,1,189.999994926453,2|0,3:2|0:0,0:0:0:0:
36,189,40152,1,0,3:0:0:0:
36,189,40235,2,0,P|18:298|36:402,1,189.999994926453,8|8,0:2|0:2,0:0:0:0:
250,382,40485,1,0,3:0:0:0:
265,312,40569,6,0,P|266:262|251:192,1,94.9999974632264,4|0,0:3|0:0,0:0:0:0:
103,89,40735,1,8,0:2:0:0:
154,148,40819,1,8,0:2:0:0:
214,96,40902,1,8,0:2:0:0:
215,82,40985,1,0,3:0:0:0:
216,68,41068,1,0,3:0:0:0:
217,55,41152,1,0,3:0:0:0:
218,41,41235,6,0,B|179:24|144:33|144:33|75:136|164:133|112:263,1,300.000011444092,4|8,3:2|0:2,0:0:0:0:
394,248,41735,2,0,B|348:133|437:136|368:33|368:33|333:24|294:41,1,300.000011444092,4|8,3:2|0:2,0:0:0:0:
158,324,42235,2,0,B|218:332|244:382|244:382|264:335|351:315,1,225.000008583069,4|0,3:2|0:0,0:0:0:0:
371,321,42569,1,8,0:2:0:0:
253,117,42735,6,0,B|263:163|263:163|232:214|232:214|257:300,1,150.000005722046,4|8,3:2|0:2,0:0:0:0:
351,188,43069,1,8,0:2:0:0:
461,350,43235,2,0,P|507:319|476:230,1,150.000005722046,4|0,3:2|0:0,0:0:0:0:
449,14,43569,1,8,0:2:0:0:
422,4,43652,1,8,0:2:0:0:
386,6,43736,1,8,0:2:0:0:
362,23,43819,1,8,0:2:0:0:
352,50,43902,6,0,B|330:125|354:197,1,139.999995727539,4|0,3:2|0:0,0:0:0:0:
264,45,44235,2,0,B|242:120|266:192,1,139.999995727539,2|0,3:2|0:0,0:0:0:0:
174,41,44569,2,0,B|152:116|176:188,1,139.999995727539,2|0,3:2|0:0,0:0:0:0:
82,38,44902,2,0,B|60:113|84:185,1,139.999995727539,2|0,3:2|0:0,0:0:0:0:
405,324,45235,6,0,P|327:314|238:327,1,139.999995727539,2|0,3:2|0:0,0:0:0:0:
49,333,45569,2,0,P|126:342|216:330,1,139.999995727539,2|0,3:2|0:0,0:0:0:0:
413,238,45902,2,0,P|335:228|246:241,1,139.999995727539,4|0,3:2|0:0,0:0:0:0:
57,247,46236,2,0,P|134:256|224:244,1,139.999995727539,2|0,3:2|0:0,0:0:0:0:
485,295,46569,6,0,P|505:221|475:170,1,139.999995727539,4|0,3:2|0:0,0:0:0:0:
248,166,46902,1,2,3:2:0:0:
418,117,47069,1,8,0:2:0:0:
359,17,47235,2,0,B|305:35|308:98|308:98|337:114|371:154,1,139.999995727539,2|0,3:2|0:0,0:0:0:0:
156,115,47568,2,0,B|186:95|186:95|189:32|135:14,1,139.999995727539,2|8,3:2|0:2,0:0:0:0:
42,193,47902,5,2,3:2:0:0:
79,98,48069,1,0,3:3:0:0:
153,240,48235,1,8,0:2:0:0:
23,203,48402,1,0,3:3:0:0:
236,164,48569,1,8,0:2:0:0:
4,214,48735,1,8,0:2:0:0:
135,357,48902,5,2,3:2:0:0:
144,363,48985,1,8,0:2:0:0:
183,351,49069,1,8,0:2:0:0:
192,357,49152,1,8,0:2:0:0:
230,348,49235,6,0,L|240:205,1,100,4|8,3:2|0:2,0:0:0:0:
129,67,49569,1,2,0:2:0:0:
118,226,49735,1,0,3:3:0:0:
313,151,49902,2,0,P|370:150|452:159,1,100,10|0,0:2|3:3,0:0:0:0:
152,75,50235,1,2,3:2:0:0:
234,226,50402,2,0,L|226:337,1,100,8|2,0:2|0:2,0:0:0:0:
229,136,50735,1,0,3:3:0:0:
117,225,50902,2,0,L|106:325,1,100,10|0,0:2|3:3,0:0:0:0:
239,46,51235,1,2,3:2:0:0:
116,104,51402,2,0,P|62:106|1:101,1,100,8|2,0:2|0:2,0:0:0:0:
258,29,51735,5,0,3:3:0:0:
353,145,51902,1,10,0:2:0:0:
426,23,52069,1,0,3:3:0:0:
329,151,52235,1,2,3:2:0:0:
498,127,52402,1,8,0:2:0:0:
302,155,52569,2,0,P|200:176|187:180,1,100,2|0,0:2|3:3,0:0:0:0:
103,25,52902,2,0,P|89:67|80:144,1,100,10|8,0:2|0:2,0:0:0:0:
37,139,53152,1,8,0:2:0:0:
37,139,53235,6,0,L|37:263,1,100,4|0,3:2|0:0,0:0:0:0:
91,374,53568,1,2,0:2:0:0:
218,278,53735,2,0,B|175:253|175:253|129:276,1,100,8|2,0:2|0:2,0:0:0:0:
263,363,54068,1,8,0:2:0:0:
279,365,54151,1,0,3:0:0:0:
295,367,54235,1,4,3:2:0:0:
324,180,54402,2,0,P|307:226|331:291,1,100,8|2,0:2|3:2,0:0:0:0:
500,341,54735,2,0,B|459:357|459:357|420:318|347:336,1,150,0|0,3:3|0:0,0:0:0:0:
297,369,55069,6,0,P|330:307|179:257,1,259.999988098145,4|0,3:2|0:0,0:0:0:0:
442,40,55569,6,0,P|464:122|309:98,1,300,4|0,3:2|0:0,0:0:0:0:
11,84,56235,6,0,B|87:124|165:84|165:84|133:64|105:73,1,200,4|0,3:2|0:0,0:0:0:0:
91,347,56735,2,0,B|131:271|91:193|91:193|71:225|80:253,1,200,4|0,3:2|3:3,0:0:0:0:
263,354,57235,1,10,0:2:0:0:
263,354,57568,6,0,P|315:359|404:356,1,139.999995727539,4|0,3:2|0:0,0:0:0:0:
401,260,57901,2,0,P|348:265|259:262,1,139.999995727539,2|0,3:2|0:0,0:0:0:0:
262,168,58234,2,0,P|314:173|403:170,1,139.999995727539,2|0,3:2|0:0,0:0:0:0:
400,74,58567,2,0,P|347:79|258:76,1,139.999995727539,2|0,3:2|0:0,0:0:0:0:
40,34,58901,6,0,P|31:91|37:175,1,139.999995727539,2|0,3:2|0:0,0:0:0:0:
130,384,59234,2,0,P|139:327|133:243,1,139.999995727539,2|0,3:2|0:0,0:0:0:0:
135,34,59568,2,0,P|144:91|138:175,1,139.999995727539,4|0,3:2|0:0,0:0:0:0:
45,384,59901,2,0,P|36:327|42:243,1,139.999995727539,2|0,3:2|0:0,0:0:0:0:
230,0,60234,6,0,P|246:73|220:280,1,279.999991455078,4|2,3:2|3:2,0:0:0:0:
392,309,60734,1,8,0:2:0:0:
352,101,60901,2,0,P|332:147|333:248,1,139.999995727539,2|0,3:2|0:0,0:0:0:0:
504,186,61234,1,2,3:2:0:0:
492,326,61401,1,8,0:2:0:0:
316,235,61567,5,2,3:2:0:0:
489,204,61734,1,0,3:3:0:0:
381,332,61901,1,8,0:2:0:0:
400,153,62067,1,0,3:3:0:0:
255,299,62234,1,8,0:2:0:0:
285,136,62401,1,8,0:2:0:0:
121,71,62567,1,2,3:2:0:0:
102,88,62650,1,8,0:2:0:0:
84,105,62733,1,0,0:0:0:0:
66,122,62817,1,8,0:2:0:0:
47,139,62900,5,4,3:2:0:0:
146,215,63067,2,0,B|183:226|183:226|260:213,1,100,8|2,0:2|0:2,0:0:0:0:
291,47,63401,1,0,3:3:0:0:
388,192,63567,2,0,L|386:307,1,100,10|0,0:2|3:3,0:0:0:0:
471,145,63901,1,2,3:2:0:0:
367,297,64067,2,0,L|368:197,1,100,8|2,0:2|0:2,0:0:0:0:
467,55,64401,1,0,3:3:0:0:
345,201,64567,2,0,L|344:301,1,100,10|0,0:2|3:3,0:0:0:0:
206,370,64901,5,2,3:2:0:0:
116,296,65067,1,8,0:2:0:0:
8,363,65234,1,2,0:2:0:0:
133,285,65401,1,0,3:3:0:0:
31,206,65567,2,0,P|31:153|43:102,1,100,10|0,0:2|3:3,0:0:0:0:
242,114,65901,2,0,P|252:162|252:212,1,100,2|8,3:2|0:2,0:0:0:0:
137,43,66234,5,2,0:2:0:0:
127,184,66401,1,0,3:3:0:0:
328,45,66567,1,10,0:2:0:0:
117,30,66734,1,8,0:2:0:0:
359,26,66901,1,4,3:2:0:0:
435,217,67067,1,8,0:2:0:0:
435,217,67151,1,8,0:2:0:0:
435,217,67234,6,0,P|372:260|296:259,1,150.000005722046,4|2,3:2|3:3,0:0:0:0:
253,348,67734,1,0,3:3:0:0:
259,177,67900,2,0,P|297:164|353:184,1,75.0000028610231,2|0,0:3|3:3,0:0:0:0:
324,359,68234,2,0,P|283:361|235:327,1,75.0000028610231,2|0,3:2|0:0,0:0:0:0:
220,374,68484,1,0,3:0:0:0:
220,374,68567,2,0,P|198:331|200:286,1,75.0000028610231,2|0,3:3|3:3,0:0:0:0:
67,371,68900,2,0,P|86:338|91:302,1,75.0000028610231,2|0,3:3|3:3,0:0:0:0:
129,151,69234,5,2,3:3:0:0:
51,208,69400,1,0,3:3:0:0:
138,242,69567,1,2,0:3:0:0:
211,187,69734,1,0,3:3:0:0:
48,123,69900,1,2,0:2:0:0:
203,103,70067,1,0,3:0:0:0:
114,0,70234,5,2,3:2:0:0:
129,151,70400,1,8,0:2:0:0:
280,58,70567,1,4,0:3:0:0:
345,146,70734,1,0,3:3:0:0:
344,170,70817,1,0,3:3:0:0:
343,195,70900,6,0,L|343:260,1,52.4999983978272,2|0,0:2|0:0,0:0:0:0:
374,262,71234,6,0,P|305:235|180:304,1,200,4|0,3:2|3:3,0:0:0:0:
89,189,71734,1,0,3:3:0:0:
50,343,71900,2,0,P|99:354|148:339,1,100,8|0,0:2|0:0,0:0:0:0:
374,262,72234,1,2,3:2:0:0:
421,349,72400,2,0,P|372:357|320:344,1,100,8|2,0:2|0:2,0:0:0:0:
233,147,72734,1,0,3:3:0:0:
232,163,72817,1,0,3:3:0:0:
231,177,72900,2,0,L|230:301,1,100,8|0,0:2|3:3,0:0:0:0:
512,190,73234,6,0,P|449:226|319:164,1,200,2|2,3:2|0:2,0:0:0:0:
151,236,73734,1,0,3:3:0:0:
287,90,73900,2,0,P|233:68|183:83,1,100,10|0,0:2|0:0,0:0:0:0:
31,199,74234,5,2,3:2:0:0:
106,43,74400,2,0,L|105:146,1,100,8|0,0:2|3:3,0:0:0:0:
30,354,74733,1,0,3:3:0:0:
30,354,74817,1,0,3:3:0:0:
30,354,74900,1,8,0:2:0:0:
281,273,75067,6,0,P|249:276|217:297,1,69.9999978637696,4|0,3:2|0:0,0:0:0:0:
357,353,75567,5,2,3:2:0:0:
412,256,75733,1,8,0:2:0:0:
494,340,75900,1,2,3:2:0:0:
410,207,76067,1,8,0:2:0:0:
411,231,76150,1,8,0:2:0:0:
412,256,76233,1,8,0:2:0:0:
453,59,76400,5,0,3:3:0:0:
477,90,76483,1,0,3:3:0:0:
451,116,76567,1,4,0:3:0:0:
404,86,76650,1,4,0:3:0:0:
369,117,76733,1,4,0:3:0:0:
312,95,76817,1,4,0:3:0:0:
354,36,76900,6,0,P|374:110|322:248,1,194.999991073609,4|0,3:2|3:3,0:0:0:0:
322,245,77233,1,2,3:2:0:0:
140,93,77400,2,0,B|163:72|163:72|190:135|164:183,1,129.999994049073,8|2,0:2|0:2,0:0:0:0:
160,348,77733,1,8,0:2:0:0:
94,312,77816,1,4,0:3:0:0:
170,357,77900,2,0,P|204:359|241:352,1,64.9999970245363,4|0,0:3|0:0,0:0:0:0:
498,355,78066,6,0,B|392:379|401:322|303:352,1,194.999991073609,4|0,3:2|0:0,0:0:0:0:
234,353,78400,1,2,3:2:0:0:
445,217,78566,2,0,P|454:254|436:300,1,64.9999970245363,8|0,0:2|0:0,0:0:0:0:
201,174,78733,5,2,3:2:0:0:
241,120,78816,1,0,3:0:0:0:
214,94,78900,1,8,0:2:0:0:
233,73,78983,1,8,0:2:0:0:
220,58,79066,2,0,P|258:55|295:60,1,64.9999970245363,4|0,0:3|0:0,0:0:0:0:
456,126,79233,2,0,P|504:92|471:44,1,129.999994049073,12|8,0:2|0:2,0:0:0:0:
369,24,79483,1,8,0:2:0:0:
369,24,79566,6,0,B|391:83|353:90|370:152,1,129.999994049073,4|0,3:2|0:0,0:0:0:0:
134,25,79900,2,0,B|112:84|150:91|133:153,1,129.999994049073,2|8,3:2|0:2,0:0:0:0:
251,316,80233,1,2,0:2:0:0:
249,186,80400,1,0,3:3:0:0:
43,281,80566,1,10,0:2:0:0:
169,270,80733,1,8,0:2:0:0:
152,271,80816,1,8,0:2:0:0:
136,272,80899,5,4,3:2:0:0:
248,163,81066,1,0,3:3:0:0:
250,333,81233,1,2,0:2:0:0:
444,174,81400,2,0,P|407:174|356:264,1,129.999994049073,8|2,0:2|0:2,0:0:0:0:
447,46,81733,1,0,3:3:0:0:
439,265,81900,1,10,0:2:0:0:
335,91,82066,1,0,0:0:0:0:
248,163,82233,6,0,P|212:170|160:168,1,64.9999970245363,4|0,3:2|0:0,0:0:0:0:
26,103,82400,2,0,L|17:71,2,32.4999985122681,8|8|8,0:2|0:2|0:2,0:0:0:0:
28,299,82566,1,8,0:2:0:0:
250,191,82733,6,0,P|214:183|162:186,1,64.9999970245363,4|0,3:2|0:0,0:0:0:0:
42,86,82900,2,0,L|33:54,2,32.4999985122681,8|0|8,0:2|0:0|0:2,0:0:0:0:
38,324,83066,1,8,0:2:0:0:
259,169,83233,6,0,P|251:236|281:299,1,129.999994049073,4|0,3:2|0:0,0:0:0:0:
353,295,83483,2,0,P|377:235|369:171,1,129.999994049073,0|0,3:3|0:0,0:0:0:0:
179,179,83733,2,0,P|171:246|201:309,1,129.999994049073,4|0,3:2|0:0,0:0:0:0:
439,306,83983,2,0,P|463:246|455:182,1,129.999994049073,0|0,3:3|0:0,0:0:0:0:
314,13,84233,1,0,3:3:0:0:
179,179,84399,5,4,0:3:0:0:
179,179,84483,1,4,0:3:0:0:
179,179,84566,2,0,P|138:187|91:181,1,64.9999970245363,0|0,3:3|3:3,0:0:0:0:
113,9,84733,2,0,P|145:8|177:16,1,64.9999970245363,4|4,0:3|0:3,0:0:0:0:
360,93,84899,6,0,L|183:95,1,129.999994049073,4|0,3:2|0:0,0:0:0:0:
64,274,85233,2,0,L|241:276,1,129.999994049073,2|8,3:2|0:2,0:0:0:0:
362,384,85483,1,8,0:2:0:0:
362,384,85566,2,0,P|377:329|303:291,1,129.999994049073,0|2,3:3|0:2,0:0:0:0:
364,96,85816,1,0,0:0:0:0:
364,96,85899,2,0,P|379:151|305:189,1,129.999994049073,0|8,3:3|0:2,0:0:0:0:
60,174,86233,5,4,3:2:0:0:
280,121,86399,1,4,0:3:0:0:
256,125,86483,1,4,0:3:0:0:
232,129,86566,1,8,0:2:0:0:
68,98,86733,1,8,0:2:0:0:
127,54,86817,1,8,0:2:0:0:
61,109,86899,2,0,P|57:150|69:205,1,64.9999970245363,0|0,3:3|3:3,0:0:0:0:
171,262,87066,2,0,P|173:229|169:197,1,64.9999970245363,4|4,0:3|0:3,0:0:0:0:
66,355,87233,5,12,0:2:0:0:
66,355,87566,6,0,B|176:359|176:359|151:370,1,129.999994049073,4|0,3:2|0:0,0:0:0:0:
79,249,87816,2,0,B|60:257|60:257|170:261,1,129.999994049073,0|0,3:3|0:0,0:0:0:0:
356,171,88066,2,0,P|277:163|278:225,1,129.999994049073,8|2,0:2|0:2,0:0:0:0:
415,357,88399,1,8,0:2:0:0:
478,307,88483,1,8,0:2:0:0:
403,367,88566,2,0,P|368:370|326:367,1,64.9999970245363,0|0,3:3|0:0,0:0:0:0:
170,261,88733,6,0,P|250:237|357:274,1,194.999991073609,4|0,3:2|0:0,0:0:0:0:
365,296,89066,1,0,3:3:0:0:
429,79,89233,2,0,P|419:118|447:169,1,64.9999970245363,8|0,0:2|0:0,0:0:0:0:
504,116,89399,1,2,0:2:0:0:
331,32,89566,5,8,0:2:0:0:
290,59,89649,1,8,0:2:0:0:
242,27,89733,1,4,0:3:0:0:
225,42,89816,1,0,3:0:0:0:
197,34,89899,2,0,P|180:95|201:190,1,129.999994049073,8|8,0:2|0:2,0:0:0:0:
14,290,90149,1,8,0:2:0:0:
27,279,90233,6,0,P|34:214|17:152,1,129.999994049073,4|0,3:2|0:0,0:0:0:0:
126,236,90483,1,0,3:0:0:0:
139,251,90566,1,2,3:2:0:0:
90,99,90733,1,8,0:2:0:0:
154,262,90899,2,0,B|218:281|215:239|286:261,1,129.999994049073,2|0,0:2|3:3,0:0:0:0:
406,121,91233,1,10,0:2:0:0:
478,331,91399,1,8,0:2:0:0:
458,354,91482,1,8,0:2:0:0:
423,336,91566,5,0,3:3:0:0:
512,177,91733,1,0,3:3:0:0:
281,259,91899,1,2,0:2:0:0:
493,200,92066,2,0,P|429:223|304:179,1,194.999991073609,8|0,0:2|0:0,0:0:0:0:
290,4,92399,1,0,3:3:0:0:
334,66,92483,1,0,3:3:0:0:
278,118,92566,6,0,B|247:126|247:126|229:119|229:119|185:123,1,82.5000025177003,4|0,0:3|0:0,0:0:0:0:
143,197,92899,6,0,B|152:169|173:155|173:155|169:117|155:102,1,110.000003356934,4|0,3:2|0:0,0:0:0:0:
76,261,93149,2,0,P|127:232|154:284,1,129.999994049073,2|0,3:2|0:0,0:0:0:0:
310,248,93399,2,0,P|279:253|237:320,1,75.0000028610231,2|0,3:2|0:0,0:0:0:0:
326,338,93566,6,0,L|336:147,1,150,2|0,3:2|0:0,0:0:0:0:
408,138,93899,6,0,P|361:171|416:186,1,139.999995727539,2|0,3:2|0:0,0:0:0:0:
435,66,94149,2,0,P|358:60|302:113,1,160,2|0,3:2|0:0,0:0:0:0:
425,269,94399,2,0,P|463:256|489:226,1,80,2|0,3:2|0:0,0:0:0:0:
229,215,94566,5,2,3:2:0:0:
196,65,94733,1,8,0:2:0:0:
194,77,94816,1,8,0:2:0:0:
192,88,94899,1,0,3:3:0:0:
192,88,95399,5,8,0:2:0:0:
232,23,95483,1,8,0:2:0:0:
182,106,95566,5,4,3:2:0:0:
93,55,95733,1,8,0:2:0:0:
26,147,95899,1,8,0:2:0:0:
100,34,96066,1,0,3:3:0:0:
218,216,96233,1,8,0:2:0:0:
336,98,96399,1,8,0:2:0:0:
342,112,96483,1,8,0:2:0:0:
349,125,96566,6,0,P|381:130|440:127,1,59.9999981689454,8|4,0:2|0:3,0:0:0:0:
469,262,96733,2,0,P|443:282|430:323,1,59.9999981689454,4|0,0:3|3:3,0:0:0:0:
281,365,96899,1,12,0:2:0:0:
218,216,97066,1,0,3:3:0:0:
28,322,97233,6,0,L|30:225,1,89.9999972534181,12|0,0:2|0:0,0:0:0:0:
42,220,97399,6,0,L|39:332,1,112.500004291535,0|0,3:3|0:0,0:0:0:0:
60,346,97566,6,0,L|63:211,1,134.999995880127,12|0,0:2|0:0,0:0:0:0:
88,200,97733,6,0,L|84:357,1,157.499995193482,8|0,0:2|0:0,0:0:0:0:
110,346,97899,6,0,L|113:211,1,134.999995880127,8|0,0:2|0:0,0:0:0:0:
132,225,98066,6,0,L|129:337,1,112.500004291535,8|0,0:2|0:0,0:0:0:0:
194,369,98233,6,0,P|242:348|173:363,1,284.999992389679,4|0,3:2|3:0,0:0:0:0:
229,380,98566,2,0,P|249:278|235:174,1,189.999994926453,8|4,0:2|0:2,0:0:0:0:
125,69,98816,1,0,3:0:0:0:
199,94,98899,2,0,P|249:99|316:85,1,94.9999974632264,0|0,3:0|0:0,0:0:0:0:
481,94,99066,2,0,P|430:84|363:92,1,94.9999974632264,0|0,3:0|0:0,0:0:0:0:
184,17,99233,1,8,0:2:0:0:
61,196,99399,1,2,3:2:0:0:
192,374,99566,6,0,B|252:365|273:311|273:311|245:257|176:265,1,209.999993591309,2|0,3:2|0:0,0:0:0:0:
121,322,99816,1,0,3:0:0:0:
196,256,99899,2,0,B|254:254|287:311|287:311|262:372|177:389,1,230.000004386902,8|8,0:2|0:2,0:0:0:0:
49,275,100149,1,0,3:0:0:0:
61,196,100233,1,4,0:3:0:0:
260,92,100399,1,2,3:2:0:0:
459,179,100566,6,0,P|322:211|185:138,1,284.999992389679,10|0,0:2|3:0,0:0:0:0:
141,194,100899,6,0,P|217:262|170:157,1,284.999992389679,0|0,3:0|3:0,0:0:0:0:
119,218,101233,2,0,P|182:250|326:242,1,189.999994926453,8|0,0:2|3:0,0:0:0:0:
448,84,101483,1,0,3:0:0:0:
390,133,101566,2,0,P|382:181|391:242,1,94.9999974632264,0|0,3:0|0:0,0:0:0:0:
459,369,101733,2,0,P|466:320|458:260,1,94.9999974632264,0|0,3:0|0:0,0:0:0:0:
380,59,101899,1,8,0:2:0:0:
197,150,102066,1,0,3:0:0:0:
25,22,102233,5,0,3:0:0:0:
198,12,102399,1,0,3:0:0:0:
178,33,102482,1,0,3:0:0:0:
158,54,102566,1,8,0:2:0:0:
97,284,102733,1,8,0:2:0:0:
77,263,102816,1,8,0:2:0:0:
57,242,102900,1,0,3:0:0:0:
197,150,103066,1,8,0:2:0:0:
354,335,103233,6,0,B|354:367|353:366,1,29.9999990844727,8|0,0:2|0:0,0:0:0:0:
354,365,103566,6,0,P|306:344|375:359,1,284.999992389679,4|0,3:2|3:0,0:0:0:0:
324,377,103899,2,0,P|304:275|318:171,1,189.999994926453,8|4,0:2|0:2,0:0:0:0:
431,31,104149,1,0,0:0:0:0:
377,86,104233,2,0,P|329:83|272:73,1,94.9999974632264,0|0,3:0|0:0,0:0:0:0:
100,113,104399,2,0,P|82:68|67:12,1,94.9999974632264,0|0,3:0|0:0,0:0:0:0:
213,227,104566,2,0,B|219:280|205:362|205:362|180:218,1,189.999994926453,8|2,0:2|0:2,0:0:0:0:
246,147,104816,1,0,3:0:0:0:
312,190,104899,6,0,P|315:237|309:384,1,189.999994926453,2|0,3:2|0:0,0:0:0:0:
450,380,105149,1,0,3:0:0:0:
413,313,105233,2,0,P|409:268|416:196,1,94.9999974632264,8|0,0:2|0:0,0:0:0:0:
484,34,105399,1,8,0:2:0:0:
440,93,105483,1,0,3:0:0:0:
368,75,105566,2,0,P|320:66|200:78,1,94.9999974632264,4|0,0:3|0:0,0:0:0:0:
32,171,105733,5,2,3:2:0:0:
88,115,105816,1,0,3:0:0:0:
138,177,105899,1,10,0:2:0:0:
138,177,105983,2,0,B|169:274|110:272|144:382,1,189.999994926453,0|0,3:0|3:0,0:0:0:0:
378,379,106233,5,0,3:0:0:0:
457,122,106399,2,0,L|459:201,1,64.9999970245363,2|0,3:1|3:0,0:0:0:0:
463,298,106566,1,8,0:2:0:0:
355,104,106733,2,0,L|357:183,1,64.9999970245363,2|0,3:1|3:0,0:0:0:0:
361,280,106900,1,0,3:0:0:0:
249,86,107066,2,0,L|251:165,1,64.9999970245363,2|0,3:1|3:0,0:0:0:0:
255,262,107233,1,8,0:2:0:0:
457,122,107399,1,2,3:1:0:0:
305,32,107566,6,0,P|211:56|148:12,1,160,0|2,3:0|3:1,0:0:0:0:
30,74,107816,1,0,3:0:0:0:
80,18,107899,1,8,0:2:0:0:
249,194,108066,1,8,0:2:0:0:
191,240,108149,1,8,0:2:0:0:
135,193,108233,2,0,P|123:153|189:115,1,80,0|0,3:0|3:0,0:0:0:0:
419,30,108399,1,0,3:0:0:0:
422,122,108482,1,0,3:0:0:0:
425,214,108566,5,8,0:2:0:0:
425,214,108899,6,0,P|347:290|456:274,1,284.999992389679,4|0,3:2|3:0,0:0:0:0:
438,194,109233,2,0,P|330:185|235:198,1,189.999994926453,8|4,0:2|0:2,0:0:0:0:
82,53,109483,1,0,3:0:0:0:
147,89,109566,2,0,P|198:92|262:83,1,94.9999974632264,0|0,3:0|0:0,0:0:0:0:
18,173,109733,2,0,P|16:218|23:289,1,94.9999974632264,0|0,3:0|0:0,0:0:0:0:
259,316,109899,2,0,B|179:285|112:318|112:318|148:346|203:350,1,189.999994926453,8|2,0:2|3:2,0:0:0:0:
316,375,110149,1,0,3:0:0:0:
378,315,110233,6,0,B|421:209|353:201|384:84,1,209.999993591309,2|0,3:2|0:0,0:0:0:0:
376,27,110483,1,0,3:0:0:0:
391,108,110566,2,0,B|365:200|433:208|390:314,1,209.999993591309,8|8,0:2|0:2,0:0:0:0:
210,384,110816,1,0,3:0:0:0:
145,337,110899,1,4,0:3:0:0:
220,112,111066,1,2,3:2:0:0:
323,249,111233,2,0,B|296:254|261:244|261:244|206:271|206:271|171:247|122:253|122:253|151:209|201:217,1,284.999992389679,10|0,0:2|3:0,0:0:0:0:
220,35,111566,6,0,P|116:72|219:111,1,284.999992389679,0|0,3:0|3:0,0:0:0:0:
227,20,111899,2,0,P|135:10|25:40,1,189.999994926453,8|0,0:2|3:0,0:0:0:0:
5,286,112149,1,0,3:0:0:0:
38,215,112233,2,0,P|45:173|37:108,1,94.9999974632264,0|0,3:0|0:0,0:0:0:0:
219,111,112399,2,0,P|214:158|221:204,1,94.9999974632264,0|0,3:0|0:0,0:0:0:0:
366,346,112566,1,8,0:2:0:0:
360,116,112733,1,0,3:0:0:0:
217,350,112899,5,0,3:0:0:0:
38,215,113066,1,0,3:0:0:0:
22,249,113149,1,0,3:0:0:0:
5,286,113232,1,8,0:2:0:0:
221,204,113399,1,8,0:2:0:0:
237,238,113482,1,8,0:2:0:0:
254,275,113565,1,0,3:0:0:0:
131,86,113733,1,8,0:2:0:0:
135,359,113899,1,8,0:2:0:0:
135,359,114233,6,0,P|172:255|211:358,1,284.999992389679,4|0,3:2|3:0,0:0:0:0:
120,366,114566,2,0,P|110:274|140:164,1,189.999994926453,8|4,0:2|0:2,0:0:0:0:
290,23,114816,1,0,3:0:0:0:
345,75,114899,2,0,P|352:120|347:188,1,94.9999974632264,0|0,3:0|0:0,0:0:0:0:
331,351,115066,2,0,P|329:303|336:256,1,94.9999974632264,0|0,3:0|0:0,0:0:0:0:
449,81,115233,1,8,0:2:0:0:
443,323,115399,1,2,3:2:0:0:
255,111,115566,6,0,P|146:93|42:111,1,189.999994926453,2|0,3:2|3:0,0:0:0:0:
62,325,115816,1,0,3:0:0:0:
62,325,115899,2,0,P|171:343|275:325,1,189.999994926453,8|8,0:2|0:2,0:0:0:0:
391,166,116149,1,0,3:0:0:0:
441,228,116233,2,0,P|445:277|440:338,1,94.9999974632264,4|0,0:3|0:0,0:0:0:0:
335,118,116399,2,0,P|330:68|336:8,1,94.9999974632264,8|8,0:2|0:2,0:0:0:0:
249,332,116566,1,8,0:2:0:0:
169,176,116733,1,0,3:0:0:0:
62,325,116899,5,4,3:2:0:0:
75,292,116982,1,8,0:2:0:0:
79,257,117065,1,8,0:2:0:0:
71,222,117148,1,8,0:2:0:0:
53,191,117233,2,0,L|4:192,1,50,4|4,0:3|0:3,0:0:0:0:
160,42,117399,5,4,3:2:0:0:
146,74,117482,1,8,0:2:0:0:
142,109,117565,1,8,0:2:0:0:
150,144,117648,1,8,0:2:0:0:
169,176,117733,2,0,L|218:175,1,50,4|4,0:3|0:3,0:0:0:0:
361,342,117899,5,4,3:2:0:0:
375,309,117982,1,8,0:2:0:0:
379,274,118065,1,8,0:2:0:0:
371,239,118148,1,8,0:2:0:0:
352,208,118233,2,0,L|303:209,1,50,4|4,0:3|0:3,0:0:0:0:
464,35,118399,5,4,3:2:0:0:
465,59,118483,1,8,0:2:0:0:
466,84,118565,1,8,0:2:0:0:
467,109,118648,1,8,0:2:0:0:
468,134,118733,2,0,L|464:207,1,50,8|8,0:2|0:2,0:0:0:0:
245,27,118899,1,4,3:2:0:0:
245,27,119233,6,0,P|220:35|185:40,1,50,8|8,0:2|0:2,0:0:0:0:
164,162,119399,2,0,P|155:138|127:108,1,50,8|8,0:2|0:2,0:0:0:0:
277,130,119566,2,0,P|297:145|318:170,1,50,4|8,3:2|0:2,0:0:0:0:
212,264,119733,2,0,P|220:241|245:213,1,50,8|8,0:2|0:2,0:0:0:0:
429,307,119899,1,2,3:2:0:0:
410,345,119982,1,8,0:2:0:0:
370,360,120065,1,8,0:2:0:0:
331,343,120148,1,8,0:2:0:0:
314,304,120233,6,0,P|309:236|317:145,1,139.999995727539,4|0,3:2|0:0,0:0:0:0:
429,167,120566,2,0,P|433:236|428:306,1,139.999995727539,2|0,3:2|0:0,0:0:0:0:
198,301,120899,2,0,P|193:233|201:142,1,139.999995727539,2|0,3:2|0:0,0:0:0:0:
313,164,121232,2,0,P|317:233|312:303,1,139.999995727539,2|0,3:2|0:0,0:0:0:0:
58,301,121566,6,0,P|126:296|217:304,1,139.999995727539,2|0,3:2|0:0,0:0:0:0:
57,161,121899,2,0,P|127:166|196:161,1,139.999995727539,2|0,3:2|0:0,0:0:0:0:
452,303,122233,2,0,P|384:298|293:306,1,139.999995727539,4|0,3:2|0:0,0:0:0:0:
452,164,122566,2,0,P|382:168|312:163,1,139.999995727539,2|0,3:2|0:0,0:0:0:0:
190,33,122899,6,0,P|254:13|320:40,1,139.999995727539,4|0,3:2|0:0,0:0:0:0:
247,239,123233,1,2,3:2:0:0:
250,97,123399,1,8,0:2:0:0:
378,172,123566,2,0,B|400:210|400:210|381:304,1,139.999995727539,2|0,3:2|0:0,0:0:0:0:
130,304,123899,2,0,B|112:210|112:210|134:172,1,139.999995727539,2|8,3:2|0:2,0:0:0:0:
250,97,124233,5,2,3:2:0:0:
153,9,124399,1,0,3:3:0:0:
108,157,124566,1,8,0:2:0:0:
258,119,124733,1,0,3:3:0:0:
254,302,124899,1,8,0:2:0:0:
265,139,125066,1,8,0:2:0:0:
409,236,125233,5,2,3:2:0:0:
447,271,125316,1,8,0:2:0:0:
426,311,125400,1,8,0:2:0:0:
440,324,125483,1,8,0:2:0:0:
439,332,125566,6,0,L|442:220,1,100,4|8,3:2|0:2,0:0:0:0:
397,52,125899,1,2,0:2:0:0:
501,140,126066,1,0,3:3:0:0:
329,209,126233,2,0,P|264:210|224:205,1,100,10|0,0:2|3:3,0:0:0:0:
124,38,126566,1,2,3:2:0:0:
111,182,126733,1,8,0:2:0:0:
266,74,126899,5,2,0:2:0:0:
102,42,127066,1,0,3:3:0:0:
281,97,127233,2,0,P|330:96|388:92,1,100,10|0,0:2|3:3,0:0:0:0:
125,194,127566,2,0,P|76:195|18:199,1,100,2|8,3:2|0:2,0:0:0:0:
222,344,127899,5,2,0:2:0:0:
258,206,128066,1,0,3:3:0:0:
382,360,128232,1,10,0:2:0:0:
437,218,128399,1,0,3:3:0:0:
208,350,128566,2,0,L|72:328,1,100,2|8,3:2|0:2,0:0:0:0:
456,210,128899,2,0,L|458:99,1,100,2|0,0:2|3:3,0:0:0:0:
133,79,129232,2,0,P|233:151|250:210,1,150,10|8,0:2|0:2,0:0:0:0:
252,195,129566,6,0,L|250:1,1,150,4|0,3:2|0:0,0:0:0:0:
268,27,129899,1,2,0:2:0:0:
457,110,130066,2,0,P|410:122|363:108,1,100,8|2,0:2|0:2,0:0:0:0:
411,26,130399,1,8,0:2:0:0:
326,192,130566,1,4,3:2:0:0:
479,125,130732,1,8,0:2:0:0:
431,286,130899,1,2,3:2:0:0:
275,126,131066,6,0,P|239:197|274:255,1,150,0|0,3:3|0:0,0:0:0:0:
258,332,131399,6,0,B|193:323|212:273|143:265|143:265|103:287|89:324|89:324|118:306|166:331,1,259.999988098145,4|0,3:2|0:0,0:0:0:0:
415,316,131899,6,0,B|425:304|455:322|455:322|441:284|399:261|399:261|328:270|348:321|281:330,1,269.999991760254,4|0,3:2|0:0,0:0:0:0:
203,86,132565,6,0,B|199:63|169:46|169:46|106:99|34:96,1,200,4|0,3:2|0:0,0:0:0:0:
301,89,133065,2,0,B|305:66|334:49|334:49|397:102|469:99,1,200,4|0,3:2|3:3,0:0:0:0:
253,17,133565,5,10,0:2:0:0:
253,17,133898,6,0,P|255:93|244:183,1,139.999995727539,4|0,3:2|0:0,0:0:0:0:
451,199,134231,2,0,P|375:201|285:190,1,139.999995727539,2|0,3:2|0:0,0:0:0:0:
241,371,134564,2,0,P|239:295|250:205,1,139.999995727539,2|0,3:2|0:0,0:0:0:0:
43,189,134897,2,0,P|119:187|209:198,1,139.999995727539,2|0,3:2|0:0,0:0:0:0:
445,28,135231,6,0,P|400:69|315:119,1,139.999995727539,2|0,3:2|0:0,0:0:0:0:
445,356,135564,2,0,P|400:314|315:265,1,139.999995727539,2|0,3:2|0:0,0:0:0:0:
67,28,135898,2,0,P|111:69|197:119,1,139.999995727539,4|0,3:2|0:0,0:0:0:0:
67,356,136231,2,0,P|111:314|197:265,1,139.999995727539,2|0,3:2|0:0,0:0:0:0:
499,195,136564,6,0,B|357:217|366:154|219:190,1,279.999991455078,4|2,3:2|3:2,0:0:0:0:
442,98,137064,1,8,0:2:0:0:
483,324,137231,2,0,P|444:346|367:294,1,139.999995727539,2|0,3:2|0:0,0:0:0:0:
29,324,137564,2,0,P|68:346|145:294,1,139.999995727539,2|8,3:2|0:2,0:0:0:0:
256,125,137898,5,2,3:2:0:0:
255,277,138064,1,0,3:3:0:0:
96,186,138231,1,8,0:2:0:0:
267,110,138398,1,0,3:3:0:0:
69,33,138564,1,8,0:2:0:0:
278,97,138731,1,8,0:2:0:0:
430,35,138898,5,2,3:2:0:0:
473,47,138981,1,8,0:2:0:0:
443,79,139064,1,8,0:2:0:0:
408,62,139148,1,8,0:2:0:0:
431,56,139231,6,0,P|443:125|431:176,1,100,4|8,3:2|0:2,0:0:0:0:
425,340,139564,1,2,0:2:0:0:
333,221,139731,1,0,3:3:0:0:
431,355,139898,2,0,P|443:306|438:257,1,100,10|0,0:2|3:3,0:0:0:0:
224,232,140231,1,2,3:2:0:0:
328,130,140398,1,8,0:2:0:0:
276,337,140564,6,0,L|173:337,1,100,2|0,0:2|3:3,0:0:0:0:
24,189,140898,1,10,0:2:0:0:
138,250,141064,1,0,3:3:0:0:
20,324,141231,1,2,3:2:0:0:
0,185,141398,2,0,P|-3:145|12:84,1,100,8|2,0:2|0:2,0:0:0:0:
209,14,141731,1,0,3:3:0:0:
131,96,141898,5,10,0:2:0:0:
266,192,142064,1,0,3:3:0:0:
373,81,142231,1,2,3:2:0:0:
145,92,142398,1,8,0:2:0:0:
393,97,142564,2,0,P|432:96|504:101,1,100,2|0,0:2|3:3,0:0:0:0:
242,313,142898,2,0,P|241:266|252:191,1,100,10|8,0:2|0:2,0:0:0:0:
473,364,143231,5,4,3:2:0:0:
366,185,143398,1,8,0:2:0:0:
158,348,143564,1,4,3:2:0:0:
80,186,143731,1,8,0:2:0:0:
81,205,143814,1,8,0:2:0:0:
82,225,143898,5,0,3:3:0:0:
162,121,144064,1,0,3:3:0:0:
56,53,144231,1,4,0:3:0:0:
314,24,144398,1,0,3:3:0:0:
301,38,144481,1,0,3:0:0:0:
287,52,144565,6,0,B|245:149|322:148|279:257,1,200,2|2,3:2|3:3,0:0:0:0:
367,105,145065,1,0,3:3:0:0:
199,195,145231,1,2,0:3:0:0:
389,110,145398,1,0,3:3:0:0:
467,222,145565,2,0,L|464:334,1,100,2|0,3:2|0:0,0:0:0:0:
453,338,145815,1,0,3:3:0:0:
442,355,145898,5,2,0:3:0:0:
333,276,146065,1,0,3:3:0:0:
255,364,146231,1,2,3:3:0:0:
163,276,146398,1,0,3:3:0:0:
352,276,146565,1,2,0:3:0:0:
257,202,146731,1,0,3:3:0:0:
233,375,146898,1,2,0:3:0:0:
161,292,147065,1,0,3:3:0:0:
414,221,147231,6,0,L|472:222,1,52.4999983978272,2|0,0:2|0:0,0:0:0:0:
487,239,147565,5,2,3:2:0:0:
304,135,147731,1,8,0:2:0:0:
233,109,147815,1,0,3:0:0:0:
177,159,147898,2,0,P|174:182|180:224,1,50,0|0,3:3|3:3,0:0:0:0:
387,133,148065,1,8,0:2:0:0:
413,62,148149,1,8,3:2:0:0:
363,6,148231,6,0,L|320:5,1,37.5,2|0,0:2|0:0,0:0:0:0:
346,27,148565,6,0,P|238:23|137:36,1,200,4|0,3:2|3:3,0:0:0:0:
31,170,149065,1,0,3:3:0:0:
54,40,149231,2,0,L|53:155,1,100,8|0,0:2|0:0,0:0:0:0:
80,310,149565,1,2,3:2:0:0:
195,186,149731,2,0,P|238:183|306:190,1,100,8|2,0:2|0:2,0:0:0:0:
422,333,150065,1,0,3:3:0:0:
400,326,150148,1,0,3:3:0:0:
386,309,150231,2,0,B|359:233|414:235|391:161,1,150,8|0,0:2|0:0,0:0:0:0:
373,154,150565,6,0,P|367:234|295:183,1,200,2|2,3:2|0:2,0:0:0:0:
329,27,151065,1,0,3:3:0:0:
191,118,151231,2,0,L|82:117,1,100,10|0,0:2|0:0,0:0:0:0:
34,345,151565,5,2,3:2:0:0:
108,210,151731,1,8,0:2:0:0:
138,314,151898,1,0,3:3:0:0:
4,241,152065,1,0,3:3:0:0:
228,235,152231,1,8,0:2:0:0:
274,271,152315,1,0,3:0:0:0:
232,310,152398,1,0,3:3:0:0:
252,329,152481,1,0,3:3:0:0:
244,343,152565,6,0,P|256:269|357:308,1,200,4|0,3:2|3:3,0:0:0:0:
512,332,153065,1,0,3:3:0:0:
405,158,153231,2,0,P|404:207|436:248,1,100,8|0,0:2|0:0,0:0:0:0:
487,67,153565,5,2,3:2:0:0:
376,20,153731,2,0,L|258:32,1,100,8|2,0:2|0:2,0:0:0:0:
180,174,154065,1,0,3:3:0:0:
114,32,154231,1,8,0:2:0:0:
193,81,154398,1,0,3:3:0:0:
33,237,154565,5,4,3:2:0:0:
92,157,154676,5,8,0:2:0:0:
180,174,154787,5,8,0:2:0:0:
180,253,154898,5,8,0:2:0:0:
159,274,155009,5,0,3:3:0:0:
150,305,155120,5,0,3:3:0:0:
161,323,155231,5,4,0:3:0:0:
208,342,155342,5,4,0:3:0:0:
279,308,155453,5,4,0:3:0:0:
307,225,155565,6,0,B|337:165|313:100|260:70|207:123|227:154|256:170,1,209.999993591309,4|0,3:2|0:0,0:0:0:0:
416,44,156898,5,2,0:0:0:0:
494,119,157065,1,0,0:0:0:0:
494,108,157148,1,0,0:0:0:0:
494,97,157231,1,2,0:0:0:0:
423,177,157398,5,0,0:0:0:0:
497,266,157565,1,2,0:0:0:0:
411,363,157731,1,2,0:0:0:0:
289,367,157898,6,0,L|225:361,1,52.4999983978272,2|0,0:0|0:0,0:0:0:0:
220,368,158231,5,0,3:3:0:0:
187,113,158398,2,0,B|210:97|228:58|228:58|222:125|231:257,1,225.000008583069,12|0,0:2|0:0,0:0:0:0:
161,297,158731,5,0,3:3:0:0:
151,308,158815,1,0,3:3:0:0:
139,317,158898,6,0,P|63:291|175:234,1,225.000008583069,12|0,0:2|0:0,0:0:0:0:
264,294,159231,1,0,3:3:0:0:
384,94,159398,6,0,B|375:124|351:138|351:138|276:149|185:111,1,225.000008583069,12|0,0:2|0:0,0:0:0:0:
33,33,159731,1,0,3:3:0:0:
114,273,159898,6,0,B|157:158|72:158|117:50,1,225.000008583069,12|0,0:2|0:0,0:0:0:0:
253,17,160231,5,10,0:2:0:0:
398,61,160398,1,8,0:2:0:0:
450,207,160565,1,8,0:2:0:0:
386,347,160731,1,8,0:2:0:0:
240,368,160898,1,8,0:2:0:0:
70,182,161065,6,0,P|162:261|35:297,1,284.999992389679,4|0,3:2|3:0,0:0:0:0:
89,251,161398,1,0,3:3:0:0:
257,12,161565,1,8,0:2:0:0:
321,108,161648,2,0,B|267:172|263:234|263:234|257:172|192:98,1,284.999992389679,4|0,3:2|3:3,0:0:0:0:
441,181,162065,5,8,0:2:0:0:
457,313,162148,2,0,P|349:259|442:182,1,284.999992389679,4|0,3:2|3:3,0:0:0:0:
180,274,162565,5,8,0:2:0:0:
259,68,162648,2,0,B|190:201|317:198|260:343,1,284.999992389679,4|0,3:2|3:3,0:0:0:0:
13,61,163009,5,8,0:2:0:0:
69,122,163120,5,8,0:2:0:0:
11,182,163231,5,8,0:2:0:0:
50,223,163342,5,8,0:2:0:0:
33,261,163453,5,8,0:2:0:0:
44,279,163565,6,0,P|133:236|385:277,1,300,4|0,3:2|0:0,0:0:0:0:
444,349,163898,5,8,0:2:0:0:
480,239,164064,1,8,0:2:0:0:
388,110,164231,1,8,0:2:0:0:
473,10,164398,6,0,L|470:96,1,75,8|0,0:2|0:0,0:0:0:0:
484,106,165231,5,2,3:2:0:0:
287,55,165397,1,8,0:2:0:0:
383,143,165564,1,8,0:2:0:0:
120,64,165731,1,0,3:3:0:0:
234,221,165897,5,0,3:3:0:0:
235,207,166231,5,0,3:3:0:0:
234,221,166731,5,0,3:3:0:0:
88,312,166897,2,0,P|164:313|228:364,1,150,10|0,0:2|0:0,0:0:0:0:
321,358,167563,5,0,0:0:0:0:
390,305,167729,5,0,0:0:0:0:
399,181,167896,5,0,0:0:0:0:
405,198,168563,5,8,0:2:0:0:
147,153,168730,1,0,3:3:0:0:
427,28,168897,6,0,L|413:31,2,15,2|0|0,3:2|3:3|3:3,0:0:0:0:
