osu file format v14

[General]
AudioFilename: audio.mp3
AudioLeadIn: 0
PreviewTime: 140789
Countdown: 1
SampleSet: Normal
StackLeniency: 0.7
Mode: 0
LetterboxInBreaks: 0
WidescreenStoryboard: 0

[Editor]
Bookmarks: 99410,125892
DistanceSpacing: 2.5
BeatDivisor: 4
GridSize: 4
TimelineZoom: 1.9

[Metadata]
Title:Od Kolyski az do Smierci (Extended Mix)
TitleUnicode:Od Kołyski aż do Śmierci (Extended Mix)
Artist:Clubbase
ArtistUnicode:Clubbase
Creator:PulseOfSk8
Version:PIER@#$%^ETY
Source:
Tags:
BeatmapID:1026605
BeatmapSetID:480929

[Difficulty]
HPDrainRate:7
CircleSize:4
OverallDifficulty:8
ApproachRate:8.8
SliderMultiplier:2
SliderTickRate:1

[Events]
//Background and Video events
0,0,"maxresdefault (1).jpg",0,0
//Break Periods
2,13551,19342
2,88240,98791
//Storyboard Layer 0 (Background)
//Storyboard Layer 1 (Fail)
//Storyboard Layer 2 (Pass)
//Storyboard Layer 3 (Foreground)
//Storyboard Sound Samples

[TimingPoints]
109.883714386418,413.793103448276,4,1,0,100,1,0
26582,-200,4,1,0,100,0,0
26682,-200,4,1,0,100,0,0
29892,-66.6666666666667,4,1,0,100,0,0
41479,-200,4,1,0,100,0,0
43134,-66.6666666666667,4,1,0,100,0,0
56375,-57.1428571428571,4,1,0,100,0,0
86178,-200,4,1,0,100,0,0
99410,-100,4,1,0,100,0,0
112661,-200,4,1,0,100,0,0
114523,-100,4,1,0,100,0,0
125902,-200,4,1,0,100,0,0
127971,-100,4,1,0,100,0,0
142030,-66.6666666666667,4,1,0,100,0,0

[HitObjects]
232,312,109,6,0,L|176:316,3,50
232,312,523,2,0,P|270:255|263:196,1,100
292,128,937,1,0,0:0:0:0:
292,128,1351,1,0,0:0:0:0:
292,128,1765,6,0,B|292:172|292:172|300:184|300:184|300:264,1,100
100,200,2178,2,0,B|100:156|100:156|92:144|92:144|92:64,1,100
228,236,2592,2,0,P|200:288|128:300,1,100
120,108,3006,2,0,P|168:72|232:72,1,100
208,196,3420,2,0,L|156:252,3,50
208,196,3834,2,0,P|255:153|316:151,1,100
340,292,4247,1,0,0:0:0:0:
340,292,4661,1,0,0:0:0:0:
340,292,5075,6,0,B|340:260|340:260|344:244|344:244|344:188,1,100
144,188,5489,2,0,B|144:220|144:220|140:236|140:236|140:287,1,100
256,136,5902,1,0,0:0:0:0:
68,200,6109,5,0,0:0:0:0:
68,200,6213,1,0,0:0:0:0:
68,200,6316,1,0,0:0:0:0:
8,64,6523,1,0,0:0:0:0:
112,84,6730,5,0,0:0:0:0:
144,106,6834,1,0,0:0:0:0:
172,135,6937,1,0,0:0:0:0:
196,167,7040,1,0,0:0:0:0:
216,202,7144,1,0,0:0:0:0:
421,98,7351,1,0,0:0:0:0:
360,288,7558,1,0,0:0:0:0:
360,288,7765,6,0,B|316:290|316:290|301:285|301:285|230:285,1,100
99,166,8178,1,0,0:0:0:0:
300,184,8385,2,0,B|344:182|344:182|359:187|359:187|430:187,1,100
216,268,8799,2,0,B|172:270|172:270|157:265|157:265|86:265,1,100
252,88,9213,6,0,B|296:90|296:90|311:85|311:85|382:85,1,100
176,184,9627,2,0,B|132:182|132:182|117:187|117:187|46:187,1,100
348,172,10040,5,0,0:0:0:0:
386,162,10144,1,0,0:0:0:0:
421,142,10247,1,0,0:0:0:0:
449,114,10351,1,0,0:0:0:0:
467,78,10454,1,0,0:0:0:0:
455,248,10661,1,0,0:0:0:0:
455,248,10868,6,0,P|384:283|325:266,1,100
184,192,11282,1,0,0:0:0:0:
368,112,11489,1,0,0:0:0:0:
284,292,11696,2,0,P|216:312|176:304,1,100
248,116,12109,2,0,P|304:100|368:112,1,100
184,224,12523,6,0,P|112:192|128:100,1,150
180,144,12937,2,0,P|252:176|236:268,1,150
208,300,13351,1,0,0:0:0:0:
256,192,19971,12,0,26385,0:0:0:0:
112,192,26592,6,0,B|168:192|168:192|212:144|212:144|244:236|244:236|280:192|280:192|368:192,1,350
354,192,28247,5,0,0:0:0:0:
440,280,28454,1,0,0:0:0:0:
320,312,28661,1,0,0:0:0:0:
354,192,28868,1,0,0:0:0:0:
344,68,29075,5,0,0:0:0:0:
240,136,29282,1,0,0:0:0:0:
356,188,29489,1,0,0:0:0:0:
136,83,29696,1,0,0:0:0:0:
136,83,29902,6,0,P|172:84|227:112,1,75.0000028610231
172,164,30109,2,0,P|253:157|284:68,1,150.000005722046
286,103,30523,1,0,0:0:0:0:
344,240,30730,2,0,B|328:260|328:260|356:288|344:336,1,75.0000028610231
344,240,30937,2,0,B|376:208|376:208|361:181|383:152,1,75.0000028610231
398,110,31144,2,0,B|306:94|290:194,1,150.000005722046
124,216,31558,6,0,B|80:208|40:252,1,75.0000028610231
112,288,31765,2,0,B|156:296|200:244,1,75.0000028610231
182,269,31971,1,0,0:0:0:0:
252,136,32178,1,0,0:0:0:0:
396,92,32385,6,0,L|471:92,1,75.0000028610231
444,164,32592,2,0,L|369:164,1,75.0000028610231
220,212,32799,2,0,P|192:256|336:280,1,225.000008583069
264,268,33213,6,0,P|236:292|176:304,1,75.0000028610231
124,296,33420,2,0,P|92:280|32:284,1,75.0000028610231
53,277,33627,1,0,0:0:0:0:
148,172,33834,1,0,0:0:0:0:
64,64,34040,1,0,0:0:0:0:
227,164,34247,6,0,P|264:163|300:176,1,75.0000028610231
300,176,34454,2,0,P|409:187|456:84,1,225.000008583069
352,84,34868,5,0,0:0:0:0:
204,104,35075,1,0,0:0:0:0:
328,188,35282,1,0,0:0:0:0:
184,228,35489,1,0,0:0:0:0:
260,260,35696,5,0,0:0:0:0:
128,188,35902,1,0,0:0:0:0:
256,108,36109,1,0,0:0:0:0:
288,256,36316,1,0,0:0:0:0:
98,120,36523,6,0,P|71:95|60:60,1,75.0000028610231
133,51,36730,2,0,P|160:76|172:112,1,75.0000028610231
148,184,36937,1,0,0:0:0:0:
56,300,37144,1,0,0:0:0:0:
280,308,37351,6,0,P|316:300|364:260,1,75.0000028610231
360,204,37558,2,0,P|323:211|292:231,1,75.0000028610231
220,256,37765,2,0,P|140:228|236:192,1,225.000008583069
218,172,38178,5,0,0:0:0:0:
308,288,38385,1,0,0:0:0:0:
376,152,38592,1,0,0:0:0:0:
280,284,38799,1,0,0:0:0:0:
180,164,39006,6,0,P|153:128|148:85,1,75.0000028610231
192,40,39213,2,0,P|221:80|208:152,1,75.0000028610231
260,172,39420,2,0,P|292:224|312:128,1,225.000008583069
323,130,39834,5,0,0:0:0:0:
144,324,40040,1,0,0:0:0:0:
144,324,40247,2,0,L|60:356,1,75.0000028610231
56,276,40454,2,0,L|126:249,1,75.0000028610231
136,140,40661,1,0,0:0:0:0:
136,140,40868,6,0,L|48:100,1,75.0000028610231
67,108,41075,2,0,P|44:200|112:308,1,225.000008583069
109,306,41489,6,0,P|101:278|120:232,1,75
164,220,41902,2,0,P|176:184|148:140,1,75
124,124,42316,2,0,P|132:84|164:56,1,75
232,44,42730,1,0,0:0:0:0:
232,44,42937,1,0,0:0:0:0:
84,48,43144,5,0,0:0:0:0:
316,288,43351,1,0,0:0:0:0:
240,212,43558,1,0,0:0:0:0:
240,212,43661,1,0,0:0:0:0:
240,212,43765,2,0,P|208:284|248:356,1,150.000005722046
234,345,44178,6,0,P|200:324|160:328,1,75.0000028610231
96,296,44385,2,0,P|32:256|104:140,1,225.000008583069
100,216,44799,6,0,P|152:192|160:152,1,75.0000028610231
200,116,45006,2,0,P|228:88|276:72,1,75.0000028610231
260,74,45213,1,0,0:0:0:0:
344,200,45420,1,0,0:0:0:0:
440,48,45627,6,0,L|440:140,1,75.0000028610231
440,200,45834,2,0,L|444:304,1,75.0000028610231
368,276,46040,2,0,L|364:40,1,225.000008583069
364,51,46454,5,0,0:0:0:0:
244,144,46661,1,0,0:0:0:0:
120,64,46868,1,0,0:0:0:0:
120,64,46971,1,0,0:0:0:0:
120,64,47075,2,0,P|96:148|24:180,1,150.000005722046
45,177,47489,6,0,P|81:197|137:237,1,75.0000028610231
64,288,47696,2,0,P|148:292|176:164,1,225.000008583069
252,148,48109,6,0,P|268:192|260:272,1,75.0000028610231
368,336,48316,2,0,P|352:292|360:212,1,75.0000028610231
349,264,48523,1,0,0:0:0:0:
424,136,48730,1,0,0:0:0:0:
108,68,48937,5,0,0:0:0:0:
108,68,49144,1,0,0:0:0:0:
324,276,49351,5,0,0:0:0:0:
172,280,49558,1,0,0:0:0:0:
347,130,49765,2,0,P|383:170|379:238,1,75.0000028610231
304,204,49971,2,0,P|268:164|272:96,1,75.0000028610231
262,144,50178,1,0,0:0:0:0:
170,282,50385,1,0,0:0:0:0:
32,196,50592,1,0,0:0:0:0:
170,282,50799,2,0,P|146:298|78:302,1,75.0000028610231
32,196,51006,2,0,P|64:176|168:288,1,225.000008583069
170,282,51420,5,0,0:0:0:0:
320,180,51627,1,0,0:0:0:0:
192,100,51834,1,0,0:0:0:0:
332,52,52040,1,0,0:0:0:0:
332,52,52247,6,0,P|344:96|404:136,1,75.0000028610231
440,120,52454,2,0,P|428:76|368:36,1,75.0000028610231
362,117,52661,2,0,P|286:129|254:5,1,225.000008583069
308,56,53075,6,0,L|244:120,1,75.0000028610231
200,164,53282,2,0,L|144:220,1,75.0000028610231
146,217,53489,1,0,0:0:0:0:
120,60,53696,1,0,0:0:0:0:
284,212,53902,1,0,0:0:0:0:
400,308,54109,6,0,P|372:332|320:336,1,75.0000028610231
332,256,54316,2,0,P|400:212|480:324,1,225.000008583069
485,301,54730,5,0,0:0:0:0:
480,152,54937,1,0,0:0:0:0:
348,224,55144,1,0,0:0:0:0:
485,301,55351,1,0,0:0:0:0:
400,152,55558,5,0,0:0:0:0:
192,52,55765,1,0,0:0:0:0:
212,276,55971,1,0,0:0:0:0:
400,152,56178,1,0,0:0:0:0:
176,84,56385,6,0,L|272:152,1,87.500000834465
240,228,56592,2,0,L|140:156,1,87.500000834465
168,176,56799,1,0,0:0:0:0:
324,180,57006,1,0,0:0:0:0:
88,76,57213,6,0,P|68:104|72:180,1,87.500000834465
148,136,57420,2,0,P|168:96|152:20,1,87.500000834465
256,88,57627,2,0,P|324:152|316:36,1,262.500002503395
326,39,58040,6,0,P|290:55|242:111,1,87.500000834465
244,176,58247,2,0,P|228:208|160:248,1,87.500000834465
160,156,58454,1,0,0:0:0:0:
280,288,58661,1,0,0:0:0:0:
124,336,58868,6,0,P|88:324|52:272,1,87.500000834465
52,200,59075,2,0,P|88:160|184:152,1,87.500000834465
148,228,59282,2,0,P|256:216|184:168,1,262.500002503395
144,232,59696,6,0,P|192:236|254:278,1,87.500000834465
284,320,59902,2,0,L|388:320,1,87.500000834465
376,208,60109,1,0,0:0:0:0:
256,128,60316,1,0,0:0:0:0:
432,124,60523,1,0,0:0:0:0:
432,124,60730,6,0,L|312:128,1,87.500000834465
256,128,60937,2,0,P|148:128|240:64,1,262.500002503395
213,50,61351,6,0,P|156:60|96:44,1,87.500000834465
76,128,61558,2,0,P|72:176|12:224,1,87.500000834465
112,268,61765,1,0,0:0:0:0:
260,172,61971,1,0,0:0:0:0:
380,300,62178,6,0,L|448:232,1,87.500000834465
356,216,62385,2,0,L|295:278,1,87.500000834465
252,156,62592,6,0,L|316:96,1,87.500000834465
232,72,62799,2,0,L|168:132,1,87.500000834465
96,268,63006,6,0,P|124:288|196:284,1,87.500000834465
157,199,63213,2,0,P|129:179|57:183,1,87.500000834465
78,175,63420,1,0,0:0:0:0:
240,104,63627,1,0,0:0:0:0:
372,220,63834,2,0,P|372:264|328:308,1,87.500000834465
290,236,64040,2,0,P|290:192|334:148,1,87.500000834465
408,144,64247,2,0,P|344:68|224:152,1,262.500002503395
120,280,64661,6,0,L|28:184,1,87.500000834465
88,132,64868,2,0,L|172:220,1,87.500000834465
148,195,65075,1,0,0:0:0:0:
284,304,65282,1,0,0:0:0:0:
388,164,65489,2,0,L|480:240,1,87.500000834465
436,306,65696,2,0,L|364:244,1,87.500000834465
304,192,65902,2,0,P|300:88|448:108,1,262.500002503395
360,132,66316,6,0,P|312:112|252:124,1,87.500000834465
200,156,66523,2,0,P|176:184|96:204,1,87.500000834465
120,116,66730,1,0,0:0:0:0:
224,256,66937,1,0,0:0:0:0:
364,152,67144,1,0,0:0:0:0:
208,161,67351,2,0,P|188:197|120:217,1,87.500000834465
128,304,67558,2,0,P|80:288|132:128,1,262.500002503395
119,128,67971,5,0,0:0:0:0:
276,48,68178,1,0,0:0:0:0:
356,204,68385,1,0,0:0:0:0:
200,280,68592,1,0,0:0:0:0:
119,128,68799,5,0,0:0:0:0:
200,280,69006,1,0,0:0:0:0:
356,204,69213,1,0,0:0:0:0:
256,60,69420,1,0,0:0:0:0:
256,60,69627,6,0,P|340:28|360:160,1,262.500002503395
360,159,70040,1,0,0:0:0:0:
236,284,70247,1,0,0:0:0:0:
232,288,70454,2,0,L|312:188,1,87.500000834465
344,152,70661,2,0,L|420:60,1,87.500000834465
316,52,70868,2,0,L|132:256,1,262.500002503395
140,246,71282,5,0,0:0:0:0:
116,72,71489,1,0,0:0:0:0:
280,136,71696,1,0,0:0:0:0:
140,288,71902,5,0,0:0:0:0:
140,288,72006,1,0,0:0:0:0:
140,288,72109,1,0,0:0:0:0:
120,116,72316,2,0,P|160:128|212:184,1,87.500000834465
260,216,72523,2,0,P|308:268|492:248,1,262.500002503395
485,254,72937,6,0,P|381:180|259:215,1,262.500002503395
259,215,73351,1,0,0:0:0:0:
380,88,73558,1,0,0:0:0:0:
208,112,73765,2,0,P|184:136|120:152,1,87.500000834465
144,64,73971,2,0,P|188:40|264:56,1,87.500000834465
268,68,74178,1,0,0:0:0:0:
291,114,74282,1,0,0:0:0:0:
327,152,74385,1,0,0:0:0:0:
373,177,74489,1,0,0:0:0:0:
408,212,74592,6,0,P|368:240|288:232,1,87.500000834465
240,248,74799,2,0,P|204:228|124:228,1,87.500000834465
158,221,75006,1,0,0:0:0:0:
80,88,75213,5,0,0:0:0:0:
80,88,75316,1,0,0:0:0:0:
80,88,75420,2,0,P|136:108|196:64,1,87.500000834465
322,75,75627,2,0,P|334:134|391:167,1,87.500000834465
352,152,75834,2,0,B|352:240,1,87.500000834465
277,280,76040,2,0,L|277:193,1,87.500000834465
277,280,76247,6,0,P|158:317|221:204,1,262.500002503395
162,221,76661,1,0,0:0:0:0:
276,88,76868,1,0,0:0:0:0:
396,168,77075,6,0,P|412:204|400:280,1,87.500000834465
328,220,77282,2,0,P|316:160|360:88,1,87.500000834465
396,88,77489,2,0,P|392:168|236:128,1,262.500002503395
245,162,77902,5,0,0:0:0:0:
104,60,78109,1,0,0:0:0:0:
104,60,78316,1,0,0:0:0:0:
64,320,78523,5,0,0:0:0:0:
64,320,78627,1,0,0:0:0:0:
64,320,78730,1,0,0:0:0:0:
224,252,78937,1,0,0:0:0:0:
68,172,79144,2,0,B|96:192|128:160|128:160|148:180|148:180|228:112|308:188,1,262.500002503395
300,276,79558,6,0,P|220:232|272:80,1,262.500002503395
263,79,79971,1,0,0:0:0:0:
92,52,80178,1,0,0:0:0:0:
96,228,80385,6,0,P|140:224|212:272,1,87.500000834465
248,292,80592,2,0,P|288:296|340:264,1,87.500000834465
368,240,80799,1,0,0:0:0:0:
415,219,80902,1,0,0:0:0:0:
467,226,81006,1,0,0:0:0:0:
509,256,81109,1,0,0:0:0:0:
512,296,81213,1,0,0:0:0:0:
400,132,81420,5,0,0:0:0:0:
400,132,81627,1,0,0:0:0:0:
228,92,81834,2,0,L|136:48,2,87.500000834465
116,224,82247,1,0,0:0:0:0:
292,236,82454,1,0,0:0:0:0:
140,148,82661,1,0,0:0:0:0:
400,64,82868,5,0,0:0:0:0:
400,64,83075,1,0,0:0:0:0:
100,72,83282,5,0,0:0:0:0:
100,72,83489,1,0,0:0:0:0:
384,296,83696,5,0,0:0:0:0:
384,296,83902,1,0,0:0:0:0:
96,296,84109,5,0,0:0:0:0:
96,296,84316,1,0,0:0:0:0:
256,188,84523,5,0,0:0:0:0:
256,188,84730,1,0,0:0:0:0:
412,264,84937,6,0,P|452:180|388:100,1,175.00000166893
100,120,85351,2,0,P|60:204|124:284,1,175.00000166893
256,196,85765,2,0,P|316:128|264:56,1,175.00000166893
148,144,86178,2,0,P|130:214|386:226,1,450
96,96,99420,6,0,P|148:144|208:148,1,100
333,150,99834,2,0,P|379:133|412:96,1,100
256,48,100247,1,0,0:0:0:0:
256,148,100454,1,0,0:0:0:0:
256,248,100661,1,0,0:0:0:0:
256,96,100868,1,0,0:0:0:0:
256,256,101075,6,0,L|256:368,1,100
256,180,101489,2,0,L|256:60,1,100
344,128,101902,5,0,0:0:0:0:
348,228,102109,1,0,0:0:0:0:
164,228,102316,5,0,0:0:0:0:
168,128,102523,1,0,0:0:0:0:
292,256,102730,6,0,P|380:264|424:232,1,100
304,136,103144,2,0,P|216:151|182:193,1,100
128,284,103558,6,0,P|78:285|34:263,1,100
115,163,103972,2,0,P|162:147|210:156,1,100
376,232,104385,6,0,L|376:332,1,100
284,212,104799,2,0,L|284:100,1,100
284,212,105213,5,0,0:0:0:0:
284,312,105420,1,0,0:0:0:0:
284,132,105627,1,0,0:0:0:0:
280,32,105834,1,0,0:0:0:0:
172,268,106040,5,0,0:0:0:0:
172,268,106247,2,0,P|129:231|82:223,2,100,0|0|0,0:0|0:0|2:0,2:0:0:0:
256,320,106868,1,0,0:0:0:0:
340,268,107075,2,0,P|382:231|429:223,2,100,0|0|0,0:0|0:0|2:0,2:0:0:0:
256,320,107696,1,0,0:0:0:0:
176,224,107902,6,0,L|76:164,1,100
90,172,108316,1,0,0:0:0:0:
336,224,108523,2,0,L|436:164,1,100
422,172,108937,1,0,0:0:0:0:
256,128,109144,1,0,0:0:0:0:
104,312,109351,6,0,P|71:274|64:225,1,100
112,84,109765,2,0,P|148:116|162:164,1,100
152,264,110178,1,0,0:0:0:0:
64,216,110385,1,0,0:0:0:0:
152,168,110592,1,0,0:0:0:0:
232,228,110799,1,0,0:0:0:0:
292,308,111006,6,0,P|360:316|400:300,1,100
488,192,111420,2,0,P|428:168|380:176,1,100
312,228,111834,1,0,0:0:0:0:
380,300,112040,1,0,0:0:0:0:
392,200,112247,1,0,0:0:0:0:
328,124,112454,1,0,0:0:0:0:
72,192,112661,6,0,B|132:192|132:192|212:120|212:120|244:244|244:244|308:192|308:192|400:192,1,450
379,192,114730,5,0,0:0:0:0:
296,68,114937,1,0,0:0:0:0:
212,192,115144,1,0,0:0:0:0:
379,192,115351,1,0,0:0:0:0:
296,68,115558,1,0,0:0:0:0:
104,296,115971,5,0,0:0:0:0:
40,220,116178,1,0,0:0:0:0:
164,132,116385,1,0,0:0:0:0:
236,200,116592,1,0,0:0:0:0:
140,224,116799,5,0,0:0:0:0:
28,128,117006,1,0,0:0:0:0:
156,48,117213,2,0,L|288:156,1,150
272,142,117627,5,0,0:0:0:0:
376,36,117834,1,0,0:0:0:0:
448,168,118040,1,0,0:0:0:0:
376,36,118247,1,0,0:0:0:0:
328,180,118454,5,0,0:0:0:0:
432,288,118661,1,0,0:0:0:0:
284,272,118868,2,0,P|240:232|240:124,1,150
230,145,119282,6,0,P|172:140|132:100,1,100
220,232,119696,2,0,P|272:244|324:292,1,100
184,344,120109,2,0,P|125:314|103:267,2,100
212,196,120730,1,0,0:0:0:0:
312,68,120937,5,0,0:0:0:0:
324,168,121144,1,0,0:0:0:0:
232,124,121351,1,0,0:0:0:0:
312,68,121558,1,0,0:0:0:0:
256,208,121765,5,0,0:0:0:0:
232,40,121971,1,0,0:0:0:0:
392,120,122178,1,0,0:0:0:0:
256,208,122385,1,0,0:0:0:0:
80,84,122592,5,0,0:0:0:0:
256,208,123420,1,0,0:0:0:0:
408,328,124247,1,0,0:0:0:0:
240,360,125902,6,0,B|152:356|132:252|248:176|248:176|200:176|200:176|276:96|248:20|160:32,1,500
256,80,129213,5,0,0:0:0:0:
256,100,129627,1,0,0:0:0:0:
256,120,130040,1,0,0:0:0:0:
256,140,130454,1,0,0:0:0:0:
132,296,130868,5,0,0:0:0:0:
132,276,131282,1,0,0:0:0:0:
132,256,131696,1,0,0:0:0:0:
132,236,132109,1,0,0:0:0:0:
316,156,132523,5,0,0:0:0:0:
316,176,132937,1,0,0:0:0:0:
316,196,133351,1,0,0:0:0:0:
316,216,133765,1,0,0:0:0:0:
136,164,134178,5,0,0:0:0:0:
136,144,134592,1,0,0:0:0:0:
136,124,135006,1,0,0:0:0:0:
136,104,135420,1,0,0:0:0:0:
412,260,135834,5,0,0:0:0:0:
328,208,136040,2,0,L|328:88,1,100
252,44,136454,1,0,0:0:0:0:
328,208,136661,6,0,L|328:320,1,100
240,352,137075,1,0,0:0:0:0:
164,288,137282,1,0,0:0:0:0:
240,124,137489,6,0,L|336:48,1,100
384,136,137902,2,0,L|296:212,1,100
148,140,138316,1,0,0:0:0:0:
224,76,138523,1,0,0:0:0:0:
352,208,138730,1,0,0:0:0:0:
284,280,138937,1,0,0:0:0:0:
224,76,139144,5,0,0:0:0:0:
312,28,139351,1,0,0:0:0:0:
284,280,139558,1,0,0:0:0:0:
208,344,139765,1,0,0:0:0:0:
304,104,139971,5,0,0:0:0:0:
388,156,140178,1,0,0:0:0:0:
212,268,140385,1,0,0:0:0:0:
128,216,140592,1,0,0:0:0:0:
392,156,140799,5,0,0:0:0:0:
36,304,142040,5,0,0:0:0:0:
36,304,142247,1,0,0:0:0:0:
36,304,142454,2,0,B|80:304|80:304|128:340|128:340|160:256|160:256|204:304|204:304|316:304,1,300.000011444092
140,140,143075,6,0,P|52:164|-24:72,1,150.000005722046
208,40,143489,2,0,P|236:68|248:140,1,75.0000028610231
200,204,143696,2,0,P|272:256|332:144,1,225.000008583069
372,60,144109,1,0,0:0:0:0:
200,204,144316,1,0,0:0:0:0:
412,276,144523,1,0,0:0:0:0:
372,56,144730,5,0,0:0:0:0:
248,200,144937,1,0,0:0:0:0:
196,256,145040,1,0,0:0:0:0:
144,312,145144,1,0,0:0:0:0:
144,312,145351,6,0,L|224:224,1,75.0000028610231
248,200,145558,2,0,L|360:80,1,150.000005722046
200,80,145971,1,0,0:0:0:0:
92,184,146178,1,0,0:0:0:0:
68,48,146385,6,0,L|172:156,1,150.000005722046
312,216,146799,2,0,P|332:180|324:120,1,75.0000028610231
404,120,147006,2,0,P|408:204|296:304,1,225.000008583069
314,299,147420,1,0,0:0:0:0:
228,180,147627,1,0,0:0:0:0:
132,296,147834,1,0,0:0:0:0:
224,148,148040,1,0,0:0:0:0:
228,296,148247,5,0,0:0:0:0:
228,220,148351,1,0,0:0:0:0:
224,148,148454,1,0,0:0:0:0:
224,148,148661,6,0,L|224:40,1,75.0000028610231
224,73,148868,2,0,L|224:256,1,150.000005722046
68,272,149282,5,0,0:0:0:0:
316,168,149489,1,0,0:0:0:0:
180,148,149696,2,0,P|175:229|260:283,1,150.000005722046
444,276,150109,2,0,L|344:276,1,75.0000028610231
220,276,150316,2,0,L|476:276,1,225.000008583069
445,276,150730,1,0,0:0:0:0:
308,44,150937,1,0,0:0:0:0:
160,260,151144,1,0,0:0:0:0:
268,104,151351,1,0,0:0:0:0:
112,328,151558,5,0,0:0:0:0:
156,268,151661,1,0,0:0:0:0:
200,208,151765,1,0,0:0:0:0:
276,76,151971,2,0,L|228:152,1,75.0000028610231
156,268,152178,2,0,L|240:136,1,150.000005722046
448,56,152592,5,0,0:0:0:0:
448,280,152799,1,0,0:0:0:0:
260,156,153006,2,0,L|183:26,1,150.000005722046
256,88,153420,2,0,P|248:123|267:173,1,75.0000028610231
328,216,153627,2,0,P|364:276|248:344,1,225.000008583069
280,276,154040,5,0,0:0:0:0:
100,140,154247,1,0,0:0:0:0:
196,208,154454,5,0,0:0:0:0:
380,340,154661,1,0,0:0:0:0:
292,272,154868,5,0,0:0:0:0:
112,136,155075,1,0,0:0:0:0:
328,72,155282,1,0,0:0:0:0:
272,292,155489,1,0,0:0:0:0:
112,136,155696,2,0,L|268:84,1,150.000005722046
