osu file format v14

[General]
AudioFilename: audio.mp3
AudioLeadIn: 0
PreviewTime: 25399
Countdown: 0
SampleSet: Normal
StackLeniency: 0.7
Mode: 0
LetterboxInBreaks: 0
WidescreenStoryboard: 0

[Editor]
Bookmarks: 1493,2430,2805,4492,6180,6742,7117,7492,8430,8805,9555,10492,11055,11617,12180,12742,13117,22492,23055,23617,24180,32992,34492,36742,37961
DistanceSpacing: 2
BeatDivisor: 4
GridSize: 8
TimelineZoom: 1

[Metadata]
Title:Madokapop (3k)
TitleUnicode:Madokapop (3k)
Artist:Club2Tokyo
ArtistUnicode:❀Club2Tokyo❀
Creator:ANIMELORD9999
Version:MegaPop
Source:
Tags:
BeatmapID:1728401
BeatmapSetID:824818

[Difficulty]
HPDrainRate:3
CircleSize:4
OverallDifficulty:6
ApproachRate:9
SliderMultiplier:1.00000000596046
SliderTickRate:1

[Events]
//Background and Video events
0,0,"bicycle-wallpaper-girls-albums-vehicles.jpg",0,0
//Break Periods
//Storyboard Layer 0 (Background)
//Storyboard Layer 1 (Fail)
//Storyboard Layer 2 (Pass)
//Storyboard Layer 3 (Foreground)
//Storyboard Sound Samples

[TimingPoints]
1493,374.998190892078,4,1,0,19,1,0
25399,-66.6666666666667,4,1,0,19,0,0
29242,-33.3333333333333,4,1,0,19,0,0
32242,-40,4,1,0,19,0,0
32899,-33.3333333333333,4,1,0,19,0,0
33742,-25,4,1,0,19,0,0
38805,-25,4,1,0,19,0,0
39742,-25,4,1,0,19,0,0
43492,374.998190892078,4,1,0,19,1,0
43492,-33.3333333333333,4,1,0,19,0,0
60366,-50,4,1,0,19,0,0
60741,-25,4,1,0,19,0,0
67491,-100,4,1,0,19,0,0

[HitObjects]
121,196,1493,6,0,L|125:192,1,6.25000003725287,0|8,2:0|0:0,0:0:0:0:
192,232,1867,1,0,0:0:0:0:
256,260,2242,1,0,0:0:0:0:
168,72,2430,6,0,L|164:76,1,6.25000003725287,0|0,2:0|0:0,0:0:0:0:
240,112,2805,2,0,L|236:116,1,6.25000003725287,0|8,2:0|0:0,0:0:0:0:
307,156,3180,2,0,P|351:152|327:184,2,100.000000596046
264,208,4258,5,0,0:0:0:0:
343,309,4492,2,0,L|339:313,1,6.25000003725287,0|8,2:0|0:0,0:0:0:0:
208,300,4867,1,0,0:0:0:0:
112,176,5242,1,0,0:0:0:0:
224,72,5430,1,0,0:0:0:0:
112,176,5617,1,0,0:0:0:0:
208,300,5805,1,0,0:0:0:0:
292,325,6180,2,0,L|296:329,1,6.25000003725287,0|8,2:0|0:0,0:0:0:0:
384,320,6555,5,0,0:0:0:0:
256,192,6742,2,0,L|260:196,1,6.25000003725287,0|8,2:0|0:0,0:0:0:0:
384,192,6930,1,0,0:0:0:0:
256,192,7117,2,0,L|260:196,1,6.25000003725287,0|8,2:0|0:0,0:0:0:0:
384,64,7305,1,0,0:0:0:0:
252,184,7492,2,0,L|256:188,1,6.25000003725287,0|8,2:0|0:0,0:0:0:0:
384,288,8242,5,0,0:0:0:0:
256,188,8430,2,0,L|260:192,1,6.25000003725287,0|8,2:0|0:0,0:0:0:0:
384,224,8617,1,0,0:0:0:0:
256,192,8805,2,0,L|252:188,1,6.25000003725287,0|8,2:0|0:0,0:0:0:0:
384,160,8992,1,0,0:0:0:0:
256,192,9180,2,0,L|252:188,1,6.25000003725287,0|8,2:0|0:0,0:0:0:0:
384,96,9367,1,0,0:0:0:0:
256,192,9555,2,0,L|260:196,1,6.25000003725287,0|8,2:0|0:0,0:0:0:0:
128,192,9930,5,0,0:0:0:0:
384,192,10305,5,0,0:0:0:0:
256,192,10492,2,0,L|260:196,1,6.25000003725287,0|8,2:0|0:0,0:0:0:0:
192,128,10867,5,0,0:0:0:0:
252,184,11055,2,0,L|256:188,1,6.25000003725287,0|8,2:0|0:0,0:0:0:0:
192,256,11430,5,0,0:0:0:0:
252,184,11617,2,0,L|256:188,1,6.25000003725287,0|8,2:0|0:0,0:0:0:0:
320,256,11805,1,0,0:0:0:0:
256,192,12180,6,0,L|260:196,1,6.25000003725287,0|8,2:0|0:0,0:0:0:0:
256,192,12742,6,0,L|260:196,1,6.25000003725287,0|8,2:0|0:0,0:0:0:0:
256,192,13117,2,0,L|260:196,1,6.25000003725287,0|8,2:0|0:0,0:0:0:0:
72,56,13492,5,0,0:0:0:0:
88,120,13586,1,0,0:0:0:0:
104,176,13680,2,0,L|112:192,1,12.5000000745057
112,56,13867,5,0,0:0:0:0:
128,120,13961,1,0,0:0:0:0:
144,176,14055,2,0,L|152:192,1,12.5000000745057
182,43,14430,5,0,0:0:0:0:
244,91,14617,1,0,0:0:0:0:
287,157,14805,5,0,0:0:0:0:
294,230,14899,1,0,0:0:0:0:
257,291,14992,1,0,0:0:0:0:
207,302,15086,1,0,0:0:0:0:
167,280,15180,1,0,0:0:0:0:
142,245,15274,1,0,0:0:0:0:
127,206,15367,1,0,0:0:0:0:
130,169,15461,1,0,0:0:0:0:
148,146,15555,1,0,0:0:0:0:
172,130,15649,1,0,0:0:0:0:
203,124,15742,1,0,0:0:0:0:
231,133,15836,1,0,0:0:0:0:
253,147,15930,1,0,0:0:0:0:
267,173,16024,1,0,0:0:0:0:
280,210,16117,2,0,L|291:247,1,25.0000001490115
105,84,16492,5,0,0:0:0:0:
112,89,16680,1,0,0:0:0:0:
120,95,16867,1,0,0:0:0:0:
159,124,16961,1,0,0:0:0:0:
199,153,17055,1,0,0:0:0:0:
401,59,17430,1,0,0:0:0:0:
440,56,17805,5,0,0:0:0:0:
424,120,17899,1,0,0:0:0:0:
408,176,17993,2,0,L|395:199,1,25.0000001490115
400,56,18180,5,0,0:0:0:0:
384,120,18274,1,0,0:0:0:0:
362,172,18367,1,0,0:0:0:0:
333,221,18461,1,0,0:0:0:0:
298,267,18555,1,0,0:0:0:0:
227,282,18649,1,0,0:0:0:0:
169,238,18742,1,0,0:0:0:0:
163,165,18836,1,0,0:0:0:0:
204,105,18930,1,0,0:0:0:0:
271,78,19024,1,0,0:0:0:0:
342,87,19117,1,0,0:0:0:0:
378,147,19211,1,0,0:0:0:0:
415,207,19305,2,0,L|429:244,1,25.0000001490115
460,53,19492,5,0,0:0:0:0:
444,117,19586,1,0,0:0:0:0:
427,173,19680,2,0,L|411:195,1,25.0000001490115
400,56,19867,5,0,0:0:0:0:
384,120,19961,1,0,0:0:0:0:
367,176,20055,2,0,L|351:198,1,25.0000001490115
303,30,20430,6,0,L|297:41,1,12.5000000745057
384,24,20805,5,0,0:0:0:0:
360,84,20899,1,0,0:0:0:0:
338,125,20992,1,0,0:0:0:0:
315,157,21086,1,0,0:0:0:0:
386,121,21180,5,0,0:0:0:0:
363,182,21274,1,0,0:0:0:0:
341,223,21367,1,0,0:0:0:0:
318,255,21461,1,0,0:0:0:0:
389,219,21555,5,0,0:0:0:0:
365,280,21649,1,0,0:0:0:0:
344,321,21742,1,0,0:0:0:0:
321,353,21836,1,0,0:0:0:0:
270,361,21930,1,0,0:0:0:0:
208,345,22024,1,0,0:0:0:0:
160,305,22117,1,0,0:0:0:0:
118,243,22211,1,0,0:0:0:0:
26,170,22492,5,0,0:0:0:0:
65,127,22586,1,0,0:0:0:0:
116,100,22680,1,0,0:0:0:0:
167,127,22774,1,0,0:0:0:0:
206,170,22867,1,0,0:0:0:0:
113,207,23055,5,0,0:0:0:0:
152,250,23148,1,0,0:0:0:0:
203,277,23242,1,0,0:0:0:0:
254,250,23336,1,0,0:0:0:0:
293,207,23430,1,0,0:0:0:0:
206,170,23617,5,0,0:0:0:0:
245,127,23710,1,0,0:0:0:0:
296,100,23804,1,0,0:0:0:0:
347,127,23898,1,0,0:0:0:0:
386,170,23992,1,0,0:0:0:0:
293,207,24180,5,0,0:0:0:0:
332,250,24273,1,0,0:0:0:0:
383,277,24367,1,0,0:0:0:0:
434,250,24461,1,0,0:0:0:0:
473,207,24555,1,0,0:0:0:0:
256,192,24742,12,0,25492,0:0:0:0:
137,195,25867,5,0,0:0:0:0:
237,83,26242,1,0,0:0:0:0:
137,195,26430,2,0,L|251:69,1,150.000006616115
237,83,27180,1,0,0:0:0:0:
237,83,27555,1,0,0:3:0:0:
294,133,27649,1,0,0:3:0:0:
349,183,27742,1,0,0:3:0:0:
249,295,28117,5,0,0:0:0:0:
249,295,28492,2,0,P|152:263|161:206,1,150.000006616115
151,153,29055,1,0,0:0:0:0:
151,153,29242,2,0,B|191:116|191:116|194:152|194:152|256:93|256:93,1,150.000000894069
151,153,29804,1,0,0:0:0:0:
297,87,30180,1,0,0:0:0:0:
151,153,30555,1,0,0:0:0:0:
151,153,30649,1,0,0:0:0:0:
151,153,30742,2,0,B|231:104|231:104|229:146|229:146|341:58|341:58|345:58,1,225.000009924173
176,176,31492,2,0,L|230:263,1,100.000000596046
336,176,31867,2,0,L|282:263,1,100.000000596046
122,164,32242,6,0,P|102:217|170:263,1,125.000000745057
390,164,32617,2,0,P|410:217|342:263,1,125.000000745057
69,118,32992,6,0,B|47:154|47:154|99:191|99:191|81:250,1,150.000006616115
443,118,33367,2,0,B|465:154|465:154|413:191|413:191|431:250,1,150.000006616115
60,48,33742,6,0,B|32:90|32:90|65:105|65:105|38:134|98:164|112:171|130:170|151:230,1,200.000001192092
452,48,34117,6,0,B|480:90|480:90|447:105|447:105|474:134|414:164|400:171|382:170|361:230,1,200.000001192092
300,239,34492,5,0,0:0:0:0:
256,280,34586,1,0,0:0:0:0:
200,304,34680,1,0,0:0:0:0:
139,300,34774,1,0,0:0:0:0:
90,264,34867,1,0,0:0:0:0:
61,211,34961,1,0,0:0:0:0:
55,151,35055,1,0,0:0:0:0:
82,97,35149,1,0,0:0:0:0:
134,69,35242,5,0,0:0:0:0:
192,56,35336,1,0,0:0:0:0:
251,64,35430,1,0,0:0:0:0:
310,69,35524,1,0,0:0:0:0:
368,56,35617,1,0,0:0:0:0:
425,72,35711,1,0,0:0:0:0:
440,130,35805,1,0,0:0:0:0:
455,188,35899,1,0,0:0:0:0:
455,247,35992,5,0,0:0:0:0:
426,300,36086,1,0,0:0:0:0:
366,337,36180,1,0,0:0:0:0:
296,343,36274,1,0,0:0:0:0:
228,325,36367,1,0,0:0:0:0:
178,275,36461,1,0,0:0:0:0:
160,196,36555,1,0,0:0:0:0:
207,131,36649,2,0,L|310:72,1,100.000000596046
380,31,37117,2,0,L|293:80,1,100.000000596046
88,224,37492,5,0,0:0:0:0:
185,143,37680,1,0,0:0:0:0:
257,109,37774,1,0,0:0:0:0:
329,141,37867,1,0,0:0:0:0:
426,222,38055,1,0,0:0:0:0:
426,222,38430,5,0,0:0:0:0:
329,289,38617,1,0,0:0:0:0:
426,222,38805,1,0,0:0:0:0:
337,141,39180,1,0,0:0:0:0:
337,141,39367,1,0,0:0:0:0:
199,50,39742,5,8,0:0:0:0:
206,82,39835,1,8,0:0:0:0:
215,117,39929,1,8,0:0:0:0:
224,150,40023,1,8,0:0:0:0:
269,162,40117,5,8,0:0:0:0:
260,196,40210,1,8,0:0:0:0:
251,229,40304,1,8,0:0:0:0:
241,263,40398,1,8,0:0:0:0:
120,344,40492,5,8,0:0:0:0:
63,207,40680,1,8,0:0:0:0:
63,207,40774,1,8,0:0:0:0:
63,207,40867,1,8,0:0:0:0:
120,344,41055,1,8,0:0:0:0:
63,207,41430,1,8,0:0:0:0:
120,344,41618,1,8,0:0:0:0:
63,207,41805,1,8,0:0:0:0:
63,207,42180,1,0,0:0:0:0:
63,207,42555,5,0,0:0:0:0:
87,181,42649,1,0,0:0:0:0:
118,166,42742,1,0,0:0:0:0:
129,199,42836,1,0,0:0:0:0:
139,232,42930,1,0,0:0:0:0:
149,265,43024,1,0,0:0:0:0:
118,172,43117,1,0,0:0:0:0:
152,270,43492,6,0,B|117:171|117:171|86:179|58:210,1,175.00000104308
84,142,44054,5,0,0:0:0:0:
365,332,44429,1,0,0:0:0:0:
249,13,44804,1,0,0:0:0:0:
156,340,45179,1,0,0:0:0:0:
423,130,45554,1,0,0:0:0:0:
84,142,45741,1,0,0:0:0:0:
256,192,46116,1,0,0:0:0:0:
288,264,46491,6,0,P|345:205|339:124,1,150.000006616115
328,64,46773,1,0,0:0:0:0:
199,282,47054,6,0,P|281:267|323:197,1,150.000006616115
347,141,47336,1,0,0:0:0:0:
117,247,47616,6,0,P|193:281|267:247,1,150.000006616115
253,260,48179,5,0,0:0:0:0:
347,141,48554,1,0,0:0:0:0:
253,260,48741,1,0,0:0:0:0:
253,260,48929,1,0,0:0:0:0:
253,260,49023,2,0,P|247:156|359:165,1,225.000009924173
51,88,49491,5,0,0:0:0:0:
98,156,49585,1,0,0:0:0:0:
129,197,49679,1,0,0:0:0:0:
207,88,49866,5,0,0:0:0:0:
160,156,49960,1,0,0:0:0:0:
129,197,50054,1,0,0:0:0:0:
207,88,50429,5,0,0:0:0:0:
129,197,50804,1,0,0:0:0:0:
49,90,51179,1,0,0:0:0:0:
129,197,51366,5,0,0:0:0:0:
149,224,51460,1,0,0:0:0:0:
184,252,51554,1,0,0:0:0:0:
223,271,51648,1,0,0:0:0:0:
267,276,51741,1,0,0:0:0:0:
312,272,51835,1,0,0:0:0:0:
352,251,51929,1,0,0:0:0:0:
371,210,52023,1,0,0:0:0:0:
355,168,52116,1,0,0:0:0:0:
309,167,52210,1,0,0:0:0:0:
277,198,52304,1,0,0:0:0:0:
258,239,52398,1,0,0:0:0:0:
240,279,52491,6,0,B|196:395|6:299|167:196|243:281,1,300.00001323223
239,274,53054,1,0,0:0:0:0:
239,274,53429,1,0,0:0:0:0:
125,290,53616,1,0,0:0:0:0:
239,274,53804,1,0,0:0:0:0:
239,274,54179,6,0,B|342:341|440:152|249:163|237:277,1,300.00001323223
236,269,54741,1,0,0:0:0:0:
236,269,55116,2,0,B|193:203|193:203|263:180|263:180|211:85|211:85,1,225.000009924173,0|0,0:0|2:0,0:0:0:0:
224,111,55491,1,0,0:0:0:0:
261,180,55585,1,0,0:0:0:0:
193,200,55679,1,0,0:0:0:0:
261,180,55866,1,0,0:0:0:0:
193,200,55960,1,0,0:0:0:0:
236,269,56054,1,0,0:0:0:0:
224,111,56429,1,0,0:0:0:0:
352,42,56804,1,0,0:0:0:0:
371,78,56897,1,0,0:0:0:0:
390,114,56991,1,0,0:0:0:0:
410,151,57085,1,0,0:0:0:0:
372,157,57178,1,0,0:0:0:0:
331,162,57272,1,0,0:0:0:0:
302,173,57366,1,0,0:0:0:0:
323,209,57460,1,0,0:0:0:0:
344,244,57553,1,0,0:0:0:0:
366,279,57647,1,0,0:0:0:0:
381,290,57741,2,0,L|446:338,1,75.0000033080576
302,173,58116,1,0,0:0:0:0:
187,225,58491,1,0,0:0:0:0:
358,122,58679,1,0,0:0:0:0:
358,122,58866,1,0,0:0:0:0:
126,259,59054,1,0,0:0:0:0:
358,122,59241,1,0,0:0:0:0:
358,122,59429,1,0,0:0:0:0:
69,293,59616,1,0,0:0:0:0:
146,243,59804,1,0,0:0:0:0:
146,243,60179,1,0,0:0:0:0:
146,243,60366,2,0,L|41:315,1,100.000000596046
63,299,60741,2,0,B|92:199|92:199|144:298|144:298|201:84|201:84,1,400.000002384184
308,289,61491,5,0,0:0:0:0:
395,170,61679,1,0,0:0:0:0:
406,292,61866,5,0,0:0:0:0:
248,139,62054,1,0,0:0:0:0:
119,266,62241,5,0,0:0:0:0:
330,218,62429,1,0,0:0:0:0:
138,107,62616,5,0,0:0:0:0:
240,255,62804,1,0,0:0:0:0:
291,285,62898,5,0,0:0:0:0:
324,235,62991,1,0,0:0:0:0:
348,179,63085,1,0,0:0:0:0:
398,211,63179,1,0,0:0:0:0:
446,246,63273,1,0,0:0:0:0:
426,302,63366,1,0,0:0:0:0:
388,348,63460,1,0,0:0:0:0:
334,319,63554,1,0,0:0:0:0:
291,285,63648,1,0,0:0:0:0:
247,244,63741,1,0,0:0:0:0:
204,201,63835,1,0,0:0:0:0:
160,242,63929,1,0,0:0:0:0:
119,286,64023,1,0,0:0:0:0:
161,328,64116,1,0,0:0:0:0:
222,368,64491,5,0,0:0:0:0:
291,285,64679,1,0,0:0:0:0:
204,201,64866,1,0,0:0:0:0:
388,348,65054,1,0,0:0:0:0:
119,286,65241,1,0,0:0:0:0:
446,246,65429,1,0,0:0:0:0:
388,348,65616,1,0,0:0:0:0:
156,106,65804,6,0,L|359:72,1,200.000001192092
156,106,66179,6,0,L|359:72,1,200.000001192092
156,106,66554,5,0,0:0:0:0:
353,72,66741,1,0,0:0:0:0:
396,140,67491,6,0,L|403:211,1,50.000000298023
311,86,67866,2,0,L|318:157,1,50.000000298023
201,86,68241,2,0,L|196:135,1,50.000000298023
116,140,68804,5,0,0:0:0:0:
148,101,68898,1,0,0:0:0:0:
194,84,68991,1,0,0:0:0:0:
243,78,69085,1,0,0:0:0:0:
292,84,69179,1,0,0:0:0:0:
340,96,69273,1,0,0:0:0:0:
387,110,69366,1,0,0:0:0:0:
429,136,69460,1,0,0:0:0:0:
448,182,69554,1,0,0:0:0:0:
455,231,69648,1,0,0:0:0:0:
428,272,69741,1,0,0:0:0:0:
389,304,69835,1,0,0:0:0:0:
341,319,69929,1,0,0:0:0:0:
290,320,70023,1,0,0:0:0:0:
240,316,70116,1,0,0:0:0:0:
191,303,70210,1,0,0:0:0:0:
149,274,70304,1,0,0:0:0:0:
185,239,70398,2,0,L|217:210,1,25.0000001490115
372,242,70866,5,0,0:0:0:0:
185,240,71053,1,0,0:0:0:0:
229,112,71429,5,0,0:0:0:0:
329,349,71616,1,0,0:0:0:0:
229,112,71804,1,0,0:0:0:0:
359,108,71991,1,0,0:0:0:0:
161,341,72179,1,0,0:0:0:0:
70,52,72366,1,0,0:0:0:0:
421,322,72554,1,0,0:0:0:0:
62,188,72741,1,0,0:0:0:0:
467,191,73116,1,0,0:0:0:0:
96,64,73491,1,0,0:0:0:0:
