osu file format v14

[General]
AudioFilename: audio.mp3
AudioLeadIn: 0
PreviewTime: 37141
Countdown: 0
SampleSet: None
StackLeniency: 0.7
Mode: 0
LetterboxInBreaks: 0
WidescreenStoryboard: 0

[Editor]
DistanceSpacing: 0.9
BeatDivisor: 6
GridSize: 16
TimelineZoom: 2.3

[Metadata]
Title:Sled Race Theme
TitleUnicode:Sled Race Theme
Artist:Club Penguin
ArtistUnicode:Club Penguin
Creator:sp00kem
Version:Members Only
Source:Club Penguin
Tags:disney
BeatmapID:1700105
BeatmapSetID:810301

[Difficulty]
HPDrainRate:5
CircleSize:4.3
OverallDifficulty:7
ApproachRate:9.6
SliderMultiplier:2.6
SliderTickRate:1

[Events]
//Background and Video events
0,0,"ski hill.png",0,0
//Break Periods
//Storyboard Layer 0 (Background)
//Storyboard Layer 1 (Fail)
//Storyboard Layer 2 (Pass)
//Storyboard Layer 3 (Foreground)
//Storyboard Sound Samples

[TimingPoints]
560,576.080690264467,4,3,0,40,1,0
39733,-66.6666666666667,4,3,0,40,0,0
42037,-76.9230769230769,4,3,0,40,0,0
45495,-76.9230769230769,4,3,0,40,0,0
46215,-76.9230769230769,4,3,0,40,0,0
53558,-76.9230769230769,4,3,0,40,0,0
55862,-76.9230769230769,4,3,0,40,0,1
63061,-76.9230769230769,4,3,0,40,0,0
65077,-76.9230769230769,4,3,0,40,0,1
73144,-76.9230769230769,4,3,0,40,0,0
74296,-71.4285714285714,4,3,0,40,0,1
83620,576.183076923078,4,3,0,40,1,0

[Colours]
Combo1 : 252,164,44
Combo2 : 38,168,217
Combo3 : 90,180,92
Combo4 : 255,255,255

[HitObjects]
489,129,560,6,0,B|412:187|380:104|301:155,1,195,4|0,0:0|0:0,0:0:0:0:
218,325,1136,2,0,L|207:174,1,130,8|0,0:0|0:0,0:0:0:0:
193,31,1568,5,0,0:0:0:0:
116,290,1856,1,0,0:0:0:0:
492,131,2144,5,0,0:0:0:0:
292,134,2288,1,8,0:0:0:0:
275,327,2576,6,0,P|314:358|343:362,1,65
512,266,2864,2,0,B|476:222|422:234|422:234|392:279|340:279,1,195,4|0,0:0|0:0,0:0:0:0:
331,52,3440,2,0,L|344:209,1,130,8|0,0:0|0:0,0:0:0:0:
360,372,3872,5,0,0:0:0:0:
226,136,4160,1,0,0:0:0:0:
290,273,4448,5,0,0:0:0:0:
350,78,4592,1,8,0:0:0:0:
54,90,4880,5,8,0:0:0:0:
104,286,5024,1,8,0:0:0:0:
258,131,5168,6,0,L|247:206,1,65,2|0,0:0|0:0,0:0:0:0:
340,66,5456,2,0,L|351:141,1,65,8|0,0:0|0:0,0:0:0:0:
458,197,5744,6,0,P|459:258|424:317,1,130,0|8,0:0|0:0,0:0:0:0:
241,259,6176,2,0,P|294:226|362:232,1,130
334,372,6608,5,8,0:0:0:0:
89,335,6752,1,0,0:0:0:0:
456,316,7184,5,8,0:0:0:0:
211,353,7328,1,0,0:0:0:0:
250,167,7472,6,0,L|261:242,1,65
170,114,7761,2,0,L|159:189,1,65,8|0,0:0|0:0,0:0:0:0:
35,236,8049,6,0,P|33:297|69:356,1,130,0|8,0:0|0:0,0:0:0:0:
241,241,8481,1,0,0:0:0:0:
90,47,8625,5,8,0:0:0:0:
312,83,8769,5,0,0:0:0:0:
257,91,8841,1,0,0:0:0:0:
201,99,8913,1,8,0:0:0:0:
432,149,9057,1,0,0:0:0:0:
299,345,9345,5,0,0:0:0:0:
198,115,9489,1,8,0:0:0:0:
152,300,9633,1,0,0:0:0:0:
379,226,9777,6,2,P|347:206|241:215,1,130,6|10,0:0|0:0,0:0:0:0:
301,325,10209,5,0,0:0:0:0:
188,113,10641,6,2,L|260:121,1,65,10|2,0:0|0:0,0:0:0:0:
98,202,10929,2,2,L|170:194,1,65
343,28,11217,2,2,P|275:9|209:45,1,130,10|2,0:0|0:0,0:0:0:0:
486,211,11793,6,2,L|414:203,1,65,10|2,0:0|0:0,0:0:0:0:
270,268,12081,2,2,L|334:260,1,65
370,112,12369,1,8,0:0:0:0:
345,357,12513,6,2,P|408:368|468:339,1,130
187,265,12945,1,8,0:0:0:0:
379,226,13089,1,0,0:0:0:0:
62,208,13377,5,0,0:0:0:0:
243,222,13521,1,8,0:0:0:0:
166,66,13665,1,0,0:0:0:0:
110,310,13809,6,2,P|174:304|252:343,1,130,2|10,0:0|0:0,0:0:0:0:
480,202,14241,2,2,B|440:192|440:192|392:200|392:200|346:188|346:188,1,130
435,304,14673,5,8,0:0:0:0:
394,19,14962,1,0,0:0:0:0:
291,275,15250,5,8,0:0:0:0:
326,105,15394,1,0,0:0:0:0:
217,355,15538,5,0,0:0:0:0:
185,136,15682,1,0,0:0:0:0:
31,253,15826,5,8,0:0:0:0:
218,277,15970,1,0,0:0:0:0:
406,112,16114,6,2,P|346:138|276:127,1,130,2|10,0:0|0:0,0:0:0:0:
96,223,16546,2,2,P|159:214|219:240,1,130
144,333,16978,5,8,0:0:0:0:
110,56,17266,1,0,0:0:0:0:
258,147,17554,5,8,0:0:0:0:
56,180,17698,1,0,0:0:0:0:
376,300,17842,5,0,0:0:0:0:
147,270,17986,1,0,0:0:0:0:
302,160,18130,5,8,0:0:0:0:
255,383,18274,1,0,0:0:0:0:
207,307,18562,5,0,0:0:0:0:
168,84,18706,1,8,0:0:0:0:
512,134,18994,6,2,P|450:109|385:115,1,130,6|10,0:0|0:0,0:0:0:0:
409,240,19426,1,0,0:0:0:0:
262,51,19858,5,8,0:0:0:0:
215,260,20002,1,0,0:0:0:0:
18,113,20290,5,0,0:0:0:0:
76,335,20434,1,8,0:0:0:0:
140,209,20578,1,0,0:0:0:0:
253,330,20722,6,2,P|282:344|321:344,1,65
368,129,21010,1,10,0:0:0:0:
512,262,21154,2,2,P|487:280|370:256,1,130
470,67,21586,5,8,0:0:0:0:
381,371,21874,1,0,0:0:0:0:
232,97,22163,5,8,0:0:0:0:
273,318,22307,1,0,0:0:0:0:
63,384,22595,5,0,0:0:0:0:
108,185,22739,1,8,0:0:0:0:
165,313,22883,1,0,0:0:0:0:
312,143,23027,6,2,B|278:127|278:127|242:138|242:138|207:127|207:127|165:131,1,130,2|10,0:0|0:0,0:0:0:0:
373,225,23459,2,2,P|408:180|401:91,1,130
238,28,23891,5,8,0:0:0:0:
256,192,24035,12,0,26771,0:0:0:0:
133,158,27059,5,0,0:0:0:0:
185,359,27203,1,0,0:0:0:0:
337,224,27347,1,8,0:0:0:0:
86,256,27491,1,0,0:0:0:0:
295,328,27779,5,0,0:0:0:0:
369,109,27923,1,8,0:0:0:0:
426,321,28067,1,0,0:0:0:0:
206,245,28211,6,0,P|241:198|330:188,1,130
233,336,28643,2,0,B|169:356|157:314|98:339,1,130
0,164,29075,2,0,P|51:198|120:192,1,130
198,14,29508,2,0,L|209:148,1,130,12|0,0:0|0:0,0:0:0:0:
226,346,29940,5,8,0:0:0:0:
386,122,30084,1,0,0:0:0:0:
167,232,30228,1,0,0:0:0:0:
436,370,30372,1,0,0:0:0:0:
444,50,30516,6,0,P|377:31|319:56,1,130
269,178,30948,2,0,B|324:183|324:183|338:169|338:169|392:175,1,130
179,120,31380,2,0,P|162:182|185:245,1,130
312,332,31812,2,0,L|177:342,1,130,12|0,0:0|0:0,0:0:0:0:
6,308,32244,5,8,0:0:0:0:
72,44,32388,1,0,0:0:0:0:
268,169,32532,5,0,0:0:0:0:
42,197,32676,1,0,0:0:0:0:
257,31,32820,6,0,P|326:22|385:57,1,130
315,250,33252,2,0,B|290:190|290:190|304:119,1,130
373,337,33684,2,0,P|311:354|248:331,1,130
170,197,34116,2,0,L|164:276,1,65,12|0,0:0|0:0,0:0:0:0:
312,189,34404,5,0,0:0:0:0:
62,236,34548,1,8,0:0:0:0:
433,323,34692,5,0,0:0:0:0:
210,290,34836,1,0,0:0:0:0:
349,110,34980,1,0,0:0:0:0:
238,384,35124,6,0,P|175:380|115:323,1,130
224,154,35556,2,0,B|235:215|235:215|210:241|213:279,1,130
143,84,35988,2,0,P|169:62|203:51,1,65
468,99,36277,5,12,0:0:0:0:
217,139,36421,1,0,0:0:0:0:
356,38,36709,1,8,0:0:0:0:
115,287,36997,5,0,0:0:0:0:
297,325,37141,1,10,0:0:0:0:
15,381,37285,1,0,0:0:0:0:
139,158,37429,6,2,B|186:138|199:185|265:162,1,130,6|10,0:0|0:0,0:0:0:0:
363,44,37861,2,0,B|374:114|374:114|348:142|354:183,1,130
455,176,38293,1,8,0:0:0:0:
230,122,38437,1,0,0:0:0:0:
358,307,38581,6,0,B|295:270|231:302,1,130,0|8,0:0|0:0,0:0:0:0:
136,340,39013,2,0,B|156:277|156:277|150:200,1,130
243,377,39445,5,8,0:0:0:0:
26,273,39589,1,0,0:0:0:0:
293,150,39733,6,2,B|387:141,2,65.0000024795533
130,225,40021,2,2,L|34:212,2,65.0000024795533,10|2|2,0:0|0:0|0:0,0:0:0:0:
231,319,40309,2,2,L|325:310,2,65.0000024795533
132,141,40597,5,10,0:0:0:0:
203,118,40693,1,2,0:0:0:0:
270,148,40789,1,2,0:0:0:0:
289,218,40885,5,2,0:0:0:0:
259,286,40981,1,2,0:0:0:0:
191,321,41077,1,2,0:0:0:0:
117,320,41173,1,10,0:0:0:0:
49,282,41269,1,2,0:0:0:0:
39,212,41365,1,2,0:0:0:0:
90,162,41461,5,2,0:0:0:0:
158,152,41557,1,2,0:0:0:0:
220,178,41653,1,2,0:0:0:0:
281,215,41749,1,10,0:0:0:0:
352,213,41845,1,2,0:0:0:0:
406,164,41941,1,2,0:0:0:0:
408,62,42037,6,2,P|351:42|245:86,1,168.999992263794,6|10,0:0|0:0,0:0:0:0:
296,369,42469,2,0,B|301:320|340:296|340:296|328:208,1,168.999992263794
134,321,42901,2,0,P|179:333|234:312,1,84.4999961318971,8|0,0:0|0:0,0:0:0:0:
196,133,43189,5,0,0:0:0:0:
69,372,43333,1,0,0:0:0:0:
42,176,43478,1,8,0:0:0:0:
266,238,43622,6,0,P|306:214|330:160,1,84.4999961318971
142,117,43910,1,0,0:0:0:0:
300,24,44054,2,0,L|292:120,1,84.4999961318971,8|0,0:0|0:0,0:0:0:0:
58,88,44342,6,0,P|83:59|215:64,1,168.999992263794,0|8,0:0|0:0,0:0:0:0:
143,289,44774,2,0,B|131:229|131:229|157:192|157:192|144:126,1,168.999992263794
196,365,45206,2,0,P|158:382|91:372,1,84.4999961318971,8|0,0:0|0:0,0:0:0:0:
300,346,45494,5,0,0:0:0:0:
35,266,45638,1,0,0:0:0:0:
236,167,45782,1,8,0:0:0:0:
18,81,45926,2,0,L|26:173,1,84.4999961318971
224,247,46214,5,0,0:0:0:0:
59,308,46358,6,0,P|18:284|-5:230,1,84.4999961318971,8|0,0:0|0:0,0:0:0:0:
298,300,46646,6,2,L|291:393,1,84.4999961318971,6|2,0:0|0:0,0:0:0:0:
389,133,46934,1,8,0:0:0:0:
209,244,47078,6,2,L|216:337,1,84.4999961318971
118,77,47366,1,8,0:0:0:0:
384,203,47510,6,2,L|377:296,1,84.4999961318971
475,36,47798,1,8,0:0:0:0:
115,186,47942,6,2,L|122:279,1,84.4999961318971
24,19,48230,1,8,0:0:0:0:
312,266,48374,6,2,B|405:259,1,84.4999961318971
160,346,48662,2,2,B|253:353,1,84.4999961318971,10|2,0:0|0:0,0:0:0:0:
76,124,48950,6,2,P|101:109|223:168,1,168.999992263794,14|2,0:0|0:0,0:0:0:0:
10,208,49382,2,2,P|-24:134|1:51,1,168.999992263794,10|2,0:0|0:0,0:0:0:0:
358,145,49814,6,2,B|364:217|364:217|388:241|388:241|393:315,1,168.999992263794,10|2,0:0|0:0,0:0:0:0:
277,82,50246,2,2,P|350:47|433:73,1,168.999992263794,10|2,0:0|0:0,0:0:0:0:
336,371,50679,6,2,P|291:371|251:344,1,84.4999961318971,10|2,0:0|0:0,0:0:0:0:
130,196,50967,2,2,P|175:196|215:223,1,84.4999961318971,10|2,0:0|0:0,0:0:0:0:
0,336,51255,1,14,0:0:0:0:
256,192,51399,12,0,53271,0:0:0:0:
125,22,53559,6,0,B|92:103|92:103|111:203,1,168.999992263794,0|8,0:0|0:0,0:0:0:0:
345,115,53990,2,0,P|285:56|205:58,1,168.999992263794
369,206,54422,2,0,P|408:185|434:145,1,84.4999961318971,8|0,0:0|0:0,0:0:0:0:
201,134,54710,5,0,0:0:0:0:
430,75,54854,1,0,0:0:0:0:
360,302,54998,1,8,0:0:0:0:
85,229,55142,6,0,P|26:289|28:369,1,168.999992263794
174,205,55574,2,0,P|152:166|113:142,1,84.4999961318971,8|0,0:0|0:0,0:0:0:0:
219,366,55862,5,6,0:0:0:0:
255,191,56006,1,0,0:0:0:0:
365,321,56150,5,8,0:0:0:0:
315,99,56294,1,0,0:0:0:0:
415,195,56438,5,0,0:0:0:0:
470,39,56582,1,0,0:0:0:0:
512,280,56726,2,0,B|458:294|458:294|401:277,1,84.4999961318971,8|0,0:0|0:0,0:0:0:0:
332,175,57015,5,0,0:0:0:0:
292,352,57159,1,0,0:0:0:0:
149,56,57303,5,8,0:0:0:0:
175,284,57447,1,0,0:0:0:0:
2,14,57591,5,0,0:0:0:0:
288,86,57735,1,0,0:0:0:0:
153,114,57879,2,0,P|130:177|156:244,1,126.749994197846,8|0,0:0|0:0,0:0:0:0:
197,285,58167,6,2,B|120:275|120:275|70:266|76:304|34:295,1,168.999992263794,6|10,0:0|0:0,0:0:0:0:
350,176,58599,2,2,B|426:166|426:166|476:157|470:195|512:186,1,168.999992263794,2|10,0:0|0:0,0:0:0:0:
270,227,59031,2,2,P|255:178|264:133,1,84.4999961318971
468,84,59319,5,8,0:0:0:0:
437,315,59463,1,2,0:0:0:0:
299,180,59607,5,0,0:0:0:0:
324,368,59751,1,8,0:0:0:0:
166,120,59895,5,2,0:0:0:0:
112,331,60040,1,0,0:0:0:0:
0,48,60184,2,2,B|61:6|132:34,1,126.749994197846,10|2,0:0|0:0,0:0:0:0:
182,68,60472,5,12,0:0:0:0:
256,192,60616,12,0,62488,0:0:0:0:
1,339,62776,5,0,0:0:0:0:
251,291,62917,1,0,0:0:0:0:
56,232,63061,2,0,P|52:185|84:125,1,84.4999961318971,8|0,0:0|0:0,0:0:0:0:
106,315,63349,5,0,0:0:0:0:
167,102,63493,1,0,0:0:0:0:
254,217,63637,2,0,L|153:206,1,84.4999961318971,8|0,0:0|0:0,0:0:0:0:
358,338,63925,2,0,L|256:349,1,84.4999961318971,8|0,0:0|0:0,0:0:0:0:
150,363,64213,5,0,0:0:0:0:
411,177,64357,2,0,B|405:252|405:252|449:282|454:331,1,168.999992263794,8|0,0:0|0:0,0:0:0:0:
351,104,64789,2,0,P|392:84|460:97,1,84.4999961318971,8|0,0:0|0:0,0:0:0:0:
248,76,65077,5,6,0:0:0:0:
496,116,65221,1,0,0:0:0:0:
284,210,65365,2,0,L|295:304,1,84.4999961318971,8|0,0:0|0:0,0:0:0:0:
392,162,65653,5,0,0:0:0:0:
140,247,65797,1,0,0:0:0:0:
402,301,65941,2,0,L|391:395,1,84.4999961318971,8|0,0:0|0:0,0:0:0:0:
64,330,66230,5,0,0:0:0:0:
318,302,66374,1,0,0:0:0:0:
205,178,66518,5,8,0:0:0:0:
438,205,66662,1,0,0:0:0:0:
91,129,66806,5,0,0:0:0:0:
290,74,66950,1,0,0:0:0:0:
10,25,67094,2,0,L|-1:119,1,84.4999961318971,8|0,0:0|0:0,0:0:0:0:
257,170,67382,6,2,P|200:144|105:202,1,168.999992263794,2|10,0:0|0:0,0:0:0:0:
336,211,67814,2,2,B|359:166|333:118|333:118|342:42,1,168.999992263794
188,226,68246,2,2,B|184:271|184:271|199:320,1,84.4999961318971,10|2,0:0|0:0,0:0:0:0:
374,292,68534,5,2,0:0:0:0:
78,262,68678,1,0,0:0:0:0:
250,169,68822,1,8,0:0:0:0:
284,352,68966,6,2,P|208:398|109:365,1,168.999992263794
352,308,69399,2,2,B|389:321|389:321|448:308,1,84.4999961318971,10|2,0:0|0:0,0:0:0:0:
338,103,69687,5,6,0:0:0:0:
256,192,69831,12,0,72856,0:0:0:0:
40,310,73144,5,0,0:0:0:0:
306,340,73288,1,0,0:0:0:0:
193,115,73432,5,8,0:0:0:0:
123,357,73576,1,0,0:0:0:0:
117,76,73864,5,0,0:0:0:0:
183,258,74008,1,8,0:0:0:0:
241,27,74152,1,0,0:0:0:0:
74,294,74296,6,0,P|104:342|241:353,1,181.999994445801,0|8,0:0|0:0,0:0:0:0:
366,245,74728,2,0,B|286:292|254:213|180:263,1,181.999994445801
440,326,75160,2,0,P|480:247|450:163,1,181.999994445801,8|0,0:0|0:0,0:0:0:0:
174,119,75593,5,4,0:0:0:0:
368,51,75737,1,8,0:0:0:0:
244,310,75881,1,8,0:0:0:0:
85,88,76025,1,0,0:0:0:0:
15,347,76169,1,0,0:0:0:0:
306,312,76313,5,8,0:0:0:0:
55,255,76457,1,0,0:0:0:0:
383,211,76601,6,0,B|415:298|415:298|397:387,1,181.999994445801,8|0,0:0|0:0,0:0:0:0:
281,163,77033,2,0,P|348:105|436:114,1,181.999994445801,8|0,0:0|0:0,0:0:0:0:
188,228,77465,2,0,B|151:188|172:131|172:131|154:52,1,181.999994445801,8|0,0:0|0:0,0:0:0:0:
44,226,77897,5,0,0:0:0:0:
292,90,78041,1,12,0:0:0:0:
244,290,78185,1,8,0:0:0:0:
40,122,78329,5,0,0:0:0:0:
409,182,78473,1,0,0:0:0:0:
134,270,78617,1,8,0:0:0:0:
237,21,78762,1,0,0:0:0:0:
59,236,78906,6,0,P|96:169|200:141,1,181.999994445801,8|0,0:0|0:0,0:0:0:0:
325,286,79338,2,0,B|245:291|245:291|226:305|226:305|140:311,1,181.999994445801,8|0,0:0|0:0,0:0:0:0:
380,182,79770,2,0,P|436:263|409:363,1,181.999994445801,8|0,0:0|0:0,0:0:0:0:
184,226,80202,5,0,0:0:0:0:
315,36,80346,1,12,0:0:0:0:
324,330,80490,1,8,0:0:0:0:
107,95,80634,1,0,0:0:0:0:
308,172,80778,1,0,0:0:0:0:
24,240,80922,1,8,0:0:0:0:
97,16,81066,1,0,0:0:0:0:
384,138,81210,6,0,B|399:229|399:229|363:330,1,181.999994445801,8|0,0:0|0:0,0:0:0:0:
293,63,81642,2,0,P|373:28|468:56,1,181.999994445801,8|0,0:0|0:0,0:0:0:0:
202,122,82075,2,0,P|183:75|199:18,1,90.9999972229005,8|0,0:0|0:0,0:0:0:0:
423,102,82363,5,0,0:0:0:0:
184,177,82507,1,0,0:0:0:0:
350,8,82651,1,12,0:0:0:0:
263,311,82795,1,8,0:0:0:0:
237,107,82939,1,0,0:0:0:0:
326,353,83083,1,0,0:0:0:0:
60,286,83227,5,12,0:0:0:0:
453,234,83371,1,8,0:0:0:0:
