osu file format v14

[General]
AudioFilename: audio.mp3
AudioLeadIn: 0
PreviewTime: -1
Countdown: 0
SampleSet: None
StackLeniency: 0.7
Mode: 0
LetterboxInBreaks: 0
WidescreenStoryboard: 1

[Editor]
DistanceSpacing: 0.9
BeatDivisor: 8
GridSize: 16
TimelineZoom: 2.3

[Metadata]
Title:Sled Race Theme
TitleUnicode:Sled Race Theme
Artist:Club Penguin
ArtistUnicode:Club Penguin
Creator:sp00kem
Version:Insane
Source:Club Penguin
Tags:disney
BeatmapID:1700724
BeatmapSetID:810301

[Difficulty]
HPDrainRate:5.3
CircleSize:4
OverallDifficulty:8
ApproachRate:8.8
SliderMultiplier:2.6
SliderTickRate:1

[Events]
//Background and Video events
0,0,"ski hill.png",0,0
//Break Periods
//Storyboard Layer 0 (Background)
//Storyboard Layer 1 (Fail)
//Storyboard Layer 2 (Pass)
//Storyboard Layer 3 (Foreground)
//Storyboard Sound Samples

[TimingPoints]
560,576.080690264467,4,3,0,40,1,0
32820,-83.3333333333333,4,3,0,40,0,0
39733,-66.6666666666667,4,3,0,40,0,0
42037,-76.9230769230769,4,3,0,40,0,0
45495,-76.9230769230769,4,3,0,40,0,0
46215,-76.9230769230769,4,3,0,40,0,0
53558,-76.9230769230769,4,3,0,40,0,0
63061,-76.9230769230769,4,3,0,40,0,0
74296,-71.4285714285714,4,3,0,40,0,0
83620,576.183076923078,4,3,0,40,1,0

[Colours]
Combo1 : 252,164,44
Combo2 : 38,168,217
Combo3 : 90,180,92
Combo4 : 255,255,255

[HitObjects]
0,8,560,6,0,P|4:55|62:-12,1,195
117,77,1136,2,0,B|158:93|158:93|207:80|207:80|237:90|237:90|252:87,1,130
295,22,1568,5,0,0:0:0:0:
269,181,1856,1,0,0:0:0:0:
478,91,2144,5,0,0:0:0:0:
497,223,2288,2,0,B|454:236|454:236|407:210|362:234,1,130
511,376,2864,6,0,P|507:329|449:396,1,195
395,307,3440,2,0,B|346:295|346:295|317:307|317:307|259:304,1,130
223,376,3872,5,0,0:0:0:0:
197,217,4160,1,0,0:0:0:0:
86,265,4448,5,0,0:0:0:0:
116,115,4592,1,0,0:0:0:0:
21,164,4880,5,0,0:0:0:0:
21,164,5024,1,0,0:0:0:0:
21,164,5168,2,0,P|17:188|26:231,1,65
103,280,5456,2,0,P|149:266|190:289,1,97.5
206,334,5744,2,0,B|249:325|249:325|297:331|297:331|357:311,1,130
441,243,6176,2,0,B|398:234|398:234|350:240|350:240|290:220,1,130
358,148,6608,5,0,0:0:0:0:
497,126,6752,1,0,0:0:0:0:
111,124,7184,5,0,0:0:0:0:
246,177,7328,1,0,0:0:0:0:
162,4,7472,6,0,P|119:3|86:18,1,65
33,112,7761,2,0,P|79:98|120:121,1,97.5
137,166,8049,2,0,B|230:157|230:157|267:178,1,130
292,255,8481,1,0,0:0:0:0:
366,120,8625,5,0,2:0:0:0:
435,182,8769,1,0,2:0:0:0:
435,182,8841,1,0,2:0:0:0:
435,182,8913,1,0,2:0:0:0:
411,260,9057,1,0,2:0:0:0:
506,337,9345,5,0,2:0:0:0:
365,384,9489,1,0,2:0:0:0:
274,277,9633,1,0,2:0:0:0:
276,365,9777,6,0,B|224:340|189:350|178:395|136:358,1,130
20,283,10209,2,0,P|80:263|141:290,1,130
74,347,10641,1,0,0:0:0:0:
21,191,10785,1,0,0:0:0:0:
149,187,10929,6,0,B|140:137|140:137|152:108|152:108|146:57,1,130
229,175,11361,2,0,P|289:194|348:168,1,130
285,110,11793,1,0,0:0:0:0:
354,260,11937,1,0,0:0:0:0:
456,201,12081,6,0,B|449:257|449:257|444:267|444:267|441:336,1,130
352,254,12513,2,0,L|367:389,1,130
276,218,12945,2,0,L|268:289,1,65
183,248,13233,2,0,L|197:377,1,130
106,209,13665,2,0,B|100:282|100:282|92:296|92:296|91:338,1,130
0,240,14097,2,0,B|5:298|5:298|15:308,1,65
91,336,14385,5,0,0:0:0:0:
187,236,14673,1,0,0:0:0:0:
278,333,14962,1,0,0:0:0:0:
399,261,15250,6,0,L|470:267,1,65
334,181,15538,2,0,L|405:175,1,65
391,89,15826,2,0,L|455:94,1,65
306,33,16114,6,0,B|269:44|269:44|166:30,1,130
25,57,16546,2,0,P|71:61|144:124,1,130
41,160,16978,1,0,0:0:0:0:
205,218,17266,1,0,0:0:0:0:
113,369,17554,6,0,P|153:385|191:381,1,65
243,326,17842,2,0,P|283:310|321:314,1,65
378,371,18130,1,0,0:0:0:0:
462,329,18274,2,0,B|468:234|468:234|454:202,1,130
371,152,18706,1,0,0:0:0:0:
508,72,18994,6,0,B|460:39|434:96|379:51,1,130
308,8,19426,2,0,P|276:39|188:41,1,130
114,3,19858,2,0,L|102:85,1,65
43,146,20146,5,0,0:0:0:0:
48,244,20290,1,0,0:0:0:0:
140,287,20434,2,0,L|152:369,1,65
252,360,20722,6,0,P|293:337|331:342,1,65
400,365,21010,1,0,0:0:0:0:
333,259,21154,2,0,P|335:195|379:143,1,130
498,222,21586,6,0,B|502:314|502:314|484:347,1,130
296,140,22163,2,0,P|328:110|363:100,1,65
496,200,22451,2,0,P|474:176|444:162,1,65
321,265,22739,1,0,0:0:0:0:
434,288,22883,1,0,0:0:0:0:
292,144,23027,6,0,B|239:120|192:143|192:143|148:122,1,130
61,68,23459,2,0,L|65:141,1,65
256,192,23891,12,0,25907,0:0:0:0:
256,365,26483,5,0,0:0:0:0:
83,275,26771,5,0,0:0:0:0:
83,275,26915,1,0,0:0:0:0:
83,275,27059,2,0,L|67:344,1,65
266,288,27347,1,0,0:0:0:0:
188,195,27491,2,0,B|167:226|167:226|175:323,1,130
351,349,27923,2,0,P|359:273|359:273,1,65
325,149,28211,6,0,B|384:173|384:173|455:160,1,130
319,57,28643,2,0,P|276:71|254:93,1,65
237,167,28931,1,0,0:0:0:0:
177,92,29075,2,0,P|131:74|43:99,1,130
41,259,29508,2,0,B|100:226|100:226|114:163,1,130
93,72,29940,5,0,0:0:0:0:
41,259,30084,1,0,0:0:0:0:
191,139,30228,1,0,0:0:0:0:
0,149,30372,1,0,0:0:0:0:
158,252,30516,6,0,B|169:346|169:346|143:384,1,130
249,285,30948,2,0,B|258:219,1,65
272,138,31236,1,0,0:0:0:0:
355,170,31380,2,0,B|361:77|361:77|388:34,1,130
429,215,31812,2,0,P|369:254|306:244,1,130
254,169,32244,5,0,0:0:0:0:
313,382,32388,1,0,0:0:0:0:
142,245,32532,1,0,0:0:0:0:
360,256,32676,1,0,0:0:0:0:
175,375,32820,6,0,B|103:409|76:343|11:378,1,155.999995239258
134,297,33252,2,0,P|174:272|216:274,1,77.999997619629
283,303,33540,1,0,0:0:0:0:
336,177,33684,2,0,P|296:152|219:162,1,116.999996429443
192,181,33972,2,0,B|121:175|121:175|96:183,1,77.999997619629
41,261,34260,5,0,0:0:0:0:
258,230,34404,1,0,0:0:0:0:
99,381,34548,1,0,0:0:0:0:
140,166,34692,1,0,0:0:0:0:
237,353,34836,1,0,0:0:0:0:
41,261,34980,1,0,0:0:0:0:
