osu file format v14

[General]
AudioFilename: audio_1.3_P.mp3
AudioLeadIn: 0
PreviewTime: 40458
Countdown: 0
SampleSet: None
StackLeniency: 0.7
Mode: 3
LetterboxInBreaks: 0
SpecialStyle: 0
WidescreenStoryboard: 0

[Editor]
DistanceSpacing: 0.8
BeatDivisor: 6
GridSize: 32
TimelineZoom: 1

[Metadata]
Title:Secret Place
TitleUnicode:Secret Place
Artist:Clozee
ArtistUnicode:Clozee
Creator:midgy
Version:haven. x1.3
Source:
Tags:oriental indie speed dumpstream dump
BeatmapID:3479544
BeatmapSetID:589851

[Difficulty]
HPDrainRate:8
CircleSize:4
OverallDifficulty:8
ApproachRate:5
SliderMultiplier:1.4
SliderTickRate:1

[Events]
//Background and Video events
0,0,"bg.jpg",0,0
//Break Periods
//Storyboard Layer 0 (Background)
//Storyboard Layer 1 (Fail)
//Storyboard Layer 2 (Pass)
//Storyboard Layer 3 (Foreground)
//Storyboard Layer 4 (Overlay)
//Storyboard Sound Samples

[TimingPoints]
7348,250.836120769231,4,1,0,0,1,0
36445,-100,4,1,0,0,0,1
72565,-100,4,1,0,0,0,0
121227,-100,4,1,0,0,0,1
136779,-100,4,1,0,0,0,0

[HitObjects]
320,192,7348,128,0,7515:0:0:0:0:
64,192,7348,1,0,0:0:0:0:
192,192,7850,128,0,8017:0:0:0:0:
448,192,7850,1,0,0:0:0:0:
64,192,8352,5,0,0:0:0:0:
192,192,8352,1,0,0:0:0:0:
448,192,8352,128,0,8728:0:0:0:0:
64,192,8603,1,0,0:0:0:0:
320,192,8728,128,0,8853:0:0:0:0:
64,192,8853,1,0,0:0:0:0:
192,192,8853,1,0,0:0:0:0:
448,192,8853,128,0,9480:0:0:0:0:
64,192,9355,1,0,0:0:0:0:
192,192,9355,1,0,0:0:0:0:
320,192,9355,1,0,0:0:0:0:
64,192,9480,128,0,9543:0:0:0:0:
192,192,9543,128,0,9606:0:0:0:0:
320,192,9606,128,0,9856:0:0:0:0:
64,192,9856,128,0,10045:0:0:0:0:
192,192,9856,1,0,0:0:0:0:
448,192,9856,1,0,0:0:0:0:
64,192,10107,128,0,10359:0:0:0:0:
192,192,10359,1,0,0:0:0:0:
320,192,10359,1,0,0:0:0:0:
448,192,10359,1,0,0:0:0:0:
192,192,10610,1,0,0:0:0:0:
448,192,10610,128,0,11173:0:0:0:0:
64,192,10860,1,0,0:0:0:0:
192,192,10860,1,0,0:0:0:0:
320,192,10860,1,0,0:0:0:0:
192,192,11361,128,0,11529:0:0:0:0:
64,192,11362,1,0,0:0:0:0:
320,192,11362,1,0,0:0:0:0:
64,192,11863,1,0,0:0:0:0:
320,192,11863,128,0,12030:0:0:0:0:
448,192,11863,1,0,0:0:0:0:
64,192,12365,128,0,12866:0:0:0:0:
192,192,12365,1,0,0:0:0:0:
320,192,12365,1,0,0:0:0:0:
448,192,12365,1,0,0:0:0:0:
448,192,12616,1,0,0:0:0:0:
192,192,12866,128,0,13118:0:0:0:0:
320,192,12866,1,0,0:0:0:0:
448,192,12866,1,0,0:0:0:0:
320,192,13118,128,0,13369:0:0:0:0:
64,192,13369,1,0,0:0:0:0:
192,192,13369,1,0,0:0:0:0:
448,192,13369,1,0,0:0:0:0:
64,192,13870,128,0,14037:0:0:0:0:
192,192,13870,1,0,0:0:0:0:
448,192,13870,1,0,0:0:0:0:
320,192,14371,128,0,14539:0:0:0:0:
192,192,14372,1,0,0:0:0:0:
448,192,14372,1,0,0:0:0:0:
192,192,14623,1,0,0:0:0:0:
64,192,14873,1,0,0:0:0:0:
192,192,14873,1,0,0:0:0:0:
448,192,14873,128,0,15124:0:0:0:0:
320,192,15124,128,0,15375:0:0:0:0:
64,192,15375,128,0,15543:0:0:0:0:
192,192,15375,1,0,0:0:0:0:
448,192,15375,1,0,0:0:0:0:
192,192,15543,128,0,15626:0:0:0:0:
320,192,15626,128,0,15710:0:0:0:0:
448,192,15710,128,0,15793:0:0:0:0:
64,192,15793,128,0,15876:0:0:0:0:
192,192,15876,1,0,0:0:0:0:
320,192,15876,1,0,0:0:0:0:
448,192,15876,128,0,16379:0:0:0:0:
64,192,16379,1,0,0:0:0:0:
192,192,16379,1,0,0:0:0:0:
320,192,16379,1,0,0:0:0:0:
64,192,16630,128,0,17382:0:0:0:0:
192,192,16630,1,0,0:0:0:0:
192,192,16880,1,0,0:0:0:0:
320,192,16880,1,0,0:0:0:0:
448,192,16880,1,0,0:0:0:0:
448,192,17131,1,0,0:0:0:0:
192,192,17382,1,0,0:0:0:0:
320,192,17382,128,0,17549:0:0:0:0:
448,192,17382,1,0,0:0:0:0:
192,192,17549,128,0,17633:0:0:0:0:
448,192,17633,128,0,17716:0:0:0:0:
320,192,17716,128,0,17800:0:0:0:0:
64,192,17800,128,0,17883:0:0:0:0:
192,192,17883,1,0,0:0:0:0:
320,192,17883,1,0,0:0:0:0:
448,192,17883,1,0,0:0:0:0:
64,192,17946,1,0,0:0:0:0:
192,192,18009,1,0,0:0:0:0:
320,192,18072,1,0,0:0:0:0:
448,192,18134,1,0,0:0:0:0:
64,192,18385,1,0,0:0:0:0:
192,192,18385,1,0,0:0:0:0:
320,192,18385,1,0,0:0:0:0:
192,192,18636,128,0,19138:0:0:0:0:
320,192,18636,1,0,0:0:0:0:
64,192,18887,1,0,0:0:0:0:
320,192,18887,1,0,0:0:0:0:
448,192,18887,1,0,0:0:0:0:
320,192,19388,128,0,19556:0:0:0:0:
64,192,19389,1,0,0:0:0:0:
448,192,19389,1,0,0:0:0:0:
192,192,19890,128,0,20057:0:0:0:0:
64,192,19890,1,0,0:0:0:0:
448,192,19890,1,0,0:0:0:0:
64,192,20392,1,0,0:0:0:0:
192,192,20392,1,0,0:0:0:0:
320,192,20392,1,0,0:0:0:0:
448,192,20392,1,0,0:0:0:0:
320,192,20643,1,0,0:0:0:0:
64,192,20893,128,0,21144:0:0:0:0:
320,192,20893,1,0,0:0:0:0:
448,192,20893,1,0,0:0:0:0:
192,192,21144,128,0,21395:0:0:0:0:
64,192,21395,1,0,0:0:0:0:
320,192,21395,1,0,0:0:0:0:
448,192,21395,128,0,22399:0:0:0:0:
320,192,21896,128,0,22063:0:0:0:0:
64,192,21897,1,0,0:0:0:0:
192,192,21897,1,0,0:0:0:0:
192,192,22398,128,0,22566:0:0:0:0:
64,192,22399,1,0,0:0:0:0:
320,192,22399,1,0,0:0:0:0:
64,192,22900,1,0,0:0:0:0:
192,192,22900,1,0,0:0:0:0:
320,192,22900,128,0,23402:0:0:0:0:
448,192,22900,1,0,0:0:0:0:
64,192,23402,128,0,23569:0:0:0:0:
192,192,23402,1,0,0:0:0:0:
448,192,23402,1,0,0:0:0:0:
192,192,23569,128,0,23653:0:0:0:0:
448,192,23653,128,0,23736:0:0:0:0:
320,192,23736,128,0,23820:0:0:0:0:
192,192,23820,128,0,23903:0:0:0:0:
64,192,23903,128,0,24405:0:0:0:0:
320,192,23903,1,0,0:0:0:0:
448,192,23903,1,0,0:0:0:0:
192,192,24405,1,0,0:0:0:0:
320,192,24405,1,0,0:0:0:0:
448,192,24405,1,0,0:0:0:0:
320,192,24656,1,0,0:0:0:0:
320,192,24907,1,0,0:0:0:0:
64,192,25158,1,0,0:0:0:0:
192,192,25179,1,0,0:0:0:0:
64,192,25534,1,0,0:0:0:0:
192,192,25550,1,0,0:0:0:0:
448,192,25785,1,0,0:0:0:0:
320,192,25847,1,0,0:0:0:0:
192,192,25910,1,0,0:0:0:0:
64,192,25973,1,0,0:0:0:0:
448,192,26036,1,0,0:0:0:0:
320,192,26099,1,0,0:0:0:0:
192,192,26161,1,0,0:0:0:0:
64,192,26224,1,0,0:0:0:0:
448,192,26286,1,0,0:0:0:0:
320,192,26350,1,0,0:0:0:0:
64,192,26412,1,0,0:0:0:0:
192,192,26412,1,0,0:0:0:0:
64,192,26663,1,0,0:0:0:0:
64,192,26913,1,0,0:0:0:0:
448,192,27415,1,0,0:0:0:0:
320,192,27446,1,0,0:0:0:0:
448,192,27792,1,0,0:0:0:0:
320,192,27823,1,0,0:0:0:0:
448,192,28168,1,0,0:0:0:0:
64,192,28199,1,0,0:0:0:0:
64,192,28419,1,0,0:0:0:0:
192,192,28419,1,0,0:0:0:0:
320,192,28419,1,0,0:0:0:0:
448,192,28419,1,0,0:0:0:0:
192,192,28670,1,0,0:0:0:0:
192,192,28920,1,0,0:0:0:0:
64,192,30426,1,0,0:0:0:0:
192,192,30426,1,0,0:0:0:0:
320,192,30426,1,0,0:0:0:0:
448,192,30426,1,0,0:0:0:0:
320,192,30676,1,0,0:0:0:0:
320,192,30927,1,0,0:0:0:0:
64,192,32432,1,0,0:0:0:0:
192,192,32432,1,0,0:0:0:0:
448,192,32432,1,0,0:0:0:0:
320,192,32495,1,0,0:0:0:0:
192,192,32557,1,0,0:0:0:0:
64,192,32620,1,0,0:0:0:0:
320,192,32683,128,0,33184:0:0:0:0:
448,192,32683,1,0,0:0:0:0:
448,192,32933,1,0,0:0:0:0:
64,192,33436,1,0,0:0:0:0:
192,192,33436,1,0,0:0:0:0:
320,192,33436,1,0,0:0:0:0:
448,192,33436,1,0,0:0:0:0:
64,192,33812,1,0,0:0:0:0:
192,192,33812,1,0,0:0:0:0:
320,192,33812,1,0,0:0:0:0:
64,192,34063,1,0,0:0:0:0:
192,192,34063,1,0,0:0:0:0:
64,192,34188,1,0,0:0:0:0:
64,192,34439,1,0,0:0:0:0:
192,192,34439,1,0,0:0:0:0:
320,192,34439,1,0,0:0:0:0:
448,192,34439,1,0,0:0:0:0:
320,192,34690,1,0,0:0:0:0:
192,192,34940,1,0,0:0:0:0:
448,192,34940,1,0,0:0:0:0:
64,192,35442,1,0,0:0:0:0:
192,192,35442,1,0,0:0:0:0:
448,192,35442,1,0,0:0:0:0:
448,192,35943,1,0,0:0:0:0:
64,192,36446,1,0,0:0:0:0:
192,192,36446,1,0,0:0:0:0:
64,192,36696,1,0,0:0:0:0:
448,192,36696,1,0,0:0:0:0:
320,192,36947,1,0,0:0:0:0:
448,192,36947,1,0,0:0:0:0:
192,192,37198,1,0,0:0:0:0:
320,192,37198,1,0,0:0:0:0:
64,192,37449,1,0,0:0:0:0:
448,192,37449,1,0,0:0:0:0:
64,192,37700,1,0,0:0:0:0:
320,192,37700,1,0,0:0:0:0:
192,192,37950,1,0,0:0:0:0:
320,192,37950,1,0,0:0:0:0:
64,192,38201,1,0,0:0:0:0:
448,192,38201,1,0,0:0:0:0:
64,192,38452,1,0,0:0:0:0:
192,192,38452,1,0,0:0:0:0:
192,192,38577,1,0,0:0:0:0:
448,192,38577,1,0,0:0:0:0:
64,192,38703,1,0,0:0:0:0:
448,192,38703,1,0,0:0:0:0:
192,192,38828,1,0,0:0:0:0:
320,192,38828,1,0,0:0:0:0:
64,192,38953,1,0,0:0:0:0:
192,192,38953,1,0,0:0:0:0:
64,192,39080,1,0,0:0:0:0:
448,192,39080,1,0,0:0:0:0:
192,192,39205,1,0,0:0:0:0:
448,192,39205,1,0,0:0:0:0:
192,192,39330,1,0,0:0:0:0:
320,192,39330,1,0,0:0:0:0:
448,192,39456,1,0,0:0:0:0:
64,192,39456,1,0,0:0:0:0:
320,192,39518,1,0,0:0:0:0:
192,192,39518,1,0,0:0:0:0:
448,192,39581,1,0,0:0:0:0:
64,192,39581,1,0,0:0:0:0:
320,192,39643,1,0,0:0:0:0:
192,192,39643,1,0,0:0:0:0:
448,192,39706,1,0,0:0:0:0:
64,192,39706,1,0,0:0:0:0:
320,192,39769,1,0,0:0:0:0:
192,192,39769,1,0,0:0:0:0:
448,192,39832,1,0,0:0:0:0:
64,192,39832,1,0,0:0:0:0:
320,192,39894,1,0,0:0:0:0:
192,192,39894,1,0,0:0:0:0:
448,192,39957,1,0,0:0:0:0:
64,192,39957,1,0,0:0:0:0:
320,192,40020,1,0,0:0:0:0:
192,192,40083,1,0,0:0:0:0:
64,192,40083,1,0,0:0:0:0:
448,192,40145,1,0,0:0:0:0:
320,192,40145,1,0,0:0:0:0:
192,192,40208,1,0,0:0:0:0:
64,192,40208,1,0,0:0:0:0:
448,192,40270,1,0,0:0:0:0:
320,192,40270,1,0,0:0:0:0:
192,192,40333,1,0,0:0:0:0:
64,192,40333,1,0,0:0:0:0:
448,192,40396,1,0,0:0:0:0:
320,192,40396,1,0,0:0:0:0:
448,192,40459,1,0,0:0:0:0:
320,192,40459,1,0,0:0:0:0:
192,192,40459,1,0,0:0:0:0:
64,192,40459,1,0,0:0:0:0:
64,192,40835,1,0,0:0:0:0:
192,192,40835,1,0,0:0:0:0:
64,192,40960,1,0,0:0:0:0:
192,192,40960,1,0,0:0:0:0:
320,192,40960,1,0,0:0:0:0:
448,192,40960,1,0,0:0:0:0:
320,192,41211,1,0,0:0:0:0:
448,192,41211,1,0,0:0:0:0:
320,192,41462,1,0,0:0:0:0:
448,192,41462,1,0,0:0:0:0:
192,192,41504,1,0,0:0:0:0:
64,192,41546,1,0,0:0:0:0:
448,192,41587,1,0,0:0:0:0:
192,192,41630,1,0,0:0:0:0:
64,192,41671,1,0,0:0:0:0:
320,192,41713,1,0,0:0:0:0:
448,192,41755,1,0,0:0:0:0:
192,192,41796,1,0,0:0:0:0:
64,192,41838,1,0,0:0:0:0:
320,192,41838,1,0,0:0:0:0:
448,192,41880,1,0,0:0:0:0:
192,192,41922,1,0,0:0:0:0:
64,192,41964,1,0,0:0:0:0:
320,192,41964,1,0,0:0:0:0:
448,192,42006,1,0,0:0:0:0:
192,192,42047,1,0,0:0:0:0:
320,192,42090,1,0,0:0:0:0:
64,192,42131,1,0,0:0:0:0:
448,192,42173,1,0,0:0:0:0:
192,192,42215,1,0,0:0:0:0:
320,192,42256,1,0,0:0:0:0:
64,192,42298,1,0,0:0:0:0:
448,192,42340,1,0,0:0:0:0:
192,192,42382,1,0,0:0:0:0:
320,192,42423,1,0,0:0:0:0:
64,192,42466,1,0,0:0:0:0:
448,192,42466,1,0,0:0:0:0:
192,192,42528,1,0,0:0:0:0:
64,192,42591,1,0,0:0:0:0:
448,192,42653,1,0,0:0:0:0:
192,192,42716,1,0,0:0:0:0:
320,192,42779,1,0,0:0:0:0:
64,192,42842,1,0,0:0:0:0:
448,192,42842,1,0,0:0:0:0:
192,192,42904,1,0,0:0:0:0:
320,192,42967,1,0,0:0:0:0:
448,192,42967,1,0,0:0:0:0:
192,192,43030,1,0,0:0:0:0:
64,192,43093,1,0,0:0:0:0:
320,192,43155,1,0,0:0:0:0:
192,192,43218,1,0,0:0:0:0:
448,192,43218,1,0,0:0:0:0:
64,192,43280,1,0,0:0:0:0:
320,192,43343,1,0,0:0:0:0:
192,192,43406,1,0,0:0:0:0:
64,192,43469,1,0,0:0:0:0:
448,192,43469,1,0,0:0:0:0:
320,192,43510,1,0,0:0:0:0:
192,192,43553,1,0,0:0:0:0:
448,192,43594,1,0,0:0:0:0:
320,192,43636,1,0,0:0:0:0:
64,192,43678,1,0,0:0:0:0:
192,192,43720,1,0,0:0:0:0:
320,192,43761,1,0,0:0:0:0:
448,192,43803,1,0,0:0:0:0:
64,192,43845,1,0,0:0:0:0:
192,192,43845,1,0,0:0:0:0:
320,192,43887,1,0,0:0:0:0:
448,192,43929,1,0,0:0:0:0:
64,192,43970,1,0,0:0:0:0:
192,192,43970,1,0,0:0:0:0:
320,192,44013,1,0,0:0:0:0:
448,192,44054,1,0,0:0:0:0:
320,192,44096,1,0,0:0:0:0:
64,192,44138,1,0,0:0:0:0:
192,192,44180,1,0,0:0:0:0:
320,192,44221,1,0,0:0:0:0:
448,192,44221,1,0,0:0:0:0:
64,192,44263,1,0,0:0:0:0:
192,192,44305,1,0,0:0:0:0:
320,192,44346,1,0,0:0:0:0:
448,192,44389,1,0,0:0:0:0:
64,192,44430,1,0,0:0:0:0:
192,192,44472,1,0,0:0:0:0:
320,192,44472,1,0,0:0:0:0:
448,192,44514,1,0,0:0:0:0:
192,192,44556,1,0,0:0:0:0:
64,192,44597,1,0,0:0:0:0:
320,192,44640,1,0,0:0:0:0:
192,192,44681,1,0,0:0:0:0:
64,192,44723,1,0,0:0:0:0:
320,192,44765,1,0,0:0:0:0:
448,192,44806,1,0,0:0:0:0:
64,192,44849,1,0,0:0:0:0:
192,192,44849,1,0,0:0:0:0:
320,192,44890,1,0,0:0:0:0:
448,192,44932,1,0,0:0:0:0:
64,192,44974,1,0,0:0:0:0:
192,192,44974,1,0,0:0:0:0:
320,192,45016,1,0,0:0:0:0:
448,192,45057,1,0,0:0:0:0:
192,192,45100,1,0,0:0:0:0:
64,192,45140,1,0,0:0:0:0:
448,192,45183,1,0,0:0:0:0:
64,192,45225,1,0,0:0:0:0:
192,192,45225,1,0,0:0:0:0:
320,192,45266,1,0,0:0:0:0:
448,192,45308,1,0,0:0:0:0:
192,192,45350,1,0,0:0:0:0:
320,192,45392,1,0,0:0:0:0:
192,192,45433,1,0,0:0:0:0:
64,192,45476,1,0,0:0:0:0:
448,192,45476,1,0,0:0:0:0:
320,192,45517,1,0,0:0:0:0:
192,192,45559,1,0,0:0:0:0:
448,192,45601,1,0,0:0:0:0:
320,192,45643,1,0,0:0:0:0:
64,192,45684,1,0,0:0:0:0:
192,192,45726,1,0,0:0:0:0:
320,192,45768,1,0,0:0:0:0:
64,192,45810,1,0,0:0:0:0:
192,192,45852,1,0,0:0:0:0:
448,192,45852,1,0,0:0:0:0:
320,192,45893,1,0,0:0:0:0:
64,192,45936,1,0,0:0:0:0:
192,192,45977,1,0,0:0:0:0:
448,192,45977,1,0,0:0:0:0:
320,192,46019,1,0,0:0:0:0:
64,192,46061,1,0,0:0:0:0:
192,192,46103,1,0,0:0:0:0:
448,192,46144,1,0,0:0:0:0:
320,192,46186,1,0,0:0:0:0:
64,192,46228,1,0,0:0:0:0:
448,192,46270,1,0,0:0:0:0:
320,192,46312,1,0,0:0:0:0:
192,192,46353,1,0,0:0:0:0:
448,192,46395,1,0,0:0:0:0:
320,192,46437,1,0,0:0:0:0:
64,192,46479,1,0,0:0:0:0:
448,192,46479,1,0,0:0:0:0:
192,192,46520,1,0,0:0:0:0:
320,192,46563,1,0,0:0:0:0:
64,192,46604,1,0,0:0:0:0:
192,192,46646,1,0,0:0:0:0:
320,192,46687,1,0,0:0:0:0:
448,192,46730,1,0,0:0:0:0:
192,192,46771,1,0,0:0:0:0:
448,192,46813,1,0,0:0:0:0:
64,192,46855,1,0,0:0:0:0:
320,192,46855,1,0,0:0:0:0:
192,192,46896,1,0,0:0:0:0:
448,192,46938,1,0,0:0:0:0:
64,192,46980,1,0,0:0:0:0:
320,192,46980,1,0,0:0:0:0:
192,192,47022,1,0,0:0:0:0:
448,192,47063,1,0,0:0:0:0:
320,192,47106,1,0,0:0:0:0:
64,192,47148,1,0,0:0:0:0:
192,192,47190,1,0,0:0:0:0:
320,192,47231,1,0,0:0:0:0:
448,192,47231,1,0,0:0:0:0:
64,192,47273,1,0,0:0:0:0:
192,192,47315,1,0,0:0:0:0:
448,192,47356,1,0,0:0:0:0:
320,192,47399,1,0,0:0:0:0:
64,192,47440,1,0,0:0:0:0:
192,192,47482,1,0,0:0:0:0:
448,192,47482,1,0,0:0:0:0:
320,192,47524,1,0,0:0:0:0:
64,192,47566,1,0,0:0:0:0:
192,192,47607,1,0,0:0:0:0:
320,192,47650,1,0,0:0:0:0:
192,192,47691,1,0,0:0:0:0:
448,192,47733,1,0,0:0:0:0:
320,192,47775,1,0,0:0:0:0:
64,192,47816,1,0,0:0:0:0:
192,192,47859,1,0,0:0:0:0:
448,192,47859,1,0,0:0:0:0:
320,192,47900,1,0,0:0:0:0:
64,192,47942,1,0,0:0:0:0:
192,192,47984,1,0,0:0:0:0:
448,192,47984,1,0,0:0:0:0:
320,192,48026,1,0,0:0:0:0:
64,192,48067,1,0,0:0:0:0:
192,192,48110,1,0,0:0:0:0:
320,192,48151,1,0,0:0:0:0:
192,192,48193,1,0,0:0:0:0:
64,192,48235,1,0,0:0:0:0:
448,192,48235,1,0,0:0:0:0:
320,192,48276,1,0,0:0:0:0:
192,192,48318,1,0,0:0:0:0:
448,192,48360,1,0,0:0:0:0:
320,192,48402,1,0,0:0:0:0:
64,192,48443,1,0,0:0:0:0:
192,192,48486,1,0,0:0:0:0:
448,192,48486,1,0,0:0:0:0:
64,192,48862,1,0,0:0:0:0:
192,192,48862,1,0,0:0:0:0:
64,192,48987,1,0,0:0:0:0:
192,192,48987,1,0,0:0:0:0:
320,192,48987,1,0,0:0:0:0:
448,192,48987,1,0,0:0:0:0:
320,192,49238,1,0,0:0:0:0:
448,192,49238,1,0,0:0:0:0:
64,192,49489,1,0,0:0:0:0:
192,192,49489,1,0,0:0:0:0:
320,192,49530,1,0,0:0:0:0:
448,192,49573,1,0,0:0:0:0:
192,192,49614,1,0,0:0:0:0:
64,192,49656,1,0,0:0:0:0:
320,192,49698,1,0,0:0:0:0:
448,192,49740,1,0,0:0:0:0:
64,192,49782,1,0,0:0:0:0:
192,192,49823,1,0,0:0:0:0:
320,192,49865,1,0,0:0:0:0:
448,192,49865,1,0,0:0:0:0:
64,192,49907,1,0,0:0:0:0:
192,192,49949,1,0,0:0:0:0:
320,192,49990,1,0,0:0:0:0:
448,192,49990,1,0,0:0:0:0:
64,192,50033,1,0,0:0:0:0:
192,192,50074,1,0,0:0:0:0:
448,192,50116,1,0,0:0:0:0:
320,192,50158,1,0,0:0:0:0:
192,192,50200,1,0,0:0:0:0:
64,192,50241,1,0,0:0:0:0:
320,192,50283,1,0,0:0:0:0:
448,192,50325,1,0,0:0:0:0:
192,192,50366,1,0,0:0:0:0:
320,192,50409,1,0,0:0:0:0:
448,192,50450,1,0,0:0:0:0:
64,192,50492,1,0,0:0:0:0:
192,192,50492,1,0,0:0:0:0:
320,192,50555,1,0,0:0:0:0:
448,192,50618,1,0,0:0:0:0:
192,192,50680,1,0,0:0:0:0:
320,192,50743,1,0,0:0:0:0:
64,192,50806,1,0,0:0:0:0:
192,192,50869,1,0,0:0:0:0:
448,192,50869,1,0,0:0:0:0:
320,192,50931,1,0,0:0:0:0:
64,192,50994,1,0,0:0:0:0:
192,192,50994,1,0,0:0:0:0:
448,192,51056,1,0,0:0:0:0:
64,192,51120,1,0,0:0:0:0:
320,192,51182,1,0,0:0:0:0:
192,192,51245,1,0,0:0:0:0:
448,192,51245,1,0,0:0:0:0:
64,192,51307,1,0,0:0:0:0:
320,192,51370,1,0,0:0:0:0:
448,192,51433,1,0,0:0:0:0:
64,192,51496,1,0,0:0:0:0:
192,192,51496,1,0,0:0:0:0:
320,192,51537,1,0,0:0:0:0:
448,192,51580,1,0,0:0:0:0:
64,192,51621,1,0,0:0:0:0:
192,192,51663,1,0,0:0:0:0:
320,192,51705,1,0,0:0:0:0:
64,192,51746,1,0,0:0:0:0:
192,192,51788,1,0,0:0:0:0:
448,192,51830,1,0,0:0:0:0:
64,192,51872,1,0,0:0:0:0:
320,192,51872,1,0,0:0:0:0:
192,192,51913,1,0,0:0:0:0:
448,192,51956,1,0,0:0:0:0:
64,192,51997,1,0,0:0:0:0:
320,192,51997,1,0,0:0:0:0:
192,192,52039,1,0,0:0:0:0:
448,192,52081,1,0,0:0:0:0:
320,192,52123,1,0,0:0:0:0:
64,192,52164,1,0,0:0:0:0:
192,192,52206,1,0,0:0:0:0:
320,192,52248,1,0,0:0:0:0:
448,192,52248,1,0,0:0:0:0:
192,192,52290,1,0,0:0:0:0:
64,192,52332,1,0,0:0:0:0:
448,192,52373,1,0,0:0:0:0:
320,192,52415,1,0,0:0:0:0:
64,192,52457,1,0,0:0:0:0:
192,192,52499,1,0,0:0:0:0:
448,192,52499,1,0,0:0:0:0:
320,192,52541,1,0,0:0:0:0:
64,192,52583,1,0,0:0:0:0:
192,192,52624,1,0,0:0:0:0:
448,192,52666,1,0,0:0:0:0:
320,192,52708,1,0,0:0:0:0:
192,192,52750,1,0,0:0:0:0:
64,192,52792,1,0,0:0:0:0:
320,192,52833,1,0,0:0:0:0:
192,192,52875,1,0,0:0:0:0:
448,192,52875,1,0,0:0:0:0:
64,192,52917,1,0,0:0:0:0:
320,192,52959,1,0,0:0:0:0:
192,192,53000,1,0,0:0:0:0:
448,192,53000,1,0,0:0:0:0:
64,192,53043,1,0,0:0:0:0:
320,192,53084,1,0,0:0:0:0:
448,192,53126,1,0,0:0:0:0:
192,192,53167,1,0,0:0:0:0:
64,192,53210,1,0,0:0:0:0:
320,192,53251,1,0,0:0:0:0:
448,192,53251,1,0,0:0:0:0:
64,192,53293,1,0,0:0:0:0:
192,192,53335,1,0,0:0:0:0:
320,192,53376,1,0,0:0:0:0:
64,192,53419,1,0,0:0:0:0:
192,192,53460,1,0,0:0:0:0:
320,192,53503,1,0,0:0:0:0:
448,192,53503,1,0,0:0:0:0:
64,192,53544,1,0,0:0:0:0:
320,192,53586,1,0,0:0:0:0:
448,192,53628,1,0,0:0:0:0:
192,192,53669,1,0,0:0:0:0:
320,192,53711,1,0,0:0:0:0:
448,192,53753,1,0,0:0:0:0:
64,192,53795,1,0,0:0:0:0:
192,192,53836,1,0,0:0:0:0:
320,192,53879,1,0,0:0:0:0:
448,192,53879,1,0,0:0:0:0:
64,192,53920,1,0,0:0:0:0:
192,192,53962,1,0,0:0:0:0:
320,192,54004,1,0,0:0:0:0:
448,192,54004,1,0,0:0:0:0:
64,192,54046,1,0,0:0:0:0:
192,192,54087,1,0,0:0:0:0:
448,192,54130,1,0,0:0:0:0:
320,192,54171,1,0,0:0:0:0:
64,192,54213,1,0,0:0:0:0:
192,192,54255,1,0,0:0:0:0:
448,192,54296,1,0,0:0:0:0:
64,192,54338,1,0,0:0:0:0:
192,192,54380,1,0,0:0:0:0:
320,192,54422,1,0,0:0:0:0:
64,192,54464,1,0,0:0:0:0:
192,192,54506,1,0,0:0:0:0:
448,192,54506,1,0,0:0:0:0:
320,192,54547,1,0,0:0:0:0:
192,192,54589,1,0,0:0:0:0:
448,192,54631,1,0,0:0:0:0:
64,192,54673,1,0,0:0:0:0:
320,192,54715,1,0,0:0:0:0:
192,192,54756,1,0,0:0:0:0:
448,192,54798,1,0,0:0:0:0:
320,192,54840,1,0,0:0:0:0:
64,192,54882,1,0,0:0:0:0:
192,192,54882,1,0,0:0:0:0:
448,192,54923,1,0,0:0:0:0:
320,192,54966,1,0,0:0:0:0:
64,192,55007,1,0,0:0:0:0:
448,192,55007,1,0,0:0:0:0:
192,192,55049,1,0,0:0:0:0:
320,192,55091,1,0,0:0:0:0:
64,192,55133,1,0,0:0:0:0:
448,192,55174,1,0,0:0:0:0:
192,192,55216,1,0,0:0:0:0:
64,192,55258,1,0,0:0:0:0:
320,192,55258,1,0,0:0:0:0:
448,192,55300,1,0,0:0:0:0:
192,192,55342,1,0,0:0:0:0:
320,192,55383,1,0,0:0:0:0:
192,192,55426,1,0,0:0:0:0:
448,192,55467,1,0,0:0:0:0:
64,192,55509,1,0,0:0:0:0:
320,192,55509,1,0,0:0:0:0:
192,192,55551,1,0,0:0:0:0:
448,192,55593,1,0,0:0:0:0:
64,192,55634,1,0,0:0:0:0:
320,192,55676,1,0,0:0:0:0:
192,192,55718,1,0,0:0:0:0:
448,192,55760,1,0,0:0:0:0:
320,192,55802,1,0,0:0:0:0:
192,192,55843,1,0,0:0:0:0:
64,192,55885,1,0,0:0:0:0:
448,192,55885,1,0,0:0:0:0:
320,192,55927,1,0,0:0:0:0:
192,192,55969,1,0,0:0:0:0:
320,192,56010,1,0,0:0:0:0:
448,192,56010,1,0,0:0:0:0:
64,192,56052,1,0,0:0:0:0:
192,192,56094,1,0,0:0:0:0:
320,192,56136,1,0,0:0:0:0:
64,192,56177,1,0,0:0:0:0:
192,192,56220,1,0,0:0:0:0:
64,192,56261,1,0,0:0:0:0:
448,192,56261,1,0,0:0:0:0:
320,192,56303,1,0,0:0:0:0:
192,192,56345,1,0,0:0:0:0:
64,192,56386,1,0,0:0:0:0:
448,192,56387,1,0,0:0:0:0:
320,192,56428,1,0,0:0:0:0:
192,192,56470,1,0,0:0:0:0:
64,192,56513,1,0,0:0:0:0:
320,192,56513,1,0,0:0:0:0:
448,192,56513,1,0,0:0:0:0:
64,192,56889,1,0,0:0:0:0:
192,192,56889,1,0,0:0:0:0:
64,192,57014,1,0,0:0:0:0:
192,192,57014,1,0,0:0:0:0:
320,192,57014,1,0,0:0:0:0:
448,192,57014,1,0,0:0:0:0:
320,192,57265,1,0,0:0:0:0:
448,192,57265,1,0,0:0:0:0:
64,192,57516,1,0,0:0:0:0:
448,192,57516,1,0,0:0:0:0:
192,192,57557,1,0,0:0:0:0:
320,192,57600,1,0,0:0:0:0:
64,192,57641,1,0,0:0:0:0:
192,192,57683,1,0,0:0:0:0:
448,192,57725,1,0,0:0:0:0:
320,192,57766,1,0,0:0:0:0:
192,192,57808,1,0,0:0:0:0:
64,192,57850,1,0,0:0:0:0:
320,192,57892,1,0,0:0:0:0:
448,192,57892,1,0,0:0:0:0:
192,192,57933,1,0,0:0:0:0:
64,192,57976,1,0,0:0:0:0:
320,192,58017,1,0,0:0:0:0:
448,192,58017,1,0,0:0:0:0:
64,192,58059,1,0,0:0:0:0:
192,192,58100,1,0,0:0:0:0:
448,192,58143,1,0,0:0:0:0:
320,192,58184,1,0,0:0:0:0:
192,192,58226,1,0,0:0:0:0:
448,192,58268,1,0,0:0:0:0:
192,192,58310,1,0,0:0:0:0:
320,192,58351,1,0,0:0:0:0:
64,192,58393,1,0,0:0:0:0:
192,192,58435,1,0,0:0:0:0:
320,192,58476,1,0,0:0:0:0:
64,192,58519,1,0,0:0:0:0:
448,192,58519,1,0,0:0:0:0:
192,192,58581,1,0,0:0:0:0:
320,192,58644,1,0,0:0:0:0:
64,192,58706,1,0,0:0:0:0:
192,192,58770,1,0,0:0:0:0:
64,192,58833,1,0,0:0:0:0:
320,192,58895,1,0,0:0:0:0:
448,192,58895,1,0,0:0:0:0:
192,192,58958,1,0,0:0:0:0:
64,192,59020,1,0,0:0:0:0:
448,192,59020,1,0,0:0:0:0:
320,192,59083,1,0,0:0:0:0:
192,192,59146,1,0,0:0:0:0:
448,192,59209,1,0,0:0:0:0:
64,192,59272,1,0,0:0:0:0:
320,192,59272,1,0,0:0:0:0:
192,192,59334,1,0,0:0:0:0:
320,192,59397,1,0,0:0:0:0:
448,192,59460,1,0,0:0:0:0:
64,192,59523,1,0,0:0:0:0:
192,192,59523,1,0,0:0:0:0:
320,192,59564,1,0,0:0:0:0:
448,192,59606,1,0,0:0:0:0:
192,192,59648,1,0,0:0:0:0:
320,192,59690,1,0,0:0:0:0:
64,192,59731,1,0,0:0:0:0:
448,192,59773,1,0,0:0:0:0:
320,192,59815,1,0,0:0:0:0:
192,192,59856,1,0,0:0:0:0:
64,192,59899,1,0,0:0:0:0:
448,192,59899,1,0,0:0:0:0:
320,192,59940,1,0,0:0:0:0:
192,192,59982,1,0,0:0:0:0:
64,192,60024,1,0,0:0:0:0:
448,192,60024,1,0,0:0:0:0:
320,192,60066,1,0,0:0:0:0:
448,192,60107,1,0,0:0:0:0:
192,192,60150,1,0,0:0:0:0:
320,192,60191,1,0,0:0:0:0:
64,192,60233,1,0,0:0:0:0:
192,192,60275,1,0,0:0:0:0:
448,192,60275,1,0,0:0:0:0:
320,192,60316,1,0,0:0:0:0:
64,192,60359,1,0,0:0:0:0:
448,192,60400,1,0,0:0:0:0:
320,192,60442,1,0,0:0:0:0:
192,192,60484,1,0,0:0:0:0:
64,192,60526,1,0,0:0:0:0:
448,192,60526,1,0,0:0:0:0:
320,192,60567,1,0,0:0:0:0:
192,192,60610,1,0,0:0:0:0:
320,192,60651,1,0,0:0:0:0:
448,192,60693,1,0,0:0:0:0:
64,192,60735,1,0,0:0:0:0:
192,192,60776,1,0,0:0:0:0:
320,192,60818,1,0,0:0:0:0:
64,192,60860,1,0,0:0:0:0:
192,192,60902,1,0,0:0:0:0:
448,192,60902,1,0,0:0:0:0:
320,192,60943,1,0,0:0:0:0:
64,192,60986,1,0,0:0:0:0:
192,192,61027,1,0,0:0:0:0:
448,192,61027,1,0,0:0:0:0:
320,192,61069,1,0,0:0:0:0:
64,192,61111,1,0,0:0:0:0:
448,192,61153,1,0,0:0:0:0:
320,192,61195,1,0,0:0:0:0:
448,192,61236,1,0,0:0:0:0:
64,192,61278,1,0,0:0:0:0:
192,192,61278,1,0,0:0:0:0:
320,192,61320,1,0,0:0:0:0:
448,192,61362,1,0,0:0:0:0:
192,192,61403,1,0,0:0:0:0:
64,192,61446,1,0,0:0:0:0:
320,192,61487,1,0,0:0:0:0:
192,192,61529,1,0,0:0:0:0:
448,192,61529,1,0,0:0:0:0:
64,192,61571,1,0,0:0:0:0:
320,192,61613,1,0,0:0:0:0:
192,192,61654,1,0,0:0:0:0:
64,192,61696,1,0,0:0:0:0:
448,192,61738,1,0,0:0:0:0:
320,192,61780,1,0,0:0:0:0:
192,192,61822,1,0,0:0:0:0:
64,192,61863,1,0,0:0:0:0:
320,192,61905,1,0,0:0:0:0:
448,192,61905,1,0,0:0:0:0:
192,192,61947,1,0,0:0:0:0:
64,192,61989,1,0,0:0:0:0:
320,192,62030,1,0,0:0:0:0:
448,192,62030,1,0,0:0:0:0:
192,192,62073,1,0,0:0:0:0:
64,192,62114,1,0,0:0:0:0:
448,192,62156,1,0,0:0:0:0:
192,192,62198,1,0,0:0:0:0:
448,192,62240,1,0,0:0:0:0:
320,192,62282,1,0,0:0:0:0:
64,192,62323,1,0,0:0:0:0:
192,192,62365,1,0,0:0:0:0:
320,192,62407,1,0,0:0:0:0:
448,192,62449,1,0,0:0:0:0:
192,192,62490,1,0,0:0:0:0:
64,192,62533,1,0,0:0:0:0:
320,192,62533,1,0,0:0:0:0:
448,192,62574,1,0,0:0:0:0:
192,192,62616,1,0,0:0:0:0:
64,192,62658,1,0,0:0:0:0:
448,192,62700,1,0,0:0:0:0:
192,192,62741,1,0,0:0:0:0:
64,192,62783,1,0,0:0:0:0:
448,192,62825,1,0,0:0:0:0:
320,192,62866,1,0,0:0:0:0:
64,192,62909,1,0,0:0:0:0:
192,192,62909,1,0,0:0:0:0:
448,192,62950,1,0,0:0:0:0:
320,192,62992,1,0,0:0:0:0:
64,192,63034,1,0,0:0:0:0:
192,192,63034,1,0,0:0:0:0:
448,192,63076,1,0,0:0:0:0:
320,192,63118,1,0,0:0:0:0:
448,192,63160,1,0,0:0:0:0:
192,192,63201,1,0,0:0:0:0:
320,192,63243,1,0,0:0:0:0:
192,192,63284,1,0,0:0:0:0:
64,192,63285,1,0,0:0:0:0:
448,192,63326,1,0,0:0:0:0:
320,192,63369,1,0,0:0:0:0:
64,192,63410,1,0,0:0:0:0:
192,192,63452,1,0,0:0:0:0:
448,192,63494,1,0,0:0:0:0:
64,192,63536,1,0,0:0:0:0:
320,192,63536,1,0,0:0:0:0:
192,192,63577,1,0,0:0:0:0:
448,192,63620,1,0,0:0:0:0:
320,192,63661,1,0,0:0:0:0:
64,192,63703,1,0,0:0:0:0:
192,192,63745,1,0,0:0:0:0:
448,192,63786,1,0,0:0:0:0:
320,192,63828,1,0,0:0:0:0:
64,192,63870,1,0,0:0:0:0:
320,192,63912,1,0,0:0:0:0:
448,192,63912,1,0,0:0:0:0:
192,192,63953,1,0,0:0:0:0:
64,192,63996,1,0,0:0:0:0:
320,192,64037,1,0,0:0:0:0:
448,192,64037,1,0,0:0:0:0:
192,192,64080,1,0,0:0:0:0:
64,192,64121,1,0,0:0:0:0:
448,192,64163,1,0,0:0:0:0:
192,192,64205,1,0,0:0:0:0:
320,192,64246,1,0,0:0:0:0:
64,192,64288,1,0,0:0:0:0:
448,192,64288,1,0,0:0:0:0:
192,192,64330,1,0,0:0:0:0:
320,192,64371,1,0,0:0:0:0:
192,192,64413,1,0,0:0:0:0:
448,192,64413,1,0,0:0:0:0:
64,192,64456,1,0,0:0:0:0:
320,192,64496,1,0,0:0:0:0:
64,192,64539,1,0,0:0:0:0:
192,192,64539,1,0,0:0:0:0:
448,192,64539,1,0,0:0:0:0:
64,192,64915,1,0,0:0:0:0:
192,192,64915,1,0,0:0:0:0:
64,192,65041,1,0,0:0:0:0:
192,192,65041,1,0,0:0:0:0:
320,192,65041,1,0,0:0:0:0:
448,192,65041,1,0,0:0:0:0:
320,192,65292,1,0,0:0:0:0:
448,192,65292,1,0,0:0:0:0:
192,192,65543,1,0,0:0:0:0:
64,192,65584,1,0,0:0:0:0:
320,192,65626,1,0,0:0:0:0:
192,192,65668,1,0,0:0:0:0:
448,192,65710,1,0,0:0:0:0:
320,192,65751,1,0,0:0:0:0:
64,192,65793,1,0,0:0:0:0:
192,192,65835,1,0,0:0:0:0:
448,192,65876,1,0,0:0:0:0:
64,192,65919,1,0,0:0:0:0:
320,192,65919,1,0,0:0:0:0:
192,192,65960,1,0,0:0:0:0:
448,192,66003,1,0,0:0:0:0:
64,192,66044,1,0,0:0:0:0:
320,192,66044,1,0,0:0:0:0:
192,192,66086,1,0,0:0:0:0:
448,192,66128,1,0,0:0:0:0:
64,192,66170,1,0,0:0:0:0:
320,192,66211,1,0,0:0:0:0:
192,192,66253,1,0,0:0:0:0:
448,192,66295,1,0,0:0:0:0:
320,192,66336,1,0,0:0:0:0:
192,192,66379,1,0,0:0:0:0:
448,192,66420,1,0,0:0:0:0:
64,192,66462,1,0,0:0:0:0:
192,192,66504,1,0,0:0:0:0:
320,192,66546,1,0,0:0:0:0:
448,192,66546,1,0,0:0:0:0:
64,192,66609,1,0,0:0:0:0:
320,192,66671,1,0,0:0:0:0:
448,192,66734,1,0,0:0:0:0:
192,192,66796,1,0,0:0:0:0:
320,192,66860,1,0,0:0:0:0:
64,192,66922,1,0,0:0:0:0:
192,192,66922,1,0,0:0:0:0:
448,192,66985,1,0,0:0:0:0:
64,192,67047,1,0,0:0:0:0:
320,192,67047,1,0,0:0:0:0:
192,192,67110,1,0,0:0:0:0:
448,192,67173,1,0,0:0:0:0:
64,192,67236,1,0,0:0:0:0:
192,192,67298,1,0,0:0:0:0:
320,192,67298,1,0,0:0:0:0:
448,192,67361,1,0,0:0:0:0:
192,192,67423,1,0,0:0:0:0:
64,192,67486,1,0,0:0:0:0:
320,192,67549,1,0,0:0:0:0:
448,192,67549,1,0,0:0:0:0:
192,192,67591,1,0,0:0:0:0:
64,192,67633,1,0,0:0:0:0:
320,192,67674,1,0,0:0:0:0:
448,192,67716,1,0,0:0:0:0:
192,192,67758,1,0,0:0:0:0:
64,192,67800,1,0,0:0:0:0:
320,192,67842,1,0,0:0:0:0:
448,192,67883,1,0,0:0:0:0:
64,192,67926,1,0,0:0:0:0:
320,192,67926,1,0,0:0:0:0:
192,192,67967,1,0,0:0:0:0:
448,192,68009,1,0,0:0:0:0:
64,192,68051,1,0,0:0:0:0:
320,192,68051,1,0,0:0:0:0:
192,192,68093,1,0,0:0:0:0:
448,192,68134,1,0,0:0:0:0:
320,192,68176,1,0,0:0:0:0:
192,192,68218,1,0,0:0:0:0:
448,192,68260,1,0,0:0:0:0:
64,192,68302,1,0,0:0:0:0:
320,192,68302,1,0,0:0:0:0:
192,192,68343,1,0,0:0:0:0:
64,192,68385,1,0,0:0:0:0:
448,192,68427,1,0,0:0:0:0:
192,192,68469,1,0,0:0:0:0:
320,192,68510,1,0,0:0:0:0:
64,192,68553,1,0,0:0:0:0:
448,192,68553,1,0,0:0:0:0:
192,192,68594,1,0,0:0:0:0:
320,192,68636,1,0,0:0:0:0:
448,192,68678,1,0,0:0:0:0:
320,192,68720,1,0,0:0:0:0:
64,192,68761,1,0,0:0:0:0:
192,192,68803,1,0,0:0:0:0:
320,192,68845,1,0,0:0:0:0:
64,192,68887,1,0,0:0:0:0:
192,192,68929,1,0,0:0:0:0:
448,192,68929,1,0,0:0:0:0:
320,192,68970,1,0,0:0:0:0:
64,192,69013,1,0,0:0:0:0:
192,192,69054,1,0,0:0:0:0:
448,192,69054,1,0,0:0:0:0:
64,192,69096,1,0,0:0:0:0:
320,192,69137,1,0,0:0:0:0:
448,192,69180,1,0,0:0:0:0:
192,192,69221,1,0,0:0:0:0:
320,192,69263,1,0,0:0:0:0:
64,192,69305,1,0,0:0:0:0:
448,192,69305,1,0,0:0:0:0:
192,192,69346,1,0,0:0:0:0:
320,192,69389,1,0,0:0:0:0:
192,192,69430,1,0,0:0:0:0:
448,192,69472,1,0,0:0:0:0:
320,192,69514,1,0,0:0:0:0:
64,192,69556,1,0,0:0:0:0:
192,192,69556,1,0,0:0:0:0:
448,192,69597,1,0,0:0:0:0:
320,192,69640,1,0,0:0:0:0:
64,192,69681,1,0,0:0:0:0:
192,192,69723,1,0,0:0:0:0:
448,192,69765,1,0,0:0:0:0:
64,192,69806,1,0,0:0:0:0:
192,192,69849,1,0,0:0:0:0:
320,192,69890,1,0,0:0:0:0:
64,192,69932,1,0,0:0:0:0:
192,192,69932,1,0,0:0:0:0:
448,192,69974,1,0,0:0:0:0:
320,192,70016,1,0,0:0:0:0:
64,192,70057,1,0,0:0:0:0:
192,192,70057,1,0,0:0:0:0:
448,192,70100,1,0,0:0:0:0:
320,192,70141,1,0,0:0:0:0:
64,192,70183,1,0,0:0:0:0:
192,192,70225,1,0,0:0:0:0:
448,192,70266,1,0,0:0:0:0:
320,192,70308,1,0,0:0:0:0:
64,192,70350,1,0,0:0:0:0:
448,192,70392,1,0,0:0:0:0:
320,192,70433,1,0,0:0:0:0:
192,192,70476,1,0,0:0:0:0:
448,192,70517,1,0,0:0:0:0:
64,192,70559,1,0,0:0:0:0:
320,192,70559,1,0,0:0:0:0:
192,192,70601,1,0,0:0:0:0:
320,192,70643,1,0,0:0:0:0:
448,192,70684,1,0,0:0:0:0:
64,192,70726,1,0,0:0:0:0:
192,192,70768,1,0,0:0:0:0:
448,192,70810,1,0,0:0:0:0:
64,192,70852,1,0,0:0:0:0:
192,192,70893,1,0,0:0:0:0:
320,192,70936,1,0,0:0:0:0:
448,192,70936,1,0,0:0:0:0:
64,192,70977,1,0,0:0:0:0:
192,192,71019,1,0,0:0:0:0:
320,192,71061,1,0,0:0:0:0:
448,192,71061,1,0,0:0:0:0:
64,192,71103,1,0,0:0:0:0:
192,192,71144,1,0,0:0:0:0:
64,192,71186,1,0,0:0:0:0:
320,192,71228,1,0,0:0:0:0:
192,192,71270,1,0,0:0:0:0:
64,192,71312,1,0,0:0:0:0:
448,192,71312,1,0,0:0:0:0:
320,192,71353,1,0,0:0:0:0:
192,192,71395,1,0,0:0:0:0:
448,192,71437,1,0,0:0:0:0:
64,192,71479,1,0,0:0:0:0:
320,192,71520,1,0,0:0:0:0:
64,192,71563,1,0,0:0:0:0:
192,192,71563,1,0,0:0:0:0:
448,192,71604,1,0,0:0:0:0:
320,192,71646,1,0,0:0:0:0:
64,192,71688,1,0,0:0:0:0:
448,192,71730,1,0,0:0:0:0:
192,192,71772,1,0,0:0:0:0:
320,192,71813,1,0,0:0:0:0:
64,192,71855,1,0,0:0:0:0:
448,192,71897,1,0,0:0:0:0:
64,192,71939,1,0,0:0:0:0:
320,192,71939,1,0,0:0:0:0:
192,192,71980,1,0,0:0:0:0:
320,192,72023,1,0,0:0:0:0:
64,192,72064,1,0,0:0:0:0:
448,192,72064,1,0,0:0:0:0:
192,192,72106,1,0,0:0:0:0:
320,192,72148,1,0,0:0:0:0:
64,192,72190,1,0,0:0:0:0:
192,192,72231,1,0,0:0:0:0:
320,192,72273,1,0,0:0:0:0:
64,192,72315,1,0,0:0:0:0:
192,192,72315,1,0,0:0:0:0:
448,192,72356,1,0,0:0:0:0:
320,192,72398,1,0,0:0:0:0:
64,192,72440,1,0,0:0:0:0:
192,192,72440,1,0,0:0:0:0:
448,192,72482,1,0,0:0:0:0:
320,192,72523,1,0,0:0:0:0:
64,192,72566,1,0,0:0:0:0:
192,192,72566,1,0,0:0:0:0:
448,192,72566,1,0,0:0:0:0:
192,192,72942,1,0,0:0:0:0:
320,192,72942,128,0,73067:0:0:0:0:
64,192,73067,128,0,73695:0:0:0:0:
192,192,73067,1,0,0:0:0:0:
320,192,73569,1,0,0:0:0:0:
448,192,73569,1,0,0:0:0:0:
192,192,73695,128,0,73757:0:0:0:0:
320,192,73757,128,0,73820:0:0:0:0:
448,192,73820,128,0,74071:0:0:0:0:
64,192,74071,1,0,0:0:0:0:
192,192,74071,128,0,74573:0:0:0:0:
320,192,74071,1,0,0:0:0:0:
320,192,74573,1,0,0:0:0:0:
448,192,74573,128,0,75450:0:0:0:0:
64,192,74949,1,0,0:0:0:0:
320,192,74949,1,0,0:0:0:0:
64,192,75074,1,0,0:0:0:0:
192,192,75074,1,0,0:0:0:0:
320,192,75074,1,0,0:0:0:0:
64,192,75325,1,0,0:0:0:0:
192,192,75325,1,0,0:0:0:0:
192,192,75576,128,0,75701:0:0:0:0:
320,192,75576,1,0,0:0:0:0:
448,192,75576,1,0,0:0:0:0:
64,192,76077,1,0,0:0:0:0:
192,192,76077,1,0,0:0:0:0:
320,192,76077,128,0,76203:0:0:0:0:
448,192,76077,1,0,0:0:0:0:
64,192,76328,1,0,0:0:0:0:
192,192,76328,1,0,0:0:0:0:
320,192,76453,1,0,0:0:0:0:
448,192,76453,1,0,0:0:0:0:
64,192,76580,1,0,0:0:0:0:
192,192,76580,1,0,0:0:0:0:
448,192,76580,128,0,76956:0:0:0:0:
64,192,76956,1,0,0:0:0:0:
192,192,76956,1,0,0:0:0:0:
64,192,77081,1,0,0:0:0:0:
192,192,77081,1,0,0:0:0:0:
320,192,77081,128,0,77332:0:0:0:0:
448,192,77081,1,0,0:0:0:0:
192,192,77332,128,0,77583:0:0:0:0:
320,192,77583,1,0,0:0:0:0:
448,192,77583,1,0,0:0:0:0:
64,192,78084,128,0,78210:0:0:0:0:
192,192,78084,1,0,0:0:0:0:
320,192,78084,1,0,0:0:0:0:
448,192,78084,1,0,0:0:0:0:
320,192,78586,128,0,79087:0:0:0:0:
448,192,78586,1,0,0:0:0:0:
64,192,79087,128,0,79338:0:0:0:0:
192,192,79087,1,0,0:0:0:0:
448,192,79087,1,0,0:0:0:0:
192,192,79338,128,0,79590:0:0:0:0:
320,192,79338,1,0,0:0:0:0:
448,192,79338,1,0,0:0:0:0:
64,192,79590,128,0,79756:0:0:0:0:
320,192,79590,1,0,0:0:0:0:
448,192,79590,1,0,0:0:0:0:
192,192,79756,128,0,79840:0:0:0:0:
448,192,79840,128,0,79923:0:0:0:0:
320,192,79923,128,0,80007:0:0:0:0:
192,192,80007,128,0,80091:0:0:0:0:
64,192,80091,128,0,80342:0:0:0:0:
320,192,80091,1,0,0:0:0:0:
448,192,80091,1,0,0:0:0:0:
320,192,80342,1,0,0:0:0:0:
448,192,80342,1,0,0:0:0:0:
64,192,80467,1,0,0:0:0:0:
192,192,80467,1,0,0:0:0:0:
192,192,80593,128,0,80969:0:0:0:0:
320,192,80593,1,0,0:0:0:0:
448,192,80593,1,0,0:0:0:0:
64,192,80969,1,0,0:0:0:0:
448,192,80969,1,0,0:0:0:0:
64,192,81094,1,0,0:0:0:0:
192,192,81094,1,0,0:0:0:0:
320,192,81094,128,0,81596:0:0:0:0:
448,192,81094,1,0,0:0:0:0:
64,192,81596,1,0,0:0:0:0:
192,192,81596,1,0,0:0:0:0:
448,192,81721,128,0,81784:0:0:0:0:
320,192,81784,128,0,81846:0:0:0:0:
192,192,81846,128,0,82097:0:0:0:0:
64,192,82097,128,0,82600:0:0:0:0:
320,192,82097,1,0,0:0:0:0:
448,192,82097,1,0,0:0:0:0:
192,192,82600,1,0,0:0:0:0:
320,192,82600,1,0,0:0:0:0:
448,192,82600,128,0,83352:0:0:0:0:
192,192,82976,1,0,0:0:0:0:
320,192,82976,1,0,0:0:0:0:
64,192,83101,1,0,0:0:0:0:
192,192,83101,1,0,0:0:0:0:
320,192,83101,1,0,0:0:0:0:
64,192,83352,1,0,0:0:0:0:
192,192,83352,1,0,0:0:0:0:
64,192,83603,1,0,0:0:0:0:
320,192,83603,128,0,83728:0:0:0:0:
448,192,83603,1,0,0:0:0:0:
64,192,84104,1,0,0:0:0:0:
192,192,84104,128,0,84230:0:0:0:0:
320,192,84104,1,0,0:0:0:0:
448,192,84104,1,0,0:0:0:0:
320,192,84355,1,0,0:0:0:0:
448,192,84355,1,0,0:0:0:0:
64,192,84480,1,0,0:0:0:0:
192,192,84480,1,0,0:0:0:0:
64,192,84606,128,0,85107:0:0:0:0:
320,192,84606,1,0,0:0:0:0:
448,192,84606,1,0,0:0:0:0:
320,192,84982,1,0,0:0:0:0:
448,192,84982,1,0,0:0:0:0:
192,192,85107,128,0,85359:0:0:0:0:
320,192,85107,1,0,0:0:0:0:
448,192,85107,1,0,0:0:0:0:
448,192,85359,128,0,85610:0:0:0:0:
64,192,85610,1,0,0:0:0:0:
320,192,85610,1,0,0:0:0:0:
64,192,86111,1,0,0:0:0:0:
192,192,86111,128,0,86236:0:0:0:0:
320,192,86111,1,0,0:0:0:0:
448,192,86111,1,0,0:0:0:0:
64,192,86613,1,0,0:0:0:0:
320,192,86613,1,0,0:0:0:0:
448,192,86613,128,0,87114:0:0:0:0:
192,192,86989,1,0,0:0:0:0:
320,192,86989,1,0,0:0:0:0:
64,192,87114,128,0,87365:0:0:0:0:
192,192,87114,1,0,0:0:0:0:
320,192,87114,1,0,0:0:0:0:
192,192,87365,1,0,0:0:0:0:
320,192,87365,128,0,87616:0:0:0:0:
448,192,87365,1,0,0:0:0:0:
64,192,87616,1,0,0:0:0:0:
192,192,87616,128,0,87783:0:0:0:0:
448,192,87616,1,0,0:0:0:0:
448,192,87783,128,0,87866:0:0:0:0:
320,192,87866,128,0,87950:0:0:0:0:
64,192,87950,128,0,88034:0:0:0:0:
192,192,88034,128,0,88118:0:0:0:0:
64,192,88118,128,0,88369:0:0:0:0:
320,192,88118,1,0,0:0:0:0:
448,192,88118,1,0,0:0:0:0:
320,192,88369,1,0,0:0:0:0:
448,192,88369,1,0,0:0:0:0:
64,192,88494,1,0,0:0:0:0:
192,192,88494,1,0,0:0:0:0:
64,192,88620,1,0,0:0:0:0:
192,192,88620,1,0,0:0:0:0:
320,192,88620,1,0,0:0:0:0:
448,192,88620,1,0,0:0:0:0:
64,192,88996,1,0,0:0:0:0:
192,192,88996,1,0,0:0:0:0:
320,192,88996,1,0,0:0:0:0:
448,192,88996,1,0,0:0:0:0:
320,192,89121,1,0,0:0:0:0:
448,192,89121,1,0,0:0:0:0:
64,192,89623,1,0,0:0:0:0:
192,192,89623,1,0,0:0:0:0:
448,192,89664,1,0,0:0:0:0:
320,192,89706,1,0,0:0:0:0:
192,192,89748,1,0,0:0:0:0:
448,192,89790,1,0,0:0:0:0:
320,192,89832,1,0,0:0:0:0:
64,192,89873,1,0,0:0:0:0:
192,192,89915,1,0,0:0:0:0:
320,192,89957,1,0,0:0:0:0:
64,192,89999,1,0,0:0:0:0:
192,192,90041,1,0,0:0:0:0:
448,192,90083,1,0,0:0:0:0:
64,192,90124,1,0,0:0:0:0:
320,192,90124,1,0,0:0:0:0:
192,192,90166,1,0,0:0:0:0:
448,192,90208,1,0,0:0:0:0:
320,192,90250,1,0,0:0:0:0:
192,192,90292,1,0,0:0:0:0:
64,192,90333,1,0,0:0:0:0:
448,192,90375,1,0,0:0:0:0:
192,192,90417,1,0,0:0:0:0:
320,192,90459,1,0,0:0:0:0:
448,192,90500,1,0,0:0:0:0:
64,192,90543,1,0,0:0:0:0:
192,192,90584,1,0,0:0:0:0:
320,192,90626,1,0,0:0:0:0:
448,192,90626,1,0,0:0:0:0:
448,192,90751,1,0,0:0:0:0:
320,192,90876,1,0,0:0:0:0:
64,192,91003,1,0,0:0:0:0:
192,192,91003,1,0,0:0:0:0:
320,192,91003,1,0,0:0:0:0:
448,192,91003,1,0,0:0:0:0:
64,192,91128,1,0,0:0:0:0:
192,192,91128,1,0,0:0:0:0:
448,192,91253,1,0,0:0:0:0:
320,192,91379,1,0,0:0:0:0:
192,192,91504,1,0,0:0:0:0:
64,192,91630,1,0,0:0:0:0:
448,192,91630,1,0,0:0:0:0:
320,192,91671,1,0,0:0:0:0:
192,192,91713,1,0,0:0:0:0:
64,192,91755,1,0,0:0:0:0:
320,192,91796,1,0,0:0:0:0:
192,192,91838,1,0,0:0:0:0:
448,192,91880,1,0,0:0:0:0:
320,192,91922,1,0,0:0:0:0:
64,192,91964,1,0,0:0:0:0:
192,192,92006,1,0,0:0:0:0:
320,192,92047,1,0,0:0:0:0:
448,192,92090,1,0,0:0:0:0:
64,192,92131,1,0,0:0:0:0:
192,192,92131,1,0,0:0:0:0:
320,192,92173,1,0,0:0:0:0:
448,192,92215,1,0,0:0:0:0:
192,192,92256,1,0,0:0:0:0:
320,192,92298,1,0,0:0:0:0:
64,192,92340,1,0,0:0:0:0:
192,192,92382,1,0,0:0:0:0:
448,192,92382,1,0,0:0:0:0:
320,192,92423,1,0,0:0:0:0:
192,192,92466,1,0,0:0:0:0:
64,192,92507,1,0,0:0:0:0:
448,192,92549,1,0,0:0:0:0:
320,192,92591,1,0,0:0:0:0:
64,192,92633,1,0,0:0:0:0:
192,192,92633,1,0,0:0:0:0:
448,192,92674,1,0,0:0:0:0:
320,192,92716,1,0,0:0:0:0:
64,192,92758,1,0,0:0:0:0:
192,192,92800,1,0,0:0:0:0:
320,192,92842,1,0,0:0:0:0:
448,192,92883,1,0,0:0:0:0:
64,192,92926,1,0,0:0:0:0:
192,192,92967,1,0,0:0:0:0:
320,192,93009,1,0,0:0:0:0:
448,192,93009,1,0,0:0:0:0:
64,192,93051,1,0,0:0:0:0:
192,192,93093,1,0,0:0:0:0:
320,192,93134,1,0,0:0:0:0:
448,192,93134,1,0,0:0:0:0:
64,192,93176,1,0,0:0:0:0:
192,192,93218,1,0,0:0:0:0:
448,192,93260,1,0,0:0:0:0:
320,192,93302,1,0,0:0:0:0:
192,192,93343,1,0,0:0:0:0:
64,192,93385,1,0,0:0:0:0:
448,192,93427,1,0,0:0:0:0:
320,192,93469,1,0,0:0:0:0:
192,192,93510,1,0,0:0:0:0:
448,192,93553,1,0,0:0:0:0:
320,192,93594,1,0,0:0:0:0:
64,192,93636,1,0,0:0:0:0:
192,192,93636,1,0,0:0:0:0:
448,192,93678,1,0,0:0:0:0:
320,192,93720,1,0,0:0:0:0:
64,192,93761,1,0,0:0:0:0:
192,192,93803,1,0,0:0:0:0:
320,192,93845,1,0,0:0:0:0:
448,192,93887,1,0,0:0:0:0:
64,192,93929,1,0,0:0:0:0:
192,192,93970,1,0,0:0:0:0:
320,192,94013,1,0,0:0:0:0:
64,192,94054,1,0,0:0:0:0:
192,192,94096,1,0,0:0:0:0:
320,192,94138,1,0,0:0:0:0:
448,192,94138,1,0,0:0:0:0:
64,192,94180,1,0,0:0:0:0:
192,192,94221,1,0,0:0:0:0:
448,192,94263,1,0,0:0:0:0:
320,192,94305,1,0,0:0:0:0:
192,192,94346,1,0,0:0:0:0:
64,192,94389,1,0,0:0:0:0:
448,192,94430,1,0,0:0:0:0:
320,192,94472,1,0,0:0:0:0:
192,192,94514,1,0,0:0:0:0:
448,192,94556,1,0,0:0:0:0:
320,192,94597,1,0,0:0:0:0:
64,192,94640,1,0,0:0:0:0:
192,192,94640,1,0,0:0:0:0:
448,192,94681,1,0,0:0:0:0:
320,192,94723,1,0,0:0:0:0:
64,192,94765,1,0,0:0:0:0:
192,192,94806,1,0,0:0:0:0:
320,192,94849,1,0,0:0:0:0:
448,192,94890,1,0,0:0:0:0:
64,192,94932,1,0,0:0:0:0:
192,192,94974,1,0,0:0:0:0:
320,192,95016,1,0,0:0:0:0:
64,192,95057,1,0,0:0:0:0:
192,192,95100,1,0,0:0:0:0:
320,192,95141,1,0,0:0:0:0:
448,192,95141,1,0,0:0:0:0:
64,192,95183,1,0,0:0:0:0:
192,192,95225,1,0,0:0:0:0:
448,192,95266,1,0,0:0:0:0:
320,192,95308,1,0,0:0:0:0:
192,192,95350,1,0,0:0:0:0:
64,192,95392,1,0,0:0:0:0:
448,192,95433,1,0,0:0:0:0:
320,192,95476,1,0,0:0:0:0:
64,192,95517,1,0,0:0:0:0:
448,192,95559,1,0,0:0:0:0:
320,192,95601,1,0,0:0:0:0:
64,192,95643,1,0,0:0:0:0:
192,192,95643,1,0,0:0:0:0:
448,192,95684,1,0,0:0:0:0:
320,192,95726,1,0,0:0:0:0:
64,192,95768,1,0,0:0:0:0:
192,192,95810,1,0,0:0:0:0:
320,192,95852,1,0,0:0:0:0:
448,192,95893,1,0,0:0:0:0:
64,192,95936,1,0,0:0:0:0:
192,192,95977,1,0,0:0:0:0:
448,192,96019,1,0,0:0:0:0:
64,192,96061,1,0,0:0:0:0:
192,192,96103,1,0,0:0:0:0:
320,192,96144,1,0,0:0:0:0:
448,192,96144,1,0,0:0:0:0:
64,192,96186,1,0,0:0:0:0:
192,192,96228,1,0,0:0:0:0:
448,192,96270,1,0,0:0:0:0:
320,192,96312,1,0,0:0:0:0:
192,192,96353,1,0,0:0:0:0:
320,192,96395,1,0,0:0:0:0:
448,192,96395,1,0,0:0:0:0:
64,192,96436,1,0,0:0:0:0:
192,192,96479,1,0,0:0:0:0:
448,192,96520,1,0,0:0:0:0:
64,192,96562,1,0,0:0:0:0:
320,192,96604,1,0,0:0:0:0:
448,192,96646,1,0,0:0:0:0:
64,192,96646,1,0,0:0:0:0:
192,192,96646,1,0,0:0:0:0:
320,192,96772,1,0,0:0:0:0:
192,192,96897,1,0,0:0:0:0:
64,192,97023,1,0,0:0:0:0:
192,192,97023,1,0,0:0:0:0:
320,192,97023,1,0,0:0:0:0:
64,192,97148,1,0,0:0:0:0:
192,192,97148,1,0,0:0:0:0:
320,192,97148,1,0,0:0:0:0:
448,192,97148,1,0,0:0:0:0:
448,192,97273,1,0,0:0:0:0:
64,192,97399,1,0,0:0:0:0:
192,192,97399,1,0,0:0:0:0:
320,192,97524,1,0,0:0:0:0:
64,192,97650,1,0,0:0:0:0:
448,192,97650,1,0,0:0:0:0:
192,192,97691,1,0,0:0:0:0:
320,192,97733,1,0,0:0:0:0:
64,192,97775,1,0,0:0:0:0:
192,192,97816,1,0,0:0:0:0:
448,192,97859,1,0,0:0:0:0:
320,192,97900,1,0,0:0:0:0:
192,192,97942,1,0,0:0:0:0:
320,192,97984,1,0,0:0:0:0:
64,192,98026,1,0,0:0:0:0:
448,192,98026,1,0,0:0:0:0:
192,192,98067,1,0,0:0:0:0:
320,192,98110,1,0,0:0:0:0:
64,192,98151,1,0,0:0:0:0:
448,192,98151,1,0,0:0:0:0:
192,192,98193,1,0,0:0:0:0:
64,192,98234,1,0,0:0:0:0:
320,192,98276,1,0,0:0:0:0:
448,192,98318,1,0,0:0:0:0:
192,192,98360,1,0,0:0:0:0:
64,192,98402,1,0,0:0:0:0:
320,192,98402,1,0,0:0:0:0:
448,192,98443,1,0,0:0:0:0:
192,192,98485,1,0,0:0:0:0:
320,192,98527,1,0,0:0:0:0:
448,192,98569,1,0,0:0:0:0:
192,192,98610,1,0,0:0:0:0:
64,192,98653,1,0,0:0:0:0:
448,192,98653,1,0,0:0:0:0:
192,192,98715,1,0,0:0:0:0:
320,192,98778,1,0,0:0:0:0:
64,192,98841,1,0,0:0:0:0:
448,192,98903,1,0,0:0:0:0:
192,192,98966,1,0,0:0:0:0:
320,192,99029,1,0,0:0:0:0:
448,192,99029,1,0,0:0:0:0:
192,192,99092,1,0,0:0:0:0:
64,192,99154,1,0,0:0:0:0:
320,192,99154,1,0,0:0:0:0:
448,192,99217,1,0,0:0:0:0:
192,192,99280,1,0,0:0:0:0:
320,192,99343,1,0,0:0:0:0:
64,192,99405,1,0,0:0:0:0:
448,192,99405,1,0,0:0:0:0:
192,192,99468,1,0,0:0:0:0:
320,192,99530,1,0,0:0:0:0:
448,192,99593,1,0,0:0:0:0:
64,192,99656,1,0,0:0:0:0:
192,192,99656,1,0,0:0:0:0:
320,192,99698,1,0,0:0:0:0:
448,192,99740,1,0,0:0:0:0:
192,192,99782,1,0,0:0:0:0:
320,192,99823,1,0,0:0:0:0:
64,192,99865,1,0,0:0:0:0:
192,192,99907,1,0,0:0:0:0:
320,192,99949,1,0,0:0:0:0:
448,192,99990,1,0,0:0:0:0:
64,192,100033,1,0,0:0:0:0:
192,192,100033,1,0,0:0:0:0:
320,192,100074,1,0,0:0:0:0:
448,192,100116,1,0,0:0:0:0:
64,192,100158,1,0,0:0:0:0:
192,192,100158,1,0,0:0:0:0:
320,192,100200,1,0,0:0:0:0:
448,192,100241,1,0,0:0:0:0:
64,192,100283,1,0,0:0:0:0:
192,192,100325,1,0,0:0:0:0:
320,192,100366,1,0,0:0:0:0:
192,192,100409,1,0,0:0:0:0:
448,192,100409,1,0,0:0:0:0:
64,192,100450,1,0,0:0:0:0:
320,192,100492,1,0,0:0:0:0:
192,192,100534,1,0,0:0:0:0:
448,192,100576,1,0,0:0:0:0:
320,192,100618,1,0,0:0:0:0:
64,192,100660,1,0,0:0:0:0:
192,192,100660,1,0,0:0:0:0:
448,192,100701,1,0,0:0:0:0:
320,192,100743,1,0,0:0:0:0:
192,192,100785,1,0,0:0:0:0:
448,192,100826,1,0,0:0:0:0:
64,192,100869,1,0,0:0:0:0:
192,192,100910,1,0,0:0:0:0:
320,192,100910,1,0,0:0:0:0:
448,192,100952,1,0,0:0:0:0:
64,192,100994,1,0,0:0:0:0:
320,192,101036,1,0,0:0:0:0:
448,192,101036,1,0,0:0:0:0:
192,192,101077,1,0,0:0:0:0:
64,192,101120,1,0,0:0:0:0:
192,192,101161,1,0,0:0:0:0:
320,192,101161,1,0,0:0:0:0:
448,192,101203,1,0,0:0:0:0:
320,192,101245,1,0,0:0:0:0:
64,192,101286,1,0,0:0:0:0:
192,192,101328,1,0,0:0:0:0:
320,192,101370,1,0,0:0:0:0:
64,192,101412,1,0,0:0:0:0:
448,192,101412,1,0,0:0:0:0:
192,192,101453,1,0,0:0:0:0:
320,192,101496,1,0,0:0:0:0:
64,192,101537,1,0,0:0:0:0:
192,192,101580,1,0,0:0:0:0:
448,192,101621,1,0,0:0:0:0:
64,192,101663,1,0,0:0:0:0:
320,192,101663,1,0,0:0:0:0:
192,192,101705,1,0,0:0:0:0:
448,192,101746,1,0,0:0:0:0:
320,192,101788,1,0,0:0:0:0:
192,192,101830,1,0,0:0:0:0:
448,192,101872,1,0,0:0:0:0:
64,192,101913,1,0,0:0:0:0:
192,192,101913,1,0,0:0:0:0:
320,192,101956,1,0,0:0:0:0:
448,192,101997,1,0,0:0:0:0:
64,192,102039,1,0,0:0:0:0:
320,192,102039,1,0,0:0:0:0:
192,192,102081,1,0,0:0:0:0:
448,192,102122,1,0,0:0:0:0:
64,192,102164,1,0,0:0:0:0:
320,192,102164,1,0,0:0:0:0:
192,192,102206,1,0,0:0:0:0:
64,192,102248,1,0,0:0:0:0:
320,192,102290,1,0,0:0:0:0:
448,192,102332,1,0,0:0:0:0:
192,192,102373,1,0,0:0:0:0:
320,192,102415,1,0,0:0:0:0:
448,192,102415,1,0,0:0:0:0:
64,192,102457,1,0,0:0:0:0:
192,192,102499,1,0,0:0:0:0:
320,192,102541,1,0,0:0:0:0:
64,192,102583,1,0,0:0:0:0:
448,192,102624,1,0,0:0:0:0:
192,192,102666,1,0,0:0:0:0:
320,192,102666,1,0,0:0:0:0:
64,192,102708,1,0,0:0:0:0:
192,192,102750,1,0,0:0:0:0:
320,192,102792,1,0,0:0:0:0:
448,192,102792,1,0,0:0:0:0:
64,192,102833,1,0,0:0:0:0:
448,192,102875,1,0,0:0:0:0:
64,192,102916,1,0,0:0:0:0:
320,192,102917,1,0,0:0:0:0:
192,192,102959,1,0,0:0:0:0:
448,192,103000,1,0,0:0:0:0:
64,192,103043,1,0,0:0:0:0:
320,192,103043,1,0,0:0:0:0:
192,192,103084,1,0,0:0:0:0:
320,192,103126,1,0,0:0:0:0:
64,192,103168,1,0,0:0:0:0:
448,192,103168,1,0,0:0:0:0:
192,192,103210,1,0,0:0:0:0:
320,192,103251,1,0,0:0:0:0:
192,192,103293,1,0,0:0:0:0:
448,192,103293,1,0,0:0:0:0:
64,192,103335,1,0,0:0:0:0:
320,192,103376,1,0,0:0:0:0:
64,192,103419,1,0,0:0:0:0:
448,192,103419,1,0,0:0:0:0:
192,192,103460,1,0,0:0:0:0:
320,192,103503,1,0,0:0:0:0:
192,192,103544,1,0,0:0:0:0:
448,192,103544,1,0,0:0:0:0:
64,192,103586,1,0,0:0:0:0:
320,192,103628,1,0,0:0:0:0:
64,192,103670,1,0,0:0:0:0:
448,192,103670,1,0,0:0:0:0:
192,192,103711,1,0,0:0:0:0:
448,192,103753,1,0,0:0:0:0:
64,192,103795,1,0,0:0:0:0:
192,192,103795,1,0,0:0:0:0:
320,192,103836,1,0,0:0:0:0:
448,192,103879,1,0,0:0:0:0:
192,192,103920,1,0,0:0:0:0:
320,192,103920,1,0,0:0:0:0:
64,192,103962,1,0,0:0:0:0:
448,192,104004,1,0,0:0:0:0:
64,192,104046,1,0,0:0:0:0:
192,192,104046,1,0,0:0:0:0:
320,192,104087,1,0,0:0:0:0:
448,192,104130,1,0,0:0:0:0:
64,192,104171,1,0,0:0:0:0:
192,192,104171,1,0,0:0:0:0:
320,192,104171,1,0,0:0:0:0:
192,192,104296,1,0,0:0:0:0:
320,192,104296,1,0,0:0:0:0:
448,192,104296,1,0,0:0:0:0:
64,192,104547,1,0,0:0:0:0:
192,192,104547,1,0,0:0:0:0:
448,192,104547,1,0,0:0:0:0:
64,192,104673,1,0,0:0:0:0:
192,192,104673,1,0,0:0:0:0:
320,192,104673,1,0,0:0:0:0:
448,192,104673,1,0,0:0:0:0:
320,192,104923,128,0,105049:0:0:0:0:
64,192,105049,1,0,0:0:0:0:
192,192,105049,1,0,0:0:0:0:
448,192,105049,1,0,0:0:0:0:
64,192,105174,1,0,0:0:0:0:
192,192,105174,128,0,105300:0:0:0:0:
320,192,105174,1,0,0:0:0:0:
448,192,105174,1,0,0:0:0:0:
448,192,105300,1,0,0:0:0:0:
64,192,105426,1,0,0:0:0:0:
192,192,105426,1,0,0:0:0:0:
320,192,105426,1,0,0:0:0:0:
192,192,105551,1,0,0:0:0:0:
64,192,105676,1,0,0:0:0:0:
192,192,105676,1,0,0:0:0:0:
320,192,105676,1,0,0:0:0:0:
448,192,105676,1,0,0:0:0:0:
448,192,105802,1,0,0:0:0:0:
320,192,105927,1,0,0:0:0:0:
64,192,106053,1,0,0:0:0:0:
320,192,106053,1,0,0:0:0:0:
448,192,106053,1,0,0:0:0:0:
64,192,106178,1,0,0:0:0:0:
192,192,106178,1,0,0:0:0:0:
320,192,106178,1,0,0:0:0:0:
448,192,106178,1,0,0:0:0:0:
192,192,106303,1,0,0:0:0:0:
192,192,106429,1,0,0:0:0:0:
448,192,106429,1,0,0:0:0:0:
448,192,106554,1,0,0:0:0:0:
64,192,106680,1,0,0:0:0:0:
320,192,106680,1,0,0:0:0:0:
448,192,106680,1,0,0:0:0:0:
64,192,106805,1,0,0:0:0:0:
320,192,106930,1,0,0:0:0:0:
64,192,107056,1,0,0:0:0:0:
192,192,107056,1,0,0:0:0:0:
320,192,107056,1,0,0:0:0:0:
64,192,107181,1,0,0:0:0:0:
192,192,107181,1,0,0:0:0:0:
320,192,107181,1,0,0:0:0:0:
448,192,107181,1,0,0:0:0:0:
448,192,107306,1,0,0:0:0:0:
64,192,107432,1,0,0:0:0:0:
192,192,107432,1,0,0:0:0:0:
192,192,107557,1,0,0:0:0:0:
64,192,107683,1,0,0:0:0:0:
192,192,107683,1,0,0:0:0:0:
448,192,107683,1,0,0:0:0:0:
448,192,107808,1,0,0:0:0:0:
64,192,107933,1,0,0:0:0:0:
64,192,108059,1,0,0:0:0:0:
448,192,108059,1,0,0:0:0:0:
64,192,108184,1,0,0:0:0:0:
192,192,108184,1,0,0:0:0:0:
320,192,108184,1,0,0:0:0:0:
448,192,108184,1,0,0:0:0:0:
320,192,108310,1,0,0:0:0:0:
64,192,108436,1,0,0:0:0:0:
192,192,108436,1,0,0:0:0:0:
448,192,108436,1,0,0:0:0:0:
192,192,108561,1,0,0:0:0:0:
320,192,108561,1,0,0:0:0:0:
64,192,108686,1,0,0:0:0:0:
192,192,108686,1,0,0:0:0:0:
320,192,108686,1,0,0:0:0:0:
448,192,108686,1,0,0:0:0:0:
448,192,108812,1,0,0:0:0:0:
64,192,108937,1,0,0:0:0:0:
192,192,108937,1,0,0:0:0:0:
64,192,109063,1,0,0:0:0:0:
192,192,109063,1,0,0:0:0:0:
320,192,109063,1,0,0:0:0:0:
64,192,109188,1,0,0:0:0:0:
192,192,109188,1,0,0:0:0:0:
320,192,109188,1,0,0:0:0:0:
448,192,109188,1,0,0:0:0:0:
448,192,109313,1,0,0:0:0:0:
64,192,109439,1,0,0:0:0:0:
192,192,109439,1,0,0:0:0:0:
64,192,109564,1,0,0:0:0:0:
64,192,109690,1,0,0:0:0:0:
192,192,109690,1,0,0:0:0:0:
448,192,109690,1,0,0:0:0:0:
448,192,109815,1,0,0:0:0:0:
192,192,109940,1,0,0:0:0:0:
192,192,110066,1,0,0:0:0:0:
320,192,110066,1,0,0:0:0:0:
448,192,110066,1,0,0:0:0:0:
64,192,110191,1,0,0:0:0:0:
192,192,110191,1,0,0:0:0:0:
320,192,110191,1,0,0:0:0:0:
448,192,110191,1,0,0:0:0:0:
64,192,110316,1,0,0:0:0:0:
448,192,110316,1,0,0:0:0:0:
192,192,110442,1,0,0:0:0:0:
320,192,110442,1,0,0:0:0:0:
320,192,110567,1,0,0:0:0:0:
192,192,110693,1,0,0:0:0:0:
320,192,110693,1,0,0:0:0:0:
448,192,110693,1,0,0:0:0:0:
192,192,110818,1,0,0:0:0:0:
64,192,110943,1,0,0:0:0:0:
64,192,111069,1,0,0:0:0:0:
192,192,111069,1,0,0:0:0:0:
448,192,111069,1,0,0:0:0:0:
64,192,111195,1,0,0:0:0:0:
192,192,111195,1,0,0:0:0:0:
320,192,111195,1,0,0:0:0:0:
448,192,111195,1,0,0:0:0:0:
320,192,111320,1,0,0:0:0:0:
64,192,111446,1,0,0:0:0:0:
192,192,111446,1,0,0:0:0:0:
448,192,111446,1,0,0:0:0:0:
64,192,111571,1,0,0:0:0:0:
192,192,111696,1,0,0:0:0:0:
320,192,111696,1,0,0:0:0:0:
448,192,111696,1,0,0:0:0:0:
320,192,111822,1,0,0:0:0:0:
64,192,111947,1,0,0:0:0:0:
64,192,112073,1,0,0:0:0:0:
320,192,112073,1,0,0:0:0:0:
448,192,112073,1,0,0:0:0:0:
64,192,112198,1,0,0:0:0:0:
192,192,112198,1,0,0:0:0:0:
320,192,112198,1,0,0:0:0:0:
448,192,112198,1,0,0:0:0:0:
192,192,112323,1,0,0:0:0:0:
448,192,112323,1,0,0:0:0:0:
64,192,112449,1,0,0:0:0:0:
192,192,112449,1,0,0:0:0:0:
320,192,112449,1,0,0:0:0:0:
64,192,112574,1,0,0:0:0:0:
320,192,112574,1,0,0:0:0:0:
448,192,112574,1,0,0:0:0:0:
64,192,112700,1,0,0:0:0:0:
192,192,112700,1,0,0:0:0:0:
320,192,112700,1,0,0:0:0:0:
448,192,112700,1,0,0:0:0:0:
192,192,112825,1,0,0:0:0:0:
64,192,112950,1,0,0:0:0:0:
448,192,112950,128,0,113076:0:0:0:0:
192,192,113076,1,0,0:0:0:0:
320,192,113076,1,0,0:0:0:0:
64,192,113201,1,0,0:0:0:0:
192,192,113201,1,0,0:0:0:0:
320,192,113201,1,0,0:0:0:0:
448,192,113201,1,0,0:0:0:0:
64,192,113326,1,0,0:0:0:0:
192,192,113452,1,0,0:0:0:0:
320,192,113452,1,0,0:0:0:0:
448,192,113452,1,0,0:0:0:0:
448,192,113577,1,0,0:0:0:0:
64,192,113703,1,0,0:0:0:0:
192,192,113703,1,0,0:0:0:0:
320,192,113703,1,0,0:0:0:0:
64,192,113828,1,0,0:0:0:0:
192,192,113953,1,0,0:0:0:0:
64,192,114080,1,0,0:0:0:0:
192,192,114080,1,0,0:0:0:0:
320,192,114080,1,0,0:0:0:0:
64,192,114205,1,0,0:0:0:0:
192,192,114205,1,0,0:0:0:0:
320,192,114205,1,0,0:0:0:0:
448,192,114205,1,0,0:0:0:0:
448,192,114330,1,0,0:0:0:0:
192,192,114456,1,0,0:0:0:0:
320,192,114456,1,0,0:0:0:0:
192,192,114581,1,0,0:0:0:0:
64,192,114706,1,0,0:0:0:0:
192,192,114706,1,0,0:0:0:0:
320,192,114706,1,0,0:0:0:0:
448,192,114706,1,0,0:0:0:0:
320,192,114832,1,0,0:0:0:0:
448,192,114957,1,0,0:0:0:0:
64,192,115083,1,0,0:0:0:0:
192,192,115083,1,0,0:0:0:0:
320,192,115083,1,0,0:0:0:0:
64,192,115208,1,0,0:0:0:0:
192,192,115208,1,0,0:0:0:0:
320,192,115208,1,0,0:0:0:0:
448,192,115208,1,0,0:0:0:0:
448,192,115333,1,0,0:0:0:0:
64,192,115459,1,0,0:0:0:0:
192,192,115459,1,0,0:0:0:0:
320,192,115459,1,0,0:0:0:0:
64,192,115584,1,0,0:0:0:0:
192,192,115710,1,0,0:0:0:0:
320,192,115710,1,0,0:0:0:0:
448,192,115710,1,0,0:0:0:0:
448,192,115835,1,0,0:0:0:0:
320,192,115960,1,0,0:0:0:0:
192,192,116086,1,0,0:0:0:0:
320,192,116086,1,0,0:0:0:0:
448,192,116086,1,0,0:0:0:0:
64,192,116211,1,0,0:0:0:0:
192,192,116211,1,0,0:0:0:0:
320,192,116211,1,0,0:0:0:0:
448,192,116211,1,0,0:0:0:0:
64,192,116336,1,0,0:0:0:0:
192,192,116462,1,0,0:0:0:0:
320,192,116462,1,0,0:0:0:0:
448,192,116462,1,0,0:0:0:0:
64,192,116587,1,0,0:0:0:0:
192,192,116587,1,0,0:0:0:0:
320,192,116587,1,0,0:0:0:0:
64,192,116713,1,0,0:0:0:0:
192,192,116713,1,0,0:0:0:0:
320,192,116713,1,0,0:0:0:0:
448,192,116713,1,0,0:0:0:0:
448,192,116838,1,0,0:0:0:0:
64,192,116964,1,0,0:0:0:0:
192,192,116964,1,0,0:0:0:0:
64,192,117090,1,0,0:0:0:0:
192,192,117090,1,0,0:0:0:0:
320,192,117090,1,0,0:0:0:0:
64,192,117215,1,0,0:0:0:0:
192,192,117215,1,0,0:0:0:0:
320,192,117215,1,0,0:0:0:0:
448,192,117215,1,0,0:0:0:0:
448,192,117340,1,0,0:0:0:0:
64,192,117466,1,0,0:0:0:0:
192,192,117466,1,0,0:0:0:0:
320,192,117466,1,0,0:0:0:0:
64,192,117591,1,0,0:0:0:0:
64,192,117716,1,0,0:0:0:0:
320,192,117716,1,0,0:0:0:0:
448,192,117716,1,0,0:0:0:0:
448,192,117842,1,0,0:0:0:0:
192,192,117967,1,0,0:0:0:0:
64,192,118093,1,0,0:0:0:0:
192,192,118093,1,0,0:0:0:0:
448,192,118093,1,0,0:0:0:0:
64,192,118218,1,0,0:0:0:0:
192,192,118218,1,0,0:0:0:0:
320,192,118218,1,0,0:0:0:0:
448,192,118218,1,0,0:0:0:0:
320,192,118343,1,0,0:0:0:0:
448,192,118343,1,0,0:0:0:0:
64,192,118469,1,0,0:0:0:0:
192,192,118469,1,0,0:0:0:0:
320,192,118469,1,0,0:0:0:0:
192,192,118594,1,0,0:0:0:0:
64,192,118720,1,0,0:0:0:0:
192,192,118720,1,0,0:0:0:0:
320,192,118720,1,0,0:0:0:0:
448,192,118720,1,0,0:0:0:0:
64,192,118845,1,0,0:0:0:0:
448,192,118970,1,0,0:0:0:0:
64,192,119096,1,0,0:0:0:0:
192,192,119096,1,0,0:0:0:0:
448,192,119096,1,0,0:0:0:0:
64,192,119221,1,0,0:0:0:0:
192,192,119221,1,0,0:0:0:0:
320,192,119221,1,0,0:0:0:0:
448,192,119221,1,0,0:0:0:0:
320,192,119346,1,0,0:0:0:0:
64,192,119472,1,0,0:0:0:0:
192,192,119472,1,0,0:0:0:0:
448,192,119472,1,0,0:0:0:0:
448,192,119597,1,0,0:0:0:0:
64,192,119723,1,0,0:0:0:0:
192,192,119723,1,0,0:0:0:0:
320,192,119723,1,0,0:0:0:0:
448,192,119723,1,0,0:0:0:0:
192,192,119849,1,0,0:0:0:0:
320,192,119974,1,0,0:0:0:0:
64,192,120100,1,0,0:0:0:0:
192,192,120100,1,0,0:0:0:0:
320,192,120100,1,0,0:0:0:0:
64,192,120225,1,0,0:0:0:0:
192,192,120225,1,0,0:0:0:0:
320,192,120225,1,0,0:0:0:0:
448,192,120225,1,0,0:0:0:0:
192,192,120350,1,0,0:0:0:0:
448,192,120350,1,0,0:0:0:0:
64,192,120476,1,0,0:0:0:0:
320,192,120476,1,0,0:0:0:0:
448,192,120476,1,0,0:0:0:0:
64,192,120601,1,0,0:0:0:0:
192,192,120601,1,0,0:0:0:0:
320,192,120601,1,0,0:0:0:0:
64,192,120726,1,0,0:0:0:0:
192,192,120726,1,0,0:0:0:0:
320,192,120726,1,0,0:0:0:0:
448,192,120726,1,0,0:0:0:0:
448,192,120977,128,0,121103:0:0:0:0:
64,192,121103,1,0,0:0:0:0:
192,192,121103,1,0,0:0:0:0:
64,192,121228,1,0,0:0:0:0:
192,192,121228,1,0,0:0:0:0:
320,192,121228,1,0,0:0:0:0:
64,192,121479,1,0,0:0:0:0:
448,192,121479,1,0,0:0:0:0:
320,192,121730,1,0,0:0:0:0:
448,192,121730,1,0,0:0:0:0:
64,192,121772,1,0,0:0:0:0:
192,192,121813,1,0,0:0:0:0:
320,192,121855,1,0,0:0:0:0:
448,192,121897,1,0,0:0:0:0:
192,192,121939,1,0,0:0:0:0:
320,192,121980,1,0,0:0:0:0:
64,192,122023,1,0,0:0:0:0:
192,192,122064,1,0,0:0:0:0:
320,192,122106,1,0,0:0:0:0:
448,192,122106,1,0,0:0:0:0:
64,192,122148,1,0,0:0:0:0:
192,192,122190,1,0,0:0:0:0:
320,192,122231,1,0,0:0:0:0:
448,192,122231,1,0,0:0:0:0:
64,192,122273,1,0,0:0:0:0:
192,192,122315,1,0,0:0:0:0:
448,192,122356,1,0,0:0:0:0:
320,192,122399,1,0,0:0:0:0:
64,192,122440,1,0,0:0:0:0:
192,192,122482,1,0,0:0:0:0:
448,192,122482,1,0,0:0:0:0:
320,192,122524,1,0,0:0:0:0:
64,192,122566,1,0,0:0:0:0:
192,192,122607,1,0,0:0:0:0:
320,192,122650,1,0,0:0:0:0:
192,192,122691,1,0,0:0:0:0:
64,192,122733,1,0,0:0:0:0:
448,192,122733,1,0,0:0:0:0:
320,192,122796,1,0,0:0:0:0:
192,192,122859,1,0,0:0:0:0:
320,192,122921,1,0,0:0:0:0:
448,192,122984,1,0,0:0:0:0:
64,192,123046,1,0,0:0:0:0:
192,192,123110,1,0,0:0:0:0:
448,192,123110,1,0,0:0:0:0:
320,192,123172,1,0,0:0:0:0:
64,192,123235,1,0,0:0:0:0:
192,192,123235,1,0,0:0:0:0:
448,192,123297,1,0,0:0:0:0:
320,192,123360,1,0,0:0:0:0:
192,192,123423,1,0,0:0:0:0:
64,192,123486,1,0,0:0:0:0:
448,192,123486,1,0,0:0:0:0:
320,192,123548,1,0,0:0:0:0:
192,192,123611,1,0,0:0:0:0:
320,192,123673,1,0,0:0:0:0:
64,192,123736,1,0,0:0:0:0:
448,192,123736,1,0,0:0:0:0:
192,192,123778,1,0,0:0:0:0:
320,192,123820,1,0,0:0:0:0:
64,192,123862,1,0,0:0:0:0:
448,192,123862,1,0,0:0:0:0:
192,192,123903,1,0,0:0:0:0:
320,192,123946,1,0,0:0:0:0:
448,192,123987,1,0,0:0:0:0:
192,192,124029,1,0,0:0:0:0:
448,192,124071,1,0,0:0:0:0:
64,192,124113,1,0,0:0:0:0:
320,192,124113,1,0,0:0:0:0:
192,192,124154,1,0,0:0:0:0:
448,192,124196,1,0,0:0:0:0:
64,192,124238,1,0,0:0:0:0:
320,192,124238,1,0,0:0:0:0:
192,192,124280,1,0,0:0:0:0:
448,192,124322,1,0,0:0:0:0:
320,192,124363,1,0,0:0:0:0:
64,192,124405,1,0,0:0:0:0:
192,192,124447,1,0,0:0:0:0:
320,192,124489,1,0,0:0:0:0:
448,192,124489,1,0,0:0:0:0:
64,192,124530,1,0,0:0:0:0:
192,192,124573,1,0,0:0:0:0:
448,192,124614,1,0,0:0:0:0:
320,192,124656,1,0,0:0:0:0:
192,192,124698,1,0,0:0:0:0:
64,192,124740,1,0,0:0:0:0:
448,192,124740,1,0,0:0:0:0:
320,192,124781,1,0,0:0:0:0:
64,192,124823,1,0,0:0:0:0:
192,192,124865,1,0,0:0:0:0:
320,192,124907,1,0,0:0:0:0:
448,192,124948,1,0,0:0:0:0:
64,192,124990,1,0,0:0:0:0:
320,192,125033,1,0,0:0:0:0:
192,192,125074,1,0,0:0:0:0:
64,192,125116,1,0,0:0:0:0:
448,192,125116,1,0,0:0:0:0:
320,192,125158,1,0,0:0:0:0:
192,192,125200,1,0,0:0:0:0:
64,192,125241,1,0,0:0:0:0:
448,192,125241,1,0,0:0:0:0:
320,192,125283,1,0,0:0:0:0:
192,192,125325,1,0,0:0:0:0:
448,192,125366,1,0,0:0:0:0:
64,192,125408,1,0,0:0:0:0:
192,192,125450,1,0,0:0:0:0:
320,192,125492,1,0,0:0:0:0:
448,192,125492,1,0,0:0:0:0:
192,192,125533,1,0,0:0:0:0:
64,192,125576,1,0,0:0:0:0:
448,192,125617,1,0,0:0:0:0:
320,192,125660,1,0,0:0:0:0:
192,192,125701,1,0,0:0:0:0:
448,192,125743,1,0,0:0:0:0:
64,192,125743,1,0,0:0:0:0:
320,192,125785,1,0,0:0:0:0:
448,192,125826,1,0,0:0:0:0:
192,192,125869,1,0,0:0:0:0:
64,192,125910,1,0,0:0:0:0:
320,192,125952,1,0,0:0:0:0:
192,192,125994,1,0,0:0:0:0:
448,192,126036,1,0,0:0:0:0:
320,192,126077,1,0,0:0:0:0:
64,192,126120,1,0,0:0:0:0:
192,192,126120,1,0,0:0:0:0:
448,192,126161,1,0,0:0:0:0:
320,192,126203,1,0,0:0:0:0:
64,192,126245,1,0,0:0:0:0:
192,192,126245,1,0,0:0:0:0:
448,192,126286,1,0,0:0:0:0:
320,192,126328,1,0,0:0:0:0:
448,192,126370,1,0,0:0:0:0:
64,192,126412,1,0,0:0:0:0:
192,192,126453,1,0,0:0:0:0:
320,192,126496,1,0,0:0:0:0:
448,192,126496,1,0,0:0:0:0:
64,192,126537,1,0,0:0:0:0:
320,192,126580,1,0,0:0:0:0:
192,192,126621,1,0,0:0:0:0:
448,192,126663,1,0,0:0:0:0:
320,192,126705,1,0,0:0:0:0:
64,192,126746,1,0,0:0:0:0:
192,192,126746,1,0,0:0:0:0:
448,192,126788,1,0,0:0:0:0:
320,192,126830,1,0,0:0:0:0:
64,192,126872,1,0,0:0:0:0:
192,192,126913,1,0,0:0:0:0:
320,192,126956,1,0,0:0:0:0:
64,192,126997,1,0,0:0:0:0:
192,192,127039,1,0,0:0:0:0:
320,192,127081,1,0,0:0:0:0:
192,192,127122,1,0,0:0:0:0:
448,192,127123,1,0,0:0:0:0:
64,192,127164,1,0,0:0:0:0:
320,192,127206,1,0,0:0:0:0:
192,192,127248,1,0,0:0:0:0:
448,192,127248,1,0,0:0:0:0:
64,192,127290,1,0,0:0:0:0:
320,192,127332,1,0,0:0:0:0:
448,192,127373,1,0,0:0:0:0:
192,192,127415,1,0,0:0:0:0:
448,192,127457,1,0,0:0:0:0:
64,192,127499,1,0,0:0:0:0:
320,192,127499,1,0,0:0:0:0:
192,192,127541,1,0,0:0:0:0:
448,192,127583,1,0,0:0:0:0:
320,192,127624,1,0,0:0:0:0:
192,192,127666,1,0,0:0:0:0:
64,192,127708,1,0,0:0:0:0:
320,192,127750,1,0,0:0:0:0:
448,192,127750,1,0,0:0:0:0:
192,192,127792,1,0,0:0:0:0:
64,192,127833,1,0,0:0:0:0:
320,192,127875,1,0,0:0:0:0:
448,192,127917,1,0,0:0:0:0:
192,192,127959,1,0,0:0:0:0:
320,192,128000,1,0,0:0:0:0:
64,192,128043,1,0,0:0:0:0:
192,192,128084,1,0,0:0:0:0:
320,192,128126,1,0,0:0:0:0:
448,192,128126,1,0,0:0:0:0:
64,192,128168,1,0,0:0:0:0:
192,192,128210,1,0,0:0:0:0:
320,192,128251,1,0,0:0:0:0:
448,192,128251,1,0,0:0:0:0:
64,192,128293,1,0,0:0:0:0:
192,192,128335,1,0,0:0:0:0:
448,192,128376,1,0,0:0:0:0:
320,192,128419,1,0,0:0:0:0:
64,192,128460,1,0,0:0:0:0:
192,192,128502,1,0,0:0:0:0:
448,192,128503,1,0,0:0:0:0:
320,192,128544,1,0,0:0:0:0:
192,192,128586,1,0,0:0:0:0:
64,192,128627,1,0,0:0:0:0:
448,192,128628,1,0,0:0:0:0:
320,192,128670,1,0,0:0:0:0:
192,192,128711,1,0,0:0:0:0:
320,192,128753,1,0,0:0:0:0:
64,192,128753,1,0,0:0:0:0:
448,192,128753,1,0,0:0:0:0:
320,192,129004,128,0,129130:0:0:0:0:
64,192,129130,1,0,0:0:0:0:
192,192,129130,1,0,0:0:0:0:
448,192,129130,1,0,0:0:0:0:
64,192,129255,1,0,0:0:0:0:
192,192,129255,1,0,0:0:0:0:
320,192,129255,1,0,0:0:0:0:
448,192,129255,1,0,0:0:0:0:
64,192,129506,1,0,0:0:0:0:
320,192,129506,1,0,0:0:0:0:
192,192,129756,1,0,0:0:0:0:
448,192,129756,1,0,0:0:0:0:
64,192,129798,1,0,0:0:0:0:
320,192,129840,1,0,0:0:0:0:
192,192,129882,1,0,0:0:0:0:
448,192,129923,1,0,0:0:0:0:
320,192,129966,1,0,0:0:0:0:
64,192,130007,1,0,0:0:0:0:
448,192,130049,1,0,0:0:0:0:
320,192,130091,1,0,0:0:0:0:
64,192,130133,1,0,0:0:0:0:
192,192,130133,1,0,0:0:0:0:
448,192,130174,1,0,0:0:0:0:
320,192,130216,1,0,0:0:0:0:
64,192,130258,1,0,0:0:0:0:
192,192,130258,1,0,0:0:0:0:
448,192,130300,1,0,0:0:0:0:
320,192,130342,1,0,0:0:0:0:
64,192,130383,1,0,0:0:0:0:
192,192,130426,1,0,0:0:0:0:
448,192,130466,1,0,0:0:0:0:
64,192,130509,1,0,0:0:0:0:
320,192,130509,1,0,0:0:0:0:
192,192,130551,1,0,0:0:0:0:
320,192,130593,1,0,0:0:0:0:
448,192,130634,1,0,0:0:0:0:
192,192,130676,1,0,0:0:0:0:
320,192,130718,1,0,0:0:0:0:
64,192,130760,1,0,0:0:0:0:
448,192,130760,1,0,0:0:0:0:
192,192,130823,1,0,0:0:0:0:
320,192,130885,1,0,0:0:0:0:
192,192,130948,1,0,0:0:0:0:
64,192,131010,1,0,0:0:0:0:
448,192,131073,1,0,0:0:0:0:
64,192,131136,1,0,0:0:0:0:
320,192,131136,1,0,0:0:0:0:
192,192,131199,1,0,0:0:0:0:
320,192,131261,1,0,0:0:0:0:
448,192,131261,1,0,0:0:0:0:
192,192,131324,1,0,0:0:0:0:
64,192,131387,1,0,0:0:0:0:
320,192,131450,1,0,0:0:0:0:
192,192,131513,1,0,0:0:0:0:
448,192,131513,1,0,0:0:0:0:
64,192,131575,1,0,0:0:0:0:
320,192,131638,1,0,0:0:0:0:
192,192,131700,1,0,0:0:0:0:
64,192,131763,1,0,0:0:0:0:
448,192,131763,1,0,0:0:0:0:
320,192,131805,1,0,0:0:0:0:
192,192,131846,1,0,0:0:0:0:
448,192,131889,1,0,0:0:0:0:
320,192,131930,1,0,0:0:0:0:
192,192,131972,1,0,0:0:0:0:
64,192,132014,1,0,0:0:0:0:
448,192,132056,1,0,0:0:0:0:
192,192,132097,1,0,0:0:0:0:
64,192,132140,1,0,0:0:0:0:
448,192,132140,1,0,0:0:0:0:
320,192,132181,1,0,0:0:0:0:
192,192,132223,1,0,0:0:0:0:
64,192,132265,1,0,0:0:0:0:
448,192,132265,1,0,0:0:0:0:
192,192,132306,1,0,0:0:0:0:
320,192,132348,1,0,0:0:0:0:
448,192,132390,1,0,0:0:0:0:
192,192,132432,1,0,0:0:0:0:
64,192,132474,1,0,0:0:0:0:
320,192,132515,1,0,0:0:0:0:
448,192,132557,1,0,0:0:0:0:
192,192,132557,1,0,0:0:0:0:
64,192,132600,1,0,0:0:0:0:
448,192,132640,1,0,0:0:0:0:
64,192,132683,1,0,0:0:0:0:
320,192,132724,1,0,0:0:0:0:
448,192,132766,1,0,0:0:0:0:
192,192,132766,1,0,0:0:0:0:
64,192,132808,1,0,0:0:0:0:
320,192,132850,1,0,0:0:0:0:
448,192,132891,1,0,0:0:0:0:
192,192,132933,1,0,0:0:0:0:
320,192,132976,1,0,0:0:0:0:
448,192,133017,1,0,0:0:0:0:
64,192,133059,1,0,0:0:0:0:
192,192,133101,1,0,0:0:0:0:
320,192,133143,1,0,0:0:0:0:
448,192,133143,1,0,0:0:0:0:
64,192,133184,1,0,0:0:0:0:
192,192,133226,1,0,0:0:0:0:
320,192,133268,1,0,0:0:0:0:
448,192,133268,1,0,0:0:0:0:
64,192,133310,1,0,0:0:0:0:
320,192,133351,1,0,0:0:0:0:
192,192,133393,1,0,0:0:0:0:
64,192,133435,1,0,0:0:0:0:
448,192,133476,1,0,0:0:0:0:
64,192,133519,1,0,0:0:0:0:
192,192,133519,1,0,0:0:0:0:
320,192,133561,1,0,0:0:0:0:
448,192,133602,1,0,0:0:0:0:
192,192,133644,1,0,0:0:0:0:
320,192,133686,1,0,0:0:0:0:
192,192,133728,1,0,0:0:0:0:
64,192,133770,1,0,0:0:0:0:
448,192,133770,1,0,0:0:0:0:
320,192,133812,1,0,0:0:0:0:
192,192,133853,1,0,0:0:0:0:
448,192,133895,1,0,0:0:0:0:
64,192,133936,1,0,0:0:0:0:
320,192,133979,1,0,0:0:0:0:
192,192,134020,1,0,0:0:0:0:
320,192,134063,1,0,0:0:0:0:
448,192,134104,1,0,0:0:0:0:
64,192,134146,1,0,0:0:0:0:
192,192,134146,1,0,0:0:0:0:
320,192,134188,1,0,0:0:0:0:
448,192,134230,1,0,0:0:0:0:
64,192,134272,1,0,0:0:0:0:
192,192,134272,1,0,0:0:0:0:
320,192,134313,1,0,0:0:0:0:
448,192,134355,1,0,0:0:0:0:
192,192,134397,1,0,0:0:0:0:
64,192,134439,1,0,0:0:0:0:
320,192,134480,1,0,0:0:0:0:
192,192,134523,1,0,0:0:0:0:
448,192,134523,1,0,0:0:0:0:
64,192,134564,1,0,0:0:0:0:
320,192,134606,1,0,0:0:0:0:
192,192,134648,1,0,0:0:0:0:
448,192,134690,1,0,0:0:0:0:
320,192,134731,1,0,0:0:0:0:
64,192,134773,1,0,0:0:0:0:
192,192,134773,1,0,0:0:0:0:
448,192,134815,1,0,0:0:0:0:
320,192,134856,1,0,0:0:0:0:
64,192,134899,1,0,0:0:0:0:
192,192,134940,1,0,0:0:0:0:
448,192,134982,1,0,0:0:0:0:
320,192,135023,1,0,0:0:0:0:
192,192,135066,1,0,0:0:0:0:
64,192,135107,1,0,0:0:0:0:
320,192,135149,1,0,0:0:0:0:
448,192,135150,1,0,0:0:0:0:
192,192,135191,1,0,0:0:0:0:
320,192,135233,1,0,0:0:0:0:
64,192,135275,1,0,0:0:0:0:
448,192,135275,1,0,0:0:0:0:
192,192,135316,1,0,0:0:0:0:
320,192,135359,1,0,0:0:0:0:
64,192,135400,1,0,0:0:0:0:
448,192,135442,1,0,0:0:0:0:
192,192,135483,1,0,0:0:0:0:
64,192,135526,1,0,0:0:0:0:
320,192,135526,1,0,0:0:0:0:
448,192,135567,1,0,0:0:0:0:
192,192,135609,1,0,0:0:0:0:
320,192,135650,1,0,0:0:0:0:
448,192,135693,1,0,0:0:0:0:
192,192,135735,1,0,0:0:0:0:
320,192,135776,1,0,0:0:0:0:
448,192,135776,1,0,0:0:0:0:
64,192,135818,1,0,0:0:0:0:
192,192,135860,1,0,0:0:0:0:
320,192,135902,1,0,0:0:0:0:
192,192,135943,1,0,0:0:0:0:
448,192,135986,1,0,0:0:0:0:
320,192,136027,1,0,0:0:0:0:
448,192,136069,1,0,0:0:0:0:
64,192,136111,1,0,0:0:0:0:
192,192,136153,1,0,0:0:0:0:
320,192,136153,1,0,0:0:0:0:
448,192,136195,1,0,0:0:0:0:
64,192,136236,1,0,0:0:0:0:
320,192,136278,1,0,0:0:0:0:
192,192,136278,1,0,0:0:0:0:
448,192,136320,1,0,0:0:0:0:
64,192,136362,1,0,0:0:0:0:
320,192,136403,1,0,0:0:0:0:
192,192,136446,1,0,0:0:0:0:
448,192,136487,1,0,0:0:0:0:
64,192,136529,1,0,0:0:0:0:
192,192,136529,1,0,0:0:0:0:
320,192,136571,1,0,0:0:0:0:
448,192,136613,1,0,0:0:0:0:
64,192,136654,1,0,0:0:0:0:
320,192,136654,1,0,0:0:0:0:
192,192,136696,1,0,0:0:0:0:
448,192,136738,1,0,0:0:0:0:
64,192,136780,1,0,0:0:0:0:
192,192,136780,1,0,0:0:0:0:
320,192,136780,1,0,0:0:0:0:
