osu file format v14

[General]
AudioFilename: audio.mp3
AudioLeadIn: 0
PreviewTime: -1
Countdown: 1
SampleSet: Soft
StackLeniency: 0.7
Mode: 0
LetterboxInBreaks: 0
WidescreenStoryboard: 1

[Editor]
Bookmarks: 15318
DistanceSpacing: 0.6
BeatDivisor: 4
GridSize: 32
TimelineZoom: 3.999998

[Metadata]
Title:Clown
TitleUnicode:Clown
Artist:Clown
ArtistUnicode:Clown
Creator:Supreme God
Version:hinami's Old Clown
Source:Clown
Tags:Clown. Renumi Ancelysia enryotoki Tatan Tanzeem Est- Sip of Mercury SUKIJames graves hinami-chi Ragnarok VII Autist Radar yeahbennou Vulkin - J E N - Cerberus Roze TheDuckMask Flowziee Doomsday is Bad Veridian Hokichi Amezury TLQ_Yoshii
BeatmapID:1964796
BeatmapSetID:940656

[Difficulty]
HPDrainRate:3
CircleSize:4
OverallDifficulty:3
ApproachRate:9
SliderMultiplier:3.59999990463257
SliderTickRate:1

[Events]
//Background and Video events
0,0,"Clown.png",0,0
//Break Periods
//Storyboard Layer 0 (Background)
//Storyboard Layer 1 (Fail)
//Storyboard Layer 2 (Pass)
//Storyboard Layer 3 (Foreground)
//Storyboard Sound Samples

[TimingPoints]
678,480,4,2,0,80,1,0
2838,-100,4,1,0,20,0,0
3318,-100,4,1,0,40,0,0
3798,-100,4,1,0,60,0,0
4278,-100,4,1,0,80,0,0
4758,-100,4,2,0,80,0,1
11958,-100,4,2,0,80,0,1

[Colours]
Combo1 : 123,255,0
Combo2 : 255,0,0
Combo3 : 255,255,0
Combo4 : 0,128,255
Combo5 : 255,128,64
Combo6 : 128,0,255

[HitObjects]
174,171,678,5,0,0:0:0:0:
282,127,798,1,0,0:0:0:0:
380,189,918,2,0,P|380:285|284:317,2,179.999995231628,0|2|0,0:0|0:0|0:0,0:0:0:0:
224,176,1638,1,2,0:0:0:0:
183,51,1878,2,0,P|84:54|20:118,2,179.999995231629,0|2|0,0:0|0:0|0:0,0:0:0:0:
257,192,2598,1,2,0:0:0:0:
197,172,2838,5,4,0:0:0:0:
274,133,2958,1,0,0:0:0:0:
313,210,3078,1,0,0:0:0:0:
236,249,3198,1,8,0:0:0:0:
195,124,3318,5,4,0:0:0:0:
319,131,3438,1,0,0:0:0:0:
313,255,3558,1,0,0:0:0:0:
189,249,3678,1,8,0:0:0:0:
234,89,3798,5,4,0:0:0:0:
355,167,3918,1,0,0:0:0:0:
277,289,4038,1,0,0:0:0:0:
155,212,4158,1,8,0:0:0:0:
292,78,4278,5,4,0:0:0:0:
368,226,4398,1,0,0:0:0:0:
221,301,4518,1,0,0:0:0:0:
145,154,4638,1,8,0:0:0:0:
373,155,4758,2,0,P|414:239|371:309,1,179.999995231629,2|4,0:0|0:0,0:0:0:0:
215,68,5238,5,8,0:0:0:0:
361,268,5358,1,0,0:0:0:0:
125,191,5478,1,0,0:0:0:0:
361,115,5598,1,8,0:0:0:0:
215,315,5718,2,0,P|125:291|98:191,1,179.999995231629
94,162,6078,5,10,0:0:0:0:
116,112,6198,1,0,0:0:0:0:
255,191,6438,1,8,0:0:0:0:
255,191,6678,1,2,0:0:0:0:
255,191,6918,1,8,0:0:0:0:
314,75,7158,5,8,0:0:0:0:
276,319,7278,1,0,0:0:0:0:
164,98,7398,1,0,0:0:0:0:
384,211,7518,1,8,0:0:0:0:
140,249,7638,2,0,P|113:147|167:77,1,179.999995231629
203,79,7998,1,8,0:0:0:0:
251,103,8118,1,0,0:0:0:0:
291,276,8358,5,8,0:0:0:0:
307,224,8478,1,0,0:0:0:0:
306,170,8598,2,0,P|399:159|459:82,1,179.999995231629,0|8,0:0|0:0,0:0:0:0:
431,48,8958,1,0,0:0:0:0:
377,48,9078,1,0,0:0:0:0:
269,59,9318,5,8,0:0:0:0:
161,61,9558,2,0,P|76:100|68:214,1,179.999995231629,8|0,0:0|0:0,0:0:0:0:
75,228,9918,1,8,0:0:0:0:
125,247,10038,1,0,0:0:0:0:
255,190,10278,1,4,0:0:0:0:
197,172,10518,5,4,0:0:0:0:
274,133,10638,1,0,0:0:0:0:
313,210,10758,1,0,0:0:0:0:
236,249,10878,1,8,0:0:0:0:
195,124,10998,5,4,0:0:0:0:
319,131,11118,1,0,0:0:0:0:
313,255,11238,1,0,0:0:0:0:
189,249,11358,1,8,0:0:0:0:
234,89,11478,5,4,0:0:0:0:
355,167,11598,1,0,0:0:0:0:
277,289,11718,1,0,0:0:0:0:
155,212,11838,1,8,0:0:0:0:
83,152,11958,5,2,0:0:0:0:
376,62,12198,1,4,0:0:0:0:
307,360,12438,1,2,0:0:0:0:
254,195,12678,1,4,0:0:0:0:
254,195,12918,5,2,0:0:0:0:
160,64,13038,1,0,0:0:0:0:
352,64,13158,1,0,0:0:0:0:
96,288,13278,1,8,0:0:0:0:
416,288,13398,1,0,0:0:0:0:
64,352,13638,5,8,0:0:0:0:
64,352,13758,1,0,0:0:0:0:
64,352,13878,1,0,0:0:0:0:
448,64,14118,5,8,0:0:0:0:
448,64,14358,1,0,0:0:0:0:
448,64,14598,1,8,0:0:0:0:
160,192,14838,5,2,0:0:0:0:
192,128,14958,5,0,0:0:0:0:
256,96,15078,5,0,0:0:0:0:
320,128,15198,5,8,0:0:0:0:
352,192,15318,5,0,0:0:0:0:
