osu file format v14

[General]
AudioFilename: audio.mp3
AudioLeadIn: 0
PreviewTime: -1
Countdown: 1
SampleSet: Soft
StackLeniency: 0.7
Mode: 0
LetterboxInBreaks: 0
WidescreenStoryboard: 1

[Editor]
DistanceSpacing: 2.7
BeatDivisor: 8
GridSize: 16
TimelineZoom: 5.500002

[Metadata]
Title:Clown
TitleUnicode:Clown
Artist:Clown
ArtistUnicode:Clown
Creator:Supreme God
Version:Hoki's Sad Clown
Source:Clown
Tags:Clown. Renumi Ancelysia enryotoki Tatan Tanzeem Est- Sip of Mercury SUKIJames graves hinami-chi Ragnarok VII Autist Radar yeahbennou Vulkin - J E N - Cerberus Roze TheDuckMask Flowziee Doomsday is Bad Veridian Hokichi Amezury TLQ_Yoshii
BeatmapID:1970111
BeatmapSetID:940656

[Difficulty]
HPDrainRate:0
CircleSize:6.5
OverallDifficulty:4
ApproachRate:10
SliderMultiplier:3.2
SliderTickRate:1

[Events]
//Background and Video events
0,0,"Clown.png",0,0
//Break Periods
//Storyboard Layer 0 (Background)
//Storyboard Layer 1 (Fail)
//Storyboard Layer 2 (Pass)
//Storyboard Layer 3 (Foreground)
//Storyboard Sound Samples

[TimingPoints]
678,480,4,2,0,50,1,0
918,480,4,2,0,50,1,0
918,-200,4,2,0,50,0,0
1038,-50,4,2,0,5,0,0
1158,-50,4,2,0,50,0,0
1278,-50,4,2,0,5,0,0
1398,-200,4,2,0,50,0,0
1518,-200,4,2,0,5,0,0
1638,-50,4,2,0,50,0,0
1758,-50,4,2,0,5,0,0
1878,-200,4,2,0,50,0,0
1998,-200,4,2,0,5,0,0
2118,-50,4,2,0,50,0,0
2238,-50,4,2,0,5,0,0
2358,-200,4,2,0,50,0,0
2478,-200,4,2,0,5,0,0
2598,-50,4,2,0,50,0,0
2718,-50,4,2,0,5,0,0
2838,-133.333333333333,4,2,0,50,0,0
3078,-133.333333333333,4,2,0,50,0,0
3318,-100,4,2,0,50,0,0
3798,-80,4,2,0,50,0,0
4278,-33.3333333333333,4,2,0,50,0,0
5718,-66.6666666666667,4,2,0,50,0,0
6678,-33.3333333333333,4,2,0,50,0,0
7638,-66.6666666666667,4,2,0,50,0,0
8598,-83.3333333333333,4,2,0,50,0,0
10518,-33.3333333333333,4,2,0,50,0,0
13398,-66.6666666666667,4,2,0,50,0,0
14358,-33.3333333333333,4,2,0,50,0,0

[Colours]
Combo1 : 123,255,0
Combo2 : 255,0,0
Combo3 : 255,255,0
Combo4 : 0,128,255
Combo5 : 255,128,64
Combo6 : 128,0,255

[HitObjects]
126,79,678,6,0,L|171:73,1,40
247,146,798,2,0,L|202:140,1,40
297,83,918,6,0,L|364:77,1,40
392,144,1158,6,0,P|358:97|395:1,1,160
383,246,1398,6,0,B|359:257|359:257|325:258,1,40
233,258,1638,6,0,P|277:211|271:320,1,160
128,243,1878,6,0,L|131:192,1,40
166,305,2118,6,0,P|112:315|58:228,1,160
274,207,2358,6,0,P|303:223|337:218,1,40
405,169,2598,6,0,P|377:110|328:179,1,160
173,237,2838,5,0,0:0:0:0:
281,273,2958,1,0,0:0:0:0:
392,250,3078,1,0,0:0:0:0:
476,174,3198,1,0,0:0:0:0:
233,50,3318,5,0,0:0:0:0:
257,162,3438,1,0,0:0:0:0:
281,272,3558,1,0,0:0:0:0:
305,384,3678,1,0,0:0:0:0:
37,364,3798,5,0,0:0:0:0:
147,262,3918,1,0,0:0:0:0:
257,162,4038,1,0,0:0:0:0:
368,63,4158,1,0,0:0:0:0:
414,197,4278,5,0,0:0:0:0:
296,15,4398,1,0,0:0:0:0:
114,133,4518,1,0,0:0:0:0:
232,315,4638,1,0,0:0:0:0:
397,73,4758,6,0,P|294:102|197:23,1,240.000009155274
0,293,4998,2,0,P|103:264|200:343,1,240.000009155274
357,173,5238,2,0,L|476:160,1,120.000004577637
326,257,5358,2,0,L|375:366,1,120.000004577637
236,253,5478,2,0,L|147:333,1,120.000004577637
211,166,5598,2,0,L|107:106,1,120.000004577637
286,117,5718,6,0,L|310:0,1,120.000004577637
370,232,5958,2,0,P|345:312|359:342,1,120.000004577637
274,187,6198,2,0,B|220:175|220:175|143:186,1,120.000004577637
334,116,6438,2,0,L|501:111,1,120.000004577637
268,272,6678,5,0,0:0:0:0:
190,81,6798,1,0,0:0:0:0:
394,108,6918,2,0,B|516:106|516:106|397:144,1,240.000009155274
190,345,7158,2,0,P|162:309|173:232,1,120.000004577637
329,296,7278,2,0,P|286:311|216:277,1,120.000004577637
325,148,7398,2,0,P|326:193|272:249,1,120.000004577637
183,105,7518,2,0,P|226:117|263:186,1,120.000004577637
99,228,7638,6,0,P|124:190|201:176,1,120.000004577637
233,340,7878,2,0,L|106:331,1,120.000004577637
299,199,8118,2,0,B|316:261|316:261|303:364,1,120.000004577637
223,135,8358,2,0,P|294:91|370:116,1,120.000004577637
203,281,8598,6,0,P|133:293|102:285,1,95.9999970703126
41,164,8838,2,0,L|36:104,1,47.9999985351563
50,290,8958,2,0,L|45:350,1,47.9999985351563
160,161,9078,2,0,B|206:146|206:146|264:154,1,95.9999970703126
428,77,9318,2,0,B|382:92|382:92|324:84,1,95.9999970703126
75,71,9558,6,0,L|207:58,1,95.9999970703126
279,204,9798,2,0,P|282:231|278:263,1,47.9999985351563
334,85,9918,2,0,P|331:58|335:26,1,47.9999985351563
223,122,10038,2,0,L|122:118,1,95.9999970703126
0,301,10278,2,0,L|95:297,1,95.9999970703126
282,100,10518,6,0,P|328:80|303:128,1,120.000004577637
270,228,10638,6,0,P|224:248|249:200,1,120.000004577637
340,170,10758,6,0,P|360:216|312:191,1,120.000004577637
212,158,10878,6,0,P|192:112|240:137,1,120.000004577637
313,111,10998,6,0,P|363:117|317:146,1,120.000004577637
238,216,11118,6,0,P|188:210|234:181,1,120.000004577637
328,201,11238,6,0,P|322:251|293:205,1,120.000004577637
223,126,11358,6,0,P|229:76|258:122,1,120.000004577637
334,137,11478,6,0,P|374:167|320:169,1,120.000004577637
217,190,11598,6,0,P|177:160|231:158,1,120.000004577637
302,222,11718,6,0,P|272:262|270:208,1,120.000004577637
249,105,11838,6,0,P|279:65|281:119,1,120.000004577637
257,217,11958,6,0,B|215:204|185:239|185:239|214:153|154:73,1,240.000009155274
334,137,12198,2,0,B|376:150|406:115|406:115|377:201|437:281,1,240.000009155274
90,294,12438,6,0,B|137:278|186:294|186:294|231:276|231:276|280:289|330:278,1,240.000009155274
263,112,12678,2,0,B|215:127|167:112|167:112|121:129|121:129|72:116|23:128,1,240.000009155274
370,165,12918,2,0,P|377:114|331:44,1,120.000004577637
344,247,13038,2,0,P|394:237|447:172,1,120.000004577637
257,247,13158,2,0,P|281:292|359:321,1,120.000004577637
229,165,13278,2,0,P|193:202|189:285,1,120.000004577637
300,114,13398,6,0,P|253:91|172:113,1,120.000004577637
341,321,13638,2,0,L|353:196,1,120.000004577637
227,335,13878,2,0,B|298:344|298:344|353:314,1,120.000004577637
225,248,14118,2,0,P|175:272|152:355,1,120.000004577637
366,273,14358,5,0,0:0:0:0:
316,97,14478,1,0,0:0:0:0:
133,91,14598,2,0,P|168:242|250:238,1,240.000009155274
324,120,14838,2,0,L|462:105,1,120.000004577637
224,247,14958,2,0,L|86:232,1,120.000004577637
333,230,15078,2,0,L|348:368,1,120.000004577637
206,130,15198,2,0,L|221:-8,1,120.000004577637
