osu file format v14

[General]
AudioFilename: audio.mp3
AudioLeadIn: 0
PreviewTime: -1
Countdown: 1
SampleSet: None
StackLeniency: 0.2
Mode: 0
LetterboxInBreaks: 0
WidescreenStoryboard: 1

[Editor]
Bookmarks: 15318
DistanceSpacing: 0.8
BeatDivisor: 8
GridSize: 4
TimelineZoom: 2.1

[Metadata]
Title:Clown
TitleUnicode:Clown
Artist:Clown
ArtistUnicode:Clown
Creator:Supreme God
Version:Amezurys's Coulrophobia
Source:Clown
Tags:Clown. Renumi Ancelysia enryotoki Tatan Tanzeem Est- Sip of Mercury SUKIJames graves hinami-chi Ragnarok VII Autist Radar yeahbennou Vulkin - J E N - Cerberus Roze TheDuckMask Flowziee Doomsday is Bad Veridian Hokichi Amezury TLQ_Yoshii
BeatmapID:1971037
BeatmapSetID:940656

[Difficulty]
HPDrainRate:6
CircleSize:5
OverallDifficulty:9.3
ApproachRate:9.4
SliderMultiplier:2.7
SliderTickRate:1

[Events]
//Background and Video events
0,0,"Clown.png",0,0
//Break Periods
//Storyboard Layer 0 (Background)
//Storyboard Layer 1 (Fail)
//Storyboard Layer 2 (Pass)
//Storyboard Layer 3 (Foreground)
//Storyboard Sound Samples

[TimingPoints]
678,480,4,2,2,80,1,0
918,480,4,2,0,80,1,0
918,-71.4285714285714,4,2,3,80,0,0
10518,-71.4285714285714,4,2,3,80,0,1
14358,-71.4285714285714,4,2,3,80,0,0

[Colours]
Combo1 : 255,83,83
Combo2 : 159,255,159
Combo3 : 166,206,255
Combo4 : 231,181,232

[HitObjects]
91,66,678,5,0,0:0:0:0:
154,87,798,1,0,0:0:0:0:
222,120,918,2,0,P|270:142|336:212,1,141.749995674133
53,286,1158,2,0,P|114:342|210:351,1,141.749995674133
320,118,1398,6,0,P|366:137|454:224,1,141.749995674133
58,200,1638,2,0,P|96:249|190:300,1,141.749995674133
421,46,1878,2,0,P|327:42|255:62,1,141.749995674133
276,334,2118,2,0,P|220:326|123:265,1,141.749995674133
145,286,2358,2,0,P|194:314|279:334,1,141.749995674133
321,33,2598,2,0,P|391:52|468:106,1,141.749995674133
452,192,2838,1,0,0:0:0:0:
417,279,2958,1,0,0:0:0:0:
347,340,3078,1,0,0:0:0:0:
256,363,3198,1,0,0:0:0:0:
165,342,3318,5,0,0:0:0:0:
93,282,3438,1,0,0:0:0:0:
57,196,3558,1,0,0:0:0:0:
64,102,3678,1,0,0:0:0:0:
113,23,3798,1,0,0:0:0:0:
248,76,3918,5,0,0:0:0:0:
340,73,4038,1,0,0:0:0:0:
414,129,4158,1,0,0:0:0:0:
439,218,4278,1,0,0:0:0:0:
402,304,4398,1,0,0:0:0:0:
321,348,4518,1,0,0:0:0:0:
229,332,4638,1,0,0:0:0:0:
141,282,4758,6,0,P|127:231|164:132,1,141.749995674133
150,147,4998,6,0,P|121:194|141:282,1,141.749995674133
300,104,5238,5,0,0:0:0:0:
384,73,5358,5,0,0:0:0:0:
452,132,5478,5,0,0:0:0:0:
434,220,5598,5,0,0:0:0:0:
352,248,5718,6,0,P|248:232|176:256,1,141.749995674133
104,52,5958,6,0,P|188:72|240:60,1,141.749995674133
396,156,6198,6,0,P|376:216|424:292,1,141.749995674133
80,164,6438,6,0,P|60:224|108:300,1,141.749995674133
232,296,6678,5,0,0:0:0:0:
317,259,6798,5,0,0:0:0:0:
360,160,6918,6,0,P|324:156|288:56,1,141.749995674133
76,232,7158,5,0,0:0:0:0:
102,318,7278,5,0,0:0:0:0:
192,340,7398,5,0,0:0:0:0:
253,275,7518,5,0,0:0:0:0:
230,188,7638,6,0,P|192:136|120:160,1,141.749995674133
125,152,7878,6,0,P|176:132|232:188,1,141.749995674133
230,188,8118,6,0,P|192:136|120:160,1,141.749995674133
125,152,8358,6,0,P|176:132|232:188,1,141.749995674133
380,328,8598,6,0,P|380:264|436:192,1,141.749995674133
436,144,8838,5,0,0:0:0:0:
372,75,8958,5,0,0:0:0:0:
283,48,9078,6,0,P|236:48|144:88,1,141.749995674133
149,83,9318,6,0,P|200:56|288:44,1,141.749995674133
460,280,9558,6,0,P|400:300|316:300,1,141.749995674133
256,224,9798,5,0,0:0:0:0:
198,151,9918,5,0,0:0:0:0:
107,131,10038,6,0,P|148:88|232:68,1,141.749995674133
225,67,10278,6,0,P|160:76|104:128,1,141.749995674133
104,204,10518,5,0,0:0:0:0:
162,277,10638,5,0,0:0:0:0:
245,320,10758,5,0,0:0:0:0:
339,324,10878,5,0,0:0:0:0:
425,288,10998,5,0,0:0:0:0:
338,322,11118,5,0,0:0:0:0:
244,317,11238,5,0,0:0:0:0:
161,274,11358,5,0,0:0:0:0:
103,201,11478,5,0,0:0:0:0:
88,120,11598,5,0,0:0:0:0:
146,47,11718,5,0,0:0:0:0:
236,24,11838,5,0,0:0:0:0:
322,59,11958,6,0,P|360:104|340:216,1,141.749995674133
360,184,12198,6,0,P|364:117|319:55,1,141.749995674133
72,224,12438,6,0,P|124:280|208:304,1,141.749995674133
184,302,12678,6,0,P|128:284|72:224,1,141.749995674133
241,105,12918,5,0,0:0:0:0:
329,117,13038,5,0,0:0:0:0:
359,202,13158,5,0,0:0:0:0:
297,267,13278,5,0,0:0:0:0:
211,242,13398,6,0,P|125:225|65:265,1,141.749995674133
80,248,13638,6,0,P|117:225|213:245,1,141.749995674133
304,64,13878,6,0,P|356:84|408:152,1,141.749995674133
407,150,14118,6,0,P|364:92|296:64,1,141.749995674133
320,172,14358,5,0,0:0:0:0:
