osu file format v14

[General]
AudioFilename: audio.mp3
AudioLeadIn: 0
PreviewTime: -1
Countdown: 0
SampleSet: Normal
StackLeniency: 0.7
Mode: 0
LetterboxInBreaks: 0
WidescreenStoryboard: 1

[Editor]
DistanceSpacing: 2.1
BeatDivisor: 8
GridSize: 16
TimelineZoom: 8

[Metadata]
Title:Clown
TitleUnicode:Clown
Artist:Clown
ArtistUnicode:Clown
Creator:Supreme God
Version:- C L O W N -'S Aheclown
Source:Clown
Tags:Clown. Renumi Ancelysia enryotoki Tatan Tanzeem Est- Sip of Mercury SUKIJames graves hinami-chi Ragnarok VII Autist Radar yeahbennou Vulkin - J E N - Cerberus Roze TheDuckMask Flowziee Doomsday is Bad Veridian Hokichi Amezury TLQ_Yoshii
BeatmapID:1967065
BeatmapSetID:940656

[Difficulty]
HPDrainRate:7
CircleSize:4
OverallDifficulty:10
ApproachRate:10
SliderMultiplier:3
SliderTickRate:1

[Events]
//Background and Video events
0,0,"Weeb Clown.png",0,0
//Break Periods
//Storyboard Layer 0 (Background)
//Storyboard Layer 1 (Fail)
//Storyboard Layer 2 (Pass)
//Storyboard Layer 3 (Foreground)
Sprite,Foreground,Centre,"580b57fcd9996e24bc43c3f6.png",320,240 M,0,14429,,320,240 R,0,14429,14598,1.024 R,0,14598,14718,1.024,2.325943 R,0,14718,14958,2.325943,4.256914 R,0,14958,15198,4.256914,6.304914
//Storyboard Sound Samples

[TimingPoints]
678,480,4,1,0,70,1,0
5718,-25,4,1,0,70,0,0

[HitObjects]
139,206,678,5,0,0:0:0:0:
306,78,798,1,0,0:0:0:0:
248,298,918,6,0,L|248:203,1,75
180,99,1158,2,0,L|180:191,1,75
300,334,1398,2,0,L|299:252,1,75
152,46,1638,2,0,L|153:131,1,75
358,363,1878,2,0,L|358:278,1,75
107,24,2118,2,0,L|109:119,1,75
425,384,2358,2,0,L|426:256,1,75
41,0,2598,2,0,L|43:94,1,75
130,191,2838,5,0,0:0:0:0:
258,281,2958,1,0,0:0:0:0:
356,158,3078,1,0,0:0:0:0:
225,69,3198,1,0,0:0:0:0:
169,354,3318,5,0,0:0:0:0:
344,134,3438,1,0,0:0:0:0:
67,81,3558,1,0,0:0:0:0:
264,316,3678,1,0,0:0:0:0:
512,222,3798,5,0,0:0:0:0:
0,0,3918,1,0,0:0:0:0:
512,384,4038,1,0,0:0:0:0:
0,242,4158,1,0,0:0:0:0:
260,5,4278,1,0,0:0:0:0:
256,376,4398,1,0,0:0:0:0:
73,23,4518,1,0,0:0:0:0:
507,161,4638,1,0,0:0:0:0:
155,354,4758,6,0,L|156:259,1,75
376,21,4998,2,0,L|373:127,1,75
300,345,5238,1,0,0:0:0:0:
238,50,5358,1,0,0:0:0:0:
480,299,5478,1,0,0:0:0:0:
106,150,5598,1,0,0:0:0:0:
0,374,5718,6,0,P|74:314|5:383,1,300
512,55,5958,6,0,P|425:8|507:64,1,300
324,232,6198,2,0,B|185:233|185:233|258:102|258:102|320:234|320:234|185:234|185:234|260:102,1,600
353,43,6558,1,0,0:0:0:0:
512,249,6678,6,0,L|-108:250,1,600
31,29,7038,1,0,0:0:0:0:
378,333,7158,1,0,0:0:0:0:
285,0,7278,1,0,0:0:0:0:
91,335,7398,1,0,0:0:0:0:
498,117,7518,1,0,0:0:0:0:
186,103,7638,6,0,P|143:310|246:110,1,600
203,216,7998,1,0,0:0:0:0:
285,137,8118,6,0,P|166:321|186:103,1,600
455,66,8478,1,0,0:0:0:0:
421,393,8598,2,0,L|-65:-53,2,600
512,169,9198,1,0,0:0:0:0:
252,0,9318,1,0,0:0:0:0:
0,143,9438,1,0,0:0:0:0:
91,393,9558,6,0,L|577:-53,2,600
0,147,10158,1,0,0:0:0:0:
255,0,10278,1,0,0:0:0:0:
512,169,10398,1,0,0:0:0:0:
276,340,10518,5,0,0:0:0:0:
238,267,10638,1,0,0:0:0:0:
328,287,10758,1,0,0:0:0:0:
149,342,10878,1,0,0:0:0:0:
190,152,10998,1,0,0:0:0:0:
408,279,11118,1,0,0:0:0:0:
0,384,11238,1,0,0:0:0:0:
81,0,11358,1,0,0:0:0:0:
512,258,11478,1,0,0:0:0:0:
0,179,11598,5,0,0:0:0:0:
512,0,11718,1,0,0:0:0:0:
181,384,11838,1,0,0:0:0:0:
122,214,11958,6,0,P|390:28|274:263,1,600
342,206,12318,1,0,0:0:0:0:
256,192,12438,12,0,15311,0:0:0:0:
