osu file format v14

[General]
AudioFilename: 12. Undertale.mp3
AudioLeadIn: 0
PreviewTime: 169663
Countdown: 0
SampleSet: Soft
StackLeniency: 0.7
Mode: 3
LetterboxInBreaks: 0
EpilepsyWarning: 1
SpecialStyle: 0
WidescreenStoryboard: 1

[Editor]
Bookmarks: 9521,18941,28362,37488,54268,64261,73109,91934,121373,131987,169669,188509,208512,225602,235023,290352,292134,312578
DistanceSpacing: 0.5
BeatDivisor: 8
GridSize: 4
TimelineZoom: 1.5

[Metadata]
Title:-Undertale-
TitleUnicode:-Undertale-
Artist:Cloudjumper
ArtistUnicode:Cloudjumper
Creator:Furr H
Version:Humans and Monsters Should Coexist
Source:UNDERTALE
Tags:toby fox new home asriel toriel asgore dreemurr chara epic orchestral the tale of a pacifist instrumental video game bima fajar dkingo chord jack CJ keysound storyboard
BeatmapID:3935649
BeatmapSetID:1908440

[Difficulty]
HPDrainRate:8
CircleSize:4
OverallDifficulty:8.2
ApproachRate:5
SliderMultiplier:1.4
SliderTickRate:1

[Events]
//Background and Video events
0,0,"BG.jpg",0,0
//Break Periods
//Storyboard Layer 0 (Background)
//Storyboard Layer 1 (Fail)
//Storyboard Layer 2 (Pass)
//Storyboard Layer 3 (Foreground)
Sprite,Foreground,Centre,"fh.png",320,240 M,0,365127,,471.1225,88.05163 S,0,365127,,0.3393549 F,0,365127,365421,0,1 F,0,365421,376608,1 F,0,376608,379257,1,0
//Storyboard Layer 4 (Overlay)
//Storyboard Sound Samples
Sample,18927,0,"D#3H_Eb3H_s.wav",9
Sample,19515,0,"D#3H_Eb3H_s.wav",9
Sample,20104,0,"D#3H_Eb3H_s.wav",9
Sample,21871,0,"D#3H_Eb3H_s.wav",9
Sample,22459,0,"D#3H_Eb3H_s.wav",9
Sample,23637,0,"D#3H_Eb3H_s.wav",9
Sample,24226,0,"D#3H_Eb3H_s.wav",9
Sample,24815,0,"D#3H_Eb3H_s.wav",9
Sample,26581,0,"D#3H_Eb3H_s.wav",9
Sample,27170,0,"D#3H_Eb3H_s.wav",9
Sample,28348,0,"D#3H_Eb3H_s.wav",9
Sample,28936,0,"D#3H_Eb3H_s.wav",9
Sample,29525,0,"D#3H_Eb3H_s.wav",9
Sample,31292,0,"D#3H_Eb3H_s.wav",9
Sample,31880,0,"D#3H_Eb3H_s.wav",9
Sample,33058,0,"F3H_s.wav",9
Sample,33647,0,"F3H_s.wav",9
Sample,34236,0,"F3H_s.wav",9
Sample,36002,0,"G3H_s.wav",9
Sample,36591,0,"G3H_s.wav",9
Sample,37769,0,"SCG_A#4s.ogg",22
Sample,37769,0,"G#3H_Ab3H_s.wav",9
Sample,37769,0,"D#3H_Eb3H_s.wav",9
Sample,38063,0,"SCG_D#4s.ogg",11
Sample,38357,0,"D#3H_Eb3H_s.wav",9
Sample,38652,0,"SCG_D#4s.ogg",11
Sample,38946,0,"SCG_D5s.ogg",22
Sample,38946,0,"G#3H_Ab3H_s.wav",9
Sample,38946,0,"D#3H_Eb3H_s.wav",9
Sample,39829,0,"SCG_D#4s.ogg",11
Sample,40124,0,"G#3H_Ab3H_s.wav",9
Sample,40124,0,"D#3H_Eb3H_s.wav",9
Sample,40418,0,"SCG_D#4s.ogg",11
Sample,40713,0,"D#3H_Eb3H_s.wav",9
Sample,41007,0,"SCG_D#4s.ogg",11
Sample,41301,0,"D#3H_Eb3H_s.wav",9
Sample,42185,0,"SCG_D#4s.ogg",11
Sample,42479,0,"G3H_s.wav",9
Sample,42479,0,"SCG_A#4s.ogg",22
Sample,42479,0,"D#3H_Eb3H_s.wav",9
Sample,42773,0,"SCG_D#4s.ogg",11
Sample,43068,0,"D#3H_Eb3H_s.wav",9
Sample,43362,0,"SCG_D#4s.ogg",11
Sample,43657,0,"G3H_s.wav",9
Sample,43657,0,"SCG_D5s.ogg",22
Sample,43657,0,"D#3H_Eb3H_s.wav",9
Sample,44540,0,"SCG_D#4s.ogg",11
Sample,44834,0,"D#3H_Eb3H_s.wav",9
Sample,44834,0,"G3H_s.wav",9
Sample,45129,0,"SCG_D#4s.ogg",11
Sample,45423,0,"D#3H_Eb3H_s.wav",9
Sample,45717,0,"SCG_D#4s.ogg",11
Sample,46012,0,"D#3H_Eb3H_s.wav",9
Sample,46895,0,"SCG_D#4s.ogg",11
Sample,47190,0,"SCG_A#4s.ogg",22
Sample,47190,0,"G#3H_Ab3H_s.wav",9
Sample,47190,0,"D#3H_Eb3H_s.wav",9
Sample,47484,0,"SCG_D#4s.ogg",11
Sample,47778,0,"D#3H_Eb3H_s.wav",9
Sample,48073,0,"SCG_D#4s.ogg",11
Sample,48367,0,"SCG_D5s.ogg",22
Sample,48367,0,"G#3H_Ab3H_s.wav",9
Sample,48367,0,"D#3H_Eb3H_s.wav",9
Sample,49250,0,"SCG_D#4s.ogg",11
Sample,49545,0,"G#3H_Ab3H_s.wav",9
Sample,49545,0,"D#3H_Eb3H_s.wav",9
Sample,49839,0,"SCG_D#4s.ogg",11
Sample,50134,0,"D#3H_Eb3H_s.wav",9
Sample,50428,0,"SCG_D#4s.ogg",11
Sample,50722,0,"D#3H_Eb3H_s.wav",9
Sample,51311,0,"G#3H_Ab3H_s.wav",9
Sample,51311,0,"D#3H_Eb3H_s.wav",9
Sample,51606,0,"SCG_D#4s.ogg",11
Sample,51900,0,"A#3H_Bb3H_s.wav",9
Sample,51900,0,"SCG_A#4s.ogg",22
Sample,51900,0,"F3H_s.wav",9
Sample,52194,0,"SCG_D#4s.ogg",11
Sample,52489,0,"F3H_s.wav",9
Sample,52783,0,"SCG_D#4s.ogg",11
Sample,53078,0,"A#3H_Bb3H_s.wav",9
Sample,53078,0,"SCG_D5s.ogg",22
Sample,53078,0,"F3H_s.wav",9
Sample,53961,0,"SCG_D#4s.ogg",11
Sample,54255,0,"G3H_s.wav",9
Sample,54255,0,"C4H_s.wav",9
Sample,54550,0,"SCG_D#4s.ogg",11
Sample,54844,0,"G3H_s.wav",9
Sample,55138,0,"SCG_D#4s.ogg",11
Sample,55433,0,"G3H_s.wav",9
Sample,56316,0,"SCG_D#4s.ogg",11
Sample,56611,0,"SCG_A#4s.ogg",22
Sample,56611,0,"G#3H_Ab3H_s.wav",9
Sample,56611,0,"D#3H_Eb3H_s.wav",9
Sample,56905,0,"SCG_D#4s.ogg",11
Sample,57199,0,"D#3H_Eb3H_s.wav",9
Sample,57494,0,"SCG_D#4s.ogg",11
Sample,57788,0,"SCG_D5s.ogg",22
Sample,57788,0,"G#3H_Ab3H_s.wav",9
Sample,57788,0,"D#3H_Eb3H_s.wav",9
Sample,58671,0,"SCG_D#4s.ogg",11
Sample,58966,0,"G#3H_Ab3H_s.wav",9
Sample,58966,0,"D#3H_Eb3H_s.wav",9
Sample,59260,0,"SCG_D#4s.ogg",11
Sample,59555,0,"D#3H_Eb3H_s.wav",9
Sample,59849,0,"SCG_D#4s.ogg",11
Sample,60143,0,"D#3H_Eb3H_s.wav",9
Sample,61027,0,"SCG_D#4s.ogg",11
Sample,61321,0,"G3H_s.wav",9
Sample,61321,0,"SCG_A#4s.ogg",22
Sample,61321,0,"D#3H_Eb3H_s.wav",9
Sample,61615,0,"SCG_D#4s.ogg",11
Sample,61910,0,"D#3H_Eb3H_s.wav",9
Sample,62204,0,"SCG_D#4s.ogg",11
Sample,62499,0,"G3H_s.wav",9
Sample,62499,0,"SCG_D5s.ogg",22
Sample,62499,0,"D#3H_Eb3H_s.wav",9
Sample,63382,0,"SCG_D#4s.ogg",11
Sample,63676,0,"D#3H_Eb3H_s.wav",9
Sample,63676,0,"G3H_s.wav",9
Sample,63971,0,"SCG_D#4s.ogg",11
Sample,64265,0,"D#3H_Eb3H_s.wav",9
Sample,64559,0,"SCG_D#4s.ogg",11
Sample,64854,0,"D#3H_Eb3H_s.wav",9
Sample,65737,0,"SCG_D#4s.ogg",11
Sample,66032,0,"SCG_A#4s.ogg",22
Sample,66032,0,"G#3H_Ab3H_s.wav",9
Sample,66032,0,"D#3H_Eb3H_s.wav",9
Sample,66326,0,"SCG_D#4s.ogg",11
Sample,66620,0,"D#3H_Eb3H_s.wav",9
Sample,66915,0,"SCG_D#4s.ogg",11
Sample,67209,0,"SCG_D5s.ogg",22
Sample,67209,0,"G#3H_Ab3H_s.wav",9
Sample,67209,0,"D#3H_Eb3H_s.wav",9
Sample,68092,0,"SCG_D#4s.ogg",11
Sample,68387,0,"G#3H_Ab3H_s.wav",9
Sample,68387,0,"D#3H_Eb3H_s.wav",9
Sample,68681,0,"SCG_D#4s.ogg",11
Sample,68976,0,"D#3H_Eb3H_s.wav",9
Sample,69270,0,"SCG_D#4s.ogg",11
Sample,69564,0,"D#3H_Eb3H_s.wav",9
Sample,70153,0,"G#3H_Ab3H_s.wav",9
Sample,70153,0,"D#3H_Eb3H_s.wav",9
Sample,70448,0,"SCG_D#4s.ogg",11
Sample,70742,0,"A#3H_Bb3H_s.wav",9
Sample,70742,0,"SCG_A#4s.ogg",22
Sample,70742,0,"F3H_s.wav",9
Sample,71036,0,"SCG_D#4s.ogg",11
Sample,71331,0,"F3H_s.wav",9
Sample,71625,0,"SCG_D#4s.ogg",11
Sample,71920,0,"A#3H_Bb3H_s.wav",9
Sample,71920,0,"SCG_D5s.ogg",22
Sample,71920,0,"F3H_s.wav",9
Sample,72803,0,"SCG_D#4s.ogg",11
Sample,73097,0,"G3H_s.wav",9
Sample,73097,0,"C4H_s.wav",9
Sample,73392,0,"SCG_D#4s.ogg",11
Sample,73686,0,"G3H_s.wav",9
Sample,73980,0,"SCG_D#4s.ogg",11
Sample,74275,0,"G3H_s.wav",9
Sample,75158,0,"SCG_D#4s.ogg",11
Sample,75453,0,"SCG_A#4s.ogg",22
Sample,75453,0,"G#3H_Ab3H_s.wav",9
Sample,75453,0,"D#3H_Eb3H_s.wav",9
Sample,75747,0,"SCG_D#4s.ogg",11
Sample,76041,0,"G#3H_Ab3H_s.wav",9
Sample,76041,0,"D#3H_Eb3H_s.wav",9
Sample,76336,0,"SCG_D#4s.ogg",11
Sample,76630,0,"G#3H_Ab3H_s.wav",9
Sample,76630,0,"SCG_D5s.ogg",22
Sample,76630,0,"D#3H_Eb3H_s.wav",9
Sample,77219,0,"D#3H_Eb3H_s.wav",9
Sample,77513,0,"SCG_D#4s.ogg",11
Sample,77808,0,"G#3H_Ab3H_s.wav",9
Sample,77808,0,"D#3H_Eb3H_s.wav",9
Sample,78102,0,"SCG_D#4s.ogg",11
Sample,78397,0,"D#3H_Eb3H_s.wav",9
Sample,78397,0,"G#3H_Ab3H_s.wav",9
Sample,78691,0,"SCG_D#4s.ogg",11
Sample,78985,0,"G#3H_Ab3H_s.wav",9
Sample,78985,0,"D#3H_Eb3H_s.wav",9
Sample,79574,0,"D#3H_Eb3H_s.wav",9
Sample,79869,0,"SCG_D#4s.ogg",11
Sample,80163,0,"SCG_A#4s.ogg",22
Sample,80163,0,"G3H_s.wav",9
Sample,80163,0,"D#3H_Eb3H_s.wav",9
Sample,80457,0,"SCG_D#4s.ogg",11
Sample,80752,0,"G3H_s.wav",9
Sample,80752,0,"D#3H_Eb3H_s.wav",9
Sample,81046,0,"SCG_D#4s.ogg",11
Sample,81341,0,"G3H_s.wav",9
Sample,81341,0,"SCG_D5s.ogg",22
Sample,81341,0,"D#3H_Eb3H_s.wav",9
Sample,81929,0,"D#3H_Eb3H_s.wav",9
Sample,82224,0,"SCG_D#4s.ogg",11
Sample,82518,0,"G3H_s.wav",9
Sample,82518,0,"D#3H_Eb3H_s.wav",9
Sample,82813,0,"SCG_D#4s.ogg",11
Sample,83107,0,"D#3H_Eb3H_s.wav",9
Sample,83107,0,"G3H_s.wav",9
Sample,83401,0,"SCG_D#4s.ogg",11
Sample,83696,0,"G3H_s.wav",9
Sample,83696,0,"D#3H_Eb3H_s.wav",9
Sample,84285,0,"D#3H_Eb3H_s.wav",9
Sample,84579,0,"SCG_D#4s.ogg",11
Sample,84874,0,"SCG_A#4s.ogg",22
Sample,84874,0,"G#3H_Ab3H_s.wav",9
Sample,84874,0,"D#3H_Eb3H_s.wav",9
Sample,85168,0,"SCG_D#4s.ogg",11
Sample,85462,0,"G#3H_Ab3H_s.wav",9
Sample,85462,0,"D#3H_Eb3H_s.wav",9
Sample,85757,0,"SCG_D#4s.ogg",11
Sample,86051,0,"G#3H_Ab3H_s.wav",9
Sample,86051,0,"SCG_D5s.ogg",22
Sample,86051,0,"D#3H_Eb3H_s.wav",9
Sample,86640,0,"D#3H_Eb3H_s.wav",9
Sample,86934,0,"SCG_D#4s.ogg",11
Sample,87229,0,"G#3H_Ab3H_s.wav",9
Sample,87229,0,"D#3H_Eb3H_s.wav",9
Sample,87523,0,"SCG_D#4s.ogg",11
Sample,87818,0,"D#3H_Eb3H_s.wav",9
Sample,87818,0,"G#3H_Ab3H_s.wav",9
Sample,88112,0,"SCG_D#4s.ogg",11
Sample,88406,0,"G#3H_Ab3H_s.wav",9
Sample,88406,0,"D#3H_Eb3H_s.wav",9
Sample,88995,0,"G#3H_Ab3H_s.wav",9
Sample,88995,0,"D#3H_Eb3H_s.wav",9
Sample,89290,0,"SCG_D#4s.ogg",11
Sample,89584,0,"A#3H_Bb3H_s.wav",9
Sample,89584,0,"SCG_A#4s.ogg",22
Sample,89584,0,"F3H_s.wav",9
Sample,89878,0,"SCG_D#4s.ogg",11
Sample,90173,0,"F3H_s.wav",9
Sample,90173,0,"A#3H_Bb3H_s.wav",9
Sample,90467,0,"SCG_D#4s.ogg",11
Sample,90762,0,"SCG_D5s.ogg",22
Sample,90762,0,"A#3H_Bb3H_s.wav",9
Sample,90762,0,"F3H_s.wav",9
Sample,91350,0,"F3H_s.wav",9
Sample,91645,0,"SCG_D#4s.ogg",11
Sample,91939,0,"G3H_s.wav",9
Sample,91939,0,"C4H_s.wav",9
Sample,92234,0,"SCG_D#4s.ogg",11
Sample,92822,0,"SCG_D#4s.ogg",11
Sample,93411,0,"SCG_D#4s.ogg",11
Sample,94000,0,"SCG_D#4s.ogg",11
Sample,94295,0,"A#5H_Bb5H.wav",31
Sample,94295,0,"A#4S_Bb4S_s.wav",18
Sample,94295,0,"G#3H_Ab3H_s.wav",9
Sample,94295,0,"D#3H_Eb3H_s.wav",9
Sample,94883,0,"D#3H_Eb3H_s.wav",9
Sample,94883,0,"G#3H_Ab3H_s.wav",9
Sample,95472,0,"A#6H_Bb6H.wav",31
Sample,95472,0,"D5S_s.wav",18
Sample,95472,0,"G#3H_Ab3H_s.wav",9
Sample,95472,0,"D#3H_Eb3H_s.wav",9
Sample,96061,0,"D#3H_Eb3H_s.wav",9
Sample,96650,0,"F6H.wav",31
Sample,96650,0,"G#3H_Ab3H_s.wav",9
Sample,96650,0,"D#3H_Eb3H_s.wav",9
Sample,97239,0,"D#3H_Eb3H_s.wav",9
Sample,97239,0,"G#3H_Ab3H_s.wav",9
Sample,97827,0,"D#3H_Eb3H_s.wav",9
Sample,97827,0,"G#3H_Ab3H_s.wav",9
Sample,98416,0,"D#3H_Eb3H_s.wav",9
Sample,99005,0,"D#6H_Eb6H.wav",31
Sample,99005,0,"A#4S_Bb4S_s.wav",18
Sample,99005,0,"G3H_s.wav",9
Sample,99005,0,"D#3H_Eb3H_s.wav",9
Sample,99594,0,"G3H_s.wav",9
Sample,99594,0,"D#3H_Eb3H_s.wav",9
Sample,100183,0,"A#6H_Bb6H.wav",31
Sample,100183,0,"D5S_s.wav",18
Sample,100183,0,"G3H_s.wav",9
Sample,100183,0,"D#3H_Eb3H_s.wav",9
Sample,100771,0,"D#3H_Eb3H_s.wav",9
Sample,101360,0,"G3H_s.wav",9
Sample,101360,0,"A#5H_Bb5H.wav",31
Sample,101360,0,"D#3H_Eb3H_s.wav",9
Sample,101949,0,"G3H_s.wav",9
Sample,101949,0,"D#3H_Eb3H_s.wav",9
Sample,102538,0,"G3H_s.wav",9
Sample,102538,0,"D#3H_Eb3H_s.wav",9
Sample,103127,0,"D#3H_Eb3H_s.wav",9
Sample,103716,0,"A#5H_Bb5H.wav",31
Sample,103716,0,"A#4S_Bb4S_s.wav",18
Sample,103716,0,"G#3H_Ab3H_s.wav",9
Sample,103716,0,"D#3H_Eb3H_s.wav",9
Sample,104304,0,"D#3H_Eb3H_s.wav",9
Sample,104304,0,"G#3H_Ab3H_s.wav",9
Sample,104893,0,"D6H.wav",31
Sample,104893,0,"D5S_s.wav",18
Sample,104893,0,"G#3H_Ab3H_s.wav",9
Sample,104893,0,"D#3H_Eb3H_s.wav",9
Sample,105482,0,"D#3H_Eb3H_s.wav",9
Sample,106071,0,"A#6H_Bb6H.wav",31
Sample,106071,0,"G#3H_Ab3H_s.wav",9
Sample,106071,0,"D#3H_Eb3H_s.wav",9
Sample,106660,0,"D#3H_Eb3H_s.wav",9
Sample,106660,0,"G#3H_Ab3H_s.wav",9
Sample,107248,0,"D#3H_Eb3H_s.wav",9
Sample,107248,0,"G#3H_Ab3H_s.wav",9
Sample,107837,0,"G#3H_Ab3H_s.wav",9
Sample,107837,0,"C7H.wav",31
Sample,107837,0,"D#3H_Eb3H_s.wav",9
Sample,108426,0,"A#6H_Bb6H.wav",31
Sample,108426,0,"A#4S_Bb4S_s.wav",18
Sample,108426,0,"A#3H_Bb3H_s.wav",9
Sample,108426,0,"F3H_s.wav",9
Sample,109015,0,"A#3H_Bb3H_s.wav",9
Sample,109015,0,"F3H_s.wav",9
Sample,109604,0,"F6H.wav",31
Sample,109604,0,"D5S_s.wav",18
Sample,109604,0,"A#3H_Bb3H_s.wav",9
Sample,109604,0,"F3H_s.wav",9
Sample,110192,0,"F3H_s.wav",9
Sample,110781,0,"C4H_s.wav",9
Sample,110781,0,"D#6H_Eb6H.wav",31
Sample,110781,0,"G3H_s.wav",9
Sample,111370,0,"C4H_s.wav",9
Sample,111370,0,"G3H_s.wav",9
Sample,111959,0,"C4H_s.wav",9
Sample,111959,0,"G3H_s.wav",9
Sample,112548,0,"G3H_s.wav",9
Sample,113137,0,"A#5H_Bb5H.wav",31
Sample,113137,0,"A#4S_Bb4S_s.wav",18
Sample,113137,0,"G#3H_Ab3H_s.wav",9
Sample,113137,0,"D#3H_Eb3H_s.wav",9
Sample,113725,0,"D#3H_Eb3H_s.wav",9
Sample,113725,0,"G#3H_Ab3H_s.wav",9
Sample,114314,0,"A#6H_Bb6H.wav",31
Sample,114314,0,"D5S_s.wav",18
Sample,114314,0,"G#3H_Ab3H_s.wav",9
Sample,114314,0,"D#3H_Eb3H_s.wav",9
Sample,114903,0,"D#3H_Eb3H_s.wav",9
Sample,115492,0,"F6H.wav",31
Sample,115492,0,"G#3H_Ab3H_s.wav",9
Sample,115492,0,"D#3H_Eb3H_s.wav",9
Sample,116081,0,"D#3H_Eb3H_s.wav",9
Sample,116081,0,"G#3H_Ab3H_s.wav",9
Sample,116669,0,"D#3H_Eb3H_s.wav",9
Sample,116669,0,"G#3H_Ab3H_s.wav",9
Sample,117258,0,"D#3H_Eb3H_s.wav",9
Sample,117258,0,"G#3H_Ab3H_s.wav",9
Sample,117553,0,"Hat Synth.wav",18
Sample,117847,0,"D#6H_Eb6H.wav",31
Sample,117847,0,"A#4S_Bb4S_s.wav",18
Sample,117847,0,"G3H_s.wav",9
Sample,117847,0,"D#3H_Eb3H_s.wav",9
Sample,118436,0,"G3H_s.wav",9
Sample,118436,0,"D#3H_Eb3H_s.wav",9
Sample,119025,0,"A#6H_Bb6H.wav",31
Sample,119025,0,"D5S_s.wav",18
Sample,119025,0,"G3H_s.wav",9
Sample,119025,0,"D#3H_Eb3H_s.wav",9
Sample,119613,0,"D#3H_Eb3H_s.wav",9
Sample,120202,0,"G3H_s.wav",9
Sample,120202,0,"A#5H_Bb5H.wav",31
Sample,120202,0,"D#3H_Eb3H_s.wav",9
Sample,120791,0,"G3H_s.wav",9
Sample,120791,0,"D#3H_Eb3H_s.wav",9
Sample,121380,0,"G3H_s.wav",9
Sample,121380,0,"D#3H_Eb3H_s.wav",9
Sample,121969,0,"G3H_s.wav",9
Sample,121969,0,"D#3H_Eb3H_s.wav",9
Sample,122263,0,"Hat Synth.wav",18
Sample,122558,0,"A#5H_Bb5H.wav",31
Sample,122558,0,"A#4S_Bb4S_s.wav",18
Sample,122558,0,"G#3H_Ab3H_s.wav",9
Sample,122558,0,"D#3H_Eb3H_s.wav",9
Sample,123146,0,"D#3H_Eb3H_s.wav",9
Sample,123146,0,"G#3H_Ab3H_s.wav",9
Sample,123735,0,"C6H.wav",31
Sample,123735,0,"D5S_s.wav",18
Sample,123735,0,"F5H.wav",31
Sample,123735,0,"G#3H_Ab3H_s.wav",9
Sample,123735,0,"D#3H_Eb3H_s.wav",9
Sample,124618,0,"Hat Synth.wav",18
Sample,124913,0,"D#6H_Eb6H.wav",31
Sample,124913,0,"A#5H_Bb5H.wav",31
Sample,124913,0,"G#3H_Ab3H_s.wav",9
Sample,124913,0,"D#3H_Eb3H_s.wav",9
Sample,125796,0,"A#4S_Bb4S_s.wav",18
Sample,126090,0,"G#3H_Ab3H_s.wav",9
Sample,126090,0,"D#3H_Eb3H_s.wav",9
Sample,126679,0,"C6H.wav",31
Sample,126679,0,"G#3H_Ab3H_s.wav",9
Sample,126679,0,"D#3H_Eb3H_s.wav",9
Sample,126974,0,"Hat Synth.wav",18
Sample,127268,0,"A#5H_Bb5H.wav",31
Sample,127268,0,"A#4S_Bb4S_s.wav",18
Sample,127268,0,"A#3H_Bb3H_s.wav",9
Sample,127268,0,"F3H_s.wav",9
Sample,127857,0,"A#3H_Bb3H_s.wav",9
Sample,127857,0,"F3H_s.wav",9
Sample,128446,0,"F6H.wav",31
Sample,128446,0,"D5S_s.wav",18
Sample,128446,0,"A#3H_Bb3H_s.wav",9
Sample,128446,0,"F3H_s.wav",9
Sample,129034,0,"F3H_s.wav",9
Sample,129329,0,"Hat Synth.wav",18
Sample,129623,0,"D#5H_Eb5H.wav",31
Sample,129623,0,"C4H_s.wav",9
Sample,129623,0,"G3H_s.wav",9
Sample,130212,0,"G3H_s.wav",9
Sample,130212,0,"C4H_s.wav",9
Sample,130801,0,"C4H_s.wav",9
Sample,130801,0,"reverse med.wav",31
Sample,130801,0,"G3H_s.wav",9
Sample,131390,0,"G3H_s.wav",9
Sample,131684,0,"Hat Synth.wav",18
Sample,131979,0,"A#5H_Bb5H.wav",31
Sample,131979,0,"SCG_A#4s.ogg",22
Sample,131979,0,"cymbal.wav",31
Sample,131979,0,"ride.wav",31
Sample,133156,0,"A#6H_Bb6H.wav",31
Sample,133156,0,"SCG_D5s.ogg",22
Sample,134334,0,"kick1.wav",31
Sample,134334,0,"ride.wav",31
Sample,136689,0,"D#6H_Eb6H.wav",31
Sample,136689,0,"SCG_A#4s.ogg",22
Sample,136689,0,"ride.wav",31
Sample,137867,0,"SCG_D5s.ogg",22
Sample,137867,0,"A#6H_Bb6H.wav",31
Sample,139044,0,"ride.wav",31
Sample,139044,0,"kick1.wav",31
Sample,141400,0,"SCG_A#4s.ogg",22
Sample,141400,0,"A#5H_Bb5H.wav",31
Sample,141400,0,"ride.wav",31
Sample,142577,0,"D6H.wav",31
Sample,142577,0,"SCG_D5s.ogg",22
Sample,143755,0,"kick1.wav",31
Sample,143755,0,"ride.wav",31
Sample,145521,0,"D#6H_Eb6H.wav",31
Sample,145521,0,"C7H.wav",31
Sample,146110,0,"A#6H_Bb6H.wav",31
Sample,146110,0,"SCG_A#4s.ogg",22
Sample,146110,0,"ride.wav",31
Sample,147288,0,"SCG_D5s.ogg",22
Sample,147288,0,"F6H.wav",31
Sample,148465,0,"ride.wav",31
Sample,148465,0,"kick1.wav",31
Sample,149643,0,"reverse med.wav",31
Sample,150821,0,"A#5H_Bb5H.wav",31
Sample,150821,0,"SCG_A#4s.ogg",22
Sample,150821,0,"cymbal.wav",31
Sample,150821,0,"ride.wav",31
Sample,151998,0,"A#6H_Bb6H.wav",31
Sample,151998,0,"SCG_D5s.ogg",22
Sample,153176,0,"kick1.wav",31
Sample,153176,0,"ride.wav",31
Sample,155237,0,"SCG_D#5s.ogg",22
Sample,155531,0,"SCG_A#4s.ogg",22
Sample,155531,0,"D#6H_Eb6H.wav",31
Sample,155531,0,"ride.wav",31
Sample,156709,0,"A#6H_Bb6H.wav",31
Sample,156709,0,"SCG_D5s.ogg",22
Sample,157886,0,"kick1.wav",31
Sample,157886,0,"ride.wav",31
Sample,159947,0,"SCG_F5s.ogg",22
Sample,160242,0,"SCG_A#4s.ogg",22
Sample,160242,0,"A#5H_Bb5H.wav",31
Sample,160242,0,"ride.wav",31
Sample,161419,0,"SCG_D5s.ogg",22
Sample,161861,0,"SCG_D5s.ogg",22
Sample,162302,0,"SCG_D#5s.ogg",22
Sample,162597,0,"ride.wav",31
Sample,162597,0,"kick1.wav",31
Sample,163038,0,"ride.wav",31
Sample,163480,0,"kick1.wav",31
Sample,164363,0,"C6H.wav",31
Sample,164363,0,"D#6H_Eb6H.wav",31
Sample,164658,0,"SCG_D#5s.ogg",22
Sample,164952,0,"D#6H_Eb6H.wav",31
Sample,164952,0,"A#5H_Bb5H.wav",31
Sample,164952,0,"SCG_A#4s.ogg",22
Sample,164952,0,"ride.wav",31
Sample,166130,0,"F6H.wav",31
Sample,166130,0,"SCG_D5s.ogg",22
Sample,166130,0,"reverse med.wav",31
Sample,167013,0,"SCG_D#5s.ogg",22
Sample,167307,0,"cymbal.wav",31
Sample,167307,0,"kick1.wav",31
Sample,167307,0,"ride.wav",31
Sample,168485,0,"reverse med.wav",18
Sample,169663,0,"cymbal.wav",18
Sample,188505,0,"C5H.wav",11
Sample,188505,0,"D#5H_Eb5H.wav",11
Sample,189682,0,"C5H.wav",11
Sample,189682,0,"D#5H_Eb5H.wav",11
Sample,190271,0,"G#4H_Ab4H.wav",11
Sample,190860,0,"D5H.wav",11
Sample,190860,0,"C5H.wav",11
Sample,191449,0,"G#4H_Ab4H.wav",11
Sample,192037,0,"C5H.wav",11
Sample,192037,0,"D5H.wav",11
Sample,192626,0,"G#4H_Ab4H.wav",11
Sample,193215,0,"F5H.wav",11
Sample,193215,0,"D5H.wav",11
Sample,194393,0,"F5H.wav",11
Sample,194393,0,"D5H.wav",11
Sample,195570,0,"G5H.wav",11
Sample,195570,0,"D#5H_Eb5H.wav",11
Sample,197926,0,"D#5H_Eb5H.wav",11
Sample,197926,0,"C5H.wav",11
Sample,199103,0,"D#5H_Eb5H.wav",11
Sample,199103,0,"C5H.wav",11
Sample,199692,0,"G#4H_Ab4H.wav",11
Sample,200281,0,"C5H.wav",11
Sample,200281,0,"D5H.wav",11
Sample,200870,0,"G#4H_Ab4H.wav",11
Sample,201458,0,"D5H.wav",11
Sample,201458,0,"C5H.wav",11
Sample,202047,0,"G#4H_Ab4H.wav",11
Sample,202636,0,"D5H.wav",11
Sample,202636,0,"F5H.wav",11
Sample,203814,0,"D5H.wav",11
Sample,203814,0,"F5H.wav",11
Sample,204991,0,"D#5H_Eb5H.wav",11
Sample,205580,0,"C5H.wav",11
Sample,206169,0,"G5H.wav",11
Sample,206169,0,"reverse med.wav",31
Sample,206169,0,"D#5H_Eb5H.wav",11
Sample,207347,0,"G#3H_Ab3H.wav",18
Sample,207641,0,"G#4H_Ab4H.wav",18
Sample,207935,0,"D#4H_Eb4H.wav",18
Sample,208230,0,"G#4H_Ab4H.wav",18
Sample,208524,0,"D5H.wav",18
Sample,208524,0,"D#4H_Eb4H.wav",18
Sample,208524,0,"ride.wav",31
Sample,208966,0,"ride.wav",31
Sample,209407,0,"ride.wav",31
Sample,209702,0,"A#3H_Bb3H_s.wav",18
Sample,209702,0,"A#4H_Bb4H.wav",18
Sample,209996,0,"A#4H_Bb4H.wav",18
Sample,210291,0,"F4H.wav",18
Sample,210585,0,"A#4H_Bb4H.wav",18
Sample,210879,0,"F4H.wav",18
Sample,210879,0,"ride.wav",31
Sample,211763,0,"A#4H_Bb4H.wav",18
Sample,212057,0,"G3H.wav",18
Sample,212351,0,"G4H.wav",18
Sample,212646,0,"D#4H_Eb4H.wav",18
Sample,212940,0,"G4H.wav",18
Sample,213235,0,"D#4H_Eb4H.wav",18
Sample,213235,0,"D5H.wav",18
Sample,213235,0,"ride.wav",31
Sample,213676,0,"ride.wav",31
Sample,214118,0,"ride.wav",31
Sample,214412,0,"C5H.wav",18
Sample,214412,0,"C4H.wav",18
Sample,214707,0,"C5H.wav",18
Sample,215001,0,"G4H.wav",18
Sample,215295,0,"C5H.wav",18
Sample,215590,0,"ride.wav",31
Sample,216473,0,"C5H.wav",18
Sample,216768,0,"G#3H_Ab3H.wav",18
Sample,217062,0,"G#4H_Ab4H.wav",18
Sample,217356,0,"D#4H_Eb4H.wav",18
Sample,217651,0,"G#4H_Ab4H.wav",18
Sample,217945,0,"D#4H_Eb4H.wav",18
Sample,217945,0,"D5H.wav",18
Sample,217945,0,"ride.wav",31
Sample,218387,0,"ride.wav",31
Sample,218828,0,"ride.wav",31
Sample,219123,0,"A#4H_Bb4H.wav",18
Sample,219123,0,"A#3H_Bb3H_s.wav",18
Sample,219417,0,"A#4H_Bb4H.wav",18
Sample,219712,0,"F4H.wav",18
Sample,220006,0,"A#4H_Bb4H.wav",18
Sample,220300,0,"ride.wav",31
Sample,220300,0,"F4H.wav",18
Sample,220742,0,"ride.wav",31
Sample,221184,0,"A#4H_Bb4H.wav",18
Sample,221478,0,"G3H.wav",18
Sample,221772,0,"G4H.wav",18
Sample,222067,0,"D#4H_Eb4H.wav",18
Sample,222361,0,"G4H.wav",18
Sample,222656,0,"D#4H_Eb4H.wav",18
Sample,222656,0,"D5H.wav",18
Sample,222656,0,"ride.wav",31
Sample,223097,0,"ride.wav",31
Sample,223539,0,"ride.wav",31
Sample,224128,0,"C5H.wav",18
Sample,224422,0,"G4H.wav",18
Sample,224716,0,"C5H.wav",18
Sample,225011,0,"ride.wav",31
Sample,225894,0,"C5H.wav",18
Sample,226189,0,"G#3H_Ab3H.wav",18
Sample,226483,0,"G#4H_Ab4H.wav",18
Sample,226777,0,"D#4H_Eb4H.wav",18
Sample,227072,0,"G#4H_Ab4H.wav",18
Sample,227366,0,"D#4H_Eb4H.wav",18
Sample,227366,0,"D5H.wav",18
Sample,227366,0,"ride.wav",31
Sample,227808,0,"ride.wav",31
Sample,228249,0,"ride.wav",31
Sample,228544,0,"A#4H_Bb4H.wav",18
Sample,228544,0,"A#3H_Bb3H_s.wav",18
Sample,228838,0,"A#4H_Bb4H.wav",18
Sample,229133,0,"F4H.wav",18
Sample,229427,0,"A#4H_Bb4H.wav",18
Sample,229721,0,"A#6H_Bb6H.wav",22
Sample,229721,0,"A#5H_Bb5H.wav",22
Sample,229721,0,"ride.wav",31
Sample,230310,0,"C6H.wav",22
Sample,230310,0,"C7H.wav",22
Sample,230605,0,"A#4H_Bb4H.wav",18
Sample,230899,0,"G3H.wav",18
Sample,231193,0,"G4H.wav",18
Sample,231488,0,"D#4H_Eb4H.wav",18
Sample,231782,0,"G4H.wav",18
Sample,232077,0,"D#4H_Eb4H.wav",18
Sample,232077,0,"D5H.wav",18
Sample,232077,0,"ride.wav",31
Sample,232518,0,"ride.wav",31
Sample,232960,0,"ride.wav",31
Sample,233254,0,"C5H.wav",18
Sample,233254,0,"C4H.wav",18
Sample,233549,0,"C5H.wav",18
Sample,233843,0,"G4H.wav",18
Sample,234137,0,"C5H.wav",18
Sample,234432,0,"ride.wav",31
Sample,234726,0,"C5H.wav",18
Sample,235021,0,"G4H.wav",18
Sample,235315,0,"C5H.wav",18
Sample,235610,0,"G#3H_Ab3H.wav",18
Sample,235904,0,"G#4H_Ab4H.wav",18
Sample,236198,0,"D#4H_Eb4H.wav",18
Sample,236493,0,"G#4H_Ab4H.wav",18
Sample,236787,0,"D#4H_Eb4H.wav",18
Sample,236787,0,"D5H.wav",18
Sample,236787,0,"ride.wav",31
Sample,237229,0,"ride.wav",31
Sample,237670,0,"ride.wav",31
Sample,237965,0,"A#4H_Bb4H.wav",18
Sample,237965,0,"A#3H_Bb3H_s.wav",18
Sample,238259,0,"A#4H_Bb4H.wav",18
Sample,238554,0,"F4H.wav",18
Sample,238848,0,"A#4H_Bb4H.wav",18
Sample,239142,0,"ride.wav",31
Sample,239142,0,"F4H.wav",18
Sample,240026,0,"A#4H_Bb4H.wav",18
Sample,240026,0,"D#5H_Eb5H.wav",18
Sample,240320,0,"G3H.wav",18
Sample,240614,0,"G4H.wav",18
Sample,240909,0,"D#4H_Eb4H.wav",18
Sample,241203,0,"G4H.wav",18
Sample,241498,0,"D#4H_Eb4H.wav",18
Sample,241498,0,"D5H.wav",18
Sample,241498,0,"ride.wav",31
Sample,241939,0,"D5H.wav",18
Sample,242381,0,"G4H.wav",18
Sample,245031,0,"G#2H_Ab2H.wav",18
Sample,245031,0,"G#3H_Ab3H.wav",18
Sample,245325,0,"G#4H_Ab4H.wav",18
Sample,245619,0,"D#4H_Eb4H.wav",18
Sample,245619,0,"D#5H_Eb5H_s.wav",18
Sample,245914,0,"G#4H_Ab4H.wav",18
Sample,246208,0,"D5S_s.wav",18
Sample,246208,0,"D#4H_Eb4H.wav",18
Sample,246208,0,"ride.wav",31
Sample,246797,0,"D#4H_Eb4H.wav",18
Sample,247091,0,"G#4H_Ab4H.wav",18
Sample,247386,0,"A#3H_Bb3H.wav",18
Sample,247386,0,"ORC_A#5F56_4.ogg",31
Sample,247386,0,"A#2H_Bb2H.wav",18
Sample,247680,0,"A#4H_Bb4H.wav",18
Sample,247975,0,"F4H.wav",18
Sample,247975,0,"D#5H_Eb5H_s.wav",18
Sample,248269,0,"A#4H_Bb4H.wav",18
Sample,248563,0,"F4H.wav",18
Sample,248563,0,"ride.wav",31
Sample,249152,0,"F4H.wav",18
Sample,249741,0,"G2H.wav",18
Sample,249741,0,"G3H.wav",18
Sample,250035,0,"G4H.wav",18
Sample,250330,0,"D#5H_Eb5H_s.wav",18
Sample,250330,0,"D#4H_Eb4H.wav",18
Sample,250624,0,"G4H.wav",18
Sample,250919,0,"D#4H_Eb4H.wav",18
Sample,250919,0,"D5S_s.wav",18
Sample,250919,0,"ride.wav",31
Sample,251507,0,"D#4H_Eb4H.wav",18
Sample,251802,0,"G4H.wav",18
Sample,252096,0,"ORC_A#45D#5_4.ogg",31
Sample,252096,0,"C4H.wav",18
Sample,252096,0,"C3H.wav",18
Sample,252391,0,"C5H.wav",18
Sample,252391,0,"A#4S_Bb4S_s.wav",18
Sample,252685,0,"G4H.wav",18
Sample,252685,0,"D#5H_Eb5H_s.wav",18
Sample,252979,0,"C5H.wav",18
Sample,252979,0,"G5S_s.wav",18
Sample,253274,0,"ride.wav",31
Sample,253274,0,"G4H.wav",18
Sample,253568,0,"C5H.wav",18
Sample,253863,0,"G4H.wav",18
Sample,254157,0,"ride.wav",31
Sample,254452,0,"G#3H_Ab3H.wav",18
Sample,254746,0,"G#4H_Ab4H.wav",18
Sample,255040,0,"D#4H_Eb4H.wav",18
Sample,255335,0,"G#4H_Ab4H.wav",18
Sample,255629,0,"D#4H_Eb4H.wav",18
Sample,255629,0,"ride.wav",31
Sample,256807,0,"A#3H_Bb3H.wav",18
Sample,256807,0,"A#2H_Bb2H.wav",18
Sample,257101,0,"A#4H_Bb4H.wav",18
Sample,257396,0,"F4H.wav",18
Sample,257690,0,"A#4H_Bb4H.wav",18
Sample,257984,0,"ride.wav",31
Sample,257984,0,"F4H.wav",18
Sample,258868,0,"A#4H_Bb4H.wav",18
Sample,259162,0,"G3H.wav",18
Sample,259162,0,"G2H.wav",18
Sample,259456,0,"G4H.wav",18
Sample,259751,0,"D#4H_Eb4H.wav",18
Sample,259751,0,"D#5H_Eb5H_s.wav",18
Sample,260045,0,"G4H.wav",18
Sample,260340,0,"D5S_s.wav",18
Sample,260340,0,"D#4H_Eb4H.wav",18
Sample,260340,0,"ride.wav",31
Sample,260928,0,"D#4H_Eb4H.wav",18
Sample,261223,0,"G4H.wav",18
Sample,261517,0,"cymbal.wav",31
Sample,261812,0,"A#4S_Bb4S_s.wav",18
Sample,261812,0,"C5H.wav",18
Sample,262106,0,"D#5H_Eb5H_s.wav",18
Sample,262106,0,"G4H.wav",18
Sample,262400,0,"G5S_s.wav",18
Sample,262400,0,"C5H.wav",18
Sample,262695,0,"G4H.wav",18
Sample,262695,0,"ride.wav",31
Sample,262989,0,"C5H.wav",18
Sample,263284,0,"G4H.wav",18
Sample,263578,0,"F5S_s.wav",18
Sample,263578,0,"C5H.wav",18
Sample,263578,0,"ride.wav",31
Sample,263873,0,"G#3H_Ab3H.wav",18
Sample,263873,0,"G#2H_Ab2H.wav",18
Sample,264167,0,"G#4H_Ab4H.wav",18
Sample,264461,0,"D#5H_Eb5H_s.wav",18
Sample,264461,0,"D#4H_Eb4H.wav",18
Sample,264756,0,"G#4H_Ab4H.wav",18
Sample,265050,0,"D#4H_Eb4H.wav",18
Sample,265050,0,"D5S_s.wav",18
Sample,265050,0,"ride.wav",31
Sample,265639,0,"D#4H_Eb4H.wav",18
Sample,265933,0,"G#4H_Ab4H.wav",18
Sample,266228,0,"ORC_A#5F56_4.ogg",31
Sample,266228,0,"A#3H_Bb3H.wav",18
Sample,266228,0,"A#2H_Bb2H.wav",18
Sample,266522,0,"A#4H_Bb4H.wav",18
Sample,266817,0,"D#5H_Eb5H_s.wav",18
Sample,266817,0,"F4H.wav",18
Sample,267111,0,"A#4H_Bb4H.wav",18
Sample,267405,0,"ride.wav",31
Sample,267405,0,"F4H.wav",18
Sample,267994,0,"F4H.wav",18
Sample,268583,0,"G3H.wav",18
Sample,268583,0,"G2H.wav",18
Sample,268877,0,"G4H.wav",18
Sample,269172,0,"D#4H_Eb4H.wav",18
Sample,269172,0,"D#5H_Eb5H_s.wav",18
Sample,269466,0,"G4H.wav",18
Sample,269761,0,"D5S_s.wav",18
Sample,269761,0,"D#4H_Eb4H.wav",18
Sample,269761,0,"ride.wav",31
Sample,270349,0,"D#4H_Eb4H.wav",18
Sample,270644,0,"G4H.wav",18
Sample,270938,0,"C4H.wav",18
Sample,270938,0,"ORC_A#45D#5_4.ogg",31
Sample,270938,0,"C3H.wav",18
Sample,271233,0,"A#4S_Bb4S_s.wav",18
Sample,271233,0,"C5H.wav",18
Sample,271527,0,"D#5H_Eb5H_s.wav",18
Sample,271527,0,"G4H.wav",18
Sample,271821,0,"G5S_s.wav",18
Sample,271821,0,"C5H.wav",18
Sample,272116,0,"G4H.wav",18
Sample,272116,0,"ride.wav",31
Sample,272410,0,"C5H.wav",18
Sample,272705,0,"G4H.wav",18
Sample,272999,0,"ride.wav",31
Sample,273294,0,"G#3H_Ab3H.wav",18
Sample,273588,0,"G#4H_Ab4H.wav",18
Sample,273882,0,"D#4H_Eb4H.wav",18
Sample,274177,0,"G#4H_Ab4H.wav",18
Sample,274471,0,"ride.wav",31
Sample,274471,0,"D#4H_Eb4H.wav",18
Sample,275354,0,"G#4H_Ab4H.wav",18
Sample,275649,0,"A#3H_Bb3H.wav",18
Sample,275649,0,"A#2H_Bb2H.wav",18
Sample,275943,0,"A#4H_Bb4H.wav",18
Sample,276238,0,"F4H.wav",18
Sample,276532,0,"A#4H_Bb4H.wav",18
Sample,276826,0,"ride.wav",31
Sample,276826,0,"F4H.wav",18
Sample,278004,0,"G2H.wav",18
Sample,278004,0,"G3H.wav",18
Sample,278298,0,"G4H.wav",18
Sample,278593,0,"D#5H_Eb5H_s.wav",18
Sample,278593,0,"D#4H_Eb4H.wav",18
Sample,278887,0,"G4H.wav",18
Sample,279182,0,"D#4H_Eb4H.wav",18
Sample,279182,0,"D5S_s.wav",18
Sample,279182,0,"ride.wav",31
Sample,279770,0,"D#4H_Eb4H.wav",18
Sample,280065,0,"ride.wav",31
Sample,280359,0,"ORC_A#5D#56_4.ogg",31
Sample,280359,0,"C4H.wav",18
Sample,280359,0,"C3H.wav",18
Sample,280654,0,"C5H.wav",18
Sample,280654,0,"A#4S_Bb4S_s.wav",18
Sample,280948,0,"G4H.wav",18
Sample,280948,0,"D#5H_Eb5H_s.wav",18
Sample,281242,0,"C5H.wav",18
Sample,281242,0,"G5S_s.wav",18
Sample,281537,0,"ride.wav",31
Sample,281537,0,"G4H.wav",18
Sample,281831,0,"C5H.wav",18
Sample,282126,0,"G4H.wav",18
Sample,282420,0,"C5H.wav",18
Sample,282420,0,"F5S_s.wav",18
Sample,282715,0,"D#3H_Eb3H.wav",22
Sample,283009,0,"F7S_s.wav",40
Sample,283303,0,"D#7S_Eb7S_s.wav",40
Sample,283598,0,"A#6S_Bb6S_s.wav",40
Sample,283892,0,"kick1.wav",31
Sample,283892,0,"D#4H_Eb4H.wav",22
Sample,283892,0,"ride.wav",31
Sample,284334,0,"ride.wav",31
Sample,284775,0,"ride.wav",31
Sample,285070,0,"A#3H_Bb3H.wav",22
Sample,285364,0,"A#6S_Bb6S_s.wav",40
Sample,286247,0,"G3H.wav",22
Sample,286247,0,"ride.wav",31
Sample,286836,0,"G#3H_Ab3H.wav",22
Sample,287425,0,"A#3H_Bb3H.wav",22
Sample,287425,0,"A#4H_Bb4H.wav",22
Sample,287719,0,"F7S_s.wav",40
Sample,288014,0,"D#7S_Eb7S_s.wav",40
Sample,288308,0,"A#6H_Bb6H_s.wav",40
Sample,288603,0,"A#3H_Bb3H.wav",22
Sample,288603,0,"kick1.wav",31
Sample,288603,0,"ride.wav",31
Sample,289044,0,"ride.wav",31
Sample,289191,0,"G#3H_Ab3H.wav",22
Sample,289486,0,"ride.wav",31
Sample,289780,0,"G3H.wav",22
Sample,290075,0,"A#6S_Bb6S_s.wav",40
Sample,290958,0,"D#4H_Eb4H.wav",22
Sample,290958,0,"ride.wav",31
Sample,291547,0,"F5H.wav",22
Sample,291547,0,"F4H.wav",22
Sample,292136,0,"C5H.wav",22
Sample,292136,0,"G#4H_Ab4H.wav",22
Sample,292136,0,"F4H.wav",22
Sample,292136,0,"D#4H_Eb4H.wav",22
Sample,292430,0,"F7S_s.wav",40
Sample,292724,0,"D#7S_Eb7S_s.wav",40
Sample,293019,0,"A#6S_Bb6S_s.wav",40
Sample,293313,0,"C5H.wav",22
Sample,293313,0,"D#4H_Eb4H.wav",22
Sample,293313,0,"kick1.wav",31
Sample,293313,0,"ride.wav",31
Sample,293755,0,"ride.wav",31
Sample,293902,0,"C5H.wav",22
Sample,293902,0,"G4H.wav",22
Sample,294196,0,"ride.wav",31
Sample,294491,0,"A#4H_Bb4H.wav",22
Sample,294491,0,"D5H.wav",22
Sample,294491,0,"F4H.wav",22
Sample,294785,0,"A#6S_Bb6S_s.wav",40
Sample,295668,0,"D#4H_Eb4H.wav",22
Sample,295668,0,"A#4H_Bb4H.wav",22
Sample,295668,0,"ride.wav",31
Sample,296257,0,"F5H.wav",22
Sample,296257,0,"A#4H_Bb4H.wav",22
Sample,296257,0,"F4H.wav",22
Sample,296846,0,"A#4H_Bb4H.wav",22
Sample,296846,0,"G4H.wav",22
Sample,296846,0,"D4H.wav",22
Sample,296846,0,"A#3H_Bb3H.wav",22
Sample,297140,0,"F7S_s.wav",40
Sample,297435,0,"D#7S_Eb7S_s.wav",40
Sample,297435,0,"G5H.wav",22
Sample,297435,0,"A#4H_Bb4H.wav",22
Sample,297435,0,"G4H.wav",22
Sample,297729,0,"A#6H_Bb6H_s.wav",40
Sample,298024,0,"A#4H_Bb4H.wav",22
Sample,298024,0,"F4H.wav",22
Sample,298024,0,"kick1.wav",31
Sample,298024,0,"ride.wav",31
Sample,298465,0,"ride.wav",31
Sample,298612,0,"A#4H_Bb4H.wav",22
Sample,298612,0,"D#4H_Eb4H.wav",22
Sample,298907,0,"ride.wav",31
Sample,299201,0,"G4H.wav",22
Sample,299201,0,"C5H.wav",22
Sample,299201,0,"D#4H_Eb4H.wav",22
Sample,299496,0,"A#6S_Bb6S_s.wav",40
Sample,300379,0,"ride.wav",31
Sample,301557,0,"D#3H_Eb3H.wav",22
Sample,301557,0,"cymbal.wav",31
Sample,301851,0,"F7S_s.wav",40
Sample,302145,0,"D#7S_Eb7S_s.wav",40
Sample,302440,0,"A#6S_Bb6S_s.wav",40
Sample,302734,0,"kick1.wav",31
Sample,302734,0,"D#4H_Eb4H.wav",22
Sample,302734,0,"ride.wav",31
Sample,303176,0,"ride.wav",31
Sample,303617,0,"ride.wav",31
Sample,303912,0,"A#3H_Bb3H.wav",22
Sample,304206,0,"A#6S_Bb6S_s.wav",40
Sample,305089,0,"G3H.wav",22
Sample,305089,0,"ride.wav",31
Sample,305678,0,"G#4H_Ab4H.wav",22
Sample,305678,0,"G#3H_Ab3H.wav",22
Sample,306267,0,"A#4H_Bb4H.wav",22
Sample,306267,0,"A#3H_Bb3H.wav",22
Sample,306561,0,"F7S_s.wav",40
Sample,306856,0,"D#7S_Eb7S_s.wav",40
Sample,307150,0,"A#6H_Bb6H_s.wav",40
Sample,307445,0,"kick1.wav",31
Sample,307445,0,"A#3H_Bb3H.wav",22
Sample,307445,0,"ride.wav",31
Sample,307886,0,"ride.wav",31
Sample,308033,0,"G#3H_Ab3H.wav",22
Sample,308328,0,"ride.wav",31
Sample,308622,0,"G3H.wav",22
Sample,308917,0,"A#6S_Bb6S_s.wav",40
Sample,309800,0,"ride.wav",31
Sample,309800,0,"D#4H_Eb4H.wav",22
Sample,310389,0,"F4H.wav",22
Sample,310389,0,"F5H.wav",22
Sample,310978,0,"C5H.wav",22
Sample,310978,0,"G#4H_Ab4H.wav",22
Sample,310978,0,"F4H.wav",22
Sample,310978,0,"D#4H_Eb4H.wav",22
Sample,311272,0,"F7S_s.wav",40
Sample,311566,0,"D#7S_Eb7S_s.wav",40
Sample,311861,0,"A#6S_Bb6S_s.wav",40
Sample,312155,0,"C5H.wav",22
Sample,312155,0,"D#4H_Eb4H.wav",22
Sample,312155,0,"kick1.wav",31
Sample,312155,0,"ride.wav",31
Sample,312597,0,"kick1.wav",31
Sample,312744,0,"G4H.wav",22
Sample,312744,0,"C5H.wav",22
Sample,313038,0,"ride.wav",31
Sample,313038,0,"D#7S_Eb7S_s.wav",40
Sample,313333,0,"A#4H_Bb4H.wav",22
Sample,313333,0,"D5H.wav",22
Sample,313333,0,"F4H.wav",22
Sample,313627,0,"A#6S_Bb6S_s.wav",40
Sample,314510,0,"D#4H_Eb4H.wav",22
Sample,314510,0,"A#4H_Bb4H.wav",22
Sample,314510,0,"ride.wav",31
Sample,315099,0,"F5H.wav",22
Sample,315099,0,"A#4H_Bb4H.wav",22
Sample,315099,0,"F4H.wav",22
Sample,315688,0,"A#4H_Bb4H.wav",22
Sample,315688,0,"G4H.wav",22
Sample,315688,0,"D4H.wav",22
Sample,315688,0,"A#3H_Bb3H.wav",22
Sample,315982,0,"F7S_s.wav",40
Sample,316277,0,"D#7S_Eb7S_s.wav",40
Sample,316277,0,"G5H.wav",22
Sample,316277,0,"A#4H_Bb4H.wav",22
Sample,316277,0,"G4H.wav",22
Sample,316571,0,"A#6H_Bb6H_s.wav",40
Sample,316866,0,"A#4H_Bb4H.wav",22
Sample,316866,0,"F4H.wav",22
Sample,316866,0,"kick1.wav",31
Sample,316866,0,"ride.wav",31
Sample,317307,0,"ride.wav",31
Sample,317454,0,"A#4H_Bb4H.wav",22
Sample,317454,0,"D#4H_Eb4H.wav",22
Sample,317749,0,"D#7S_Eb7S_s.wav",40
Sample,318043,0,"G4H.wav",22
Sample,318043,0,"C5H.wav",22
Sample,318043,0,"D#4H_Eb4H.wav",22
Sample,318338,0,"A#6S_Bb6S_s.wav",40
Sample,319221,0,"ride.wav",31
Sample,319663,0,"ride.wav",31
Sample,320399,0,"A2H.wav",18
Sample,320693,0,"A4H.wav",18
Sample,320987,0,"E4H.wav",18
Sample,321282,0,"A4H.wav",18
Sample,321576,0,"ride.wav",31
Sample,321576,0,"E4H.wav",18
Sample,322459,0,"A4H.wav",18
Sample,322754,0,"B3H.wav",18
Sample,322754,0,"B2H.wav",18
Sample,323048,0,"B4H.wav",18
Sample,323343,0,"F#4H_Gb4H.wav",18
Sample,323637,0,"B4H.wav",18
Sample,323931,0,"ride.wav",31
Sample,324815,0,"ride.wav",31
Sample,325109,0,"G#2H_Ab2H.wav",18
Sample,325403,0,"G#4H_Ab4H.wav",18
Sample,325698,0,"E4H.wav",18
Sample,325992,0,"G#4H_Ab4H.wav",18
Sample,326287,0,"ride.wav",31
Sample,326287,0,"E4H.wav",18
Sample,327170,0,"G#4H_Ab4H.wav",18
Sample,327464,0,"C#4H_Db4H.wav",18
Sample,327464,0,"C#3H_Db3H.wav",18
Sample,327759,0,"C#5H_Db5H.wav",18
Sample,328053,0,"G#4H_Ab4H.wav",18
Sample,328348,0,"C#5H_Db5H.wav",18
Sample,329525,0,"ride.wav",31
Sample,329820,0,"A2H.wav",18
Sample,330114,0,"A4H.wav",18
Sample,330408,0,"E4H.wav",18
Sample,330703,0,"A4H.wav",18
Sample,330997,0,"E4H.wav",18
Sample,330997,0,"ride.wav",31
Sample,331880,0,"A4H.wav",18
Sample,332175,0,"B2H.wav",18
Sample,332175,0,"B3H.wav",18
Sample,332469,0,"B4H.wav",18
Sample,332764,0,"F#4H_Gb4H.wav",18
Sample,333058,0,"B4H.wav",18
Sample,333352,0,"ride.wav",31
Sample,333941,0,"F#4H_Gb4H.wav",18
Sample,334236,0,"B4H.wav",18
Sample,334530,0,"G#2H_Ab2H.wav",18
Sample,334824,0,"G#4H_Ab4H.wav",18
Sample,335119,0,"E4H.wav",18
Sample,335413,0,"G#4H_Ab4H.wav",18
Sample,335708,0,"ride.wav",31
Sample,335708,0,"E4H.wav",18
Sample,336591,0,"G#4H_Ab4H.wav",18
Sample,336885,0,"C#3H_Db3H.wav",18
Sample,337180,0,"C#5H_Db5H.wav",18
Sample,337474,0,"G#4H_Ab4H.wav",18
Sample,337769,0,"C#5H_Db5H.wav",18
Sample,338063,0,"ride.wav",31
Sample,338946,0,"ride.wav",31
Sample,339241,0,"A2H.wav",18
Sample,339535,0,"A4H.wav",18
Sample,339829,0,"E4H.wav",18
Sample,340124,0,"A4H.wav",18
Sample,340418,0,"E4H.wav",18
Sample,340418,0,"ride.wav",31
Sample,341301,0,"A4H.wav",18
Sample,341596,0,"B2H.wav",18
Sample,341596,0,"B3H.wav",18
Sample,341890,0,"B4H.wav",18
Sample,342185,0,"F#4H_Gb4H.wav",18
Sample,342479,0,"B4H.wav",18
Sample,342773,0,"ride.wav",31
Sample,343951,0,"G#2H_Ab2H.wav",18
Sample,344245,0,"G#4H_Ab4H.wav",18
Sample,344540,0,"E4H.wav",18
Sample,344834,0,"G#4H_Ab4H.wav",18
Sample,345129,0,"ride.wav",31
Sample,345129,0,"E4H.wav",18
Sample,346012,0,"G#4H_Ab4H.wav",18
Sample,346306,0,"C#4H_Db4H.wav",18
Sample,346306,0,"C#3H_Db3H.wav",18
Sample,346601,0,"C#5H_Db5H.wav",18
Sample,346895,0,"G#4H_Ab4H.wav",18
Sample,347190,0,"C#5H_Db5H.wav",18
Sample,347484,0,"ride.wav",31
Sample,348367,0,"C#5H_Db5H.wav",18
Sample,348662,0,"A2H.wav",18
Sample,348956,0,"ORC_F#6_12.ogg",31
Sample,348956,0,"A4H.wav",18
Sample,349250,0,"E4H.wav",18
Sample,349545,0,"A4H.wav",18
Sample,349839,0,"ORC_D#6_12.ogg",31
Sample,349839,0,"E4H.wav",18
Sample,350722,0,"A4H.wav",18
Sample,351017,0,"B2H.wav",18
Sample,351017,0,"B3H.wav",18
Sample,351017,0,"ride.wav",31
Sample,351311,0,"B4H.wav",18
Sample,351606,0,"F#4H_Gb4H.wav",18
Sample,351900,0,"B4H.wav",18
Sample,352194,0,"F#4H_Gb4H.wav",18
Sample,352783,0,"ORC_C#67E6_1.ogg",31
Sample,352783,0,"F#4H_Gb4H.wav",18
Sample,353078,0,"B4H.wav",18
Sample,353372,0,"G#2H_Ab2H.wav",18
Sample,353666,0,"G#4H_Ab4H.wav",18
Sample,353961,0,"E4H.wav",18
Sample,354255,0,"G#4H_Ab4H.wav",18
Sample,354550,0,"E4H.wav",18
Sample,354550,0,"ORC_D#6_12.ogg",31
Sample,355433,0,"G#4H_Ab4H.wav",18
Sample,355727,0,"ORC_B5E56_4.ogg",31
Sample,355727,0,"C#4H_Db4H.wav",18
Sample,355727,0,"C#3H_Db3H.wav",18
Sample,356022,0,"C#5H_Db5H.wav",18
Sample,356316,0,"G#4H_Ab4H.wav",18
Sample,356611,0,"C#5H_Db5H.wav",18
Sample,356905,0,"G#4H_Ab4H.wav",18
Sample,356905,0,"reverse med.wav",18
Sample,357788,0,"C#5H_Db5H.wav",18

[TimingPoints]
85,588.812561334642,4,2,1,45,1,0
207347,-100,4,2,1,45,0,1
226115,-100,4,2,1,45,0,0
226189,-100,4,2,1,45,0,1
244957,-100,4,2,1,45,0,0
245031,-100,4,2,1,45,0,1
263799,-100,4,2,1,45,0,0
263873,-100,4,2,1,45,0,1
282715,-100,4,2,1,45,0,0
320399,-100,4,2,1,45,0,1
339167,-100,4,2,1,45,0,0
339241,-100,4,2,1,45,0,1
358083,-100,4,2,1,45,0,0

[HitObjects]
64,192,85,5,0,0:0:0:22:SCG_A#4s.ogg
192,192,379,1,0,0:0:0:22:SCG_F5s.ogg
448,192,379,1,0,0:0:0:11:SCG_D#4s.ogg
320,192,673,1,0,0:0:0:22:SCG_D#5s.ogg
64,192,968,1,0,0:0:0:22:SCG_A#4s.ogg
192,192,968,1,0,0:0:0:11:SCG_D#4s.ogg
448,192,1262,1,0,0:0:0:22:SCG_D5s.ogg
64,192,1557,1,0,0:0:0:11:SCG_D#4s.ogg
320,192,1557,1,0,0:0:0:0:
448,192,1704,1,0,0:0:0:22:SCG_D5s.ogg
192,192,2145,1,0,0:0:0:22:SCG_D#5s.ogg
320,192,2145,128,0,2734:0:0:0:11:SCG_D#4s.ogg
64,192,2734,1,0,0:0:0:22:SCG_A#4s.ogg
192,192,2734,1,0,0:0:0:11:SCG_D#4s.ogg
320,192,3029,1,0,0:0:0:22:SCG_D#5s.ogg
64,192,3323,1,0,0:0:0:22:SCG_A#4s.ogg
192,192,3323,1,0,0:0:0:11:SCG_D#4s.ogg
448,192,3617,1,0,0:0:0:22:SCG_D5s.ogg
64,192,3912,1,0,0:0:0:11:SCG_D#4s.ogg
192,192,3912,1,0,0:0:0:0:
448,192,4059,1,0,0:0:0:22:SCG_D5s.ogg
192,192,4501,1,0,0:0:0:22:SCG_D#5s.ogg
320,192,4501,1,0,0:0:0:11:SCG_D#4s.ogg
64,192,4795,1,0,0:0:0:22:SCG_A#4s.ogg
192,192,5089,1,0,0:0:0:22:SCG_F5s.ogg
448,192,5089,1,0,0:0:0:11:SCG_D#4s.ogg
320,192,5384,1,0,0:0:0:22:SCG_D#5s.ogg
64,192,5678,1,0,0:0:0:22:SCG_A#4s.ogg
192,192,5678,1,0,0:0:0:11:SCG_D#4s.ogg
448,192,5973,1,0,0:0:0:22:SCG_D5s.ogg
64,192,6267,1,0,0:0:0:11:SCG_D#4s.ogg
320,192,6267,1,0,0:0:0:0:
448,192,6414,1,0,0:0:0:22:SCG_D5s.ogg
192,192,6856,1,0,0:0:0:22:SCG_D#5s.ogg
320,192,6856,128,0,7445:0:0:0:11:SCG_D#4s.ogg
64,192,7445,1,0,0:0:0:22:SCG_A#4s.ogg
192,192,7445,1,0,0:0:0:11:SCG_D#4s.ogg
320,192,7739,1,0,0:0:0:22:SCG_D#5s.ogg
192,192,8033,1,0,0:0:0:22:SCG_G5s.ogg
448,192,8033,1,0,0:0:0:11:SCG_D#4s.ogg
64,192,8328,1,0,0:0:0:22:SCG_F5s.ogg
320,192,8622,1,0,0:0:0:11:SCG_D#4s.ogg
448,192,8622,1,0,0:0:0:0:
192,192,8769,1,0,0:0:0:22:SCG_D#5s.ogg
64,192,9211,1,0,0:0:0:22:SCG_F5s.ogg
448,192,9211,1,0,0:0:0:11:SCG_D#4s.ogg
192,192,9506,1,0,0:0:0:22:SCG_A#4s.ogg
64,192,9800,1,0,0:0:0:22:SCG_F5s.ogg
320,192,9800,1,0,0:0:0:11:SCG_D#4s.ogg
448,192,10094,1,0,0:0:0:22:SCG_D#5s.ogg
64,192,10389,1,0,0:0:0:22:SCG_A#4s.ogg
192,192,10389,1,0,0:0:0:11:SCG_D#4s.ogg
320,192,10683,1,0,0:0:0:22:SCG_D5s.ogg
192,192,10978,1,0,0:0:0:11:SCG_D#4s.ogg
448,192,10978,1,0,0:0:0:0:
320,192,11125,1,0,0:0:0:22:SCG_D5s.ogg
64,192,11566,128,0,12155:0:0:0:22:SCG_D#5s.ogg
192,192,11566,1,0,0:0:0:11:SCG_D#4s.ogg
320,192,12155,1,0,0:0:0:22:SCG_A#4s.ogg
448,192,12155,1,0,0:0:0:11:SCG_D#4s.ogg
64,192,12450,1,0,0:0:0:22:SCG_D#5s.ogg
320,192,12744,1,0,0:0:0:22:SCG_A#4s.ogg
448,192,12744,1,0,0:0:0:11:SCG_D#4s.ogg
192,192,13038,1,0,0:0:0:22:SCG_D5s.ogg
320,192,13333,1,0,0:0:0:11:SCG_D#4s.ogg
448,192,13333,1,0,0:0:0:0:
192,192,13480,1,0,0:0:0:22:SCG_D5s.ogg
64,192,13922,1,0,0:0:0:22:SCG_D#5s.ogg
320,192,13922,1,0,0:0:0:11:SCG_D#4s.ogg
192,192,14216,1,0,0:0:0:22:SCG_A#4s.ogg
320,192,14510,1,0,0:0:0:22:SCG_F5s.ogg
448,192,14510,1,0,0:0:0:11:SCG_D#4s.ogg
192,192,14805,1,0,0:0:0:22:SCG_D#5s.ogg
64,192,15099,1,0,0:0:0:22:SCG_A#4s.ogg
320,192,15099,1,0,0:0:0:11:SCG_D#4s.ogg
448,192,15394,1,0,0:0:0:22:SCG_D5s.ogg
64,192,15688,1,0,0:0:0:11:SCG_D#4s.ogg
192,192,15688,1,0,0:0:0:0:
448,192,15835,1,0,0:0:0:22:SCG_D5s.ogg
64,192,16277,128,0,16866:0:0:0:22:SCG_D#5s.ogg
320,192,16277,1,0,0:0:0:11:SCG_D#4s.ogg
320,192,16866,1,0,0:0:0:22:SCG_A#4s.ogg
448,192,16866,1,0,0:0:0:11:SCG_D#4s.ogg
192,192,17160,1,0,0:0:0:22:SCG_D#5s.ogg
64,192,17454,1,0,0:0:0:22:SCG_G5s.ogg
320,192,17454,1,0,0:0:0:11:SCG_D#4s.ogg
448,192,17749,1,0,0:0:0:22:SCG_F5s.ogg
64,192,18043,1,0,0:0:0:11:SCG_D#4s.ogg
192,192,18043,1,0,0:0:0:0:
320,192,18190,1,0,0:0:0:22:SCG_D#5s.ogg
64,192,18632,1,0,0:0:0:22:SCG_F5s.ogg
448,192,18632,1,0,0:0:0:11:SCG_D#4s.ogg
64,192,18927,128,0,19221:0:0:0:22:SCG_A#4s.ogg
320,192,18927,1,0,0:0:0:9:G#3H_Ab3H_s.wav
192,192,19221,128,0,19515:0:0:0:22:SCG_F5s.ogg
448,192,19221,1,0,0:0:0:11:SCG_D#4s.ogg
64,192,19515,1,0,0:0:0:22:SCG_D#5s.ogg
320,192,19515,128,0,19810:0:0:0:9:G#3H_Ab3H_s.wav
64,192,19810,128,0,20104:0:0:0:22:SCG_A#4s.ogg
448,192,19810,1,0,0:0:0:11:SCG_D#4s.ogg
192,192,20104,1,0,0:0:0:22:SCG_D5s.ogg
448,192,20104,128,0,20399:0:0:0:9:G#3H_Ab3H_s.wav
64,192,20399,1,0,0:0:0:11:SCG_D#4s.ogg
320,192,20399,1,0,0:0:0:0:
448,192,20546,128,0,20987:0:0:0:22:SCG_D5s.ogg
64,192,20693,1,0,0:0:0:9:G#3H_Ab3H_s.wav
192,192,20693,1,0,0:0:0:9:D#3H_Eb3H_s.wav
64,192,20987,128,0,21576:0:0:0:22:SCG_D#5s.ogg
320,192,20987,1,0,0:0:0:11:SCG_D#4s.ogg
320,192,21282,1,0,0:0:0:9:G#3H_Ab3H_s.wav
448,192,21282,1,0,0:0:0:9:D#3H_Eb3H_s.wav
192,192,21576,1,0,0:0:0:22:SCG_A#4s.ogg
320,192,21576,128,0,21871:0:0:0:11:SCG_D#4s.ogg
64,192,21871,1,0,0:0:0:22:SCG_D#5s.ogg
448,192,21871,128,0,22165:0:0:0:9:G#3H_Ab3H_s.wav
192,192,22165,128,0,22459:0:0:0:22:SCG_A#4s.ogg
320,192,22165,1,0,0:0:0:11:SCG_D#4s.ogg
64,192,22459,128,0,22754:0:0:0:22:SCG_D5s.ogg
320,192,22459,1,0,0:0:0:9:G#3H_Ab3H_s.wav
192,192,22754,1,0,0:0:0:11:SCG_D#4s.ogg
448,192,22754,1,0,0:0:0:0:
64,192,22901,128,0,23343:0:0:0:22:SCG_D5s.ogg
320,192,23048,1,0,0:0:0:9:G#3H_Ab3H_s.wav
448,192,23048,1,0,0:0:0:9:D#3H_Eb3H_s.wav
192,192,23343,1,0,0:0:0:22:SCG_D#5s.ogg
448,192,23343,128,0,23637:0:0:0:11:SCG_D#4s.ogg
64,192,23637,1,0,0:0:0:22:SCG_A#4s.ogg
192,192,23637,128,0,23931:0:0:0:9:G3H_s.wav
320,192,23931,128,0,24226:0:0:0:22:SCG_F5s.ogg
448,192,23931,1,0,0:0:0:11:SCG_D#4s.ogg
64,192,24226,1,0,0:0:0:22:SCG_D#5s.ogg
448,192,24226,128,0,24520:0:0:0:9:G3H_s.wav
192,192,24520,128,0,24815:0:0:0:22:SCG_A#4s.ogg
320,192,24520,1,0,0:0:0:11:SCG_D#4s.ogg
64,192,24815,128,0,25109:0:0:0:22:SCG_D5s.ogg
448,192,24815,1,0,0:0:0:9:G3H_s.wav
192,192,25109,1,0,0:0:0:11:SCG_D#4s.ogg
320,192,25109,1,0,0:0:0:0:
64,192,25256,128,0,25698:0:0:0:22:SCG_D5s.ogg
320,192,25403,1,0,0:0:0:9:G3H_s.wav
448,192,25403,1,0,0:0:0:9:D#3H_Eb3H_s.wav
192,192,25698,1,0,0:0:0:22:SCG_D#5s.ogg
320,192,25698,128,0,26287:0:0:0:11:SCG_D#4s.ogg
64,192,25992,1,0,0:0:0:9:G3H_s.wav
192,192,25992,1,0,0:0:0:9:D#3H_Eb3H_s.wav
192,192,26287,128,0,26581:0:0:0:22:SCG_A#4s.ogg
448,192,26287,1,0,0:0:0:11:SCG_D#4s.ogg
64,192,26581,128,0,26875:0:0:0:22:SCG_D#5s.ogg
320,192,26581,1,0,0:0:0:9:G3H_s.wav
320,192,26875,128,0,27170:0:0:0:22:SCG_G5s.ogg
448,192,26875,1,0,0:0:0:11:SCG_D#4s.ogg
64,192,27170,1,0,0:0:0:22:SCG_F5s.ogg
448,192,27170,128,0,27464:0:0:0:9:G3H_s.wav
192,192,27464,1,0,0:0:0:11:SCG_D#4s.ogg
320,192,27464,1,0,0:0:0:0:
64,192,27611,128,0,28053:0:0:0:22:SCG_D#5s.ogg
320,192,27759,1,0,0:0:0:9:G3H_s.wav
448,192,27759,1,0,0:0:0:9:D#3H_Eb3H_s.wav
192,192,28053,1,0,0:0:0:22:SCG_F5s.ogg
448,192,28053,128,0,28348:0:0:0:11:SCG_D#4s.ogg
192,192,28348,128,0,28642:0:0:0:22:SCG_A#4s.ogg
320,192,28348,1,0,0:0:0:9:G#3H_Ab3H_s.wav
64,192,28642,1,0,0:0:0:22:SCG_F5s.ogg
320,192,28642,128,0,28936:0:0:0:11:SCG_D#4s.ogg
192,192,28936,1,0,0:0:0:22:SCG_D#5s.ogg
448,192,28936,128,0,29231:0:0:0:9:G#3H_Ab3H_s.wav
192,192,29231,128,0,29525:0:0:0:22:SCG_A#4s.ogg
320,192,29231,1,0,0:0:0:11:SCG_D#4s.ogg
64,192,29525,128,0,29820:0:0:0:22:SCG_D5s.ogg
448,192,29525,1,0,0:0:0:9:G#3H_Ab3H_s.wav
192,192,29820,1,0,0:0:0:11:SCG_D#4s.ogg
320,192,29820,1,0,0:0:0:0:
64,192,29967,128,0,30408:0:0:0:22:SCG_D5s.ogg
320,192,30114,1,0,0:0:0:9:G#3H_Ab3H_s.wav
448,192,30114,1,0,0:0:0:9:D#3H_Eb3H_s.wav
320,192,30408,128,0,30997:0:0:0:22:SCG_D#5s.ogg
448,192,30408,1,0,0:0:0:11:SCG_D#4s.ogg
64,192,30703,1,0,0:0:0:9:G#3H_Ab3H_s.wav
192,192,30703,1,0,0:0:0:9:D#3H_Eb3H_s.wav
192,192,30997,128,0,31292:0:0:0:22:SCG_A#4s.ogg
448,192,30997,1,0,0:0:0:11:SCG_D#4s.ogg
64,192,31292,1,0,0:0:0:22:SCG_D#5s.ogg
320,192,31292,128,0,31586:0:0:0:9:G#3H_Ab3H_s.wav
64,192,31586,128,0,31880:0:0:0:22:SCG_A#4s.ogg
448,192,31586,1,0,0:0:0:11:SCG_D#4s.ogg
192,192,31880,128,0,32175:0:0:0:22:SCG_D5s.ogg
320,192,31880,1,0,0:0:0:9:G#3H_Ab3H_s.wav
320,192,32175,1,0,0:0:0:11:SCG_D#4s.ogg
448,192,32175,1,0,0:0:0:0:
192,192,32322,128,0,32764:0:0:0:22:SCG_D5s.ogg
64,192,32469,1,0,0:0:0:9:G#3H_Ab3H_s.wav
320,192,32469,1,0,0:0:0:9:D#3H_Eb3H_s.wav
64,192,32764,1,0,0:0:0:22:SCG_D#5s.ogg
448,192,32764,128,0,33058:0:0:0:11:SCG_D#4s.ogg
64,192,33058,128,0,33352:0:0:0:22:SCG_A#4s.ogg
192,192,33058,1,0,0:0:0:9:A#3H_Bb3H_s.wav
320,192,33352,128,0,33647:0:0:0:22:SCG_F5s.ogg
448,192,33352,1,0,0:0:0:11:SCG_D#4s.ogg
64,192,33647,1,0,0:0:0:22:SCG_D#5s.ogg
192,192,33647,128,0,33941:0:0:0:9:A#3H_Bb3H_s.wav
64,192,33941,128,0,34236:0:0:0:22:SCG_A#4s.ogg
448,192,33941,1,0,0:0:0:11:SCG_D#4s.ogg
320,192,34236,1,0,0:0:0:22:SCG_D5s.ogg
448,192,34236,128,0,34530:0:0:0:9:A#3H_Bb3H_s.wav
64,192,34530,1,0,0:0:0:11:SCG_D#4s.ogg
192,192,34530,1,0,0:0:0:0:
448,192,34677,128,0,35119:0:0:0:22:SCG_D5s.ogg
192,192,34824,1,0,0:0:0:9:A#3H_Bb3H_s.wav
320,192,34824,1,0,0:0:0:9:F3H_s.wav
64,192,35119,1,0,0:0:0:22:SCG_D#5s.ogg
192,192,35119,128,0,35708:0:0:0:11:SCG_D#4s.ogg
320,192,35413,1,0,0:0:0:9:C4H_s.wav
448,192,35413,1,0,0:0:0:9:G3H_s.wav
64,192,35708,1,0,0:0:0:22:SCG_A#4s.ogg
448,192,35708,128,0,36002:0:0:0:11:SCG_D#4s.ogg
192,192,36002,1,0,0:0:0:22:SCG_D#5s.ogg
320,192,36002,128,0,36296:0:0:0:9:C4H_s.wav
64,192,36296,128,0,36591:0:0:0:22:SCG_G5s.ogg
448,192,36296,1,0,0:0:0:11:SCG_D#4s.ogg
192,192,36591,128,0,36885:0:0:0:22:SCG_F5s.ogg
320,192,36591,1,0,0:0:0:9:C4H_s.wav
64,192,36885,1,0,0:0:0:11:SCG_D#4s.ogg
448,192,36885,1,0,0:0:0:0:
320,192,37032,128,0,37474:0:0:0:22:SCG_D#5s.ogg
64,192,37180,1,0,0:0:0:9:C4H_s.wav
192,192,37180,1,0,0:0:0:9:G3H_s.wav
192,192,37474,1,0,0:0:0:22:SCG_F5s.ogg
448,192,37474,128,0,37769:0:0:0:11:SCG_D#4s.ogg
64,192,37769,128,0,38946:0:0:0:31:A#5H_Bb5H.wav
320,192,37769,1,0,0:0:0:31:A#4H_Bb4H.wav
192,192,38063,1,0,0:0:0:22:SCG_F5s.ogg
320,192,38357,1,0,0:0:0:22:SCG_D#5s.ogg
448,192,38357,1,0,0:0:0:9:G#3H_Ab3H_s.wav
192,192,38652,1,0,0:0:0:22:SCG_A#4s.ogg
320,192,38946,1,0,0:0:0:31:A#6H_Bb6H.wav
448,192,38946,128,0,40124:0:0:0:31:A#5H_Bb5H.wav
64,192,39241,1,0,0:0:0:11:SCG_D#4s.ogg
192,192,39388,1,0,0:0:0:22:SCG_D5s.ogg
64,192,39535,1,0,0:0:0:9:G#3H_Ab3H_s.wav
320,192,39535,1,0,0:0:0:9:D#3H_Eb3H_s.wav
192,192,39829,1,0,0:0:0:22:SCG_D#5s.ogg
64,192,40124,1,0,0:0:0:31:F6H.wav
320,192,40124,128,0,41301:0:0:0:31:F5H.wav
448,192,40418,1,0,0:0:0:22:SCG_A#4s.ogg
64,192,40713,1,0,0:0:0:22:SCG_D#5s.ogg
192,192,40713,1,0,0:0:0:9:G#3H_Ab3H_s.wav
64,192,41007,1,0,0:0:0:22:SCG_A#4s.ogg
192,192,41301,1,0,0:0:0:22:SCG_D5s.ogg
448,192,41301,1,0,0:0:0:9:G#3H_Ab3H_s.wav
64,192,41596,1,0,0:0:0:11:SCG_D#4s.ogg
192,192,41743,1,0,0:0:0:22:SCG_D5s.ogg
320,192,41890,1,0,0:0:0:9:G#3H_Ab3H_s.wav
448,192,41890,1,0,0:0:0:9:D#3H_Eb3H_s.wav
192,192,42185,1,0,0:0:0:22:SCG_D#5s.ogg
64,192,42479,128,0,43657:0:0:0:31:D#6H_Eb6H.wav
448,192,42479,1,0,0:0:0:31:D#5H_Eb5H.wav
320,192,42773,1,0,0:0:0:22:SCG_F5s.ogg
192,192,43068,1,0,0:0:0:22:SCG_D#5s.ogg
448,192,43068,1,0,0:0:0:9:G3H_s.wav
320,192,43362,1,0,0:0:0:22:SCG_A#4s.ogg
192,192,43657,1,0,0:0:0:31:A#6H_Bb6H.wav
448,192,43657,128,0,44834:0:0:0:31:A#5H_Bb5H.wav
320,192,43951,1,0,0:0:0:11:SCG_D#4s.ogg
64,192,44098,1,0,0:0:0:22:SCG_D5s.ogg
192,192,44245,1,0,0:0:0:9:G3H_s.wav
320,192,44245,1,0,0:0:0:9:D#3H_Eb3H_s.wav
64,192,44540,1,0,0:0:0:22:SCG_D#5s.ogg
192,192,44834,128,0,46012:0:0:0:31:A#5H_Bb5H.wav
320,192,44834,1,0,0:0:0:31:A#4H_Bb4H.wav
64,192,45129,1,0,0:0:0:22:SCG_A#4s.ogg
320,192,45423,1,0,0:0:0:22:SCG_D#5s.ogg
448,192,45423,1,0,0:0:0:9:G3H_s.wav
320,192,45717,1,0,0:0:0:22:SCG_G5s.ogg
64,192,46012,1,0,0:0:0:22:SCG_F5s.ogg
448,192,46012,1,0,0:0:0:9:G3H_s.wav
320,192,46306,1,0,0:0:0:11:SCG_D#4s.ogg
192,192,46453,1,0,0:0:0:22:SCG_D#5s.ogg
64,192,46601,1,0,0:0:0:9:G3H_s.wav
448,192,46601,1,0,0:0:0:9:D#3H_Eb3H_s.wav
320,192,46895,1,0,0:0:0:22:SCG_F5s.ogg
64,192,47190,128,0,48367:0:0:0:31:A#5H_Bb5H.wav
192,192,47190,1,0,0:0:0:31:A#4H_Bb4H.wav
320,192,47484,1,0,0:0:0:22:SCG_F5s.ogg
192,192,47778,1,0,0:0:0:22:SCG_D#5s.ogg
448,192,47778,1,0,0:0:0:9:G#3H_Ab3H_s.wav
320,192,48073,1,0,0:0:0:22:SCG_A#4s.ogg
192,192,48367,128,0,49545:0:0:0:31:D6H.wav
448,192,48367,1,0,0:0:0:31:D5H.wav
64,192,48662,1,0,0:0:0:11:SCG_D#4s.ogg
448,192,48809,1,0,0:0:0:22:SCG_D5s.ogg
64,192,48956,1,0,0:0:0:9:G#3H_Ab3H_s.wav
320,192,48956,1,0,0:0:0:9:D#3H_Eb3H_s.wav
448,192,49250,1,0,0:0:0:22:SCG_D#5s.ogg
64,192,49545,1,0,0:0:0:31:A#6H_Bb6H.wav
320,192,49545,128,0,50722:0:0:0:31:A#5H_Bb5H.wav
448,192,49839,1,0,0:0:0:22:SCG_A#4s.ogg
64,192,50134,1,0,0:0:0:22:SCG_D#5s.ogg
192,192,50134,1,0,0:0:0:9:G#3H_Ab3H_s.wav
64,192,50428,1,0,0:0:0:22:SCG_A#4s.ogg
192,192,50722,1,0,0:0:0:22:SCG_D5s.ogg
448,192,50722,1,0,0:0:0:9:G#3H_Ab3H_s.wav
64,192,51017,1,0,0:0:0:11:SCG_D#4s.ogg
192,192,51164,1,0,0:0:0:22:SCG_D5s.ogg
320,192,51311,1,0,0:0:0:31:C7H.wav
448,192,51311,128,0,51900:0:0:0:31:C6H.wav
320,192,51606,1,0,0:0:0:22:SCG_D#5s.ogg
192,192,51753,1,0,0:0:0:0:
64,192,51900,128,0,53078:0:0:0:31:A#6H_Bb6H.wav
320,192,51900,1,0,0:0:0:31:A#5H_Bb5H.wav
192,192,52194,1,0,0:0:0:22:SCG_F5s.ogg
320,192,52489,1,0,0:0:0:22:SCG_D#5s.ogg
448,192,52489,1,0,0:0:0:9:A#3H_Bb3H_s.wav
192,192,52783,1,0,0:0:0:22:SCG_A#4s.ogg
320,192,53078,128,0,54255:0:0:0:31:F6H.wav
448,192,53078,1,0,0:0:0:31:F5H.wav
64,192,53372,1,0,0:0:0:11:SCG_D#4s.ogg
448,192,53519,1,0,0:0:0:22:SCG_D5s.ogg
64,192,53666,1,0,0:0:0:9:A#3H_Bb3H_s.wav
192,192,53666,1,0,0:0:0:9:F3H_s.wav
448,192,53961,1,0,0:0:0:22:SCG_D#5s.ogg
64,192,54255,1,0,0:0:0:31:D#6H_Eb6H.wav
192,192,54255,128,0,55433:0:0:0:31:D#5H_Eb5H.wav
448,192,54550,1,0,0:0:0:22:SCG_A#4s.ogg
64,192,54844,1,0,0:0:0:22:SCG_D#5s.ogg
320,192,54844,1,0,0:0:0:9:C4H_s.wav
64,192,55138,1,0,0:0:0:22:SCG_G5s.ogg
320,192,55433,1,0,0:0:0:22:SCG_F5s.ogg
448,192,55433,1,0,0:0:0:9:C4H_s.wav
64,192,55727,1,0,0:0:0:11:SCG_D#4s.ogg
192,192,55874,1,0,0:0:0:22:SCG_D#5s.ogg
320,192,56022,1,0,0:0:0:9:C4H_s.wav
448,192,56022,1,0,0:0:0:9:G3H_s.wav
64,192,56316,1,0,0:0:0:22:SCG_F5s.ogg
64,192,56611,128,0,57788:0:0:0:31:A#5H_Bb5H.wav
448,192,56611,128,0,56905:0:0:0:31:A#4H_Bb4H.wav
192,192,56905,128,0,57199:0:0:0:22:SCG_F5s.ogg
320,192,57199,1,0,0:0:0:22:SCG_D#5s.ogg
448,192,57199,128,0,57494:0:0:0:9:G#3H_Ab3H_s.wav
320,192,57494,128,0,57788:0:0:0:22:SCG_A#4s.ogg
192,192,57788,128,0,58966:0:0:0:31:A#6H_Bb6H.wav
448,192,57788,128,0,58083:0:0:0:31:A#5H_Bb5H.wav
320,192,58083,1,0,0:0:0:11:SCG_D#4s.ogg
448,192,58230,128,0,58671:0:0:0:22:SCG_D5s.ogg
64,192,58377,1,0,0:0:0:9:G#3H_Ab3H_s.wav
320,192,58377,1,0,0:0:0:9:D#3H_Eb3H_s.wav
64,192,58671,128,0,58966:0:0:0:22:SCG_D#5s.ogg
320,192,58966,128,0,60143:0:0:0:31:F6H.wav
448,192,58966,1,0,0:0:0:31:F5H.wav
448,192,59260,128,0,59555:0:0:0:22:SCG_A#4s.ogg
64,192,59555,1,0,0:0:0:22:SCG_D#5s.ogg
192,192,59555,128,0,59849:0:0:0:9:G#3H_Ab3H_s.wav
64,192,59849,128,0,60143:0:0:0:22:SCG_A#4s.ogg
192,192,60143,1,0,0:0:0:22:SCG_D5s.ogg
448,192,60143,128,0,60438:0:0:0:9:G#3H_Ab3H_s.wav
192,192,60438,1,0,0:0:0:11:SCG_D#4s.ogg
448,192,60585,128,0,61027:0:0:0:22:SCG_D5s.ogg
64,192,60732,1,0,0:0:0:9:G#3H_Ab3H_s.wav
320,192,60732,1,0,0:0:0:9:D#3H_Eb3H_s.wav
192,192,61027,128,0,61321:0:0:0:22:SCG_D#5s.ogg
64,192,61321,128,0,62499:0:0:0:31:D#6H_Eb6H.wav
448,192,61321,128,0,61615:0:0:0:31:D#5H_Eb5H.wav
320,192,61615,128,0,61910:0:0:0:22:SCG_F5s.ogg
192,192,61910,128,0,62204:0:0:0:22:SCG_D#5s.ogg
448,192,61910,1,0,0:0:0:9:G3H_s.wav
320,192,62204,128,0,62499:0:0:0:22:SCG_A#4s.ogg
192,192,62499,128,0,63676:0:0:0:31:A#6H_Bb6H.wav
448,192,62499,128,0,62793:0:0:0:31:A#5H_Bb5H.wav
320,192,62793,1,0,0:0:0:11:SCG_D#4s.ogg
448,192,62940,128,0,63382:0:0:0:22:SCG_D5s.ogg
64,192,63087,1,0,0:0:0:9:G3H_s.wav
320,192,63087,1,0,0:0:0:9:D#3H_Eb3H_s.wav
64,192,63382,128,0,63676:0:0:0:22:SCG_D#5s.ogg
320,192,63676,1,0,0:0:0:31:A#5H_Bb5H.wav
448,192,63676,128,0,64854:0:0:0:31:A#4H_Bb4H.wav
64,192,63971,128,0,64265:0:0:0:22:SCG_A#4s.ogg
192,192,64265,128,0,64559:0:0:0:22:SCG_D#5s.ogg
320,192,64265,1,0,0:0:0:9:G3H_s.wav
320,192,64559,128,0,64854:0:0:0:22:SCG_G5s.ogg
64,192,64854,128,0,65148:0:0:0:22:SCG_F5s.ogg
192,192,64854,1,0,0:0:0:9:G3H_s.wav
320,192,65148,1,0,0:0:0:11:SCG_D#4s.ogg
192,192,65295,128,0,65737:0:0:0:22:SCG_D#5s.ogg
320,192,65443,1,0,0:0:0:9:G3H_s.wav
448,192,65443,1,0,0:0:0:9:D#3H_Eb3H_s.wav
448,192,65737,128,0,66032:0:0:0:22:SCG_F5s.ogg
64,192,66032,128,0,67209:0:0:0:31:A#5H_Bb5H.wav
320,192,66032,128,0,66326:0:0:0:31:A#4H_Bb4H.wav
192,192,66326,128,0,66620:0:0:0:22:SCG_F5s.ogg
320,192,66620,128,0,66915:0:0:0:22:SCG_D#5s.ogg
448,192,66620,1,0,0:0:0:9:G#3H_Ab3H_s.wav
448,192,66915,128,0,67209:0:0:0:22:SCG_A#4s.ogg
192,192,67209,128,0,68387:0:0:0:31:D6H.wav
320,192,67209,128,0,67504:0:0:0:31:D5H.wav
448,192,67504,1,0,0:0:0:11:SCG_D#4s.ogg
320,192,67651,128,0,68092:0:0:0:22:SCG_D5s.ogg
64,192,67798,1,0,0:0:0:9:G#3H_Ab3H_s.wav
448,192,67798,1,0,0:0:0:9:D#3H_Eb3H_s.wav
64,192,68092,128,0,68387:0:0:0:22:SCG_D#5s.ogg
320,192,68387,128,0,69564:0:0:0:31:A#6H_Bb6H.wav
448,192,68387,1,0,0:0:0:31:A#5H_Bb5H.wav
448,192,68681,128,0,68976:0:0:0:22:SCG_A#4s.ogg
64,192,68976,128,0,69270:0:0:0:22:SCG_D#5s.ogg
192,192,68976,1,0,0:0:0:9:G#3H_Ab3H_s.wav
192,192,69270,128,0,69564:0:0:0:22:SCG_A#4s.ogg
64,192,69564,1,0,0:0:0:22:SCG_D5s.ogg
448,192,69564,128,0,69859:0:0:0:9:G#3H_Ab3H_s.wav
320,192,69859,1,0,0:0:0:11:SCG_D#4s.ogg
192,192,70006,1,0,0:0:0:22:SCG_D5s.ogg
64,192,70153,128,0,70448:0:0:0:31:C7H.wav
448,192,70153,128,0,70742:0:0:0:31:C6H.wav
320,192,70448,1,0,0:0:0:22:SCG_D#5s.ogg
64,192,70742,128,0,71920:0:0:0:31:A#6H_Bb6H.wav
320,192,70742,128,0,71036:0:0:0:31:A#5H_Bb5H.wav
192,192,71036,128,0,71331:0:0:0:22:SCG_F5s.ogg
320,192,71331,128,0,71625:0:0:0:22:SCG_D#5s.ogg
448,192,71331,1,0,0:0:0:9:A#3H_Bb3H_s.wav
448,192,71625,128,0,71920:0:0:0:22:SCG_A#4s.ogg
192,192,71920,128,0,73097:0:0:0:31:F6H.wav
320,192,71920,128,0,72214:0:0:0:31:F5H.wav
448,192,72214,1,0,0:0:0:11:SCG_D#4s.ogg
320,192,72361,128,0,72803:0:0:0:22:SCG_D5s.ogg
64,192,72508,1,0,0:0:0:9:A#3H_Bb3H_s.wav
448,192,72508,1,0,0:0:0:9:F3H_s.wav
64,192,72803,128,0,73097:0:0:0:22:SCG_D#5s.ogg
320,192,73097,128,0,74275:0:0:0:31:D#6H_Eb6H.wav
448,192,73097,1,0,0:0:0:31:D#5H_Eb5H.wav
192,192,73392,128,0,73686:0:0:0:22:SCG_A#4s.ogg
64,192,73686,128,0,73980:0:0:0:22:SCG_D#5s.ogg
448,192,73686,1,0,0:0:0:9:C4H_s.wav
192,192,73980,128,0,74275:0:0:0:22:SCG_G5s.ogg
64,192,74275,1,0,0:0:0:22:SCG_F5s.ogg
448,192,74275,128,0,74569:0:0:0:9:C4H_s.wav
192,192,74569,1,0,0:0:0:11:SCG_D#4s.ogg
64,192,74716,128,0,75158:0:0:0:22:SCG_D#5s.ogg
320,192,74864,1,0,0:0:0:9:C4H_s.wav
448,192,74864,1,0,0:0:0:9:G3H_s.wav
320,192,75158,128,0,75453:0:0:0:22:SCG_F5s.ogg
64,192,75453,1,0,0:0:0:31:A#5H_Bb5H.wav
448,192,75453,1,0,0:0:0:31:A#4H_Bb4H.wav
192,192,75600,1,0,0:0:0:0:
448,192,75747,1,0,0:0:0:22:SCG_F5s.ogg
320,192,75894,1,0,0:0:0:0:
64,192,76041,1,0,0:0:0:22:SCG_D#5s.ogg
448,192,76189,1,0,0:0:0:0:
320,192,76336,1,0,0:0:0:22:SCG_A#4s.ogg
192,192,76483,1,0,0:0:0:0:
64,192,76630,1,0,0:0:0:31:A#6H_Bb6H.wav
448,192,76630,1,0,0:0:0:31:A#5H_Bb5H.wav
320,192,76777,1,0,0:0:0:0:
192,192,76925,1,0,0:0:0:11:SCG_D#4s.ogg
320,192,77072,1,0,0:0:0:22:SCG_D5s.ogg
64,192,77219,1,0,0:0:0:9:G#3H_Ab3H_s.wav
448,192,77366,1,0,0:0:0:0:
192,192,77513,1,0,0:0:0:22:SCG_D#5s.ogg
64,192,77808,1,0,0:0:0:31:F6H.wav
320,192,77808,1,0,0:0:0:31:F5H.wav
448,192,77955,1,0,0:0:0:0:
64,192,78102,1,0,0:0:0:22:SCG_A#4s.ogg
192,192,78249,1,0,0:0:0:0:
448,192,78397,1,0,0:0:0:22:SCG_D#5s.ogg
320,192,78544,1,0,0:0:0:0:
192,192,78691,1,0,0:0:0:22:SCG_A#4s.ogg
320,192,78838,1,0,0:0:0:0:
64,192,78985,1,0,0:0:0:22:SCG_D5s.ogg
448,192,79280,1,0,0:0:0:11:SCG_D#4s.ogg
192,192,79427,1,0,0:0:0:22:SCG_D5s.ogg
64,192,79574,1,0,0:0:0:9:G#3H_Ab3H_s.wav
320,192,79721,1,0,0:0:0:0:
448,192,79869,1,0,0:0:0:22:SCG_D#5s.ogg
192,192,80016,1,0,0:0:0:0:
64,192,80163,1,0,0:0:0:31:D#6H_Eb6H.wav
320,192,80163,1,0,0:0:0:31:D#5H_Eb5H.wav
192,192,80457,1,0,0:0:0:22:SCG_F5s.ogg
64,192,80605,1,0,0:0:0:0:
320,192,80752,1,0,0:0:0:22:SCG_D#5s.ogg
192,192,80899,1,0,0:0:0:0:
64,192,81046,1,0,0:0:0:22:SCG_A#4s.ogg
320,192,81193,1,0,0:0:0:0:
192,192,81341,1,0,0:0:0:31:A#6H_Bb6H.wav
448,192,81341,1,0,0:0:0:31:A#5H_Bb5H.wav
320,192,81488,1,0,0:0:0:0:
448,192,81635,1,0,0:0:0:11:SCG_D#4s.ogg
64,192,81782,1,0,0:0:0:22:SCG_D5s.ogg
192,192,81929,1,0,0:0:0:9:G3H_s.wav
320,192,82077,1,0,0:0:0:0:
64,192,82224,1,0,0:0:0:22:SCG_D#5s.ogg
320,192,82371,1,0,0:0:0:0:
192,192,82518,1,0,0:0:0:31:A#5H_Bb5H.wav
448,192,82518,1,0,0:0:0:31:A#4H_Bb4H.wav
320,192,82665,1,0,0:0:0:0:
64,192,82813,1,0,0:0:0:22:SCG_A#4s.ogg
192,192,82960,1,0,0:0:0:0:
448,192,83107,1,0,0:0:0:22:SCG_D#5s.ogg
320,192,83254,1,0,0:0:0:0:
64,192,83401,1,0,0:0:0:22:SCG_G5s.ogg
192,192,83549,1,0,0:0:0:0:
448,192,83696,1,0,0:0:0:22:SCG_F5s.ogg
192,192,83843,1,0,0:0:0:0:
64,192,83990,1,0,0:0:0:11:SCG_D#4s.ogg
320,192,84137,1,0,0:0:0:22:SCG_D#5s.ogg
448,192,84285,1,0,0:0:0:9:G3H_s.wav
320,192,84579,1,0,0:0:0:22:SCG_F5s.ogg
192,192,84726,1,0,0:0:0:0:
64,192,84874,1,0,0:0:0:31:A#5H_Bb5H.wav
448,192,84874,1,0,0:0:0:31:A#4H_Bb4H.wav
320,192,85021,1,0,0:0:0:0:
192,192,85168,1,0,0:0:0:22:SCG_F5s.ogg
64,192,85315,1,0,0:0:0:0:
448,192,85462,1,0,0:0:0:22:SCG_D#5s.ogg
320,192,85610,1,0,0:0:0:0:
64,192,85757,1,0,0:0:0:22:SCG_A#4s.ogg
192,192,85904,1,0,0:0:0:0:
320,192,86051,1,0,0:0:0:31:D6H.wav
448,192,86051,1,0,0:0:0:31:D5H.wav
64,192,86346,1,0,0:0:0:11:SCG_D#4s.ogg
320,192,86493,1,0,0:0:0:22:SCG_D5s.ogg
448,192,86640,1,0,0:0:0:9:G#3H_Ab3H_s.wav
64,192,86787,1,0,0:0:0:0:
320,192,86934,1,0,0:0:0:22:SCG_D#5s.ogg
192,192,87082,1,0,0:0:0:0:
64,192,87229,1,0,0:0:0:31:A#6H_Bb6H.wav
448,192,87229,1,0,0:0:0:31:A#5H_Bb5H.wav
320,192,87376,1,0,0:0:0:0:
192,192,87523,1,0,0:0:0:22:SCG_A#4s.ogg
64,192,87670,1,0,0:0:0:0:
320,192,87818,1,0,0:0:0:22:SCG_D#5s.ogg
448,192,87965,1,0,0:0:0:0:
64,192,88112,1,0,0:0:0:22:SCG_A#4s.ogg
192,192,88259,1,0,0:0:0:0:
448,192,88406,1,0,0:0:0:22:SCG_D5s.ogg
320,192,88554,1,0,0:0:0:0:
64,192,88701,1,0,0:0:0:11:SCG_D#4s.ogg
320,192,88848,1,0,0:0:0:22:SCG_D5s.ogg
192,192,88995,1,0,0:0:0:31:C7H.wav
448,192,88995,1,0,0:0:0:31:C6H.wav
320,192,89290,1,0,0:0:0:22:SCG_D#5s.ogg
448,192,89437,1,0,0:0:0:0:
192,192,89584,1,0,0:0:0:31:A#6H_Bb6H.wav
320,192,89584,1,0,0:0:0:31:A#5H_Bb5H.wav
64,192,89731,1,0,0:0:0:0:
192,192,89878,1,0,0:0:0:22:SCG_F5s.ogg
448,192,90026,1,0,0:0:0:0:
64,192,90173,1,0,0:0:0:22:SCG_D#5s.ogg
192,192,90320,1,0,0:0:0:0:
448,192,90467,1,0,0:0:0:22:SCG_A#4s.ogg
320,192,90614,1,0,0:0:0:0:
64,192,90762,1,0,0:0:0:31:F6H.wav
192,192,90762,1,0,0:0:0:31:F5H.wav
320,192,90909,1,0,0:0:0:0:
448,192,91056,1,0,0:0:0:11:SCG_D#4s.ogg
192,192,91203,1,0,0:0:0:22:SCG_D5s.ogg
320,192,91350,1,0,0:0:0:9:A#3H_Bb3H_s.wav
448,192,91645,1,0,0:0:0:22:SCG_D#5s.ogg
192,192,91939,1,0,0:0:0:31:D#5H_Eb5H.wav
64,192,91939,128,0,92234:0:0:0:31:D#6H_Eb6H.wav
448,192,92234,128,0,92528:0:0:0:31:D#7H_Eb7H_s.wav
320,192,92528,128,0,92822:0:0:0:31:D7H_s.wav
192,192,92822,128,0,93117:0:0:0:31:A#6H_Bb6H_s.wav
64,192,93117,128,0,93411:0:0:0:31:G6H_s.wav
192,192,93411,128,0,93706:0:0:0:31:F6H_s.wav
448,192,93706,128,0,94000:0:0:0:31:D#6H_Eb6H_s.wav
320,192,94000,128,0,94295:0:0:0:31:A#5H_Bb5H_s.wav
64,192,94295,128,0,95472:0:0:0:31:A#4H_Bb4H.wav
192,192,94295,1,0,0:0:0:31:D#5H_Eb5H.wav
448,192,94589,1,0,0:0:0:18:F5S_s.wav
192,192,94883,1,0,0:0:0:18:D#5H_Eb5H_s.wav
320,192,95031,1,0,0:0:0:0:
448,192,95178,1,0,0:0:0:18:A#4S_Bb4S_s.wav
320,192,95325,1,0,0:0:0:0:
192,192,95472,128,0,96650:0:0:0:31:A#5H_Bb5H.wav
448,192,95472,1,0,0:0:0:31:D#6H_Eb6H.wav
320,192,95619,1,0,0:0:0:0:
64,192,95767,1,0,0:0:0:0:
448,192,95914,1,0,0:0:0:18:D5S_s.wav
64,192,96061,1,0,0:0:0:9:G#3H_Ab3H_s.wav
320,192,96208,1,0,0:0:0:0:
64,192,96355,1,0,0:0:0:18:D#5H_Eb5H_s.wav
448,192,96355,1,0,0:0:0:18:Hat Synth.wav
320,192,96650,128,0,97827:0:0:0:31:F5H.wav
448,192,96650,1,0,0:0:0:31:A#5H_Bb5H.wav
64,192,96944,1,0,0:0:0:18:A#4S_Bb4S_s.wav
192,192,97091,1,0,0:0:0:0:
448,192,97239,1,0,0:0:0:18:D#5H_Eb5H_s.wav
192,192,97386,1,0,0:0:0:0:
64,192,97533,1,0,0:0:0:18:A#4S_Bb4S_s.wav
192,192,97680,1,0,0:0:0:0:
448,192,97827,1,0,0:0:0:18:D5S_s.wav
448,192,98122,1,0,0:0:0:0:
192,192,98269,1,0,0:0:0:18:D5S_s.wav
320,192,98343,1,0,0:0:0:0:
448,192,98416,1,0,0:0:0:9:G#3H_Ab3H_s.wav
64,192,98563,1,0,0:0:0:0:
192,192,98711,1,0,0:0:0:18:D#5H_Eb5H_s.wav
448,192,98711,1,0,0:0:0:18:Hat Synth.wav
64,192,99005,128,0,100183:0:0:0:31:D#5H_Eb5H.wav
192,192,99005,1,0,0:0:0:31:A#5H_Bb5H.wav
320,192,99299,1,0,0:0:0:18:F5S_s.wav
448,192,99594,1,0,0:0:0:18:D#5H_Eb5H_s.wav
320,192,99741,1,0,0:0:0:0:
192,192,99888,1,0,0:0:0:18:A#4S_Bb4S_s.wav
448,192,100035,1,0,0:0:0:0:
192,192,100183,128,0,101360:0:0:0:31:A#5H_Bb5H.wav
320,192,100183,1,0,0:0:0:31:D#6H_Eb6H.wav
448,192,100330,1,0,0:0:0:0:
64,192,100477,1,0,0:0:0:0:
448,192,100624,1,0,0:0:0:18:D5S_s.wav
64,192,100771,1,0,0:0:0:9:G3H_s.wav
320,192,100919,1,0,0:0:0:0:
64,192,101066,1,0,0:0:0:18:D#5H_Eb5H_s.wav
448,192,101066,1,0,0:0:0:18:Hat Synth.wav
320,192,101360,1,0,0:0:0:31:A#4H_Bb4H.wav
448,192,101360,128,0,102538:0:0:0:31:D#5H_Eb5H.wav
64,192,101655,1,0,0:0:0:18:A#4S_Bb4S_s.wav
192,192,101949,1,0,0:0:0:18:D#5H_Eb5H_s.wav
320,192,102096,1,0,0:0:0:0:
64,192,102243,1,0,0:0:0:18:G5S_s.wav
320,192,102391,1,0,0:0:0:0:
192,192,102538,1,0,0:0:0:18:F5S_s.wav
64,192,102685,1,0,0:0:0:0:
448,192,102832,1,0,0:0:0:0:
320,192,102979,1,0,0:0:0:18:D#5H_Eb5H_s.wav
192,192,103053,1,0,0:0:0:0:
64,192,103127,1,0,0:0:0:9:G3H_s.wav
448,192,103274,1,0,0:0:0:0:
64,192,103421,1,0,0:0:0:18:F5S_s.wav
320,192,103421,1,0,0:0:0:18:Hat Synth.wav
64,192,103716,128,0,104893:0:0:0:31:A#4H_Bb4H.wav
192,192,103716,1,0,0:0:0:31:D#5H_Eb5H.wav
320,192,104010,1,0,0:0:0:18:F5S_s.wav
192,192,104304,1,0,0:0:0:18:D#5H_Eb5H_s.wav
320,192,104452,1,0,0:0:0:0:
448,192,104599,1,0,0:0:0:18:A#4S_Bb4S_s.wav
320,192,104746,1,0,0:0:0:0:
192,192,104893,128,0,106071:0:0:0:31:D5H.wav
448,192,104893,1,0,0:0:0:31:A#5H_Bb5H.wav
64,192,105188,1,0,0:0:0:0:
320,192,105335,1,0,0:0:0:18:D5S_s.wav
448,192,105482,1,0,0:0:0:9:G#3H_Ab3H_s.wav
64,192,105629,1,0,0:0:0:0:
320,192,105776,1,0,0:0:0:18:D#5H_Eb5H_s.wav
448,192,105776,1,0,0:0:0:18:Hat Synth.wav
64,192,106071,1,0,0:0:0:31:A#5H_Bb5H.wav
320,192,106071,128,0,107248:0:0:0:31:D#6H_Eb6H.wav
448,192,106365,1,0,0:0:0:18:A#4S_Bb4S_s.wav
192,192,106512,1,0,0:0:0:0:
64,192,106660,1,0,0:0:0:18:D#5H_Eb5H_s.wav
448,192,106807,1,0,0:0:0:0:
192,192,106954,1,0,0:0:0:18:A#4S_Bb4S_s.wav
448,192,107101,1,0,0:0:0:0:
64,192,107248,1,0,0:0:0:18:D5S_s.wav
448,192,107543,1,0,0:0:0:0:
320,192,107690,1,0,0:0:0:18:D5S_s.wav
192,192,107764,1,0,0:0:0:0:
64,192,107837,1,0,0:0:0:31:C6H.wav
448,192,107837,128,0,108426:0:0:0:31:D#6H_Eb6H.wav
320,192,107984,1,0,0:0:0:0:
64,192,108132,1,0,0:0:0:18:D#5H_Eb5H_s.wav
192,192,108132,1,0,0:0:0:18:Hat Synth.wav
64,192,108426,128,0,109604:0:0:0:31:A#5H_Bb5H.wav
320,192,108426,1,0,0:0:0:31:D#6H_Eb6H.wav
192,192,108720,1,0,0:0:0:18:F5S_s.wav
448,192,109015,1,0,0:0:0:18:D#5H_Eb5H_s.wav
320,192,109162,1,0,0:0:0:0:
192,192,109309,1,0,0:0:0:18:A#4S_Bb4S_s.wav
192,192,109604,128,0,110781:0:0:0:31:F5H.wav
448,192,109604,1,0,0:0:0:31:A#5H_Bb5H.wav
320,192,109898,1,0,0:0:0:0:
448,192,110045,1,0,0:0:0:18:D5S_s.wav
64,192,110192,1,0,0:0:0:9:A#3H_Bb3H_s.wav
320,192,110340,1,0,0:0:0:0:
64,192,110487,1,0,0:0:0:18:D#5H_Eb5H_s.wav
448,192,110487,1,0,0:0:0:18:Hat Synth.wav
320,192,110781,128,0,111959:0:0:0:31:D#5H_Eb5H.wav
448,192,110781,1,0,0:0:0:31:A#5H_Bb5H.wav
64,192,111076,1,0,0:0:0:18:A#4S_Bb4S_s.wav
192,192,111370,1,0,0:0:0:18:D#5H_Eb5H_s.wav
448,192,111517,1,0,0:0:0:0:
64,192,111664,1,0,0:0:0:18:G5S_s.wav
192,192,111812,1,0,0:0:0:0:
448,192,111959,1,0,0:0:0:18:F5S_s.wav
64,192,112253,1,0,0:0:0:0:
192,192,112400,1,0,0:0:0:18:D#5H_Eb5H_s.wav
320,192,112474,1,0,0:0:0:0:
448,192,112548,1,0,0:0:0:9:C4H_s.wav
64,192,112695,1,0,0:0:0:0:
192,192,112842,1,0,0:0:0:18:F5S_s.wav
448,192,112842,1,0,0:0:0:18:Hat Synth.wav
64,192,113137,128,0,114314:0:0:0:31:A#4H_Bb4H.wav
192,192,113137,1,0,0:0:0:31:D#5H_Eb5H.wav
448,192,113431,1,0,0:0:0:18:F5S_s.wav
192,192,113725,1,0,0:0:0:18:D#5H_Eb5H_s.wav
320,192,113873,1,0,0:0:0:0:
448,192,114020,1,0,0:0:0:18:A#4S_Bb4S_s.wav
320,192,114167,1,0,0:0:0:0:
192,192,114314,128,0,115492:0:0:0:31:A#5H_Bb5H.wav
448,192,114314,1,0,0:0:0:31:D#6H_Eb6H.wav
320,192,114609,1,0,0:0:0:0:
64,192,114756,1,0,0:0:0:18:D5S_s.wav
448,192,114903,1,0,0:0:0:9:G#3H_Ab3H_s.wav
320,192,115050,1,0,0:0:0:0:
64,192,115197,1,0,0:0:0:18:D#5H_Eb5H_s.wav
448,192,115197,1,0,0:0:0:18:Hat Synth.wav
320,192,115492,128,0,116669:0:0:0:31:F5H.wav
448,192,115492,1,0,0:0:0:31:A#5H_Bb5H.wav
64,192,115786,1,0,0:0:0:18:A#4S_Bb4S_s.wav
448,192,115933,1,0,0:0:0:0:
192,192,116081,1,0,0:0:0:18:D#5H_Eb5H_s.wav
64,192,116228,1,0,0:0:0:0:
192,192,116375,1,0,0:0:0:18:A#4S_Bb4S_s.wav
448,192,116375,1,0,0:0:0:0:
64,192,116669,128,0,116964:0:0:0:31:F6H_s.wav
448,192,116669,1,0,0:0:0:18:D5S_s.wav
320,192,116964,1,0,0:0:0:31:G6H_s.wav
448,192,116964,128,0,117258:0:0:0:0:
192,192,117111,1,0,0:0:0:18:D5S_s.wav
64,192,117185,1,0,0:0:0:0:
320,192,117258,128,0,117553:0:0:0:31:F6H_s.wav
64,192,117405,1,0,0:0:0:0:
192,192,117553,128,0,117847:0:0:0:31:D#6H_Eb6H_s.wav
448,192,117553,1,0,0:0:0:18:D#5H_Eb5H_s.wav
64,192,117847,128,0,119025:0:0:0:31:D#5H_Eb5H.wav
320,192,117847,1,0,0:0:0:31:A#5H_Bb5H.wav
448,192,118141,1,0,0:0:0:18:F5S_s.wav
192,192,118436,1,0,0:0:0:18:D#5H_Eb5H_s.wav
320,192,118583,1,0,0:0:0:0:
448,192,118730,1,0,0:0:0:18:A#4S_Bb4S_s.wav
320,192,118877,1,0,0:0:0:0:
192,192,119025,128,0,120202:0:0:0:31:A#5H_Bb5H.wav
448,192,119025,1,0,0:0:0:31:D#6H_Eb6H.wav
320,192,119319,1,0,0:0:0:0:
448,192,119466,1,0,0:0:0:18:D5S_s.wav
64,192,119613,1,0,0:0:0:9:G3H_s.wav
320,192,119761,1,0,0:0:0:0:
64,192,119908,1,0,0:0:0:18:D#5H_Eb5H_s.wav
448,192,119908,1,0,0:0:0:18:Hat Synth.wav
320,192,120202,1,0,0:0:0:31:A#4H_Bb4H.wav
448,192,120202,128,0,121380:0:0:0:31:D#5H_Eb5H.wav
64,192,120497,1,0,0:0:0:18:A#4S_Bb4S_s.wav
320,192,120791,1,0,0:0:0:18:D#5H_Eb5H_s.wav
192,192,120938,1,0,0:0:0:0:
64,192,121085,1,0,0:0:0:18:G5S_s.wav
192,192,121233,1,0,0:0:0:0:
64,192,121380,128,0,121674:0:0:0:31:D6H_s.wav
320,192,121380,1,0,0:0:0:18:F5S_s.wav
320,192,121674,128,0,121969:0:0:0:31:D#6H_Eb6H_s.wav
448,192,121674,1,0,0:0:0:0:
192,192,121821,1,0,0:0:0:18:D#5H_Eb5H_s.wav
64,192,121895,1,0,0:0:0:0:
448,192,121969,128,0,122263:0:0:0:31:G6H_s.wav
64,192,122116,1,0,0:0:0:0:
320,192,122263,1,0,0:0:0:31:C7H_s.wav
192,192,122263,128,0,122558:0:0:0:18:F5S_s.wav
64,192,122558,128,0,123735:0:0:0:31:A#4H_Bb4H.wav
448,192,122558,1,0,0:0:0:31:D#5H_Eb5H.wav
320,192,122852,1,0,0:0:0:18:F5S_s.wav
448,192,123146,1,0,0:0:0:18:D#5H_Eb5H_s.wav
320,192,123294,1,0,0:0:0:0:
192,192,123441,1,0,0:0:0:18:A#4S_Bb4S_s.wav
192,192,123735,128,0,123882:0:0:0:31:F7H_s.wav
320,192,123735,128,0,124913:0:0:0:31:F6H.wav
64,192,124030,1,0,0:0:0:0:
192,192,124177,128,0,124324:0:0:0:31:F7H_s.wav
448,192,124177,1,0,0:0:0:18:D5S_s.wav
448,192,124471,1,0,0:0:0:0:
64,192,124618,1,0,0:0:0:31:F7H_s.wav
192,192,124618,128,0,124766:0:0:0:18:D#5H_Eb5H_s.wav
64,192,124913,128,0,125060:0:0:0:31:D#7H_Eb7H_s.wav
448,192,124913,128,0,126090:0:0:0:31:A#6H_Bb6H.wav
192,192,125207,1,0,0:0:0:18:A#4S_Bb4S_s.wav
64,192,125354,128,0,125502:0:0:0:31:D#7H_Eb7H_s.wav
320,192,125354,1,0,0:0:0:0:
192,192,125649,1,0,0:0:0:0:
64,192,125796,128,0,125943:0:0:0:31:D#7H_Eb7H_s.wav
64,192,126090,128,0,126385:0:0:0:31:D#7H_Eb7H_s.wav
320,192,126090,1,0,0:0:0:18:D5S_s.wav
192,192,126385,128,0,126679:0:0:0:31:D7H_s.wav
448,192,126385,1,0,0:0:0:0:
320,192,126532,1,0,0:0:0:18:D5S_s.wav
448,192,126606,1,0,0:0:0:0:
64,192,126679,128,0,127268:0:0:0:31:C7H.wav
320,192,126679,128,0,126974:0:0:0:31:D#6H_Eb6H.wav
192,192,126826,1,0,0:0:0:0:
192,192,126974,1,0,0:0:0:31:F7H_s.wav
448,192,126974,128,0,127268:0:0:0:18:D#5H_Eb5H_s.wav
192,192,127268,1,0,0:0:0:31:A#6H_Bb6H.wav
320,192,127268,128,0,128446:0:0:0:31:D#6H_Eb6H.wav
448,192,127562,1,0,0:0:0:18:F5S_s.wav
64,192,127857,1,0,0:0:0:18:D#5H_Eb5H_s.wav
192,192,128004,1,0,0:0:0:0:
448,192,128151,1,0,0:0:0:18:A#4S_Bb4S_s.wav
64,192,128298,1,0,0:0:0:0:
192,192,128446,128,0,129623:0:0:0:31:F5H.wav
448,192,128446,1,0,0:0:0:31:A#5H_Bb5H.wav
448,192,128740,1,0,0:0:0:0:
320,192,128887,1,0,0:0:0:18:D5S_s.wav
64,192,129034,1,0,0:0:0:9:A#3H_Bb3H_s.wav
448,192,129182,1,0,0:0:0:0:
64,192,129329,1,0,0:0:0:31:D#7H_Eb7H_s.wav
320,192,129329,128,0,129476:0:0:0:18:D#5H_Eb5H_s.wav
64,192,129623,128,0,131979:0:0:0:31:D#6H_Eb6H.wav
448,192,129623,1,0,0:0:0:31:A#5H_Bb5H.wav
192,192,129918,1,0,0:0:0:18:A#4S_Bb4S_s.wav
448,192,130212,1,0,0:0:0:18:D#5H_Eb5H_s.wav
320,192,130359,1,0,0:0:0:0:
192,192,130506,1,0,0:0:0:18:G5S_s.wav
320,192,130654,1,0,0:0:0:0:
448,192,130801,1,0,0:0:0:18:F5S_s.wav
192,192,131095,1,0,0:0:0:0:
448,192,131242,1,0,0:0:0:18:D#5H_Eb5H_s.wav
320,192,131316,1,0,0:0:0:0:
192,192,131390,1,0,0:0:0:9:C4H_s.wav
448,192,131537,1,0,0:0:0:0:
320,192,131684,1,0,0:0:0:18:F5S_s.wav
192,192,131979,1,2,0:0:0:0:
320,192,131979,1,0,0:0:0:31:A#4H_Bb4H.wav
448,192,131979,128,0,133156:0:0:0:31:D#5H_Eb5H.wav
192,192,132273,1,0,0:0:0:22:SCG_F5s.ogg
64,192,132420,1,2,0:0:0:0:
320,192,132420,1,0,0:0:0:31:ride.wav
192,192,132567,1,0,0:0:0:22:SCG_D#5s.ogg
320,192,132862,1,0,0:0:0:22:SCG_A#4s.ogg
64,192,133156,128,0,134039:0:0:0:31:A#5H_Bb5H.wav
192,192,133156,1,0,0:0:0:31:D#6H_Eb6H.wav
320,192,133451,1,0,0:0:0:0:
192,192,133598,1,2,0:0:0:0:
448,192,133598,1,0,0:0:0:22:SCG_D5s.ogg
320,192,133745,1,0,0:0:0:0:
448,192,133892,1,0,0:0:0:0:
192,192,134039,1,2,0:0:0:0:
320,192,134039,1,0,0:0:0:22:SCG_D#5s.ogg
448,192,134137,1,0,0:0:0:0:
64,192,134236,1,0,0:0:0:0:
192,192,134334,1,0,0:0:0:31:F5H.wav
320,192,134334,128,0,135511:0:0:0:31:A#5H_Bb5H.wav
448,192,134334,1,0,0:0:0:31:F6H.wav
64,192,134628,1,0,0:0:0:22:SCG_A#4s.ogg
192,192,134775,1,0,0:0:0:31:kick1.wav
448,192,134775,1,0,0:0:0:31:ride.wav
64,192,134923,1,0,0:0:0:22:SCG_D#5s.ogg
192,192,135217,1,0,0:0:0:22:SCG_A#4s.ogg
448,192,135217,1,0,0:0:0:31:kick1.wav
64,192,135511,1,0,0:0:0:22:SCG_D5s.ogg
448,192,135659,1,0,0:0:0:0:
192,192,135806,1,2,0:0:0:0:
64,192,135806,1,0,0:0:0:0:
320,192,135953,1,0,0:0:0:22:SCG_D5s.ogg
448,192,136100,1,2,0:0:0:0:
192,192,136100,1,0,0:0:0:0:
64,192,136247,1,0,0:0:0:0:
192,192,136395,1,2,0:0:0:0:
320,192,136395,1,0,0:0:0:22:SCG_D#5s.ogg
64,192,136689,128,2,137867:0:0:0:0:
320,192,136689,1,0,0:0:0:31:D#5H_Eb5H.wav
448,192,136689,1,0,0:0:0:31:A#5H_Bb5H.wav
320,192,136983,1,0,0:0:0:22:SCG_F5s.ogg
192,192,137131,1,2,0:0:0:0:
448,192,137131,1,0,0:0:0:31:ride.wav
320,192,137278,1,0,0:0:0:22:SCG_D#5s.ogg
192,192,137572,1,0,0:0:0:22:SCG_A#4s.ogg
320,192,137867,1,0,0:0:0:31:A#5H_Bb5H.wav
448,192,137867,128,0,138750:0:0:0:31:D#6H_Eb6H.wav
192,192,138161,1,0,0:0:0:0:
64,192,138308,1,2,0:0:0:0:
320,192,138308,1,0,0:0:0:22:SCG_D5s.ogg
192,192,138455,1,0,0:0:0:0:
320,192,138603,1,0,0:0:0:0:
64,192,138750,1,2,0:0:0:0:
192,192,138750,1,0,0:0:0:22:SCG_D#5s.ogg
320,192,138848,1,0,0:0:0:0:
64,192,138946,1,0,0:0:0:0:
192,192,139044,128,0,140222:0:0:0:31:A#4H_Bb4H.wav
320,192,139044,1,0,0:0:0:31:D#5H_Eb5H.wav
448,192,139044,1,0,0:0:0:31:A#5H_Bb5H.wav
64,192,139339,1,0,0:0:0:22:SCG_A#4s.ogg
320,192,139486,1,0,0:0:0:31:kick1.wav
448,192,139486,1,0,0:0:0:31:ride.wav
64,192,139633,1,0,0:0:0:22:SCG_D#5s.ogg
320,192,139927,1,0,0:0:0:22:SCG_G5s.ogg
448,192,139927,1,0,0:0:0:31:kick1.wav
64,192,140222,1,0,0:0:0:22:SCG_F5s.ogg
320,192,140516,1,2,0:0:0:0:
448,192,140516,1,0,0:0:0:0:
192,192,140663,1,0,0:0:0:22:SCG_D#5s.ogg
320,192,140811,1,2,0:0:0:0:
448,192,140811,1,0,0:0:0:0:
320,192,140958,1,2,0:0:0:0:
448,192,140958,1,0,0:0:0:0:
64,192,141105,1,2,0:0:0:0:
192,192,141105,1,0,0:0:0:22:SCG_F5s.ogg
64,192,141400,1,2,0:0:0:0:
320,192,141400,1,0,0:0:0:31:A#4H_Bb4H.wav
448,192,141400,128,0,142577:0:0:0:31:D#5H_Eb5H.wav
64,192,141694,1,0,0:0:0:22:SCG_F5s.ogg
192,192,141841,1,2,0:0:0:0:
320,192,141841,1,0,0:0:0:31:ride.wav
64,192,141988,1,0,0:0:0:22:SCG_D#5s.ogg
320,192,142283,1,0,0:0:0:22:SCG_A#4s.ogg
64,192,142577,128,0,143460:0:0:0:31:D5H.wav
192,192,142577,1,0,0:0:0:31:A#5H_Bb5H.wav
320,192,142872,1,0,0:0:0:0:
192,192,143019,1,2,0:0:0:0:
448,192,143019,1,0,0:0:0:22:SCG_D5s.ogg
320,192,143166,1,0,0:0:0:0:
192,192,143460,1,2,0:0:0:0:
448,192,143460,1,0,0:0:0:22:SCG_D#5s.ogg
320,192,143558,1,0,0:0:0:0:
64,192,143657,1,0,0:0:0:0:
192,192,143755,128,0,144932:0:0:0:31:A#5H_Bb5H.wav
320,192,143755,1,0,0:0:0:31:D#6H_Eb6H.wav
448,192,143755,1,0,0:0:0:31:A#6H_Bb6H.wav
320,192,144049,1,0,0:0:0:22:SCG_A#4s.ogg
64,192,144196,1,0,0:0:0:31:kick1.wav
448,192,144196,1,0,0:0:0:31:ride.wav
320,192,144344,1,0,0:0:0:22:SCG_D#5s.ogg
64,192,144638,1,0,0:0:0:22:SCG_A#4s.ogg
448,192,144638,1,0,0:0:0:31:kick1.wav
320,192,144932,1,0,0:0:0:22:SCG_D5s.ogg
64,192,145227,1,2,0:0:0:0:
192,192,145227,1,0,0:0:0:0:
320,192,145374,1,0,0:0:0:22:SCG_D5s.ogg
64,192,145521,1,2,0:0:0:0:
448,192,145521,128,0,145816:0:0:0:31:C6H.wav
192,192,145668,1,2,0:0:0:0:
320,192,145668,1,0,0:0:0:0:
192,192,145816,1,2,0:0:0:0:
320,192,145816,1,0,0:0:0:22:SCG_D#5s.ogg
64,192,146110,128,2,147288:0:0:0:0:
320,192,146110,1,0,0:0:0:31:A#5H_Bb5H.wav
448,192,146110,1,0,0:0:0:31:D#6H_Eb6H.wav
192,192,146404,1,0,0:0:0:22:SCG_F5s.ogg
320,192,146552,1,2,0:0:0:0:
448,192,146552,1,0,0:0:0:31:ride.wav
192,192,146699,1,0,0:0:0:22:SCG_D#5s.ogg
320,192,146993,1,0,0:0:0:22:SCG_A#4s.ogg
320,192,147288,128,0,148171:0:0:0:31:F5H.wav
448,192,147288,1,0,0:0:0:31:A#5H_Bb5H.wav
192,192,147582,1,0,0:0:0:0:
64,192,147729,1,2,0:0:0:0:
448,192,147729,1,0,0:0:0:22:SCG_D5s.ogg
192,192,147876,1,0,0:0:0:0:
448,192,148024,1,0,0:0:0:0:
64,192,148171,1,2,0:0:0:0:
192,192,148171,1,0,0:0:0:22:SCG_D#5s.ogg
448,192,148269,1,0,0:0:0:0:
320,192,148367,1,0,0:0:0:0:
64,192,148465,1,0,0:0:0:31:D#5H_Eb5H.wav
192,192,148465,128,0,149643:0:0:0:31:A#5H_Bb5H.wav
448,192,148465,1,0,0:0:0:31:D#6H_Eb6H.wav
448,192,148760,1,0,0:0:0:22:SCG_A#4s.ogg
64,192,148907,1,0,0:0:0:31:kick1.wav
320,192,148907,1,0,0:0:0:31:ride.wav
448,192,149054,1,0,0:0:0:22:SCG_D#5s.ogg
64,192,149348,1,0,0:0:0:22:SCG_G5s.ogg
320,192,149348,1,0,0:0:0:31:kick1.wav
448,192,149643,1,0,0:0:0:22:SCG_F5s.ogg
64,192,149937,1,2,0:0:0:0:
192,192,149937,1,0,0:0:0:0:
320,192,150085,1,0,0:0:0:22:SCG_D#5s.ogg
64,192,150232,1,2,0:0:0:0:
192,192,150232,1,0,0:0:0:0:
64,192,150379,1,2,0:0:0:0:
192,192,150379,1,0,0:0:0:0:
320,192,150526,1,2,0:0:0:0:
448,192,150526,1,0,0:0:0:22:SCG_F5s.ogg
64,192,150821,1,2,0:0:0:0:
320,192,150821,1,0,0:0:0:31:A#4H_Bb4H.wav
448,192,150821,128,0,151998:0:0:0:31:D#5H_Eb5H.wav
192,192,151115,1,0,0:0:0:22:SCG_F5s.ogg
64,192,151262,1,2,0:0:0:0:
320,192,151262,1,0,0:0:0:31:ride.wav
192,192,151409,1,0,0:0:0:22:SCG_D#5s.ogg
64,192,151704,1,0,0:0:0:22:SCG_A#4s.ogg
64,192,151998,128,0,152881:0:0:0:31:A#5H_Bb5H.wav
320,192,151998,1,0,0:0:0:31:D#6H_Eb6H.wav
192,192,152293,1,0,0:0:0:0:
320,192,152440,1,2,0:0:0:0:
448,192,152440,1,0,0:0:0:22:SCG_D5s.ogg
192,192,152587,1,0,0:0:0:0:
320,192,152734,1,0,0:0:0:0:
192,192,152881,1,2,0:0:0:0:
448,192,152881,1,0,0:0:0:22:SCG_D#5s.ogg
320,192,152979,1,0,0:0:0:0:
64,192,153078,1,0,0:0:0:0:
192,192,153176,128,0,154353:0:0:0:31:F5H.wav
320,192,153176,1,0,0:0:0:31:A#5H_Bb5H.wav
448,192,153176,1,0,0:0:0:31:F6H.wav
448,192,153470,1,0,0:0:0:22:SCG_A#4s.ogg
64,192,153617,1,0,0:0:0:31:kick1.wav
320,192,153617,1,0,0:0:0:31:ride.wav
448,192,153765,1,0,0:0:0:22:SCG_D#5s.ogg
64,192,154059,1,0,0:0:0:22:SCG_A#4s.ogg
320,192,154059,1,0,0:0:0:31:kick1.wav
320,192,154353,128,0,154648:0:0:0:31:F6H_s.wav
448,192,154353,1,0,0:0:0:22:SCG_D5s.ogg
192,192,154648,1,2,0:0:0:0:
448,192,154648,128,0,154942:0:0:0:31:G6H_s.wav
64,192,154795,1,0,0:0:0:22:SCG_D5s.ogg
192,192,154942,128,2,155237:0:0:0:0:
320,192,154942,1,0,0:0:0:31:F6H_s.wav
64,192,155237,128,2,155531:0:0:0:0:
320,192,155237,1,0,0:0:0:31:D#6H_Eb6H_s.wav
192,192,155531,1,2,0:0:0:0:
320,192,155531,1,0,0:0:0:31:D#5H_Eb5H.wav
448,192,155531,128,0,156709:0:0:0:31:A#5H_Bb5H.wav
64,192,155825,1,0,0:0:0:22:SCG_F5s.ogg
192,192,155973,1,2,0:0:0:0:
320,192,155973,1,0,0:0:0:31:ride.wav
64,192,156120,1,0,0:0:0:22:SCG_D#5s.ogg
192,192,156414,1,0,0:0:0:22:SCG_A#4s.ogg
64,192,156709,128,0,157592:0:0:0:31:A#5H_Bb5H.wav
320,192,156709,1,0,0:0:0:31:D#6H_Eb6H.wav
448,192,157003,1,0,0:0:0:0:
192,192,157150,1,2,0:0:0:0:
320,192,157150,1,0,0:0:0:22:SCG_D5s.ogg
448,192,157297,1,0,0:0:0:0:
320,192,157445,1,0,0:0:0:0:
192,192,157592,1,2,0:0:0:0:
448,192,157592,1,0,0:0:0:22:SCG_D#5s.ogg
320,192,157690,1,0,0:0:0:0:
64,192,157788,1,0,0:0:0:0:
192,192,157886,1,0,0:0:0:31:A#4H_Bb4H.wav
320,192,157886,128,0,159064:0:0:0:31:D#5H_Eb5H.wav
448,192,157886,1,0,0:0:0:31:A#5H_Bb5H.wav
64,192,158181,1,0,0:0:0:22:SCG_A#4s.ogg
192,192,158328,1,0,0:0:0:31:kick1.wav
448,192,158328,1,0,0:0:0:31:ride.wav
64,192,158475,1,0,0:0:0:22:SCG_D#5s.ogg
192,192,158769,1,0,0:0:0:22:SCG_G5s.ogg
448,192,158769,1,0,0:0:0:31:kick1.wav
64,192,159064,128,0,159358:0:0:0:31:D6H_s.wav
192,192,159064,1,0,0:0:0:22:SCG_F5s.ogg
192,192,159358,128,2,159653:0:0:0:0:
320,192,159358,1,0,0:0:0:31:D#6H_Eb6H_s.wav
448,192,159506,1,0,0:0:0:22:SCG_D#5s.ogg
64,192,159653,1,2,0:0:0:0:
320,192,159653,128,0,159947:0:0:0:31:G6H_s.wav
64,192,159800,1,2,0:0:0:0:
192,192,159800,1,0,0:0:0:0:
192,192,159947,1,2,0:0:0:0:
448,192,159947,128,0,160242:0:0:0:31:C7H_s.wav
64,192,160242,128,2,161419:0:0:0:0:
192,192,160242,1,0,0:0:0:31:A#4H_Bb4H.wav
320,192,160242,1,0,0:0:0:31:D#5H_Eb5H.wav
448,192,160536,1,0,0:0:0:22:SCG_F5s.ogg
192,192,160683,1,2,0:0:0:0:
320,192,160683,1,0,0:0:0:31:ride.wav
448,192,160830,1,0,0:0:0:22:SCG_D#5s.ogg
320,192,161125,1,0,0:0:0:22:SCG_A#4s.ogg
192,192,161419,128,0,162302:0:0:0:31:F7H_s.wav
320,192,161419,128,0,161566:0:0:0:31:F6H.wav
448,192,161419,1,0,0:0:0:31:C6H.wav
448,192,161714,1,0,0:0:0:0:
64,192,161861,1,2,0:0:0:0:
320,192,161861,128,0,162008:0:0:0:31:F7H_s.wav
448,192,162008,1,0,0:0:0:0:
64,192,162155,1,0,0:0:0:0:
320,192,162302,1,2,0:0:0:0:
448,192,162302,1,0,0:0:0:31:F7H_s.wav
64,192,162400,1,0,0:0:0:0:
448,192,162499,1,0,0:0:0:0:
64,192,162597,128,0,162744:0:0:0:31:D#7H_Eb7H_s.wav
192,192,162597,1,0,0:0:0:31:A#6H_Bb6H.wav
320,192,162597,128,0,163774:0:0:0:31:D#6H_Eb6H.wav
192,192,162891,1,0,0:0:0:22:SCG_A#4s.ogg
64,192,163038,128,0,163186:0:0:0:31:D#7H_Eb7H_s.wav
448,192,163038,1,0,0:0:0:31:kick1.wav
192,192,163186,1,0,0:0:0:22:SCG_D#5s.ogg
64,192,163480,128,0,163627:0:0:0:31:D#7H_Eb7H_s.wav
448,192,163480,1,0,0:0:0:22:SCG_A#4s.ogg
64,192,163774,128,0,164069:0:0:0:31:D#7H_Eb7H_s.wav
192,192,163774,1,0,0:0:0:22:SCG_D5s.ogg
192,192,164069,1,2,0:0:0:0:
320,192,164069,128,0,164363:0:0:0:31:D7H_s.wav
64,192,164363,128,2,164658:0:0:0:0:
448,192,164363,128,0,164952:0:0:0:31:C7H.wav
192,192,164658,128,2,164952:0:0:0:0:
320,192,164658,1,0,0:0:0:31:F7H_s.wav
64,192,164952,128,2,166130:0:0:0:0:
320,192,164952,1,0,0:0:0:31:A#6H_Bb6H.wav
448,192,165246,1,0,0:0:0:22:SCG_F5s.ogg
192,192,165394,1,2,0:0:0:0:
320,192,165394,1,0,0:0:0:31:ride.wav
448,192,165541,1,0,0:0:0:22:SCG_D#5s.ogg
320,192,165835,1,0,0:0:0:22:SCG_A#4s.ogg
192,192,166130,128,0,167307:0:0:0:31:F5H.wav
448,192,166130,1,0,0:0:0:31:A#5H_Bb5H.wav
64,192,166424,1,0,0:0:0:0:
320,192,166571,1,2,0:0:0:0:
448,192,166571,1,0,0:0:0:22:SCG_D5s.ogg
64,192,166718,1,0,0:0:0:0:
320,192,166866,1,0,0:0:0:0:
64,192,167013,1,2,0:0:0:0:
448,192,167013,128,0,167160:0:0:0:31:D#7H_Eb7H_s.wav
64,192,167307,128,0,167602:0:0:0:31:D#6H_Eb6H.wav
320,192,167307,1,0,0:0:0:31:A#5H_Bb5H.wav
448,192,167307,1,0,0:0:0:31:D#5H_Eb5H.wav
320,192,167602,128,0,167896:0:0:0:31:SAK_D#7_12.ogg
64,192,167749,1,0,0:0:0:31:kick1.wav
192,192,167749,1,0,0:0:0:0:
448,192,167896,128,0,168190:0:0:0:31:SAK_D7_12.ogg
64,192,168190,1,0,0:0:0:31:SAK_A#6_12.ogg
192,192,168190,128,0,168485:0:0:0:31:kick1.wav
64,192,168485,128,0,168779:0:0:0:31:SAK_G6_12.ogg
448,192,168632,1,0,0:0:0:31:kick1.wav
320,192,168779,128,0,169074:0:0:0:31:SAK_F6_12.ogg
64,192,169074,128,0,169368:0:0:0:31:SAK_D#6_12.ogg
192,192,169368,128,0,169663:0:0:0:31:SAK_A#5_12.ogg
320,192,169663,128,0,170840:0:0:0:31:SAK_A#5_2.ogg
448,192,169663,1,0,0:0:0:22:SCG_G#4.ogg
192,192,170840,128,0,171429:0:0:0:31:SAK_A#6_1.ogg
64,192,171429,128,0,172018:0:0:0:31:SAK_G6_1.ogg
448,192,172018,128,0,172607:0:0:0:31:SAK_F6_1.ogg
320,192,172607,128,0,173195:0:0:0:31:SAK_D#6_1.ogg
64,192,173195,128,0,173784:0:0:0:31:SAK_D6_1.ogg
192,192,173784,128,0,174373:0:0:0:31:SAK_D#6_1.ogg
320,192,174373,1,0,0:0:0:31:SAK_F6_2.ogg
448,192,174373,128,0,175551:0:0:0:22:SCG_A#4.ogg
192,192,175551,128,0,176434:0:0:0:31:SAK_D7_43.ogg
448,192,176434,128,0,176581:0:0:0:31:SAK_C#7_14.ogg
320,192,176581,128,0,176728:0:0:0:31:SAK_C7_14.ogg
64,192,176728,128,0,179084:0:0:0:31:SAK_A#6_4.ogg
192,192,176728,1,0,0:0:0:22:SCG_D#5.ogg
320,192,179084,1,0,0:0:0:31:SAK_C6_2.ogg
448,192,179084,128,0,180261:0:0:0:22:SCG_G#4.ogg
192,192,180261,128,0,180850:0:0:0:31:SAK_A#6_1.ogg
64,192,180850,128,0,181439:0:0:0:31:SAK_G6_1.ogg
320,192,181439,128,0,182028:0:0:0:31:SAK_F6_1.ogg
192,192,182028,128,0,182616:0:0:0:31:SAK_D#6_1.ogg
320,192,182616,128,0,183205:0:0:0:31:SAK_F6_1.ogg
448,192,183205,128,0,183794:0:0:0:31:SAK_G6_1.ogg
64,192,183794,128,0,184972:0:0:0:31:SAK_D6_2.ogg
320,192,183794,1,0,0:0:0:22:SCG_A#4.ogg
320,192,184972,128,0,186738:0:0:0:31:SAK_F6_3.ogg
64,192,186149,1,0,0:0:0:22:SCG_C5.ogg
448,192,186149,1,0,0:0:0:0:
192,192,186738,128,0,187327:0:0:0:31:SAK_D#6_1.ogg
320,192,187327,1,0,0:0:0:31:SAK_D6_1.ogg
448,192,187327,128,0,187916:0:0:0:22:SCG_A#4.ogg
64,192,187916,128,0,188505:0:0:0:31:SAK_D#6_1.ogg
192,192,188505,1,0,0:0:0:31:SAK_A#5_2.ogg
320,192,188505,128,0,189682:0:0:0:22:SCG_G#4.ogg
64,192,189682,128,0,190271:0:0:0:31:SAK_A#6_1.ogg
192,192,190271,128,0,190860:0:0:0:31:SAK_G6_1.ogg
448,192,190860,128,0,191449:0:0:0:31:SAK_F6_1.ogg
320,192,191449,128,0,192037:0:0:0:31:SAK_D#6_1.ogg
64,192,192037,128,0,192626:0:0:0:31:SAK_D6_1.ogg
192,192,192626,128,0,193215:0:0:0:31:SAK_D#6_1.ogg
320,192,193215,1,0,0:0:0:31:SAK_F6_2.ogg
448,192,193215,128,0,194393:0:0:0:22:SCG_A#4.ogg
64,192,194393,128,0,195276:0:0:0:31:SAK_D7_43.ogg
448,192,195276,128,0,195423:0:0:0:31:SAK_C#7_14.ogg
320,192,195423,128,0,195570:0:0:0:31:SAK_C7_14.ogg
64,192,195570,1,0,0:0:0:31:SAK_A#6_4.ogg
192,192,195570,128,0,197631:0:0:0:22:SCG_D#5.ogg
64,192,197926,128,0,199103:0:0:0:31:SAK_C6_2.ogg
320,192,197926,1,0,0:0:0:22:SCG_G#4.ogg
192,192,199103,128,0,199692:0:0:0:31:SAK_A#6_1.ogg
320,192,199692,128,0,200281:0:0:0:31:SAK_G6_1.ogg
448,192,200281,128,0,200870:0:0:0:31:SAK_F6_1.ogg
192,192,200870,128,0,201458:0:0:0:31:SAK_D#6_1.ogg
64,192,201458,128,0,202047:0:0:0:31:SAK_F6_1.ogg
320,192,202047,128,0,202636:0:0:0:31:SAK_G6_1.ogg
64,192,202636,128,0,203814:0:0:0:31:SAK_D6_2.ogg
192,192,202636,1,0,0:0:0:22:SCG_A#4.ogg
192,192,203814,128,0,205580:0:0:0:31:SAK_F6_3.ogg
64,192,204991,1,0,0:0:0:22:SCG_C5.ogg
448,192,204991,1,0,0:0:0:11:G5H.wav
320,192,205580,128,0,206169:0:0:0:31:SAK_D#6_1.ogg
192,192,206169,128,0,206758:0:0:0:31:SAK_D6_1.ogg
448,192,206169,1,0,0:0:0:22:SCG_A#4.ogg
64,192,206758,128,2,206905:0:0:0:0:
320,192,206758,1,0,0:0:0:31:SAK_D#6_1.ogg
448,192,206758,1,0,0:0:0:11:G#4H_Ab4H.wav
320,192,206905,1,2,0:0:0:0:
448,192,206905,1,0,0:0:0:0:
64,192,207052,1,2,0:0:0:0:
192,192,207052,1,0,0:0:0:0:
64,192,207199,1,2,0:0:0:0:
192,192,207199,1,0,0:0:0:0:
64,192,207347,1,6,0:0:0:0:
192,192,207347,1,0,0:0:0:18:A#4S_Bb4S_s.wav
320,192,207347,1,0,0:0:0:31:ORC_A#45D#5_2.ogg
448,192,207347,1,0,0:0:0:18:G#4H_Ab4H.wav
192,192,207641,1,2,0:0:0:0:
320,192,207641,1,0,0:0:0:18:F5S_s.wav
64,192,207935,1,2,0:0:0:0:
192,192,207935,1,0,0:0:0:18:D#5H_Eb5H.wav
64,192,208083,1,2,0:0:0:0:
192,192,208083,1,0,0:0:0:0:
320,192,208230,1,2,0:0:0:0:
448,192,208230,1,0,0:0:0:18:A#4S_Bb4S_s.wav
192,192,208377,1,0,0:0:0:0:
320,192,208377,1,0,0:0:0:0:
64,192,208524,1,10,0:0:0:0:
192,192,208524,1,0,0:0:0:18:D5S_s.wav
448,192,208524,1,0,0:0:0:31:ORC_A#56D#6_2.ogg
64,192,208819,1,8,0:0:0:0:
192,192,208819,1,0,0:0:0:18:G#4H_Ab4H.wav
64,192,208966,1,2,0:0:0:0:
320,192,208966,1,0,0:0:0:18:D5S_s.wav
448,192,208966,1,0,0:0:0:18:D5H.wav
320,192,209113,1,0,0:0:0:18:D#4H_Eb4H.wav
64,192,209260,1,8,0:0:0:0:
192,192,209260,1,0,0:0:0:0:
64,192,209407,1,2,0:0:0:0:
320,192,209407,1,0,0:0:0:18:D#5H_Eb5H.wav
448,192,209407,1,0,0:0:0:18:G#4H_Ab4H.wav
64,192,209702,1,0,0:0:0:31:ORC_A#5F56_4.ogg
448,192,209849,1,0,0:0:0:0:
64,192,209996,1,2,0:0:0:0:
192,192,209996,1,0,0:0:0:18:A#4S_Bb4S_s.wav
320,192,210143,1,8,0:0:0:0:
448,192,210143,1,2,0:0:0:0:
192,192,210291,1,0,0:0:0:18:D#5H_Eb5H.wav
320,192,210438,1,2,0:0:0:0:
448,192,210438,1,0,0:0:0:0:
64,192,210585,1,10,0:0:0:0:
192,192,210585,1,0,0:0:0:18:A#4S_Bb4S_s.wav
192,192,210732,1,2,0:0:0:0:
320,192,210732,1,0,0:0:0:0:
64,192,210879,1,10,0:0:0:0:
320,192,210879,1,0,0:0:0:18:D5S_s.wav
448,192,210879,1,0,0:0:0:18:D5H.wav
64,192,211174,1,10,0:0:0:0:
192,192,211174,1,0,0:0:0:18:A#4H_Bb4H.wav
64,192,211321,1,0,0:0:0:18:D5S_s.wav
320,192,211321,1,0,0:0:0:18:D5H.wav
448,192,211321,1,0,0:0:0:31:ride.wav
320,192,211468,1,2,0:0:0:0:
448,192,211468,1,0,0:0:0:18:F4H.wav
64,192,211615,1,8,0:0:0:0:
192,192,211615,1,2,0:0:0:0:
448,192,211763,1,0,0:0:0:18:D#5H_Eb5H.wav
192,192,211910,1,0,0:0:0:0:
64,192,212057,1,6,0:0:0:0:
192,192,212057,1,0,0:0:0:18:A#4S_Bb4S_s.wav
320,192,212057,1,0,0:0:0:31:ORC_A#5D#56_2.ogg
448,192,212057,1,0,0:0:0:18:G4H.wav
64,192,212351,1,2,0:0:0:0:
192,192,212351,1,0,0:0:0:18:F5S_s.wav
320,192,212646,1,2,0:0:0:0:
448,192,212646,1,0,0:0:0:18:D#5H_Eb5H.wav
320,192,212793,1,2,0:0:0:0:
448,192,212793,1,0,0:0:0:0:
64,192,212940,1,2,0:0:0:0:
192,192,212940,1,0,0:0:0:18:A#4S_Bb4S_s.wav
192,192,213087,1,2,0:0:0:0:
320,192,213087,1,0,0:0:0:0:
64,192,213235,1,10,0:0:0:0:
320,192,213235,1,0,0:0:0:18:D5S_s.wav
448,192,213235,1,0,0:0:0:31:ORC_A#56D#6_2.ogg
320,192,213529,1,8,0:0:0:0:
448,192,213529,1,0,0:0:0:18:G4H.wav
64,192,213676,1,2,0:0:0:0:
192,192,213676,1,0,0:0:0:18:D5S_s.wav
448,192,213676,1,0,0:0:0:18:D5H.wav
192,192,213823,1,0,0:0:0:18:D#4H_Eb4H.wav
320,192,213971,1,8,0:0:0:0:
448,192,213971,1,0,0:0:0:0:
64,192,214118,1,2,0:0:0:0:
192,192,214118,1,0,0:0:0:18:D#5H_Eb5H.wav
448,192,214118,1,0,0:0:0:18:G4H.wav
192,192,214412,1,0,0:0:0:31:ORC_A#45D#5_4.ogg
320,192,214559,1,0,0:0:0:0:
64,192,214707,1,2,0:0:0:0:
192,192,214707,1,0,0:0:0:18:A#4S_Bb4S_s.wav
320,192,214854,1,8,0:0:0:0:
448,192,214854,1,2,0:0:0:0:
64,192,215001,1,0,0:0:0:18:D#5H_Eb5H_s.wav
320,192,215148,1,2,0:0:0:0:
448,192,215148,1,0,0:0:0:0:
64,192,215295,1,10,0:0:0:0:
192,192,215295,1,0,0:0:0:18:G5S_s.wav
192,192,215443,1,2,0:0:0:0:
320,192,215443,1,0,0:0:0:0:
64,192,215590,1,10,0:0:0:0:
320,192,215590,1,0,0:0:0:18:F5S_s.wav
448,192,215590,1,0,0:0:0:18:G4H.wav
64,192,215884,1,10,0:0:0:0:
192,192,215884,1,0,0:0:0:18:C5H.wav
64,192,216032,1,0,0:0:0:18:D#5H_Eb5H_s.wav
320,192,216032,1,0,0:0:0:31:ride.wav
448,192,216032,1,0,0:0:0:0:
320,192,216179,1,2,0:0:0:0:
448,192,216179,1,0,0:0:0:18:G4H.wav
64,192,216326,1,8,0:0:0:0:
192,192,216326,1,2,0:0:0:0:
448,192,216473,1,0,0:0:0:18:F5S_s.wav
192,192,216620,1,0,0:0:0:0:
64,192,216768,1,6,0:0:0:0:
192,192,216768,1,0,0:0:0:18:A#4S_Bb4S_s.wav
320,192,216768,1,0,0:0:0:31:ORC_A#45D#5_2.ogg
448,192,216768,1,0,0:0:0:18:G#4H_Ab4H.wav
320,192,217062,1,2,0:0:0:0:
448,192,217062,1,0,0:0:0:18:F5S_s.wav
64,192,217356,1,2,0:0:0:0:
192,192,217356,1,0,0:0:0:18:D#5H_Eb5H.wav
64,192,217504,1,2,0:0:0:0:
192,192,217504,1,0,0:0:0:0:
320,192,217651,1,2,0:0:0:0:
448,192,217651,1,0,0:0:0:18:A#4S_Bb4S_s.wav
192,192,217798,1,2,0:0:0:0:
320,192,217798,1,0,0:0:0:0:
64,192,217945,1,10,0:0:0:0:
192,192,217945,1,0,0:0:0:18:D5S_s.wav
448,192,217945,1,0,0:0:0:31:ORC_D56G5_2.ogg
64,192,218240,1,8,0:0:0:0:
192,192,218240,1,0,0:0:0:18:G#4H_Ab4H.wav
64,192,218387,1,2,0:0:0:0:
320,192,218387,1,0,0:0:0:18:D5S_s.wav
448,192,218387,1,0,0:0:0:18:D5H.wav
320,192,218534,1,0,0:0:0:18:D#4H_Eb4H.wav
64,192,218681,1,8,0:0:0:0:
192,192,218681,1,0,0:0:0:0:
64,192,218828,1,2,0:0:0:0:
320,192,218828,1,0,0:0:0:18:D#5H_Eb5H.wav
448,192,218828,1,0,0:0:0:18:G#4H_Ab4H.wav
192,192,219123,1,0,0:0:0:31:ORC_A#56D#6_3.ogg
448,192,219270,1,0,0:0:0:0:
64,192,219417,1,2,0:0:0:0:
192,192,219417,1,0,0:0:0:18:A#4S_Bb4S_s.wav
320,192,219564,1,2,0:0:0:0:
448,192,219564,1,8,0:0:0:0:
64,192,219712,1,0,0:0:0:18:D#5H_Eb5H.wav
320,192,219859,1,2,0:0:0:0:
448,192,219859,1,0,0:0:0:0:
64,192,220006,1,10,0:0:0:0:
192,192,220006,1,0,0:0:0:18:A#4S_Bb4S_s.wav
192,192,220153,1,2,0:0:0:0:
320,192,220153,1,0,0:0:0:0:
64,192,220300,1,10,0:0:0:0:
320,192,220300,1,0,0:0:0:18:D5S_s.wav
448,192,220300,1,0,0:0:0:18:D5H.wav
64,192,220595,1,10,0:0:0:0:
192,192,220595,1,0,0:0:0:18:A#4H_Bb4H.wav
320,192,220742,1,0,0:0:0:18:D5S_s.wav
448,192,220742,1,0,0:0:0:18:D5H.wav
64,192,220889,1,4,0:0:0:0:
192,192,220889,1,2,0:0:0:0:
320,192,220889,1,0,0:0:0:31:ORC_C67D#6_1.ogg
448,192,220889,1,0,0:0:0:18:F4H.wav
64,192,221036,1,8,0:0:0:0:
192,192,221036,1,2,0:0:0:0:
320,192,221184,1,0,0:0:0:18:D#5H_Eb5H.wav
64,192,221478,1,6,0:0:0:0:
192,192,221478,1,0,0:0:0:18:A#4S_Bb4S_s.wav
320,192,221478,1,0,0:0:0:31:ORC_A#56D#6_2.ogg
448,192,221478,1,0,0:0:0:18:G4H.wav
192,192,221772,1,2,0:0:0:0:
320,192,221772,1,0,0:0:0:18:F5S_s.wav
64,192,222067,1,2,0:0:0:0:
192,192,222067,1,0,0:0:0:18:D#5H_Eb5H.wav
64,192,222214,1,2,0:0:0:0:
192,192,222214,1,0,0:0:0:0:
64,192,222361,1,2,0:0:0:0:
192,192,222361,1,0,0:0:0:18:A#4S_Bb4S_s.wav
320,192,222508,1,0,0:0:0:0:
64,192,222656,1,10,0:0:0:0:
192,192,222656,1,0,0:0:0:18:D5S_s.wav
448,192,222656,1,0,0:0:0:31:ORC_A#5F56_2.ogg
320,192,222950,1,8,0:0:0:0:
448,192,222950,1,0,0:0:0:18:G4H.wav
64,192,223097,1,2,0:0:0:0:
192,192,223097,1,0,0:0:0:18:D5S_s.wav
448,192,223097,1,0,0:0:0:18:D5H.wav
192,192,223244,1,0,0:0:0:18:D#4H_Eb4H.wav
320,192,223392,1,8,0:0:0:0:
448,192,223392,1,0,0:0:0:0:
64,192,223539,1,2,0:0:0:0:
192,192,223539,1,0,0:0:0:18:D#5H_Eb5H.wav
448,192,223539,1,0,0:0:0:18:G4H.wav
320,192,223686,1,0,0:0:0:0:
64,192,223833,1,4,0:0:0:0:
192,192,223833,1,0,0:0:0:31:ORC_A#5D#56_4.ogg
320,192,223833,1,0,0:0:0:18:C5H.wav
448,192,223833,1,0,0:0:0:18:C4H.wav
64,192,224128,1,2,0:0:0:0:
192,192,224128,1,0,0:0:0:18:A#4S_Bb4S_s.wav
320,192,224275,1,8,0:0:0:0:
448,192,224275,1,2,0:0:0:0:
192,192,224422,1,0,0:0:0:18:D#5H_Eb5H_s.wav
320,192,224569,1,2,0:0:0:0:
448,192,224569,1,0,0:0:0:0:
64,192,224716,1,10,0:0:0:0:
192,192,224716,1,0,0:0:0:18:G5S_s.wav
192,192,224864,1,2,0:0:0:0:
320,192,224864,1,0,0:0:0:0:
64,192,225011,1,10,0:0:0:0:
320,192,225011,1,0,0:0:0:18:F5S_s.wav
448,192,225011,1,0,0:0:0:18:G4H.wav
64,192,225305,1,10,0:0:0:0:
192,192,225305,1,0,0:0:0:18:C5H.wav
64,192,225453,1,0,0:0:0:18:D#5H_Eb5H_s.wav
320,192,225453,1,0,0:0:0:31:ride.wav
448,192,225453,1,0,0:0:0:0:
320,192,225600,1,2,0:0:0:0:
448,192,225600,1,0,0:0:0:18:G4H.wav
64,192,225747,1,2,0:0:0:0:
192,192,225747,1,8,0:0:0:0:
320,192,225894,1,0,0:0:0:18:F5S_s.wav
448,192,226041,1,0,0:0:0:0:
64,192,226189,1,6,0:0:0:0:
192,192,226189,1,0,0:0:0:18:A#4S_Bb4S_s.wav
320,192,226189,1,0,0:0:0:31:ORC_A#45D#5_2.ogg
448,192,226189,1,0,0:0:0:18:G#4H_Ab4H.wav
192,192,226483,1,2,0:0:0:0:
320,192,226483,1,0,0:0:0:18:F5S_s.wav
64,192,226777,128,2,227072:0:0:0:0:
448,192,226777,1,0,0:0:0:18:D#5H_Eb5H.wav
320,192,226925,1,2,0:0:0:0:
448,192,226925,1,0,0:0:0:0:
320,192,227072,1,2,0:0:0:0:
448,192,227072,1,0,0:0:0:18:A#4S_Bb4S_s.wav
192,192,227219,1,2,0:0:0:0:
320,192,227219,1,0,0:0:0:0:
64,192,227366,1,10,0:0:0:0:
192,192,227366,1,0,0:0:0:18:D5S_s.wav
448,192,227366,1,0,0:0:0:31:ORC_A#56D#6_2.ogg
64,192,227661,1,8,0:0:0:0:
192,192,227661,1,0,0:0:0:18:G#4H_Ab4H.wav
192,192,227808,1,2,0:0:0:0:
320,192,227808,1,0,0:0:0:18:D5S_s.wav
448,192,227808,1,0,0:0:0:18:D5H.wav
64,192,227955,128,0,228249:0:0:0:18:D#4H_Eb4H.wav
192,192,228102,1,8,0:0:0:0:
320,192,228102,1,0,0:0:0:0:
192,192,228249,1,2,0:0:0:0:
320,192,228249,1,0,0:0:0:18:D#5H_Eb5H.wav
448,192,228249,1,0,0:0:0:18:G#4H_Ab4H.wav
448,192,228544,1,0,0:0:0:31:ORC_A#5F56_4.ogg
320,192,228691,1,0,0:0:0:0:
64,192,228838,1,2,0:0:0:0:
192,192,228838,1,0,0:0:0:18:A#4S_Bb4S_s.wav
320,192,228985,1,8,0:0:0:0:
448,192,228985,1,2,0:0:0:0:
64,192,229133,128,0,229427:0:0:0:18:D#5H_Eb5H.wav
320,192,229280,1,2,0:0:0:0:
448,192,229280,1,0,0:0:0:0:
192,192,229427,1,10,0:0:0:0:
320,192,229427,1,0,0:0:0:18:A#4S_Bb4S_s.wav
64,192,229574,1,2,0:0:0:0:
192,192,229574,1,0,0:0:0:0:
64,192,229721,1,10,0:0:0:0:
320,192,229721,128,0,229869:0:0:0:18:D5S_s.wav
448,192,229721,1,0,0:0:0:22:D#6H_Eb6H.wav
64,192,230016,1,10,0:0:0:0:
192,192,230016,1,0,0:0:0:18:A#4H_Bb4H.wav
64,192,230163,1,0,0:0:0:18:D5S_s.wav
320,192,230163,1,0,0:0:0:31:ride.wav
448,192,230163,1,0,0:0:0:0:
320,192,230310,1,2,0:0:0:0:
448,192,230310,128,0,230457:0:0:0:22:D#6H_Eb6H.wav
64,192,230457,1,2,0:0:0:0:
192,192,230457,1,8,0:0:0:0:
192,192,230605,1,0,0:0:0:18:D#5H_Eb5H_s.wav
64,192,230899,128,6,231046:0:0:0:0:
192,192,230899,1,0,0:0:0:18:A#4S_Bb4S_s.wav
320,192,230899,1,0,0:0:0:31:ORC_A#5D#56_2.ogg
448,192,230899,1,0,0:0:0:18:G4H.wav
64,192,231193,1,2,0:0:0:0:
192,192,231193,1,0,0:0:0:18:F5S_s.wav
320,192,231488,1,2,0:0:0:0:
448,192,231488,128,0,231782:0:0:0:18:D#5H_Eb5H.wav
64,192,231635,1,2,0:0:0:0:
192,192,231635,1,0,0:0:0:0:
64,192,231782,1,2,0:0:0:0:
192,192,231782,1,0,0:0:0:18:A#4S_Bb4S_s.wav
320,192,231929,1,2,0:0:0:0:
448,192,231929,1,0,0:0:0:0:
64,192,232077,1,10,0:0:0:0:
320,192,232077,1,0,0:0:0:18:D5S_s.wav
448,192,232077,1,0,0:0:0:31:ORC_A#56D#6_2.ogg
192,192,232371,1,8,0:0:0:0:
320,192,232371,1,0,0:0:0:18:G4H.wav
64,192,232518,1,2,0:0:0:0:
192,192,232518,1,0,0:0:0:18:D5S_s.wav
448,192,232518,1,0,0:0:0:18:D5H.wav
320,192,232665,128,0,232960:0:0:0:18:D#4H_Eb4H.wav
192,192,232813,1,8,0:0:0:0:
448,192,232813,1,0,0:0:0:0:
64,192,232960,1,2,0:0:0:0:
192,192,232960,1,0,0:0:0:18:D#5H_Eb5H.wav
448,192,232960,1,0,0:0:0:18:G4H.wav
64,192,233254,1,0,0:0:0:31:ORC_A#45D#5_4.ogg
192,192,233401,1,0,0:0:0:0:
320,192,233549,1,2,0:0:0:0:
448,192,233549,1,0,0:0:0:18:A#4S_Bb4S_s.wav
64,192,233696,1,2,0:0:0:0:
192,192,233696,1,8,0:0:0:0:
448,192,233843,128,0,234137:0:0:0:18:D#5H_Eb5H_s.wav
64,192,233990,1,2,0:0:0:0:
192,192,233990,1,0,0:0:0:0:
192,192,234137,1,10,0:0:0:0:
320,192,234137,1,0,0:0:0:18:G5S_s.wav
320,192,234285,1,2,0:0:0:0:
448,192,234285,1,0,0:0:0:0:
64,192,234432,128,10,234579:0:0:0:0:
192,192,234432,1,0,0:0:0:31:G6H_s.wav
448,192,234432,1,0,0:0:0:18:G4H.wav
320,192,234579,1,0,0:0:0:0:
192,192,234726,128,10,234874:0:0:0:0:
448,192,234726,1,0,0:0:0:31:G#6H_Ab6H_s.wav
64,192,234874,1,0,0:0:0:18:D#5H_Eb5H_s.wav
320,192,234874,1,0,0:0:0:31:ride.wav
448,192,234874,1,0,0:0:0:0:
320,192,235021,1,2,0:0:0:0:
448,192,235021,128,0,235168:0:0:0:31:G6H_s.wav
64,192,235168,1,2,0:0:0:0:
192,192,235168,1,8,0:0:0:0:
320,192,235315,128,0,235462:0:0:0:18:F5S_s.wav
64,192,235610,128,6,235757:0:0:0:0:
192,192,235610,1,0,0:0:0:18:A#4S_Bb4S_s.wav
320,192,235610,1,0,0:0:0:31:ORC_A#45D#5_2.ogg
448,192,235610,1,0,0:0:0:18:G#4H_Ab4H.wav
320,192,235904,1,2,0:0:0:0:
448,192,235904,1,0,0:0:0:18:F5S_s.wav
64,192,236198,1,2,0:0:0:0:
192,192,236198,128,0,236493:0:0:0:18:D#5H_Eb5H.wav
320,192,236346,1,2,0:0:0:0:
448,192,236346,1,0,0:0:0:0:
320,192,236493,1,2,0:0:0:0:
448,192,236493,1,0,0:0:0:18:A#4S_Bb4S_s.wav
64,192,236640,1,2,0:0:0:0:
192,192,236640,1,0,0:0:0:0:
64,192,236787,1,10,0:0:0:0:
192,192,236787,1,0,0:0:0:18:D5S_s.wav
448,192,236787,1,0,0:0:0:31:ORC_D56G5_2.ogg
64,192,237082,1,8,0:0:0:0:
192,192,237082,1,0,0:0:0:18:G#4H_Ab4H.wav
64,192,237229,1,2,0:0:0:0:
320,192,237229,1,0,0:0:0:18:D5S_s.wav
448,192,237229,1,0,0:0:0:18:D5H.wav
192,192,237376,128,0,237670:0:0:0:18:D#4H_Eb4H.wav
448,192,237523,1,8,0:0:0:0:
320,192,237523,1,0,0:0:0:0:
64,192,237670,1,2,0:0:0:0:
320,192,237670,1,0,0:0:0:18:D#5H_Eb5H.wav
448,192,237670,1,0,0:0:0:18:G#4H_Ab4H.wav
192,192,237818,1,0,0:0:0:0:
64,192,237965,1,0,0:0:0:31:ORC_A#56D#6_3.ogg
320,192,238112,1,0,0:0:0:0:
64,192,238259,1,2,0:0:0:0:
192,192,238259,1,0,0:0:0:18:A#4S_Bb4S_s.wav
320,192,238406,1,2,0:0:0:0:
448,192,238406,1,8,0:0:0:0:
192,192,238554,128,0,238848:0:0:0:18:D#5H_Eb5H.wav
320,192,238701,1,2,0:0:0:0:
448,192,238701,1,0,0:0:0:0:
64,192,238848,1,10,0:0:0:0:
320,192,238848,1,0,0:0:0:18:A#4S_Bb4S_s.wav
64,192,238995,1,2,0:0:0:0:
192,192,238995,1,0,0:0:0:0:
64,192,239142,1,10,0:0:0:0:
320,192,239142,1,0,0:0:0:18:D5S_s.wav
448,192,239142,1,0,0:0:0:18:D5H.wav
64,192,239437,1,10,0:0:0:0:
192,192,239437,1,0,0:0:0:18:A#4H_Bb4H.wav
192,192,239584,1,0,0:0:0:18:D5S_s.wav
320,192,239584,1,0,0:0:0:18:D5H.wav
448,192,239584,1,0,0:0:0:31:ride.wav
64,192,239731,128,2,240026:0:0:0:0:
192,192,239731,1,4,0:0:0:0:
320,192,239731,1,0,0:0:0:31:ORC_C67D#6_1.ogg
448,192,239731,1,0,0:0:0:18:F4H.wav
320,192,239878,1,8,0:0:0:0:
448,192,239878,1,0,0:0:0:0:
192,192,240026,1,2,0:0:0:0:
64,192,240320,1,6,0:0:0:0:
192,192,240320,1,0,0:0:0:18:A#4S_Bb4S_s.wav
320,192,240320,1,0,0:0:0:31:ORC_A#56D#6_2.ogg
448,192,240320,1,0,0:0:0:18:G4H.wav
192,192,240614,1,2,0:0:0:0:
320,192,240614,1,0,0:0:0:18:F5S_s.wav
320,192,240909,128,2,241203:0:0:0:0:
448,192,240909,1,0,0:0:0:18:D#5H_Eb5H.wav
64,192,241056,1,2,0:0:0:0:
192,192,241056,1,0,0:0:0:0:
64,192,241203,1,2,0:0:0:0:
192,192,241203,1,0,0:0:0:18:A#4S_Bb4S_s.wav
320,192,241350,1,0,0:0:0:0:
64,192,241498,1,10,0:0:0:0:
192,192,241498,1,0,0:0:0:18:D5S_s.wav
448,192,241498,1,0,0:0:0:31:ORC_A#5F56_2.ogg
320,192,241792,1,8,0:0:0:0:
448,192,241792,1,0,0:0:0:18:G4H.wav
64,192,241939,1,2,0:0:0:0:
192,192,241939,1,0,0:0:0:18:D5S_s.wav
320,192,242086,128,0,242381:0:0:0:18:D#4H_Eb4H.wav
192,192,242234,1,8,0:0:0:0:
448,192,242234,1,0,0:0:0:0:
64,192,242381,1,2,0:0:0:0:
192,192,242381,1,0,0:0:0:18:D#5H_Eb5H.wav
448,192,242528,1,0,0:0:0:0:
64,192,242675,1,4,0:0:0:0:
192,192,242675,1,0,0:0:0:31:ORC_A#5D#56_4.ogg
320,192,242675,1,0,0:0:0:18:C5H.wav
448,192,242675,1,0,0:0:0:18:C4H.wav
320,192,242970,1,2,0:0:0:0:
448,192,242970,128,0,243117:0:0:0:31:D#7H_Eb7H_s.wav
64,192,243117,1,2,0:0:0:0:
192,192,243117,1,8,0:0:0:0:
64,192,243264,128,0,243411:0:0:0:31:D7H_s.wav
320,192,243411,1,2,0:0:0:0:
448,192,243411,1,0,0:0:0:0:
192,192,243558,128,10,243706:0:0:0:0:
320,192,243558,1,0,0:0:0:31:A#6H_Bb6H_s.wav
320,192,243706,1,2,0:0:0:0:
448,192,243706,1,0,0:0:0:0:
64,192,243853,1,10,0:0:0:0:
192,192,243853,1,0,0:0:0:31:G6H_s.wav
448,192,243853,128,0,244000:0:0:0:31:ride.wav
192,192,244147,128,10,244295:0:0:0:0:
448,192,244147,1,0,0:0:0:31:F6H_s.wav
64,192,244295,1,0,0:0:0:31:ride.wav
320,192,244295,1,0,0:0:0:0:
448,192,244295,1,0,0:0:0:0:
64,192,244442,128,2,244589:0:0:0:0:
192,192,244442,1,0,0:0:0:31:D#6H_Eb6H_s.wav
320,192,244442,1,0,0:0:0:0:
320,192,244589,1,8,0:0:0:0:
448,192,244589,1,2,0:0:0:0:
64,192,244736,1,0,0:0:0:31:A#5H_Bb5H_s.wav
192,192,244736,1,0,0:0:0:31:ride.wav
448,192,244736,128,0,244883:0:0:0:0:
192,192,244883,1,0,0:0:0:0:
64,192,245031,128,6,245178:0:0:0:0:
192,192,245031,1,0,0:0:0:22:A#5H_Bb5H_s.wav
320,192,245031,1,0,0:0:0:31:ORC_A#45D#5_2.ogg
448,192,245031,1,0,0:0:0:18:A#4S_Bb4S_s.wav
64,192,245325,1,2,0:0:0:0:
192,192,245325,1,0,0:0:0:18:F5S_s.wav
192,192,245619,1,2,0:0:0:0:
320,192,245619,1,0,0:0:0:22:D#6H_Eb6H_s.wav
192,192,245767,1,2,0:0:0:0:
320,192,245767,1,0,0:0:0:0:
64,192,245914,1,2,0:0:0:0:
192,192,245914,1,0,0:0:0:18:A#4S_Bb4S_s.wav
64,192,246061,1,2,0:0:0:0:
192,192,246061,1,0,0:0:0:0:
64,192,246208,1,10,0:0:0:0:
320,192,246208,1,0,0:0:0:22:D6H_s.wav
448,192,246208,1,0,0:0:0:31:ORC_A#56D#6_2.ogg
64,192,246503,1,8,0:0:0:0:
192,192,246503,1,0,0:0:0:18:G#4H_Ab4H.wav
64,192,246650,1,2,0:0:0:0:
320,192,246650,1,0,0:0:0:18:D5S_s.wav
448,192,246650,1,0,0:0:0:31:ride.wav
192,192,246797,128,0,246944:0:0:0:22:F6H_s.wav
64,192,246944,1,8,0:0:0:0:
320,192,246944,1,0,0:0:0:0:
320,192,247091,1,2,0:0:0:0:
448,192,247091,1,0,0:0:0:18:D#5H_Eb5H_s.wav
448,192,247386,1,0,0:0:0:22:D#6H_Eb6H_s.wav
64,192,247533,1,0,0:0:0:0:
192,192,247680,1,2,0:0:0:0:
320,192,247680,1,0,0:0:0:18:A#4S_Bb4S_s.wav
320,192,247827,1,8,0:0:0:0:
448,192,247827,1,2,0:0:0:0:
64,192,247975,128,0,248122:0:0:0:22:C6H_s.wav
192,192,248122,1,2,0:0:0:0:
320,192,248122,1,0,0:0:0:0:
320,192,248269,1,10,0:0:0:0:
448,192,248269,1,0,0:0:0:18:A#4S_Bb4S_s.wav
64,192,248416,1,2,0:0:0:0:
192,192,248416,1,0,0:0:0:0:
192,192,248563,1,10,0:0:0:0:
320,192,248563,128,0,248711:0:0:0:22:D6H_s.wav
448,192,248563,1,0,0:0:0:18:D5S_s.wav
64,192,248858,1,10,0:0:0:0:
192,192,248858,1,0,0:0:0:18:A#4H_Bb4H.wav
192,192,249005,1,0,0:0:0:18:D5S_s.wav
320,192,249005,1,0,0:0:0:31:ride.wav
448,192,249005,1,0,0:0:0:0:
320,192,249152,1,2,0:0:0:0:
448,192,249152,128,0,249299:0:0:0:22:D#6H_Eb6H_s.wav
64,192,249299,1,2,0:0:0:0:
192,192,249299,1,8,0:0:0:0:
64,192,249447,1,0,0:0:0:18:D#5H_Eb5H_s.wav
320,192,249447,1,0,0:0:0:18:A#4H_Bb4H.wav
448,192,249447,1,0,0:0:0:31:ride.wav
64,192,249741,1,6,0:0:0:0:
192,192,249741,128,0,249888:0:0:0:22:A#5H_Bb5H_s.wav
320,192,249741,1,0,0:0:0:31:ORC_A#5D#56_2.ogg
448,192,249741,1,0,0:0:0:18:A#4S_Bb4S_s.wav
192,192,250035,1,2,0:0:0:0:
320,192,250035,1,0,0:0:0:18:F5S_s.wav
64,192,250330,1,2,0:0:0:0:
192,192,250330,1,0,0:0:0:22:A#6H_Bb6H_s.wav
64,192,250477,1,2,0:0:0:0:
192,192,250477,1,0,0:0:0:0:
192,192,250624,1,2,0:0:0:0:
320,192,250624,1,0,0:0:0:18:A#4S_Bb4S_s.wav
192,192,250771,1,2,0:0:0:0:
320,192,250771,1,0,0:0:0:0:
64,192,250919,1,10,0:0:0:0:
320,192,250919,1,0,0:0:0:22:A#5H_Bb5H_s.wav
448,192,250919,1,0,0:0:0:31:ORC_A#56D#6_2.ogg
64,192,251213,1,8,0:0:0:0:
192,192,251213,1,0,0:0:0:18:G4H.wav
192,192,251360,1,2,0:0:0:0:
320,192,251360,1,0,0:0:0:18:D5S_s.wav
448,192,251360,1,0,0:0:0:31:ride.wav
448,192,251507,1,0,0:0:0:22:D#6H_Eb6H_s.wav
64,192,251655,1,8,0:0:0:0:
192,192,251655,1,0,0:0:0:0:
192,192,251802,1,2,0:0:0:0:
320,192,251802,1,0,0:0:0:18:D#5H_Eb5H_s.wav
448,192,252096,1,0,0:0:0:22:A#5H_Bb5H_s.wav
192,192,252243,1,0,0:0:0:0:
64,192,252391,1,2,0:0:0:0:
320,192,252391,128,0,252538:0:0:0:22:G6H.wav
64,192,252538,1,8,0:0:0:0:
192,192,252538,1,2,0:0:0:0:
64,192,252685,128,0,252832:0:0:0:22:D7H.wav
320,192,252832,1,2,0:0:0:0:
448,192,252832,1,0,0:0:0:0:
192,192,252979,128,10,253127:0:0:0:0:
448,192,252979,1,0,0:0:0:22:D#7H_Eb7H.wav
64,192,253127,1,2,0:0:0:0:
320,192,253127,1,0,0:0:0:0:
64,192,253274,1,10,0:0:0:0:
192,192,253274,1,0,0:0:0:22:G7H.wav
448,192,253274,128,0,253421:0:0:0:18:F5S_s.wav
192,192,253568,128,10,253716:0:0:0:0:
320,192,253568,1,0,0:0:0:22:F7H.wav
64,192,253716,1,0,0:0:0:18:D#5H_Eb5H_s.wav
320,192,253716,1,0,0:0:0:31:ride.wav
448,192,253716,1,0,0:0:0:0:
64,192,253863,1,2,0:0:0:0:
320,192,253863,128,0,254010:0:0:0:22:D#7H_Eb7H.wav
192,192,254010,1,2,0:0:0:0:
448,192,254010,1,8,0:0:0:0:
64,192,254157,128,0,254304:0:0:0:22:A#6H_Bb6H.wav
192,192,254157,1,0,0:0:0:18:F5S_s.wav
448,192,254157,1,0,0:0:0:18:C5H.wav
320,192,254304,1,2,0:0:0:0:
64,192,254452,1,6,0:0:0:0:
192,192,254452,1,0,0:0:0:31:ORC_A#45D#5_2.ogg
320,192,254452,1,0,0:0:0:18:A#4S_Bb4S_s.wav
448,192,254452,128,0,254599:0:0:0:18:G#2H_Ab2H.wav
192,192,254746,1,2,0:0:0:0:
320,192,254746,1,0,0:0:0:18:F5S_s.wav
320,192,255040,1,2,0:0:0:0:
448,192,255040,1,0,0:0:0:18:D#5H_Eb5H_s.wav
320,192,255188,1,2,0:0:0:0:
448,192,255188,1,0,0:0:0:0:
192,192,255335,1,2,0:0:0:0:
320,192,255335,1,0,0:0:0:18:A#4S_Bb4S_s.wav
192,192,255482,1,2,0:0:0:0:
320,192,255482,1,0,0:0:0:0:
64,192,255629,1,10,0:0:0:0:
192,192,255629,1,0,0:0:0:31:ORC_D56G5_2.ogg
448,192,255629,1,0,0:0:0:18:D5S_s.wav
320,192,255924,1,8,0:0:0:0:
448,192,255924,1,0,0:0:0:18:G#4H_Ab4H.wav
64,192,256071,1,2,0:0:0:0:
192,192,256071,1,0,0:0:0:18:D5S_s.wav
320,192,256071,1,0,0:0:0:31:ride.wav
64,192,256218,1,0,0:0:0:18:D#4H_Eb4H.wav
320,192,256365,1,8,0:0:0:0:
448,192,256365,1,0,0:0:0:0:
192,192,256512,1,0,0:0:0:18:D#5H_Eb5H_s.wav
320,192,256512,1,0,0:0:0:18:G#4H_Ab4H.wav
192,192,256807,1,0,0:0:0:31:ORC_A#56D#6_3.ogg
320,192,256954,1,0,0:0:0:0:
64,192,257101,1,2,0:0:0:0:
192,192,257101,1,0,0:0:0:18:A#4S_Bb4S_s.wav
192,192,257248,1,8,0:0:0:0:
320,192,257248,1,2,0:0:0:0:
448,192,257396,1,0,0:0:0:18:D#5H_Eb5H_s.wav
192,192,257543,1,2,0:0:0:0:
320,192,257543,1,0,0:0:0:0:
320,192,257690,1,10,0:0:0:0:
448,192,257690,1,0,0:0:0:18:A#4S_Bb4S_s.wav
64,192,257837,1,2,0:0:0:0:
192,192,257837,1,0,0:0:0:0:
192,192,257984,1,10,0:0:0:0:
320,192,257984,1,0,0:0:0:22:F6H_s.wav
448,192,257984,1,0,0:0:0:18:D5S_s.wav
192,192,258279,1,10,0:0:0:0:
320,192,258279,1,0,0:0:0:18:A#4H_Bb4H.wav
192,192,258426,1,0,0:0:0:18:D5S_s.wav
320,192,258426,1,0,0:0:0:31:ride.wav
448,192,258426,1,0,0:0:0:0:
64,192,258573,1,6,0:0:0:0:
192,192,258573,1,0,0:0:0:22:C7H_s.wav
320,192,258573,1,0,0:0:0:31:ORC_C67D#6_1.ogg
448,192,258573,1,0,0:0:0:18:F4H.wav
64,192,258720,1,2,0:0:0:0:
192,192,258720,1,8,0:0:0:0:
448,192,258868,1,0,0:0:0:18:D#5H_Eb5H_s.wav
64,192,259162,1,6,0:0:0:0:
192,192,259162,1,0,0:0:0:22:A#5H_Bb5H_s.wav
320,192,259162,1,0,0:0:0:31:ORC_A#56D#6_2.ogg
448,192,259162,1,0,0:0:0:18:A#4S_Bb4S_s.wav
320,192,259456,1,2,0:0:0:0:
448,192,259456,1,0,0:0:0:18:F5S_s.wav
64,192,259751,128,2,259898:0:0:0:0:
192,192,259751,1,0,0:0:0:22:D#6H_Eb6H_s.wav
320,192,259898,1,2,0:0:0:0:
448,192,259898,1,0,0:0:0:0:
320,192,260045,1,2,0:0:0:0:
448,192,260045,1,0,0:0:0:18:A#4S_Bb4S_s.wav
192,192,260192,1,0,0:0:0:0:
64,192,260340,1,10,0:0:0:0:
320,192,260340,1,0,0:0:0:22:D6H_s.wav
448,192,260340,1,0,0:0:0:31:ORC_A#5F56_2.ogg
320,192,260634,1,8,0:0:0:0:
448,192,260634,1,0,0:0:0:18:G4H.wav
64,192,260781,1,2,0:0:0:0:
192,192,260781,1,0,0:0:0:18:D5S_s.wav
320,192,260781,1,0,0:0:0:31:ride.wav
448,192,260928,128,0,261076:0:0:0:22:A#5H_Bb5H_s.wav
192,192,261076,1,8,0:0:0:0:
320,192,261076,1,0,0:0:0:0:
64,192,261223,1,2,0:0:0:0:
192,192,261223,1,0,0:0:0:18:D#5H_Eb5H_s.wav
64,192,261517,1,0,0:0:0:22:D6H_s.wav
192,192,261517,1,0,0:0:0:31:ORC_A#5D#56_4.ogg
320,192,261517,1,0,0:0:0:18:C4H.wav
448,192,261517,1,0,0:0:0:18:C3H.wav
320,192,261812,1,2,0:0:0:0:
448,192,261812,128,0,261959:0:0:0:22:D#7H_Eb7H_s.wav
64,192,261959,1,8,0:0:0:0:
192,192,261959,1,2,0:0:0:0:
448,192,262106,128,0,262253:0:0:0:22:D7H_s.wav
64,192,262253,1,2,0:0:0:0:
320,192,262253,1,0,0:0:0:0:
192,192,262400,128,10,262548:0:0:0:0:
448,192,262400,1,0,0:0:0:22:A#6H_Bb6H_s.wav
64,192,262548,1,2,0:0:0:0:
320,192,262548,1,0,0:0:0:0:
64,192,262695,128,10,262842:0:0:0:0:
192,192,262695,1,0,0:0:0:22:G6H_s.wav
448,192,262695,1,0,0:0:0:18:F5S_s.wav
192,192,262989,1,10,0:0:0:0:
320,192,262989,128,0,263137:0:0:0:22:F6H_s.wav
64,192,263137,1,0,0:0:0:18:D#5H_Eb5H_s.wav
192,192,263137,1,0,0:0:0:31:ride.wav
448,192,263137,1,0,0:0:0:0:
64,192,263284,1,6,0:0:0:0:
448,192,263284,128,0,263431:0:0:0:22:D#6H_Eb6H_s.wav
192,192,263431,1,2,0:0:0:0:
320,192,263431,1,8,0:0:0:0:
64,192,263578,128,0,263725:0:0:0:22:A#5H_Bb5H_s.wav
320,192,263725,1,0,0:0:0:0:
64,192,263873,1,6,0:0:0:0:
192,192,263873,1,0,0:0:0:22:A#5H_Bb5H_s.wav
320,192,263873,1,0,0:0:0:31:ORC_A#45D#5_2.ogg
448,192,263873,128,0,264020:0:0:0:18:A#4S_Bb4S_s.wav
320,192,264167,1,2,0:0:0:0:
448,192,264167,1,0,0:0:0:18:F5S_s.wav
64,192,264461,1,2,0:0:0:0:
192,192,264461,1,0,0:0:0:22:D#6H_Eb6H_s.wav
64,192,264609,1,2,0:0:0:0:
192,192,264609,1,0,0:0:0:0:
192,192,264756,1,2,0:0:0:0:
320,192,264756,1,0,0:0:0:18:A#4S_Bb4S_s.wav
192,192,264903,1,2,0:0:0:0:
320,192,264903,1,0,0:0:0:0:
64,192,265050,128,10,265933:0:0:0:0:
320,192,265050,1,0,0:0:0:22:D6H_s.wav
448,192,265050,1,0,0:0:0:31:ORC_A#56D#6_2.ogg
192,192,265345,1,8,0:0:0:0:
320,192,265345,1,0,0:0:0:18:G#4H_Ab4H.wav
192,192,265492,1,2,0:0:0:0:
320,192,265492,1,0,0:0:0:18:D5S_s.wav
448,192,265492,1,0,0:0:0:31:ride.wav
448,192,265639,1,0,0:0:0:22:F6H_s.wav
192,192,265786,1,8,0:0:0:0:
320,192,265786,1,0,0:0:0:0:
320,192,265933,1,2,0:0:0:0:
448,192,265933,1,0,0:0:0:18:D#5H_Eb5H_s.wav
448,192,266228,128,0,266964:0:0:0:22:D#6H_Eb6H_s.wav
64,192,266375,1,0,0:0:0:0:
192,192,266522,1,2,0:0:0:0:
320,192,266522,1,0,0:0:0:18:A#4S_Bb4S_s.wav
64,192,266669,1,2,0:0:0:0:
192,192,266669,1,8,0:0:0:0:
320,192,266817,1,0,0:0:0:22:C6H_s.wav
64,192,266964,1,2,0:0:0:0:
192,192,266964,1,0,0:0:0:0:
192,192,267111,1,10,0:0:0:0:
320,192,267111,1,0,0:0:0:18:A#4S_Bb4S_s.wav
320,192,267258,1,2,0:0:0:0:
448,192,267258,1,0,0:0:0:0:
64,192,267405,1,10,0:0:0:0:
192,192,267405,1,0,0:0:0:22:D6H_s.wav
320,192,267405,1,0,0:0:0:18:D5S_s.wav
320,192,267700,1,10,0:0:0:0:
448,192,267700,1,0,0:0:0:18:A#4H_Bb4H.wav
64,192,267847,1,0,0:0:0:18:D5S_s.wav
192,192,267847,1,0,0:0:0:31:ride.wav
448,192,267847,1,0,0:0:0:0:
192,192,267994,1,2,0:0:0:0:
320,192,267994,1,0,0:0:0:22:D#6H_Eb6H_s.wav
320,192,268141,1,2,0:0:0:0:
448,192,268141,1,8,0:0:0:0:
64,192,268289,1,0,0:0:0:18:D#5H_Eb5H_s.wav
192,192,268289,1,0,0:0:0:18:A#4H_Bb4H.wav
448,192,268289,1,0,0:0:0:31:ride.wav
320,192,268436,1,0,0:0:0:0:
64,192,268583,1,6,0:0:0:0:
192,192,268583,1,0,0:0:0:22:A#5H_Bb5H_s.wav
320,192,268583,1,0,0:0:0:31:ORC_A#5D#56_2.ogg
448,192,268583,1,0,0:0:0:18:A#4S_Bb4S_s.wav
64,192,268877,1,2,0:0:0:0:
192,192,268877,1,0,0:0:0:18:F5S_s.wav
320,192,269172,1,2,0:0:0:0:
448,192,269172,1,0,0:0:0:22:A#6H_Bb6H_s.wav
320,192,269319,1,2,0:0:0:0:
448,192,269319,1,0,0:0:0:0:
320,192,269466,1,2,0:0:0:0:
192,192,269466,1,0,0:0:0:18:A#4S_Bb4S_s.wav
320,192,269613,1,2,0:0:0:0:
192,192,269613,1,0,0:0:0:0:
64,192,269761,128,10,270644:0:0:0:0:
192,192,269761,1,0,0:0:0:22:A#5H_Bb5H_s.wav
448,192,269761,1,0,0:0:0:31:ORC_A#56D#6_2.ogg
320,192,270055,1,8,0:0:0:0:
448,192,270055,1,0,0:0:0:18:G4H.wav
192,192,270202,1,2,0:0:0:0:
320,192,270202,1,0,0:0:0:18:D5S_s.wav
448,192,270202,1,0,0:0:0:31:ride.wav
192,192,270349,1,0,0:0:0:22:D#6H_Eb6H_s.wav
320,192,270497,1,8,0:0:0:0:
448,192,270497,1,0,0:0:0:0:
192,192,270644,1,2,0:0:0:0:
320,192,270644,1,0,0:0:0:18:D#5H_Eb5H_s.wav
448,192,270938,128,0,271674:0:0:0:22:A#5H_Bb5H_s.wav
64,192,271085,1,0,0:0:0:0:
192,192,271233,1,2,0:0:0:0:
320,192,271233,1,0,0:0:0:22:G6H.wav
64,192,271380,1,8,0:0:0:0:
192,192,271380,1,2,0:0:0:0:
320,192,271527,1,0,0:0:0:22:D7H.wav
64,192,271674,1,2,0:0:0:0:
192,192,271674,1,0,0:0:0:0:
192,192,271821,1,10,0:0:0:0:
320,192,271821,1,0,0:0:0:22:D#7H_Eb7H.wav
320,192,271969,1,2,0:0:0:0:
448,192,271969,1,0,0:0:0:0:
64,192,272116,1,10,0:0:0:0:
192,192,272116,1,0,0:0:0:22:G7H.wav
320,192,272116,1,0,0:0:0:18:F5S_s.wav
64,192,272410,1,10,0:0:0:0:
192,192,272410,1,0,0:0:0:22:F7H.wav
64,192,272558,1,0,0:0:0:18:D#5H_Eb5H_s.wav
320,192,272558,1,0,0:0:0:31:ride.wav
448,192,272558,1,0,0:0:0:0:
192,192,272705,1,2,0:0:0:0:
320,192,272705,1,0,0:0:0:22:D#7H_Eb7H.wav
64,192,272852,1,2,0:0:0:0:
192,192,272852,1,8,0:0:0:0:
64,192,272999,1,0,0:0:0:22:A#6H_Bb6H.wav
320,192,272999,1,0,0:0:0:18:F5S_s.wav
448,192,272999,1,0,0:0:0:18:C5H.wav
64,192,273294,1,6,0:0:0:0:
192,192,273294,1,0,0:0:0:31:ORC_A#45D#5_2.ogg
320,192,273294,1,0,0:0:0:18:A#4S_Bb4S_s.wav
448,192,273294,1,0,0:0:0:18:G#2H_Ab2H.wav
320,192,273588,1,2,0:0:0:0:
448,192,273588,1,0,0:0:0:18:F5S_s.wav
64,192,273882,1,2,0:0:0:0:
192,192,273882,1,0,0:0:0:18:D#5H_Eb5H_s.wav
64,192,274030,1,2,0:0:0:0:
192,192,274030,1,0,0:0:0:0:
192,192,274177,1,2,0:0:0:0:
320,192,274177,1,0,0:0:0:18:A#4S_Bb4S_s.wav
192,192,274324,1,2,0:0:0:0:
320,192,274324,1,0,0:0:0:0:
64,192,274471,1,10,0:0:0:0:
320,192,274471,1,0,0:0:0:31:ORC_D56G5_2.ogg
448,192,274471,128,0,275354:0:0:0:18:D5S_s.wav
192,192,274766,1,8,0:0:0:0:
320,192,274766,1,0,0:0:0:18:G#4H_Ab4H.wav
64,192,274913,1,2,0:0:0:0:
192,192,274913,1,0,0:0:0:18:D5S_s.wav
320,192,274913,1,0,0:0:0:31:ride.wav
64,192,275060,1,0,0:0:0:18:D#4H_Eb4H.wav
192,192,275207,1,8,0:0:0:0:
320,192,275207,1,0,0:0:0:0:
64,192,275354,1,2,0:0:0:0:
192,192,275354,1,0,0:0:0:18:D#5H_Eb5H_s.wav
64,192,275649,128,0,276385:0:0:0:31:ORC_A#56D#6_3.ogg
192,192,275796,1,0,0:0:0:0:
320,192,275943,1,2,0:0:0:0:
448,192,275943,1,0,0:0:0:18:A#4S_Bb4S_s.wav
192,192,276090,1,2,0:0:0:0:
320,192,276090,1,8,0:0:0:0:
448,192,276238,1,0,0:0:0:18:D#5H_Eb5H_s.wav
192,192,276385,1,2,0:0:0:0:
320,192,276385,1,0,0:0:0:0:
320,192,276532,1,10,0:0:0:0:
448,192,276532,1,0,0:0:0:18:A#4S_Bb4S_s.wav
64,192,276679,1,2,0:0:0:0:
192,192,276679,1,0,0:0:0:0:
192,192,276826,1,10,0:0:0:0:
320,192,276826,1,0,0:0:0:22:F6H_s.wav
448,192,276826,1,0,0:0:0:18:D5S_s.wav
320,192,277121,1,10,0:0:0:0:
448,192,277121,1,0,0:0:0:18:A#4H_Bb4H.wav
64,192,277268,1,0,0:0:0:18:D5S_s.wav
192,192,277268,1,0,0:0:0:0:
64,192,277415,1,6,0:0:0:0:
192,192,277415,1,0,0:0:0:22:C7H_s.wav
320,192,277415,1,0,0:0:0:31:ORC_C67D#6_1.ogg
448,192,277415,128,0,277710:0:0:0:18:F4H.wav
192,192,277562,1,2,0:0:0:0:
320,192,277562,1,8,0:0:0:0:
64,192,277710,1,0,0:0:0:18:D#5H_Eb5H_s.wav
192,192,277710,1,0,0:0:0:18:A#4H_Bb4H.wav
64,192,278004,1,6,0:0:0:0:
192,192,278004,128,0,279182:0:0:0:22:A#5H_Bb5H_s.wav
320,192,278004,1,0,0:0:0:31:ORC_A#56D#6_2.ogg
448,192,278004,1,0,0:0:0:18:A#4S_Bb4S_s.wav
64,192,278298,1,2,0:0:0:0:
320,192,278298,1,0,0:0:0:18:F5S_s.wav
320,192,278593,1,2,0:0:0:0:
448,192,278593,1,0,0:0:0:22:D#6H_Eb6H_s.wav
320,192,278740,1,2,0:0:0:0:
448,192,278740,1,0,0:0:0:0:
320,192,278887,1,2,0:0:0:0:
448,192,278887,1,0,0:0:0:18:A#4S_Bb4S_s.wav
64,192,279034,1,0,0:0:0:0:
64,192,279182,1,10,0:0:0:0:
320,192,279182,1,0,0:0:0:22:D6H_s.wav
448,192,279182,128,0,280359:0:0:0:31:ORC_A#5F56_2.ogg
64,192,279476,1,8,0:0:0:0:
192,192,279476,1,0,0:0:0:18:G4H.wav
64,192,279623,1,2,0:0:0:0:
192,192,279623,1,0,0:0:0:18:D5S_s.wav
320,192,279623,1,0,0:0:0:31:ride.wav
320,192,279770,1,0,0:0:0:22:A#5H_Bb5H_s.wav
64,192,279918,1,8,0:0:0:0:
192,192,279918,1,0,0:0:0:0:
64,192,280065,1,2,0:0:0:0:
192,192,280065,1,0,0:0:0:18:D#5H_Eb5H_s.wav
320,192,280065,1,0,0:0:0:18:G4H.wav
320,192,280212,1,0,0:0:0:0:
64,192,280359,128,0,281095:0:0:0:22:D6H_s.wav
192,192,280506,1,0,0:0:0:0:
320,192,280654,1,2,0:0:0:0:
448,192,280654,1,0,0:0:0:22:D#7H_Eb7H_s.wav
192,192,280801,1,8,0:0:0:0:
320,192,280801,1,2,0:0:0:0:
448,192,280948,1,0,0:0:0:22:D7H_s.wav
192,192,281095,1,2,0:0:0:0:
320,192,281095,1,0,0:0:0:0:
320,192,281242,1,10,0:0:0:0:
448,192,281242,1,0,0:0:0:22:A#6H_Bb6H_s.wav
64,192,281390,1,2,0:0:0:0:
192,192,281390,1,0,0:0:0:0:
192,192,281537,1,10,0:0:0:0:
320,192,281537,1,0,0:0:0:22:G6H_s.wav
448,192,281537,1,0,0:0:0:18:F5S_s.wav
320,192,281831,1,10,0:0:0:0:
448,192,281831,1,0,0:0:0:22:F6H_s.wav
64,192,281979,1,0,0:0:0:18:D#5H_Eb5H_s.wav
192,192,281979,1,0,0:0:0:31:ride.wav
320,192,281979,1,0,0:0:0:0:
192,192,282126,1,2,0:0:0:0:
320,192,282126,1,0,0:0:0:22:D#6H_Eb6H_s.wav
320,192,282273,1,2,0:0:0:0:
448,192,282273,1,8,0:0:0:0:
64,192,282420,1,0,0:0:0:22:A#5H_Bb5H_s.wav
64,192,282715,1,6,0:0:0:0:
192,192,282715,1,0,0:0:0:40:A#6S_Bb6S_s.wav
320,192,282715,1,0,0:0:0:22:D#4H_Eb4H.wav
448,192,282862,1,0,0:0:0:0:
320,192,283009,128,2,283156:0:0:0:0:
64,192,283156,1,0,0:0:0:0:
448,192,283303,128,2,283451:0:0:0:0:
192,192,283377,1,0,0:0:0:0:
64,192,283451,1,2,0:0:0:0:
192,192,283598,128,2,283745:0:0:0:0:
64,192,283745,1,0,0:0:0:0:
192,192,283892,1,2,0:0:0:0:
320,192,283892,128,0,284039:0:0:0:40:D7S_s.wav
448,192,283892,1,0,0:0:0:22:D#5H_Eb5H.wav
64,192,284187,1,0,0:0:0:0:
192,192,284334,1,2,0:0:0:0:
320,192,284334,128,0,284481:0:0:0:40:D7S_s.wav
448,192,284334,1,0,0:0:0:31:kick1.wav
64,192,284481,1,8,0:0:0:0:
192,192,284481,1,0,0:0:0:0:
320,192,284628,1,8,0:0:0:0:
448,192,284628,1,0,0:0:0:0:
64,192,284775,1,2,0:0:0:0:
448,192,284775,128,0,284923:0:0:0:40:D#7S_Eb7S_s.wav
64,192,284923,1,8,0:0:0:0:
192,192,284923,1,0,0:0:0:0:
320,192,285070,1,8,0:0:0:0:
448,192,285070,1,0,0:0:0:22:A#4H_Bb4H.wav
192,192,285217,1,0,0:0:0:0:
64,192,285364,128,2,285511:0:0:0:0:
192,192,285511,1,0,0:0:0:0:
320,192,285585,1,0,0:0:0:0:
448,192,285659,128,0,285806:0:0:0:40:D#7S_Eb7S_s.wav
64,192,285806,1,2,0:0:0:0:
192,192,285953,128,0,286100:0:0:0:40:A#6S_Bb6S_s.wav
64,192,286100,1,2,0:0:0:0:
192,192,286247,1,8,0:0:0:0:
320,192,286247,128,0,286395:0:0:0:40:D7S_s.wav
448,192,286247,1,0,0:0:0:22:G4H.wav
64,192,286395,1,8,0:0:0:0:
192,192,286395,1,0,0:0:0:0:
448,192,286542,1,2,0:0:0:0:
64,192,286689,1,8,0:0:0:0:
192,192,286689,1,0,0:0:0:40:D7S_s.wav
320,192,286689,128,0,286836:0:0:0:31:ride.wav
448,192,286836,1,0,0:0:0:22:G#4H_Ab4H.wav
64,192,286983,1,8,0:0:0:0:
192,192,286983,1,0,0:0:0:0:
448,192,287131,128,0,287278:0:0:0:40:D#7S_Eb7S_s.wav
64,192,287278,1,8,0:0:0:0:
192,192,287278,1,0,0:0:0:0:
320,192,287425,128,10,287572:0:0:0:0:
448,192,287425,1,0,0:0:0:40:A#6H_Bb6H_s.wav
64,192,287572,1,0,0:0:0:0:
192,192,287719,128,2,287867:0:0:0:0:
448,192,287867,1,0,0:0:0:0:
320,192,288014,128,2,288161:0:0:0:0:
64,192,288087,1,0,0:0:0:0:
192,192,288161,1,2,0:0:0:0:
64,192,288308,128,2,288455:0:0:0:0:
320,192,288455,1,0,0:0:0:0:
192,192,288603,1,2,0:0:0:0:
320,192,288603,128,0,288750:0:0:0:40:D7S_s.wav
448,192,288603,1,0,0:0:0:22:A#4H_Bb4H.wav
64,192,288897,1,0,0:0:0:0:
192,192,289044,1,2,0:0:0:0:
320,192,289044,128,0,289191:0:0:0:40:D7S_s.wav
448,192,289044,1,0,0:0:0:31:kick1.wav
64,192,289191,1,8,0:0:0:0:
192,192,289191,1,0,0:0:0:22:G#4H_Ab4H.wav
320,192,289339,1,8,0:0:0:0:
448,192,289339,1,0,0:0:0:0:
64,192,289486,1,2,0:0:0:0:
448,192,289486,128,0,289633:0:0:0:40:D#7S_Eb7S_s.wav
64,192,289633,1,8,0:0:0:0:
192,192,289633,1,0,0:0:0:0:
320,192,289780,1,8,0:0:0:0:
448,192,289780,1,0,0:0:0:22:G4H.wav
192,192,289927,1,0,0:0:0:0:
64,192,290075,128,2,290222:0:0:0:0:
448,192,290222,1,0,0:0:0:0:
320,192,290295,1,0,0:0:0:0:
192,192,290369,128,0,290516:0:0:0:40:D#7S_Eb7S_s.wav
448,192,290516,1,2,0:0:0:0:
64,192,290663,1,8,0:0:0:0:
320,192,290663,128,0,290811:0:0:0:40:G7S_s.wav
64,192,290811,1,8,0:0:0:0:
192,192,290811,1,0,0:0:0:0:
192,192,290958,1,10,0:0:0:0:
320,192,290958,1,0,0:0:0:40:F7S_s.wav
448,192,290958,128,0,291105:0:0:0:22:D#5H_Eb5H.wav
64,192,291105,1,8,0:0:0:0:
192,192,291105,1,0,0:0:0:0:
448,192,291252,1,2,0:0:0:0:
64,192,291400,1,10,0:0:0:0:
192,192,291400,128,0,291547:0:0:0:40:D#7S_Eb7S_s.wav
320,192,291400,1,0,0:0:0:31:ride.wav
448,192,291547,1,2,0:0:0:0:
64,192,291694,1,8,0:0:0:0:
320,192,291694,1,0,0:0:0:0:
192,192,291841,1,8,0:0:0:0:
448,192,291841,128,0,291988:0:0:0:40:F7S_s.wav
64,192,291988,1,8,0:0:0:0:
192,192,291988,1,0,0:0:0:0:
320,192,292136,128,10,292283:0:0:0:0:
448,192,292136,1,0,0:0:0:40:A#6S_Bb6S_s.wav
64,192,292283,1,0,0:0:0:0:
192,192,292430,128,2,292577:0:0:0:0:
320,192,292577,1,0,0:0:0:0:
448,192,292724,128,2,292872:0:0:0:0:
192,192,292798,1,0,0:0:0:0:
64,192,292872,1,2,0:0:0:0:
192,192,293019,128,2,293166:0:0:0:0:
64,192,293166,1,0,0:0:0:0:
192,192,293313,1,2,0:0:0:0:
320,192,293313,128,0,293460:0:0:0:40:D7S_s.wav
448,192,293313,1,0,0:0:0:22:D#5H_Eb5H.wav
64,192,293608,1,0,0:0:0:0:
192,192,293755,1,2,0:0:0:0:
320,192,293755,128,0,293902:0:0:0:40:D7S_s.wav
448,192,293755,1,0,0:0:0:31:kick1.wav
64,192,293902,1,8,0:0:0:0:
192,192,293902,1,0,0:0:0:22:G5H.wav
320,192,294049,1,8,0:0:0:0:
448,192,294049,1,0,0:0:0:0:
64,192,294196,1,2,0:0:0:0:
448,192,294196,128,0,294344:0:0:0:40:D#7S_Eb7S_s.wav
64,192,294344,1,8,0:0:0:0:
192,192,294344,1,0,0:0:0:0:
320,192,294491,1,8,0:0:0:0:
448,192,294491,1,0,0:0:0:22:F5H.wav
192,192,294638,1,0,0:0:0:0:
64,192,294785,128,2,294932:0:0:0:0:
448,192,294932,1,0,0:0:0:0:
320,192,295006,1,0,0:0:0:0:
448,192,295080,128,0,295227:0:0:0:40:D#7S_Eb7S_s.wav
64,192,295227,1,2,0:0:0:0:
192,192,295374,128,8,295521:0:0:0:0:
320,192,295374,1,0,0:0:0:40:A#6S_Bb6S_s.wav
320,192,295521,1,8,0:0:0:0:
448,192,295521,1,0,0:0:0:0:
64,192,295668,1,10,0:0:0:0:
192,192,295668,1,0,0:0:0:40:D7S_s.wav
320,192,295668,128,0,295816:0:0:0:22:D#5H_Eb5H.wav
64,192,295816,1,8,0:0:0:0:
192,192,295816,1,0,0:0:0:0:
448,192,295963,1,2,0:0:0:0:
64,192,296110,1,10,0:0:0:0:
192,192,296110,1,0,0:0:0:40:D7S_s.wav
320,192,296110,128,0,296257:0:0:0:31:ride.wav
448,192,296257,1,2,0:0:0:0:
64,192,296404,1,8,0:0:0:0:
320,192,296404,1,0,0:0:0:0:
192,192,296552,1,8,0:0:0:0:
448,192,296552,128,0,296699:0:0:0:40:D#7S_Eb7S_s.wav
64,192,296699,1,8,0:0:0:0:
192,192,296699,1,0,0:0:0:0:
320,192,296846,128,10,296993:0:0:0:0:
448,192,296846,1,0,0:0:0:40:A#6H_Bb6H_s.wav
64,192,296993,1,0,0:0:0:0:
192,192,297140,128,2,297288:0:0:0:0:
320,192,297288,1,0,0:0:0:0:
448,192,297435,128,2,297582:0:0:0:0:
192,192,297508,1,0,0:0:0:0:
64,192,297582,1,2,0:0:0:0:
192,192,297729,128,2,297876:0:0:0:0:
448,192,297876,1,0,0:0:0:0:
64,192,298024,1,2,0:0:0:0:
192,192,298024,1,0,0:0:0:40:D7S_s.wav
320,192,298024,128,0,298171:0:0:0:22:F5H.wav
64,192,298318,1,0,0:0:0:0:
192,192,298465,1,2,0:0:0:0:
320,192,298465,128,0,298612:0:0:0:40:D7S_s.wav
448,192,298465,1,0,0:0:0:31:kick1.wav
64,192,298612,1,8,0:0:0:0:
192,192,298612,1,0,0:0:0:22:D#5H_Eb5H.wav
320,192,298760,1,8,0:0:0:0:
448,192,298760,1,0,0:0:0:0:
64,192,298907,1,2,0:0:0:0:
448,192,298907,128,0,299054:0:0:0:40:D#7S_Eb7S_s.wav
64,192,299054,1,8,0:0:0:0:
192,192,299054,1,0,0:0:0:0:
320,192,299201,1,8,0:0:0:0:
448,192,299201,1,0,0:0:0:22:D#5H_Eb5H.wav
192,192,299348,1,0,0:0:0:0:
64,192,299496,128,2,299643:0:0:0:0:
448,192,299643,1,0,0:0:0:0:
320,192,299716,1,0,0:0:0:0:
192,192,299790,128,0,299937:0:0:0:40:D#7S_Eb7S_s.wav
448,192,299937,1,2,0:0:0:0:
320,192,300085,128,8,300232:0:0:0:0:
448,192,300085,1,0,0:0:0:40:G7S_s.wav
64,192,300232,1,8,0:0:0:0:
192,192,300232,1,0,0:0:0:0:
64,192,300379,1,10,0:0:0:0:
320,192,300379,1,0,0:0:0:40:F7S_s.wav
448,192,300379,128,0,300526:0:0:0:31:reverse med.wav
64,192,300526,1,8,0:0:0:0:
192,192,300526,1,0,0:0:0:0:
320,192,300673,1,2,0:0:0:0:
64,192,300821,1,10,0:0:0:0:
192,192,300821,128,0,300968:0:0:0:40:D#7S_Eb7S_s.wav
448,192,300821,1,0,0:0:0:31:ride.wav
320,192,300968,1,2,0:0:0:0:
192,192,301115,1,8,0:0:0:0:
448,192,301115,1,0,0:0:0:0:
64,192,301262,1,8,0:0:0:0:
320,192,301262,128,0,301409:0:0:0:40:F7S_s.wav
64,192,301409,1,8,0:0:0:0:
192,192,301409,1,0,0:0:0:0:
192,192,301557,1,10,0:0:0:0:
320,192,301557,1,0,0:0:0:40:A#6S_Bb6S_s.wav
448,192,301557,128,0,301704:0:0:0:22:D#4H_Eb4H.wav
64,192,301704,1,0,0:0:0:0:
192,192,301851,128,2,301998:0:0:0:0:
448,192,301998,1,0,0:0:0:0:
320,192,302145,128,2,302293:0:0:0:0:
64,192,302219,1,0,0:0:0:0:
192,192,302293,1,2,0:0:0:0:
64,192,302440,128,2,302587:0:0:0:0:
448,192,302587,1,0,0:0:0:0:
64,192,302734,1,2,0:0:0:0:
192,192,302734,128,0,302881:0:0:0:40:D7S_s.wav
320,192,302734,1,0,0:0:0:22:D#5H_Eb5H.wav
448,192,303029,1,0,0:0:0:0:
64,192,303176,1,2,0:0:0:0:
192,192,303176,128,0,303323:0:0:0:40:D7S_s.wav
320,192,303176,1,0,0:0:0:31:kick1.wav
320,192,303323,1,8,0:0:0:0:
448,192,303323,1,0,0:0:0:0:
64,192,303470,1,8,0:0:0:0:
192,192,303470,1,0,0:0:0:0:
64,192,303617,1,2,0:0:0:0:
320,192,303617,128,0,303765:0:0:0:40:D#7S_Eb7S_s.wav
192,192,303765,1,8,0:0:0:0:
448,192,303765,1,0,0:0:0:0:
64,192,303912,1,8,0:0:0:0:
192,192,303912,1,0,0:0:0:22:A#4H_Bb4H.wav
320,192,304059,1,0,0:0:0:0:
64,192,304206,128,2,304353:0:0:0:0:
192,192,304353,1,0,0:0:0:0:
320,192,304427,1,0,0:0:0:0:
448,192,304501,128,0,304648:0:0:0:40:D#7S_Eb7S_s.wav
192,192,304648,1,2,0:0:0:0:
64,192,304795,128,8,304942:0:0:0:0:
448,192,304795,1,0,0:0:0:40:A#6S_Bb6S_s.wav
320,192,304942,1,8,0:0:0:0:
448,192,304942,1,0,0:0:0:0:
64,192,305089,1,10,0:0:0:0:
192,192,305089,128,0,305237:0:0:0:40:D7S_s.wav
320,192,305089,1,0,0:0:0:22:G4H.wav
320,192,305237,1,8,0:0:0:0:
448,192,305237,1,0,0:0:0:0:
64,192,305384,1,2,0:0:0:0:
64,192,305531,1,10,0:0:0:0:
192,192,305531,128,0,305678:0:0:0:40:D7S_s.wav
320,192,305531,1,0,0:0:0:31:ride.wav
448,192,305678,1,2,0:0:0:0:
64,192,305825,1,8,0:0:0:0:
192,192,305825,1,0,0:0:0:0:
320,192,305973,128,8,306120:0:0:0:0:
448,192,305973,1,0,0:0:0:40:D#7S_Eb7S_s.wav
64,192,306120,1,8,0:0:0:0:
192,192,306120,1,0,0:0:0:0:
320,192,306267,1,10,0:0:0:0:
448,192,306267,128,0,306414:0:0:0:40:A#6H_Bb6H_s.wav
64,192,306414,1,2,0:0:0:0:
192,192,306561,128,2,306709:0:0:0:0:
448,192,306709,1,0,0:0:0:0:
320,192,306856,128,2,307003:0:0:0:0:
64,192,306929,1,0,0:0:0:0:
192,192,307003,1,2,0:0:0:0:
64,192,307150,128,2,307297:0:0:0:0:
448,192,307297,1,0,0:0:0:0:
64,192,307445,1,2,0:0:0:0:
192,192,307445,128,0,307592:0:0:0:40:D7S_s.wav
320,192,307445,1,0,0:0:0:22:A#4H_Bb4H.wav
448,192,307739,1,0,0:0:0:0:
64,192,307886,1,2,0:0:0:0:
192,192,307886,128,0,308033:0:0:0:40:D7S_s.wav
320,192,307886,1,0,0:0:0:31:kick1.wav
320,192,308033,1,8,0:0:0:0:
448,192,308033,1,0,0:0:0:22:G#4H_Ab4H.wav
64,192,308181,1,8,0:0:0:0:
192,192,308181,1,0,0:0:0:0:
64,192,308328,1,2,0:0:0:0:
320,192,308328,128,0,308475:0:0:0:40:D#7S_Eb7S_s.wav
192,192,308475,1,8,0:0:0:0:
448,192,308475,1,0,0:0:0:0:
64,192,308622,1,8,0:0:0:0:
192,192,308622,1,0,0:0:0:22:G4H.wav
320,192,308769,1,2,0:0:0:0:
192,192,308917,128,2,309064:0:0:0:0:
320,192,309064,1,0,0:0:0:0:
448,192,309137,1,0,0:0:0:0:
64,192,309211,128,0,309358:0:0:0:40:D#7S_Eb7S_s.wav
192,192,309358,1,2,0:0:0:0:
64,192,309506,1,8,0:0:0:0:
320,192,309506,128,0,309653:0:0:0:40:G7S_s.wav
64,192,309653,1,8,0:0:0:0:
192,192,309653,1,0,0:0:0:0:
192,192,309800,1,10,0:0:0:0:
320,192,309800,1,0,0:0:0:40:F7S_s.wav
448,192,309800,128,0,309947:0:0:0:22:D#5H_Eb5H.wav
64,192,309947,1,8,0:0:0:0:
192,192,309947,1,0,0:0:0:0:
448,192,310094,1,2,0:0:0:0:
64,192,310242,1,10,0:0:0:0:
192,192,310242,128,0,310389:0:0:0:40:D#7S_Eb7S_s.wav
320,192,310242,1,0,0:0:0:31:ride.wav
448,192,310389,1,2,0:0:0:0:
64,192,310536,1,8,0:0:0:0:
192,192,310536,1,0,0:0:0:0:
320,192,310683,128,8,310830:0:0:0:0:
448,192,310683,1,0,0:0:0:40:F7S_s.wav
64,192,310830,1,8,0:0:0:0:
192,192,310830,1,0,0:0:0:0:
320,192,310978,1,10,0:0:0:0:
448,192,310978,128,0,311125:0:0:0:40:A#6S_Bb6S_s.wav
64,192,311125,1,0,0:0:0:0:
320,192,311272,128,2,311419:0:0:0:0:
192,192,311419,1,0,0:0:0:0:
448,192,311566,128,2,311714:0:0:0:0:
64,192,311640,1,0,0:0:0:0:
192,192,311714,1,2,0:0:0:0:
64,192,311861,128,2,312008:0:0:0:0:
448,192,312008,1,0,0:0:0:0:
64,192,312155,1,2,0:0:0:0:
192,192,312155,128,0,312302:0:0:0:40:D7S_s.wav
320,192,312155,1,0,0:0:0:22:D#5H_Eb5H.wav
448,192,312450,1,0,0:0:0:0:
64,192,312597,1,2,0:0:0:0:
192,192,312597,128,0,312744:0:0:0:40:D7S_s.wav
320,192,312744,1,8,0:0:0:0:
448,192,312744,1,0,0:0:0:22:G5H.wav
64,192,312891,1,8,0:0:0:0:
192,192,312891,1,0,0:0:0:0:
320,192,313038,128,2,313186:0:0:0:0:
192,192,313186,1,8,0:0:0:0:
448,192,313186,1,0,0:0:0:0:
64,192,313333,1,8,0:0:0:0:
192,192,313333,1,0,0:0:0:22:F5H.wav
320,192,313480,1,0,0:0:0:0:
64,192,313627,128,2,313774:0:0:0:0:
448,192,313774,1,0,0:0:0:0:
320,192,313848,1,0,0:0:0:0:
192,192,313922,128,0,314069:0:0:0:40:D#7S_Eb7S_s.wav
448,192,314069,1,2,0:0:0:0:
64,192,314216,128,8,314363:0:0:0:0:
192,192,314216,1,0,0:0:0:40:A#6S_Bb6S_s.wav
320,192,314363,1,8,0:0:0:0:
448,192,314363,1,0,0:0:0:0:
64,192,314510,1,10,0:0:0:0:
192,192,314510,128,0,314658:0:0:0:40:D7S_s.wav
320,192,314510,1,0,0:0:0:22:D#5H_Eb5H.wav
320,192,314658,1,8,0:0:0:0:
448,192,314658,1,0,0:0:0:0:
64,192,314805,1,2,0:0:0:0:
192,192,314952,128,10,315099:0:0:0:0:
320,192,314952,1,0,0:0:0:40:D7S_s.wav
448,192,314952,1,0,0:0:0:31:ride.wav
64,192,315099,1,2,0:0:0:0:
320,192,315246,1,8,0:0:0:0:
448,192,315246,1,0,0:0:0:0:
64,192,315394,1,8,0:0:0:0:
320,192,315394,1,0,0:0:0:40:D#7S_Eb7S_s.wav
448,192,315394,128,0,315541:0:0:0:31:ride.wav
64,192,315541,1,8,0:0:0:0:
192,192,315541,1,0,0:0:0:0:
320,192,315688,128,10,315835:0:0:0:0:
448,192,315688,1,0,0:0:0:40:A#6H_Bb6H_s.wav
64,192,315835,1,0,0:0:0:0:
192,192,315982,128,2,316130:0:0:0:0:
320,192,316130,1,0,0:0:0:0:
448,192,316277,128,2,316424:0:0:0:0:
64,192,316350,1,0,0:0:0:0:
192,192,316424,1,2,0:0:0:0:
64,192,316571,128,2,316718:0:0:0:0:
448,192,316718,1,0,0:0:0:0:
64,192,316866,1,2,0:0:0:0:
192,192,316866,128,0,317013:0:0:0:40:D7S_s.wav
320,192,316866,1,0,0:0:0:22:F5H.wav
448,192,317160,1,0,0:0:0:0:
64,192,317307,1,2,0:0:0:0:
192,192,317307,128,0,317454:0:0:0:40:D7S_s.wav
320,192,317307,1,0,0:0:0:31:kick1.wav
320,192,317454,1,8,0:0:0:0:
448,192,317454,1,0,0:0:0:22:D#5H_Eb5H.wav
64,192,317602,1,8,0:0:0:0:
192,192,317602,1,0,0:0:0:0:
320,192,317749,128,2,317896:0:0:0:0:
192,192,317896,1,8,0:0:0:0:
448,192,317896,1,0,0:0:0:0:
64,192,318043,1,8,0:0:0:0:
192,192,318043,1,0,0:0:0:22:D#5H_Eb5H.wav
320,192,318190,1,0,0:0:0:0:
192,192,318338,128,2,318485:0:0:0:0:
448,192,318485,1,0,0:0:0:0:
64,192,318558,1,0,0:0:0:0:
320,192,318632,128,0,318779:0:0:0:40:D#7S_Eb7S_s.wav
192,192,318779,1,2,0:0:0:0:
64,192,318927,128,0,319074:0:0:0:40:G7S_s.wav
320,192,319074,1,0,0:0:0:0:
448,192,319074,1,0,0:0:0:0:
64,192,319221,1,10,0:0:0:0:
320,192,319221,1,0,0:0:0:40:F7S_s.wav
448,192,319221,128,0,319368:0:0:0:31:reverse med.wav
64,192,319368,1,8,0:0:0:0:
192,192,319368,1,0,0:0:0:0:
320,192,319515,1,2,0:0:0:0:
448,192,319515,1,8,0:0:0:0:
64,192,319663,128,10,319810:0:0:0:0:
448,192,319663,1,0,0:0:0:40:D#7S_Eb7S_s.wav
192,192,319810,1,2,0:0:0:0:
320,192,319810,1,8,0:0:0:0:
192,192,319957,1,8,0:0:0:0:
320,192,319957,1,0,0:0:0:0:
64,192,320104,1,8,0:0:0:0:
448,192,320104,128,0,320251:0:0:0:40:F7S_s.wav
64,192,320251,1,8,0:0:0:0:
192,192,320251,1,0,0:0:0:0:
64,192,320399,128,6,320693:0:0:0:0:
192,192,320399,1,0,0:0:0:31:ORC_B45E5_2.ogg
320,192,320399,1,0,0:0:0:31:ORC_B5_12.ogg
448,192,320399,1,0,0:0:0:18:A3H.wav
192,192,320693,1,2,0:0:0:0:
320,192,320693,128,0,320987:0:0:0:31:ORC_F#6_12.ogg
192,192,320840,1,0,0:0:0:0:
64,192,320987,1,2,0:0:0:0:
448,192,320987,128,0,321282:0:0:0:31:ORC_E6_12.ogg
64,192,321135,1,2,0:0:0:0:
192,192,321135,1,0,0:0:0:0:
64,192,321282,1,2,0:0:0:0:
192,192,321282,128,0,321576:0:0:0:31:ORC_B5_12.ogg
320,192,321429,1,2,0:0:0:0:
448,192,321429,1,0,0:0:0:0:
64,192,321576,128,10,322018:0:0:0:0:
320,192,321576,1,0,0:0:0:31:ORC_B56E6_2.ogg
448,192,321576,1,0,0:0:0:31:ORC_D#6_12.ogg
320,192,321871,1,8,0:0:0:0:
448,192,321871,1,0,0:0:0:18:A4H.wav
192,192,322018,1,2,0:0:0:0:
320,192,322018,1,0,0:0:0:31:ORC_D#6_12.ogg
448,192,322018,1,0,0:0:0:31:ride.wav
64,192,322165,1,0,0:0:0:18:E4H.wav
320,192,322312,1,8,0:0:0:0:
448,192,322312,1,0,0:0:0:0:
192,192,322459,1,2,0:0:0:0:
320,192,322459,1,0,0:0:0:31:ORC_E6_12.ogg
64,192,322607,1,0,0:0:0:0:
448,192,322754,128,0,323195:0:0:0:31:ORC_F#56B5_4.ogg
64,192,322901,1,0,0:0:0:0:
192,192,323048,1,2,0:0:0:0:
320,192,323048,1,0,0:0:0:31:ORC_B5_12.ogg
64,192,323195,1,8,0:0:0:0:
192,192,323195,1,2,0:0:0:0:
320,192,323343,128,0,323490:0:0:0:31:ORC_E6_12.ogg
64,192,323490,1,2,0:0:0:0:
192,192,323490,1,0,0:0:0:0:
192,192,323637,1,10,0:0:0:0:
320,192,323637,1,0,0:0:0:31:ORC_B5_12.ogg
320,192,323784,1,2,0:0:0:0:
448,192,323784,1,0,0:0:0:0:
64,192,323931,128,10,324079:0:0:0:0:
192,192,323931,1,0,0:0:0:31:ORC_D#6_12.ogg
320,192,323931,1,0,0:0:0:18:F#4H_Gb4H.wav
320,192,324226,1,10,0:0:0:0:
448,192,324226,1,0,0:0:0:18:B4H.wav
64,192,324373,128,0,324520:0:0:0:31:ORC_D#6_12.ogg
192,192,324373,1,0,0:0:0:31:ride.wav
448,192,324373,1,0,0:0:0:0:
320,192,324520,1,0,0:0:0:18:F#4H_Gb4H.wav
448,192,324520,1,0,0:0:0:0:
64,192,324667,1,2,0:0:0:0:
192,192,324667,1,0,0:0:0:0:
64,192,324815,1,10,0:0:0:0:
320,192,324815,1,0,0:0:0:31:ORC_E6_12.ogg
448,192,324815,128,0,324962:0:0:0:18:B4H.wav
64,192,325109,128,6,325403:0:0:0:0:
192,192,325109,1,0,0:0:0:31:ORC_B5E56_2.ogg
320,192,325109,1,0,0:0:0:31:ORC_B5_12.ogg
448,192,325109,1,0,0:0:0:18:G#3H_Ab3H.wav
192,192,325403,1,2,0:0:0:0:
320,192,325403,128,0,325698:0:0:0:31:ORC_F#6_12.ogg
192,192,325551,1,0,0:0:0:0:
64,192,325698,1,2,0:0:0:0:
448,192,325698,128,0,325992:0:0:0:31:ORC_E6_12.ogg
64,192,325845,1,2,0:0:0:0:
192,192,325845,1,0,0:0:0:0:
64,192,325992,1,2,0:0:0:0:
192,192,325992,128,0,326287:0:0:0:31:ORC_B5_12.ogg
320,192,326139,1,2,0:0:0:0:
448,192,326139,1,0,0:0:0:0:
64,192,326287,1,10,0:0:0:0:
320,192,326287,1,0,0:0:0:31:ORC_B56E6_2.ogg
448,192,326287,128,0,326728:0:0:0:31:ORC_D#6_12.ogg
64,192,326581,1,8,0:0:0:0:
192,192,326581,1,0,0:0:0:18:G#4H_Ab4H.wav
64,192,326728,1,2,0:0:0:0:
192,192,326728,1,0,0:0:0:31:ORC_D#6_12.ogg
320,192,326728,1,0,0:0:0:31:ride.wav
448,192,326875,1,0,0:0:0:18:E4H.wav
64,192,327023,1,8,0:0:0:0:
192,192,327023,1,0,0:0:0:0:
192,192,327170,1,2,0:0:0:0:
320,192,327170,1,0,0:0:0:31:ORC_E6_12.ogg
448,192,327317,1,0,0:0:0:0:
64,192,327464,1,0,0:0:0:31:ORC_B45E5_4.ogg
320,192,327611,1,0,0:0:0:0:
64,192,327759,1,2,0:0:0:0:
192,192,327759,128,0,327906:0:0:0:31:ORC_B5_12.ogg
320,192,327906,1,8,0:0:0:0:
448,192,327906,1,2,0:0:0:0:
64,192,328053,128,0,328200:0:0:0:31:ORC_E6_12.ogg
320,192,328200,1,2,0:0:0:0:
448,192,328200,1,0,0:0:0:0:
320,192,328348,128,10,328495:0:0:0:0:
448,192,328348,1,0,0:0:0:31:ORC_G#6_12.ogg
64,192,328495,1,2,0:0:0:0:
64,192,328642,1,10,0:0:0:0:
192,192,328642,1,0,0:0:0:31:ORC_F#6_12.ogg
320,192,328642,1,0,0:0:0:18:G#4H_Ab4H.wav
448,192,328642,128,0,328789:0:0:0:31:ride.wav
64,192,328936,1,10,0:0:0:0:
448,192,328936,1,0,0:0:0:18:C#5H_Db5H.wav
64,192,329084,1,0,0:0:0:31:ORC_E6_12.ogg
192,192,329084,128,0,329231:0:0:0:31:ride.wav
320,192,329084,1,0,0:0:0:0:
320,192,329231,1,0,0:0:0:18:G#4H_Ab4H.wav
448,192,329231,1,0,0:0:0:0:
320,192,329378,1,2,0:0:0:0:
448,192,329378,1,0,0:0:0:0:
64,192,329525,1,10,0:0:0:0:
192,192,329525,1,0,0:0:0:31:ORC_F#6_12.ogg
448,192,329525,128,0,329672:0:0:0:18:C#5H_Db5H.wav
320,192,329672,1,0,0:0:0:0:
64,192,329820,128,6,330114:0:0:0:0:
192,192,329820,1,0,0:0:0:31:ORC_B45E5_2.ogg
320,192,329820,1,0,0:0:0:31:ORC_B5_12.ogg
448,192,329820,1,0,0:0:0:18:A3H.wav
192,192,330114,1,2,0:0:0:0:
320,192,330114,128,0,330408:0:0:0:31:ORC_F#6_12.ogg
192,192,330261,1,0,0:0:0:0:
64,192,330408,1,2,0:0:0:0:
448,192,330408,128,0,330703:0:0:0:31:ORC_E6_12.ogg
64,192,330556,1,2,0:0:0:0:
192,192,330556,1,0,0:0:0:0:
64,192,330703,1,2,0:0:0:0:
192,192,330703,128,0,330997:0:0:0:31:ORC_B5_12.ogg
320,192,330850,1,2,0:0:0:0:
448,192,330850,1,0,0:0:0:0:
64,192,330997,128,10,331439:0:0:0:0:
320,192,330997,1,0,0:0:0:31:ORC_D#56G#5_2.ogg
448,192,330997,1,0,0:0:0:31:ORC_D#6_12.ogg
320,192,331292,1,8,0:0:0:0:
448,192,331292,1,0,0:0:0:18:A4H.wav
192,192,331439,1,2,0:0:0:0:
320,192,331439,1,0,0:0:0:31:ORC_D#6_12.ogg
448,192,331439,1,0,0:0:0:31:ride.wav
64,192,331586,1,0,0:0:0:18:E4H.wav
320,192,331733,1,8,0:0:0:0:
448,192,331733,1,0,0:0:0:0:
192,192,331880,1,2,0:0:0:0:
320,192,331880,1,0,0:0:0:31:ORC_E6_12.ogg
64,192,332028,1,0,0:0:0:0:
448,192,332175,128,0,332616:0:0:0:31:ORC_B56E6_3.ogg
320,192,332322,1,0,0:0:0:0:
64,192,332469,1,2,0:0:0:0:
192,192,332469,1,0,0:0:0:31:ORC_B5_12.ogg
192,192,332616,1,8,0:0:0:0:
320,192,332616,1,2,0:0:0:0:
64,192,332764,128,0,332911:0:0:0:31:ORC_E6_12.ogg
192,192,332911,1,2,0:0:0:0:
320,192,332911,1,0,0:0:0:0:
320,192,333058,1,10,0:0:0:0:
448,192,333058,1,0,0:0:0:31:ORC_B5_12.ogg
64,192,333205,1,2,0:0:0:0:
192,192,333205,1,0,0:0:0:0:
64,192,333352,1,10,0:0:0:0:
320,192,333352,128,0,333500:0:0:0:31:ORC_D#6_12.ogg
448,192,333352,1,0,0:0:0:18:F#4H_Gb4H.wav
64,192,333647,1,10,0:0:0:0:
192,192,333647,1,0,0:0:0:18:B4H.wav
64,192,333794,1,0,0:0:0:31:ORC_D#6_12.ogg
320,192,333794,1,0,0:0:0:31:ride.wav
448,192,333794,1,0,0:0:0:0:
192,192,333941,128,0,334236:0:0:0:31:ORC_C#67E6_1.ogg
64,192,334088,1,2,0:0:0:0:
320,192,334088,1,0,0:0:0:0:
320,192,334236,1,10,0:0:0:0:
448,192,334236,1,0,0:0:0:31:ORC_E6_12.ogg
192,192,334383,1,0,0:0:0:0:
64,192,334530,128,6,334824:0:0:0:0:
192,192,334530,1,0,0:0:0:31:ORC_B56E6_2.ogg
320,192,334530,1,0,0:0:0:31:ORC_B5_12.ogg
448,192,334530,128,0,335119:0:0:0:18:G#3H_Ab3H.wav
192,192,334824,1,2,0:0:0:0:
320,192,334824,128,0,335119:0:0:0:31:ORC_F#6_12.ogg
192,192,334972,1,0,0:0:0:0:
64,192,335119,1,2,0:0:0:0:
192,192,335119,128,0,335413:0:0:0:31:ORC_E6_12.ogg
320,192,335266,1,2,0:0:0:0:
448,192,335266,1,0,0:0:0:0:
320,192,335413,128,2,335708:0:0:0:0:
448,192,335413,1,0,0:0:0:31:ORC_B5_12.ogg
64,192,335560,1,2,0:0:0:0:
192,192,335560,1,0,0:0:0:0:
64,192,335708,128,10,336149:0:0:0:0:
192,192,335708,128,0,335855:0:0:0:31:ORC_F#56B5_2.ogg
448,192,335708,1,0,0:0:0:31:ORC_D#6_12.ogg
320,192,336002,1,8,0:0:0:0:
448,192,336002,1,0,0:0:0:18:G#4H_Ab4H.wav
192,192,336149,1,2,0:0:0:0:
320,192,336149,1,0,0:0:0:31:ORC_D#6_12.ogg
448,192,336149,1,0,0:0:0:31:ride.wav
64,192,336296,1,0,0:0:0:18:E4H.wav
320,192,336444,1,8,0:0:0:0:
448,192,336444,1,0,0:0:0:0:
192,192,336591,1,2,0:0:0:0:
320,192,336591,1,0,0:0:0:31:ORC_E6_12.ogg
448,192,336738,1,0,0:0:0:0:
64,192,336885,1,0,0:0:0:31:ORC_B5E56_4.ogg
192,192,336885,1,0,0:0:0:18:C#4H_Db4H.wav
320,192,337032,1,0,0:0:0:0:
64,192,337180,1,2,0:0:0:0:
192,192,337180,128,0,337327:0:0:0:31:ORC_B5_12.ogg
320,192,337327,1,2,0:0:0:0:
448,192,337327,1,8,0:0:0:0:
64,192,337474,128,0,337621:0:0:0:31:ORC_E6_12.ogg
320,192,337621,1,2,0:0:0:0:
448,192,337621,1,0,0:0:0:0:
320,192,337769,128,10,337916:0:0:0:0:
448,192,337769,1,0,0:0:0:31:ORC_G#6_12.ogg
64,192,338063,1,10,0:0:0:0:
192,192,338063,1,0,0:0:0:31:ORC_F#6_12.ogg
448,192,338063,128,0,338210:0:0:0:18:G#4H_Ab4H.wav
64,192,338357,1,10,0:0:0:0:
448,192,338357,1,0,0:0:0:18:C#5H_Db5H.wav
64,192,338505,1,0,0:0:0:31:ORC_E6_12.ogg
192,192,338505,128,0,338652:0:0:0:31:ride.wav
320,192,338505,1,0,0:0:0:0:
320,192,338652,1,0,0:0:0:18:G#4H_Ab4H.wav
448,192,338652,1,0,0:0:0:0:
320,192,338799,1,2,0:0:0:0:
448,192,338799,1,0,0:0:0:0:
64,192,338946,1,10,0:0:0:0:
192,192,338946,1,0,0:0:0:31:ORC_F#6_12.ogg
448,192,338946,128,0,339093:0:0:0:18:C#5H_Db5H.wav
64,192,339093,1,0,0:0:0:0:
192,192,339093,1,0,0:0:0:0:
64,192,339241,1,6,0:0:0:0:
192,192,339241,1,0,0:0:0:31:ORC_B45E5_2.ogg
320,192,339241,128,0,339535:0:0:0:31:ORC_B5_12.ogg
448,192,339241,1,0,0:0:0:18:A3H.wav
192,192,339535,128,2,339829:0:0:0:0:
448,192,339535,1,0,0:0:0:31:ORC_F#6_12.ogg
320,192,339682,1,0,0:0:0:0:
64,192,339829,128,2,340124:0:0:0:0:
448,192,339829,1,0,0:0:0:31:ORC_E6_12.ogg
320,192,339977,1,2,0:0:0:0:
192,192,339977,1,0,0:0:0:0:
320,192,340124,128,2,340418:0:0:0:0:
448,192,340124,1,0,0:0:0:31:ORC_B5_12.ogg
64,192,340271,1,2,0:0:0:0:
192,192,340271,1,0,0:0:0:0:
64,192,340418,1,10,0:0:0:0:
192,192,340418,1,0,0:0:0:31:ORC_B56E6_2.ogg
448,192,340418,128,0,340860:0:0:0:31:ORC_D#6_12.ogg
64,192,340713,1,8,0:0:0:0:
192,192,340713,1,0,0:0:0:18:A4H.wav
64,192,340860,1,2,0:0:0:0:
192,192,340860,1,0,0:0:0:31:ORC_D#6_12.ogg
320,192,340860,1,0,0:0:0:31:ride.wav
448,192,341007,1,0,0:0:0:18:E4H.wav
64,192,341154,1,8,0:0:0:0:
192,192,341154,1,0,0:0:0:0:
192,192,341301,1,2,0:0:0:0:
320,192,341301,1,0,0:0:0:31:ORC_E6_12.ogg
448,192,341449,1,0,0:0:0:0:
64,192,341596,128,0,342037:0:0:0:31:ORC_F#56B5_4.ogg
448,192,341743,1,0,0:0:0:0:
192,192,341890,1,2,0:0:0:0:
320,192,341890,1,0,0:0:0:31:ORC_B5_12.ogg
320,192,342037,1,8,0:0:0:0:
448,192,342037,1,2,0:0:0:0:
192,192,342185,128,0,342332:0:0:0:31:ORC_E6_12.ogg
320,192,342332,1,2,0:0:0:0:
448,192,342332,1,0,0:0:0:0:
192,192,342479,1,10,0:0:0:0:
320,192,342479,1,0,0:0:0:31:ORC_B5_12.ogg
64,192,342626,1,2,0:0:0:0:
192,192,342626,1,0,0:0:0:0:
192,192,342773,1,10,0:0:0:0:
320,192,342773,1,0,0:0:0:31:ORC_D#6_12.ogg
448,192,342773,128,0,342921:0:0:0:18:F#4H_Gb4H.wav
64,192,343068,1,10,0:0:0:0:
192,192,343068,1,0,0:0:0:18:B4H.wav
192,192,343215,1,0,0:0:0:31:ORC_D#6_12.ogg
320,192,343215,1,0,0:0:0:31:ride.wav
448,192,343215,128,0,343362:0:0:0:0:
64,192,343362,1,0,0:0:0:18:F#4H_Gb4H.wav
192,192,343362,1,0,0:0:0:0:
64,192,343509,1,2,0:0:0:0:
192,192,343509,1,0,0:0:0:0:
64,192,343657,128,10,343804:0:0:0:0:
320,192,343657,1,0,0:0:0:31:ORC_E6_12.ogg
448,192,343657,1,0,0:0:0:18:B4H.wav
448,192,343804,1,0,0:0:0:0:
64,192,343951,1,6,0:0:0:0:
192,192,343951,1,0,0:0:0:31:ORC_B5E56_2.ogg
320,192,343951,128,0,344245:0:0:0:31:ORC_B5_12.ogg
448,192,343951,1,0,0:0:0:18:G#3H_Ab3H.wav
192,192,344245,128,2,344540:0:0:0:0:
448,192,344245,1,0,0:0:0:31:ORC_F#6_12.ogg
320,192,344393,1,0,0:0:0:0:
64,192,344540,128,2,344834:0:0:0:0:
448,192,344540,1,0,0:0:0:31:ORC_E6_12.ogg
320,192,344687,1,2,0:0:0:0:
192,192,344687,1,0,0:0:0:0:
320,192,344834,128,2,345129:0:0:0:0:
448,192,344834,1,0,0:0:0:31:ORC_B5_12.ogg
64,192,344981,1,2,0:0:0:0:
192,192,344981,1,0,0:0:0:0:
64,192,345129,1,10,0:0:0:0:
192,192,345129,1,0,0:0:0:31:ORC_B56E6_2.ogg
448,192,345129,128,0,345570:0:0:0:31:ORC_D#6_12.ogg
64,192,345423,1,8,0:0:0:0:
192,192,345423,1,0,0:0:0:18:G#4H_Ab4H.wav
64,192,345570,1,2,0:0:0:0:
192,192,345570,1,0,0:0:0:31:ORC_D#6_12.ogg
320,192,345570,1,0,0:0:0:31:ride.wav
448,192,345717,1,0,0:0:0:18:E4H.wav
64,192,345865,1,8,0:0:0:0:
192,192,345865,1,0,0:0:0:0:
192,192,346012,1,2,0:0:0:0:
320,192,346012,1,0,0:0:0:31:ORC_E6_12.ogg
448,192,346159,1,0,0:0:0:0:
64,192,346306,1,0,0:0:0:31:ORC_B45E5_4.ogg
192,192,346453,1,0,0:0:0:0:
320,192,346601,128,2,346748:0:0:0:0:
448,192,346601,1,0,0:0:0:31:ORC_B5_12.ogg
64,192,346748,1,2,0:0:0:0:
192,192,346748,1,8,0:0:0:0:
64,192,346895,128,0,347042:0:0:0:31:ORC_E6_12.ogg
320,192,347042,1,2,0:0:0:0:
448,192,347042,1,0,0:0:0:0:
320,192,347190,128,10,347337:0:0:0:0:
448,192,347190,1,0,0:0:0:31:ORC_G#6_12.ogg
64,192,347337,1,2,0:0:0:0:
192,192,347337,1,0,0:0:0:0:
64,192,347484,1,10,0:0:0:0:
192,192,347484,1,0,0:0:0:31:ORC_F#6_12.ogg
448,192,347484,128,0,347631:0:0:0:18:G#4H_Ab4H.wav
320,192,347778,1,10,0:0:0:0:
448,192,347778,1,0,0:0:0:18:C#5H_Db5H.wav
64,192,347926,1,0,0:0:0:31:ORC_E6_12.ogg
192,192,347926,128,0,348073:0:0:0:0:
320,192,348073,1,0,0:0:0:18:G#4H_Ab4H.wav
448,192,348073,1,0,0:0:0:0:
64,192,348220,1,2,0:0:0:0:
192,192,348220,1,0,0:0:0:0:
320,192,348367,1,10,0:0:0:0:
448,192,348367,128,0,348514:0:0:0:31:ORC_F#6_12.ogg
192,192,348514,1,0,0:0:0:0:
64,192,348662,1,6,0:0:0:0:
192,192,348662,1,0,0:0:0:31:ORC_B45E5_2.ogg
320,192,348662,128,0,348956:0:0:0:31:ORC_B5_12.ogg
448,192,348662,1,0,0:0:0:18:A3H.wav
192,192,348956,128,2,349250:0:0:0:0:
320,192,349103,1,0,0:0:0:0:
64,192,349250,128,2,349545:0:0:0:0:
448,192,349250,1,0,0:0:0:31:ORC_E6_12.ogg
320,192,349398,1,2,0:0:0:0:
448,192,349398,1,0,0:0:0:0:
320,192,349545,128,2,349839:0:0:0:0:
448,192,349545,1,0,0:0:0:31:ORC_B5_12.ogg
64,192,349692,1,2,0:0:0:0:
192,192,349692,1,0,0:0:0:0:
192,192,349839,1,10,0:0:0:0:
448,192,349839,128,0,350281:0:0:0:31:ORC_D#56G#5_2.ogg
64,192,350134,1,10,0:0:0:0:
192,192,350134,1,0,0:0:0:18:A4H.wav
192,192,350281,1,2,0:0:0:0:
320,192,350281,1,0,0:0:0:31:ORC_D#6_12.ogg
448,192,350428,1,0,0:0:0:18:E4H.wav
64,192,350575,1,2,0:0:0:0:
192,192,350575,1,8,0:0:0:0:
192,192,350722,1,2,0:0:0:0:
320,192,350722,1,0,0:0:0:31:ORC_E6_12.ogg
448,192,350870,1,0,0:0:0:0:
64,192,351017,128,0,351458:0:0:0:31:ORC_B56E6_3.ogg
192,192,351164,1,0,0:0:0:0:
320,192,351311,1,2,0:0:0:0:
448,192,351311,1,0,0:0:0:31:ORC_B5_12.ogg
192,192,351458,1,2,0:0:0:0:
320,192,351458,1,8,0:0:0:0:
448,192,351606,128,0,351753:0:0:0:31:ORC_E6_12.ogg
192,192,351753,1,2,0:0:0:0:
320,192,351753,1,0,0:0:0:0:
64,192,351900,1,10,0:0:0:0:
192,192,351900,1,0,0:0:0:31:ORC_B5_12.ogg
320,192,352047,1,2,0:0:0:0:
448,192,352047,1,0,0:0:0:0:
192,192,352194,1,10,0:0:0:0:
320,192,352194,128,0,352342:0:0:0:31:ORC_D#6_12.ogg
320,192,352489,1,10,0:0:0:0:
448,192,352489,1,0,0:0:0:18:B4H.wav
64,192,352636,1,0,0:0:0:31:ORC_D#6_12.ogg
192,192,352636,1,0,0:0:0:0:
320,192,352783,128,2,353078:0:0:0:0:
192,192,352930,1,2,0:0:0:0:
448,192,352930,1,8,0:0:0:0:
64,192,353078,1,2,0:0:0:0:
192,192,353078,1,0,0:0:0:31:ORC_E6_12.ogg
320,192,353225,1,0,0:0:0:0:
64,192,353372,128,6,353961:0:0:0:0:
192,192,353372,1,0,0:0:0:31:ORC_B56E6_2.ogg
320,192,353372,1,0,0:0:0:31:ORC_B5_12.ogg
448,192,353372,128,0,353666:0:0:0:18:G#3H_Ab3H.wav
192,192,353666,128,2,353961:0:0:0:0:
320,192,353666,1,0,0:0:0:31:ORC_F#6_12.ogg
320,192,353814,1,0,0:0:0:0:
320,192,353961,128,2,354255:0:0:0:0:
448,192,353961,1,0,0:0:0:31:ORC_E6_12.ogg
192,192,354108,1,2,0:0:0:0:
64,192,354108,1,0,0:0:0:0:
192,192,354255,1,2,0:0:0:0:
64,192,354255,128,0,354550:0:0:0:31:ORC_B5_12.ogg
448,192,354402,1,2,0:0:0:0:
320,192,354402,1,0,0:0:0:0:
448,192,354550,128,10,354991:0:0:0:0:
320,192,354550,1,0,0:0:0:31:ORC_F#56B5_2.ogg
320,192,354844,1,10,0:0:0:0:
64,192,354844,1,0,0:0:0:18:G#4H_Ab4H.wav
192,192,354991,1,2,0:0:0:0:
320,192,354991,1,0,0:0:0:31:ORC_D#6_12.ogg
64,192,355138,1,0,0:0:0:18:E4H.wav
320,192,355286,1,8,0:0:0:0:
448,192,355286,1,2,0:0:0:0:
192,192,355433,1,2,0:0:0:0:
320,192,355433,1,0,0:0:0:31:ORC_E6_12.ogg
64,192,355580,1,0,0:0:0:0:
320,192,355727,1,2,0:0:0:0:
192,192,355874,1,2,0:0:0:0:
320,192,356022,128,2,356169:0:0:0:0:
448,192,356022,1,0,0:0:0:31:ORC_B5_12.ogg
64,192,356169,1,2,0:0:0:0:
192,192,356169,1,8,0:0:0:0:
64,192,356316,128,0,356463:0:0:0:31:ORC_E6_12.ogg
320,192,356463,1,2,0:0:0:0:
448,192,356463,1,0,0:0:0:0:
320,192,356611,128,10,356758:0:0:0:0:
448,192,356611,1,0,0:0:0:31:ORC_G#6_12.ogg
64,192,356758,1,2,0:0:0:0:
192,192,356758,1,0,0:0:0:0:
64,192,356905,1,10,0:0:0:0:
448,192,356905,128,0,357052:0:0:0:31:ORC_F#6_12.ogg
320,192,357199,1,10,0:0:0:0:
448,192,357199,1,0,0:0:0:18:C#5H_Db5H.wav
192,192,357347,128,0,357494:0:0:0:31:ORC_E6_12.ogg
320,192,357494,1,2,0:0:0:0:
448,192,357494,1,0,0:0:0:18:G#4H_Ab4H.wav
320,192,357641,1,2,0:0:0:0:
448,192,357641,1,8,0:0:0:0:
320,192,357788,1,10,0:0:0:0:
448,192,357788,128,0,357935:0:0:0:31:ORC_F#6_12.ogg
64,192,357935,1,8,0:0:0:0:
192,192,357935,1,2,0:0:0:0:
64,192,358083,1,4,0:0:0:0:
192,192,358083,1,2,0:0:0:0:
320,192,358083,1,0,0:0:0:31:B5S.wav
448,192,358083,1,0,0:0:0:0:
320,192,358377,1,0,0:0:0:31:F#6S_Gb6S.wav
448,192,358671,1,0,0:0:0:31:E6S.wav
64,192,358966,1,0,0:0:0:31:B5S.wav
192,192,359260,1,0,0:0:0:31:D#6S_Eb6S.wav
192,192,359702,1,0,0:0:0:31:D#6S_Eb6S.wav
320,192,360143,1,0,0:0:0:31:E6S.wav
192,192,360732,1,0,0:0:0:31:B5S.wav
448,192,360732,1,0,0:0:0:0:
64,192,361027,1,0,0:0:0:31:E6S.wav
192,192,361321,1,0,0:0:0:31:B5S.wav
448,192,361321,1,0,0:0:0:0:
320,192,361615,1,0,0:0:0:31:D#6S_Eb6S.wav
320,192,362057,1,0,0:0:0:31:D#6S_Eb6S.wav
448,192,362499,1,0,0:0:0:31:E6S.wav
64,192,362793,1,0,0:0:0:31:B5S.wav
192,192,362793,1,0,0:0:0:0:
320,192,363087,1,0,0:0:0:31:F#6S_Gb6S.wav
448,192,363382,1,0,0:0:0:31:E6S.wav
64,192,363676,1,0,0:0:0:31:B5S.wav
192,192,363971,1,0,0:0:0:31:D#6S_Eb6S.wav
192,192,364412,1,0,0:0:0:31:D#6S_Eb6S.wav
320,192,364854,1,0,0:0:0:31:E6S.wav
64,192,365443,1,0,0:0:0:31:B5S.wav
192,192,365737,1,0,0:0:0:31:E6S.wav
64,192,366032,1,0,0:0:0:31:G#6S_Ab6S.wav
320,192,366032,1,0,0:0:0:0:
192,192,366326,1,0,0:0:0:31:F#6S_Gb6S.wav
448,192,366326,1,0,0:0:0:0:
64,192,366768,1,0,0:0:0:31:E6S.wav
448,192,367209,1,0,0:0:0:31:F#6S_Gb6S.wav
64,192,367504,1,0,0:0:0:31:B5S.wav
192,192,367504,1,0,0:0:0:0:
320,192,367798,1,0,0:0:0:31:F#6S_Gb6S.wav
448,192,368092,1,0,0:0:0:31:E6S.wav
64,192,368387,1,0,0:0:0:31:B5S.wav
192,192,368681,1,0,0:0:0:31:D#6S_Eb6S.wav
192,192,369123,1,0,0:0:0:31:D#6S_Eb6S.wav
320,192,369564,1,0,0:0:0:31:E6S.wav
192,192,370153,1,0,0:0:0:31:B5S.wav
448,192,370153,1,0,0:0:0:0:
64,192,370448,1,0,0:0:0:31:E6S.wav
192,192,370742,1,0,0:0:0:31:B5S.wav
448,192,370742,1,0,0:0:0:0:
320,192,371036,1,0,0:0:0:31:D#6S_Eb6S.wav
320,192,371478,1,0,0:0:0:31:D#6S_Eb6S.wav
448,192,371920,1,0,0:0:0:31:E6S.wav
64,192,372214,1,0,0:0:0:31:B5S.wav
192,192,372214,1,0,0:0:0:0:
320,192,372508,1,0,0:0:0:31:F#6S_Gb6S.wav
448,192,372803,1,0,0:0:0:31:E6S.wav
64,192,373097,1,0,0:0:0:31:B5S.wav
192,192,373392,1,0,0:0:0:31:D#6S_Eb6S.wav
192,192,373833,1,0,0:0:0:31:D#6S_Eb6S.wav
320,192,374275,1,0,0:0:0:31:E6S.wav
192,192,374864,1,0,0:0:0:31:B5S.wav
448,192,374864,1,0,0:0:0:0:
320,192,375158,1,0,0:0:0:31:E6S.wav
64,192,375453,1,0,0:0:0:31:G#6S_Ab6S.wav
192,192,375453,1,0,0:0:0:0:
320,192,375747,1,0,0:0:0:31:F#6S_Gb6S.wav
448,192,375747,1,0,0:0:0:0:
64,192,376189,1,0,0:0:0:31:E6S.wav
448,192,376630,1,0,0:0:0:31:F#6S_Gb6S.wav
