osu file format v14

[General]
AudioFilename: audio.mp3
AudioLeadIn: 0
PreviewTime: 103009
Countdown: 0
SampleSet: None
StackLeniency: 0.2
Mode: 0
LetterboxInBreaks: 0
WidescreenStoryboard: 1

[Editor]
Bookmarks: 0,2261,7023,9642,11440,17918,22144,28096,30537,37008,45735,57371,63930,68282,79918,91554,103197,114833,126469,135197,146833,170106,175924,181742,193378,205015,206833
DistanceSpacing: 1.6
BeatDivisor: 4
GridSize: 16
TimelineZoom: 1.7

[Metadata]
Title:Neoprene Byzantine
TitleUnicode:Neoprene Byzantine
Artist:Closure In Moscow
ArtistUnicode:Closure In Moscow
Creator:Godot
Version:hitsound
Source:
Tags:pink lemonade progrock english progressive rock
BeatmapID:2114499
BeatmapSetID:937839

[Difficulty]
HPDrainRate:0
CircleSize:4
OverallDifficulty:6
ApproachRate:9.6
SliderMultiplier:1.4
SliderTickRate:1

[Events]
//Background and Video events
0,0,"closure_bg.png",0,0
//Break Periods
2,1985,6514
2,12870,17409
2,22006,27567
2,30260,36499
//Storyboard Layer 0 (Background)
//Storyboard Layer 1 (Fail)
//Storyboard Layer 2 (Pass)
//Storyboard Layer 3 (Foreground)
//Storyboard Sound Samples

[TimingPoints]
0,238.095238095238,4,3,0,90,1,0
0,-86.9565217391304,7,3,0,90,0,1
714,-86.9565217391304,7,3,0,95,0,1
952,-86.9565217391304,7,3,0,90,0,1
1751,-166.666666666667,7,3,0,90,0,1
1785,-166.666666666667,7,3,0,70,0,0
7023,238.095238095238,4,3,0,90,1,0
7023,-105.263157894737,4,3,0,60,0,0
7261,-105.263157894737,4,3,0,95,0,1
7380,-105.263157894737,4,3,0,70,0,1
7816,-105.263157894737,4,3,0,95,0,1
8213,-105.263157894737,4,3,0,70,0,1
8445,-80,4,3,0,90,0,1
8660,-105.263157894737,4,3,0,70,0,1
9403,-266.666666666667,4,3,0,70,0,0
11440,238.095238095238,4,3,0,70,1,0
11598,-166.666666666667,4,3,0,95,0,1
12313,-166.666666666667,4,3,0,70,0,1
12670,-166.666666666667,4,3,0,70,0,0
17918,238.095238095238,4,3,0,70,1,0
18029,-105.263157894737,4,3,0,95,0,1
18275,-105.263157894737,4,3,0,70,0,1
18791,-200,4,3,0,70,0,1
19168,-105.263157894737,4,3,0,70,0,1
19756,-95.2380952380952,4,3,0,70,0,1
19902,-95.2380952380952,4,3,0,21,0,0
19941,-95.2380952380952,4,3,0,95,0,1
20021,-95.2380952380952,4,3,0,85,0,1
20100,-95.2380952380952,4,3,0,21,0,0
20140,-95.2380952380952,4,3,0,95,0,1
20219,-95.2380952380952,4,3,0,85,0,1
20458,-133.333333333333,4,3,0,70,0,1
21006,-166.666666666667,4,3,0,70,0,1
21251,-166.666666666667,4,3,0,70,0,0
28195,-105.263157894737,4,3,0,90,0,1
28394,-105.263157894737,4,3,0,70,0,1
29505,-105.263157894737,4,3,0,90,0,0
29783,-105.263157894737,4,3,0,80,0,0
30060,-105.263157894737,4,3,0,70,0,0
37008,363.636363636364,4,3,0,40,1,0
37008,-222.222222222222,4,3,0,40,0,0
45280,-222.222222222222,4,3,0,40,0,0
45735,363.636363636364,4,3,0,80,1,1
45735,-86.9565217391304,4,3,0,80,0,1
47189,-62.5,4,3,0,80,0,1
47735,-86.9565217391304,4,3,0,80,0,1
55462,-71.4285714285714,4,3,0,80,0,1
55916,-60.6060606060606,4,3,0,80,0,1
56644,-55.5555555555556,4,3,0,80,0,1
57371,368.098159509202,4,3,0,90,1,0
57371,-86.9565217391304,4,3,0,60,0,0
61708,370.37037037037,4,3,0,60,1,0
61708,-86.9565217391304,4,3,0,60,0,0
63930,352.941176470588,4,3,0,60,1,0
63930,-86.9565217391304,4,3,0,50,0,0
68282,363.636363636364,4,3,0,60,1,0
68282,-60.6060606060606,4,3,0,60,0,0
68312,-60.6060606060606,4,3,0,60,0,0
77009,-55.5555555555556,4,3,0,60,0,0
77372,-60.6060606060606,4,3,0,60,0,0
79918,-54.054054054054,4,3,0,60,0,0
91554,363.19612590799,4,3,0,60,1,0
91554,-200,4,3,0,40,0,0
97637,-133.333333333333,4,3,0,60,0,0
98363,-100,4,3,0,60,0,0
98454,379.746835443038,4,3,0,60,1,0
98833,357.142857142857,4,3,0,60,1,0
99100,-80,4,3,0,60,0,0
99547,365.07453605111,4,3,0,60,1,0
100277,-133.333333333333,4,3,0,60,0,0
101737,-133.333333333333,4,3,0,60,0,0
103197,363.636363636364,4,3,0,80,1,1
103197,-86.9565217391304,4,3,0,80,0,1
104651,-62.5,4,3,0,80,0,1
105197,-86.9565217391304,4,3,0,80,0,1
114810,-60.6060606060606,4,3,0,80,0,0
114833,-60.6060606060606,4,3,0,80,0,1
125015,331.491712707182,4,3,0,80,1,1
125015,-62.5,4,3,0,80,0,1
125378,363.636363636364,4,3,0,80,1,0
125378,-60.6060606060606,4,3,0,80,0,1
126468,-100,4,3,0,60,0,0
136287,-90.9090909090909,4,3,0,60,0,0
137378,-86.9565217391304,4,3,0,60,0,0
138105,-83.3333333333333,4,3,0,60,0,0
138832,-80,4,3,0,60,0,0
141014,-76.9230769230769,4,3,0,60,0,0
141741,-74.0740740740741,4,3,0,60,0,0
143014,-71.4285714285714,4,3,0,60,0,0
143923,-68.9655172413793,4,3,0,60,0,0
144468,-64.5161290322581,4,3,0,60,0,0
144923,-60.6060606060606,4,3,0,60,0,0
146832,-33.3333333333333,4,3,0,100,0,1
150287,-37.037037037037,4,3,0,100,0,1
152105,-41.6666666666667,4,3,0,100,0,1
152650,-33.3333333333333,4,3,0,100,0,1
153378,-40,4,3,0,100,0,1
154287,-33.3333333333333,4,3,0,100,0,1
155196,-44.4444444444445,4,3,0,100,0,1
155378,-42.5531914893617,4,3,0,100,0,1
155559,-39.2156862745098,4,3,0,100,0,1
155741,-35.0877192982456,4,3,0,100,0,1
155923,-33.3333333333333,4,3,0,100,0,1
157378,-37.037037037037,4,3,0,100,0,1
158468,-1000,4,3,0,80,0,0
160650,-333.333333333333,4,3,0,70,0,0
163559,-142.857142857143,4,3,0,60,0,0
164287,-1000,4,3,0,60,0,0
170105,-86.9565217391304,4,3,0,60,0,0
175923,-66.6666666666667,4,3,0,50,0,0
181741,-80,4,3,0,80,0,1
183014,-60.6060606060606,4,3,0,80,0,1
183923,-80,4,3,0,80,0,1
193378,-57.1428571428571,4,3,0,80,0,1
204968,-80,4,3,0,80,0,0
205014,-80,4,3,0,70,0,1
206059,-80,4,3,0,60,0,0
206105,-80,4,3,0,60,0,1
206468,-80,4,3,0,60,0,0
206514,-80,4,3,0,60,0,1
206787,-285.714285714286,4,3,0,60,0,0
206832,-285.714285714286,4,3,0,60,0,1
206878,-285.714285714286,4,3,0,60,0,0

[Colours]
Combo1 : 163,213,114
Combo2 : 239,189,139
Combo3 : 152,203,254
Combo4 : 229,176,255

[HitObjects]
269,185,0,5,4,0:1:0:0:
103,297,119,1,4,0:0:0:0:
124,62,238,1,0,0:0:0:0:
103,297,357,1,4,0:0:0:0:
103,297,476,1,4,0:0:0:0:
269,185,595,1,0,0:0:0:0:
269,185,714,1,4,0:1:0:0:
130,70,873,1,0,0:0:0:0:
137,65,952,1,0,0:0:0:0:
128,63,1071,1,0,0:0:0:0:
129,72,1190,1,0,0:0:0:0:
128,63,1309,1,0,0:0:0:0:
272,193,1428,1,4,0:1:0:0:
272,193,1547,1,4,0:1:0:0:
112,300,1666,1,4,0:0:0:0:
272,193,1785,1,4,0:1:0:0:
64,87,7023,5,4,0:0:0:0:
64,87,7102,1,4,0:0:0:0:
64,87,7181,1,4,0:0:0:0:
356,284,7261,1,4,1:0:0:0:
356,284,7380,1,4,1:0:0:0:
71,87,7499,1,4,0:0:0:0:
73,333,7538,1,2,0:0:0:0:
84,92,7657,1,4,0:0:0:0:
352,278,7816,1,4,1:0:0:0:
73,333,8213,1,2,0:0:0:0:
88,96,8332,1,4,0:0:0:0:
352,278,8451,1,4,0:1:0:0:
73,333,8689,1,2,0:0:0:0:
76,338,8808,1,2,0:0:0:0:
105,98,9007,1,4,0:0:0:0:
105,98,9205,1,4,0:0:0:0:
389,307,9403,1,4,0:1:0:0:
160,14,11440,5,4,0:0:0:0:
24,172,11598,5,4,0:1:0:0:
0,0,11678,1,4,0:0:0:0:
0,0,11757,1,4,0:0:0:0:
0,0,11836,1,4,0:0:0:0:
0,0,11916,1,4,0:0:0:0:
0,0,11995,1,4,0:0:0:0:
0,0,12074,1,4,0:0:0:0:
0,0,12154,1,4,0:0:0:0:
0,0,12233,1,4,0:0:0:0:
387,325,12313,1,4,0:1:0:0:
207,111,12471,1,4,0:0:0:0:
381,318,12511,1,4,0:1:0:0:
381,332,12670,1,4,0:1:0:0:
30,19,17918,5,4,0:0:0:0:
408,331,18037,1,4,0:1:0:0:
32,26,18275,1,4,0:0:0:0:
45,311,18354,1,0,0:0:0:0:
357,32,18513,1,2,0:0:0:0:
249,290,18671,1,2,0:2:0:0:
43,46,18791,1,4,0:0:0:0:
43,46,18910,1,4,0:0:0:0:
43,46,19029,1,4,0:0:0:0:
23,340,19068,1,0,0:0:0:0:
23,340,19108,1,0,0:0:0:0:
369,29,19187,1,2,0:0:0:0:
14,340,19306,1,0,0:0:0:0:
43,46,19425,1,4,0:0:0:0:
43,46,19465,1,4,0:0:0:0:
43,46,19505,1,4,0:0:0:0:
241,293,19624,1,2,0:2:0:0:
60,56,19743,1,4,0:0:0:0:
61,59,19822,1,4,0:0:0:0:
368,315,19941,1,4,0:1:0:0:
72,66,20021,1,4,0:0:0:0:
364,321,20140,1,4,0:1:0:0:
77,65,20219,1,4,0:0:0:0:
104,83,20338,1,4,0:0:0:0:
355,56,20457,1,2,0:0:0:0:
123,77,20537,1,4,0:0:0:0:
239,317,20656,1,2,0:2:0:0:
92,78,20735,1,4,0:0:0:0:
361,308,20814,1,4,0:1:0:0:
107,66,20933,1,4,0:0:0:0:
107,66,20973,1,4,0:0:0:0:
107,66,21013,1,4,0:0:0:0:
107,66,21052,1,4,0:0:0:0:
68,278,21132,1,0,0:0:0:0:
71,293,21171,1,0,0:0:0:0:
71,291,21211,1,0,0:0:0:0:
71,295,21251,1,0,0:0:0:0:
82,61,21489,1,4,0:0:0:0:
87,62,21568,1,4,0:0:0:0:
87,62,21648,1,4,0:0:0:0:
89,66,21727,1,4,0:0:0:0:
401,310,21806,1,4,0:1:0:0:
415,22,28076,5,2,0:0:0:0:
382,307,28195,1,4,0:1:0:0:
47,326,28394,1,0,0:0:0:0:
60,42,28513,1,4,0:0:0:0:
47,326,28592,1,0,0:0:0:0:
394,26,28671,1,2,0:0:0:0:
382,307,28830,1,4,0:1:0:0:
60,42,29187,1,4,0:0:0:0:
379,31,29306,1,2,0:0:0:0:
256,189,29505,1,4,0:1:0:0:
256,189,29783,1,4,0:1:0:0:
256,189,30060,1,4,0:1:0:0:
39,35,37008,5,4,0:0:0:0:
404,44,37735,1,2,0:0:0:0:
257,280,38098,1,2,0:2:0:0:
41,63,38462,1,4,0:0:0:0:
257,280,38826,1,2,0:2:0:0:
405,42,39189,1,2,0:0:0:0:
257,280,39553,1,2,0:2:0:0:
34,32,39917,1,4,0:0:0:0:
243,263,40280,1,2,0:2:0:0:
401,41,40644,1,2,0:0:0:0:
241,253,41008,1,2,0:2:0:0:
68,29,41371,1,4,0:0:0:0:
248,253,41735,1,2,0:2:0:0:
416,50,42098,1,2,0:0:0:0:
248,253,42462,1,2,0:2:0:0:
58,43,42826,1,4,0:0:0:0:
254,236,43189,1,2,0:2:0:0:
416,52,43553,1,2,0:0:0:0:
254,228,43917,1,2,0:2:0:0:
254,228,44098,1,2,0:2:0:0:
254,228,44159,1,2,0:2:0:0:
58,38,44280,1,4,0:0:0:0:
254,220,44462,1,2,0:2:0:0:
39,10,44644,1,4,0:0:0:0:
382,52,45008,1,2,0:0:0:0:
442,338,45735,5,4,0:1:0:0:
85,52,45916,1,4,0:0:0:0:
85,52,46007,1,4,0:0:0:0:
80,44,46189,1,4,0:0:0:0:
395,57,46280,1,2,0:0:0:0:
85,52,46462,1,4,0:0:0:0:
241,287,46553,1,2,0:2:0:0:
241,287,46644,1,2,0:2:0:0:
85,52,46735,1,4,0:0:0:0:
388,54,46825,1,2,0:0:0:0:
90,61,47007,1,4,0:0:0:0:
98,71,47189,1,4,0:0:0:0:
245,294,47371,1,2,0:2:0:0:
103,81,47462,1,4,0:0:0:0:
245,293,47553,1,2,0:2:0:0:
378,82,47735,1,2,0:0:0:0:
375,324,47916,1,4,0:1:0:0:
245,293,48098,1,2,0:2:0:0:
98,83,48189,1,4,0:0:0:0:
386,83,48280,1,2,0:0:0:0:
115,90,48462,1,4,0:0:0:0:
120,88,48644,1,4,0:0:0:0:
121,92,48916,1,4,0:0:0:0:
245,294,49007,1,2,0:2:0:0:
126,99,49098,1,4,0:0:0:0:
420,64,49189,1,2,0:0:0:0:
97,95,49371,1,4,0:0:0:0:
238,296,49462,1,2,0:2:0:0:
245,294,49553,1,2,0:2:0:0:
117,105,49644,1,4,0:0:0:0:
429,82,49735,1,2,0:0:0:0:
107,86,49916,1,4,0:0:0:0:
94,66,50098,1,4,0:0:0:0:
245,292,50280,1,2,0:2:0:0:
79,105,50371,1,4,0:0:0:0:
245,294,50462,1,2,0:2:0:0:
99,95,50553,1,4,0:0:0:0:
411,59,50644,1,2,0:0:0:0:
97,87,50825,1,4,0:0:0:0:
245,292,51007,1,2,0:2:0:0:
429,62,51098,1,2,0:0:0:0:
424,62,51189,1,2,0:0:0:0:
82,83,51371,1,4,0:0:0:0:
449,316,51553,1,4,0:1:0:0:
71,66,51825,1,4,0:0:0:0:
245,292,51916,1,2,0:2:0:0:
91,59,52007,1,4,0:0:0:0:
422,94,52098,1,2,0:0:0:0:
94,63,52280,1,4,0:0:0:0:
245,292,52371,1,2,0:2:0:0:
245,292,52462,1,2,0:2:0:0:
104,64,52553,1,4,0:0:0:0:
493,94,52644,1,2,0:0:0:0:
106,65,52825,1,4,0:0:0:0:
111,96,53007,1,4,0:0:0:0:
123,103,53280,1,4,0:0:0:0:
245,292,53371,1,2,0:2:0:0:
130,81,53462,1,4,0:0:0:0:
452,52,53553,1,2,0:0:0:0:
144,97,53735,1,4,0:0:0:0:
245,292,53916,1,2,0:2:0:0:
163,90,54007,1,4,0:0:0:0:
474,60,54098,1,2,0:0:0:0:
254,287,54280,1,2,0:2:0:0:
146,84,54462,1,4,0:0:0:0:
483,62,54644,1,2,0:0:0:0:
142,95,54735,1,4,0:0:0:0:
245,292,54825,1,2,0:2:0:0:
258,295,54916,1,2,0:2:0:0:
472,52,55007,1,2,0:0:0:0:
147,100,55189,1,4,0:0:0:0:
466,63,55371,1,2,0:0:0:0:
466,61,55462,1,2,0:0:0:0:
245,292,55553,1,2,0:2:0:0:
147,70,55735,1,4,0:0:0:0:
472,52,55916,1,2,0:0:0:0:
461,150,56189,1,2,0:0:0:0:
245,292,56280,1,2,0:2:0:0:
135,70,56462,1,4,0:0:0:0:
460,97,56644,1,2,0:0:0:0:
465,62,56916,1,2,0:0:0:0:
462,84,57007,1,2,0:0:0:0:
462,81,57189,1,2,0:0:0:0:
109,71,57280,1,4,0:0:0:0:
471,340,57371,1,4,0:1:0:0:
124,78,57647,5,4,0:0:0:0:
253,300,57739,1,2,0:2:0:0:
117,74,57831,1,4,0:0:0:0:
123,67,57923,1,0,0:0:0:0:
109,71,58050,1,4,0:0:0:0:
426,70,58111,1,2,0:0:0:0:
117,71,58199,1,0,0:0:0:0:
117,71,58291,1,0,0:0:0:0:
96,69,58475,1,4,0:0:0:0:
421,77,58751,1,2,0:0:0:0:
421,77,58843,1,2,0:0:0:0:
83,60,59027,1,4,0:0:0:0:
431,79,59178,1,2,0:0:0:0:
429,79,59268,1,2,0:0:0:0:
157,64,59358,1,4,0:0:0:0:
120,66,59449,1,4,0:0:0:0:
459,323,59579,1,4,0:1:0:0:
102,57,59810,1,4,0:0:0:0:
250,273,59901,1,2,0:2:0:0:
253,253,59991,1,2,0:2:0:0:
120,66,60172,1,4,0:0:0:0:
421,72,60262,1,2,0:0:0:0:
86,46,60624,1,4,0:0:0:0:
444,73,60804,1,2,0:0:0:0:
439,71,60895,1,2,0:0:0:0:
112,50,60985,1,4,0:0:0:0:
112,50,61075,1,4,0:0:0:0:
112,50,61166,1,4,0:0:0:0:
112,50,61256,1,4,0:0:0:0:
112,50,61346,1,4,0:0:0:0:
112,50,61437,1,4,0:0:0:0:
112,50,61527,1,4,0:0:0:0:
112,50,61617,1,4,0:0:0:0:
432,295,61708,1,4,0:1:0:0:
112,50,61985,1,4,0:0:0:0:
246,293,62078,1,2,0:2:0:0:
112,50,62170,1,4,0:0:0:0:
110,55,62263,1,4,0:0:0:0:
116,53,62356,1,4,0:0:0:0:
346,68,62448,1,2,0:0:0:0:
126,63,62633,1,4,0:0:0:0:
121,61,62819,1,4,0:0:0:0:
333,67,63096,1,2,0:0:0:0:
333,67,63189,1,2,0:0:0:0:
114,68,63374,1,4,0:0:0:0:
333,67,63559,1,2,0:0:0:0:
333,67,63652,1,2,0:0:0:0:
121,70,63745,1,4,0:0:0:0:
121,71,63837,1,4,0:0:0:0:
440,328,63930,1,4,0:1:0:0:
127,71,64194,1,4,0:0:0:0:
249,281,64282,1,2,0:2:0:0:
143,88,64459,1,4,0:0:0:0:
143,88,64547,1,4,0:0:0:0:
331,78,64635,1,2,0:0:0:0:
143,94,64988,1,4,0:0:0:0:
366,68,65341,1,2,0:0:0:0:
371,67,65606,1,2,0:0:0:0:
366,68,65694,1,2,0:0:0:0:
146,88,65782,1,4,0:0:0:0:
366,68,65871,1,2,0:0:0:0:
258,288,65959,1,0,0:0:0:0:
258,288,66047,1,0,0:0:0:0:
258,288,66135,1,0,0:0:0:0:
258,288,66224,1,0,0:0:0:0:
258,288,66312,1,0,0:0:0:0:
258,288,66400,1,0,0:0:0:0:
258,288,66488,1,0,0:0:0:0:
258,288,66577,1,2,0:2:0:0:
258,288,66665,1,2,0:2:0:0:
258,288,66753,1,2,0:2:0:0:
258,288,66841,1,2,0:2:0:0:
258,288,66930,1,2,0:2:0:0:
258,288,67018,1,2,0:2:0:0:
258,288,67106,1,2,0:2:0:0:
258,288,67194,1,2,0:2:0:0:
258,288,67282,1,2,0:2:0:0:
258,288,67371,1,2,0:2:0:0:
258,288,67459,1,2,0:2:0:0:
258,288,67547,1,2,0:2:0:0:
258,288,67635,1,2,0:2:0:0:
258,288,67724,1,2,0:2:0:0:
258,288,67812,1,2,0:2:0:0:
258,288,67900,1,2,0:2:0:0:
258,288,67988,1,2,0:2:0:0:
258,288,68077,1,2,0:2:0:0:
258,288,68165,1,2,0:2:0:0:
258,288,68253,1,2,0:2:0:0:
103,52,68282,1,4,0:0:0:0:
103,52,68463,1,4,0:0:0:0:
378,71,68645,1,2,0:0:0:0:
107,66,68918,1,4,0:0:0:0:
251,298,69009,1,2,0:2:0:0:
126,93,69191,1,4,0:0:0:0:
255,311,69372,1,2,0:2:0:0:
136,102,69463,1,4,0:0:0:0:
135,101,69736,1,4,0:0:0:0:
251,298,69918,1,2,0:2:0:0:
141,102,70009,1,4,0:0:0:0:
256,298,70100,1,2,0:2:0:0:
414,84,70282,1,2,0:0:0:0:
259,285,70463,1,2,0:2:0:0:
149,106,70554,1,4,0:0:0:0:
414,84,70827,1,2,0:0:0:0:
154,108,71100,1,4,0:0:0:0:
255,293,71191,1,2,0:2:0:0:
144,88,71372,1,4,0:0:0:0:
411,78,71554,1,2,0:0:0:0:
247,278,71736,1,2,0:2:0:0:
134,78,71827,1,4,0:0:0:0:
246,300,71918,1,2,0:2:0:0:
394,72,72100,1,2,0:0:0:0:
253,293,72282,1,2,0:2:0:0:
144,88,72372,1,4,0:0:0:0:
151,98,72645,1,4,0:0:0:0:
150,99,72918,1,4,0:0:0:0:
271,318,73009,1,2,0:2:0:0:
403,96,73191,1,2,0:0:0:0:
280,331,73372,1,2,0:2:0:0:
156,113,73463,1,4,0:0:0:0:
393,115,73736,1,2,0:0:0:0:
271,318,73918,1,2,0:2:0:0:
164,120,74009,1,4,0:0:0:0:
156,113,74100,1,4,0:0:0:0:
158,120,74282,1,4,0:0:0:0:
388,100,74463,1,2,0:0:0:0:
277,307,74645,1,2,0:2:0:0:
164,120,74736,1,4,0:0:0:0:
281,307,74827,1,2,0:2:0:0:
394,102,75009,1,2,0:0:0:0:
281,314,75191,1,2,0:2:0:0:
162,140,75282,1,4,0:0:0:0:
172,113,75554,1,4,0:0:0:0:
172,113,75827,1,4,0:0:0:0:
306,338,75918,1,2,0:2:0:0:
411,108,76100,1,2,0:0:0:0:
281,342,76282,1,2,0:2:0:0:
168,108,76372,1,4,0:0:0:0:
403,106,76645,1,2,0:0:0:0:
288,343,76827,1,2,0:2:0:0:
178,115,76918,1,4,0:0:0:0:
168,116,77009,1,4,0:0:0:0:
168,122,77191,1,4,0:0:0:0:
410,97,77372,1,2,0:0:0:0:
178,115,77645,1,4,0:0:0:0:
295,322,77736,1,2,0:2:0:0:
407,90,77918,1,2,0:0:0:0:
311,312,78100,1,2,0:2:0:0:
178,91,78191,1,4,0:0:0:0:
174,93,78463,1,4,0:0:0:0:
286,286,78645,1,2,0:2:0:0:
189,118,78736,1,4,0:0:0:0:
311,312,78827,1,2,0:2:0:0:
431,88,79009,1,2,0:0:0:0:
292,314,79191,1,2,0:2:0:0:
174,93,79282,1,4,0:0:0:0:
444,79,79554,1,2,0:0:0:0:
272,317,79736,1,2,0:2:0:0:
272,318,79827,1,2,0:2:0:0:
446,307,79918,1,4,0:1:0:0:
123,80,80100,1,4,0:0:0:0:
441,69,80282,1,2,0:0:0:0:
131,93,80554,1,4,0:0:0:0:
265,312,80645,1,2,0:2:0:0:
423,62,80827,1,2,0:0:0:0:
260,269,81009,1,2,0:2:0:0:
121,63,81100,1,4,0:0:0:0:
134,84,81372,1,4,0:0:0:0:
136,88,81645,1,4,0:0:0:0:
264,301,81736,1,2,0:2:0:0:
427,83,81918,1,2,0:0:0:0:
261,282,82100,1,2,0:2:0:0:
128,92,82191,1,4,0:0:0:0:
261,321,82463,1,2,0:2:0:0:
265,318,82645,1,2,0:2:0:0:
110,85,82827,1,4,0:0:0:0:
87,84,83009,1,4,0:0:0:0:
383,96,83191,1,2,0:0:0:0:
104,83,83463,1,4,0:0:0:0:
256,310,83554,1,2,0:2:0:0:
393,87,83736,1,2,0:0:0:0:
270,308,83918,1,2,0:2:0:0:
111,83,84009,1,4,0:0:0:0:
128,80,84282,1,4,0:0:0:0:
128,82,84554,1,4,0:0:0:0:
256,282,84645,1,2,0:2:0:0:
386,80,84827,1,2,0:0:0:0:
269,304,85009,1,2,0:2:0:0:
128,80,85100,1,4,0:0:0:0:
386,80,85372,1,2,0:0:0:0:
127,101,85554,1,4,0:0:0:0:
127,100,85645,1,4,0:0:0:0:
455,330,85736,1,4,0:1:0:0:
122,93,85918,1,4,0:0:0:0:
259,307,86100,1,2,0:2:0:0:
116,84,86372,1,4,0:0:0:0:
259,318,86463,1,2,0:2:0:0:
383,90,86645,1,2,0:0:0:0:
267,315,86827,1,2,0:2:0:0:
124,68,86918,1,4,0:0:0:0:
120,72,87191,1,4,0:0:0:0:
119,88,87463,1,4,0:0:0:0:
274,324,87554,1,2,0:2:0:0:
419,83,87736,1,2,0:0:0:0:
266,326,87918,1,2,0:2:0:0:
126,97,88009,1,4,0:0:0:0:
139,93,88191,1,4,0:0:0:0:
408,83,88282,1,2,0:0:0:0:
139,86,88463,1,4,0:0:0:0:
136,102,88645,1,4,0:0:0:0:
143,111,88827,1,4,0:0:0:0:
426,78,89009,1,2,0:0:0:0:
276,297,89191,1,2,0:2:0:0:
139,98,89282,1,4,0:0:0:0:
270,292,89372,1,2,0:2:0:0:
439,77,89554,1,2,0:0:0:0:
270,303,89736,1,2,0:2:0:0:
124,76,89827,1,4,0:0:0:0:
141,85,90100,1,4,0:0:0:0:
421,52,90372,1,2,0:0:0:0:
421,52,90463,1,2,0:0:0:0:
142,87,90645,1,4,0:0:0:0:
142,87,90736,1,4,0:0:0:0:
142,87,90827,1,4,0:0:0:0:
141,85,91009,1,4,0:0:0:0:
141,85,91100,1,4,0:0:0:0:
142,87,91191,1,4,0:0:0:0:
142,87,91282,1,4,0:0:0:0:
142,87,91372,1,4,0:0:0:0:
142,87,91463,1,4,0:0:0:0:
460,340,91554,5,4,0:1:0:0:
142,87,91826,1,4,0:0:0:0:
134,89,91917,1,4,0:0:0:0:
134,89,92189,1,6,0:0:0:0:
340,88,92280,1,2,0:0:0:0:
137,94,92643,1,4,0:0:0:0:
137,95,92825,1,4,0:0:0:0:
347,91,93006,1,2,0:0:0:0:
143,108,93369,1,4,0:0:0:0:
143,108,93551,1,4,0:0:0:0:
143,108,93642,1,4,0:0:0:0:
446,334,93733,1,4,0:1:0:0:
135,82,94005,1,4,0:0:0:0:
395,80,94096,1,2,0:0:0:0:
142,96,94187,1,4,0:0:0:0:
142,96,94277,1,4,0:0:0:0:
142,96,94368,1,4,0:0:0:0:
398,84,94459,1,2,0:0:0:0:
132,101,94731,1,4,0:0:0:0:
411,88,95185,1,2,0:0:0:0:
129,88,95549,1,4,0:0:0:0:
428,94,95912,1,2,0:0:0:0:
436,89,96184,1,2,0:0:0:0:
100,84,96275,1,4,0:0:0:0:
113,79,96457,1,4,0:0:0:0:
106,82,96547,1,4,0:0:0:0:
428,94,96638,1,2,0:0:0:0:
428,94,96729,1,2,0:0:0:0:
128,87,97365,1,4,0:0:0:0:
137,88,97637,1,4,0:0:0:0:
151,91,97728,1,4,0:0:0:0:
150,92,97909,1,4,0:0:0:0:
150,92,98000,1,4,0:0:0:0:
391,91,98091,1,2,0:0:0:0:
141,88,98363,1,4,0:0:0:0:
137,88,98454,1,4,0:0:0:0:
141,88,98833,1,4,0:0:0:0:
131,87,99100,1,4,0:0:0:0:
131,87,99190,1,4,0:0:0:0:
131,87,99279,1,4,0:0:0:0:
131,87,99368,1,4,0:0:0:0:
131,87,99458,1,4,0:0:0:0:
420,76,99547,1,2,0:0:0:0:
130,82,99820,1,4,0:0:0:0:
131,87,99912,1,4,0:0:0:0:
131,87,100094,1,4,0:0:0:0:
131,87,100185,1,4,0:0:0:0:
457,337,100277,1,4,0:1:0:0:
130,82,100550,1,4,0:0:0:0:
130,82,100642,1,4,0:0:0:0:
130,82,100733,1,4,0:0:0:0:
130,82,100824,1,4,0:0:0:0:
125,83,100916,1,4,0:0:0:0:
403,84,101007,1,2,0:0:0:0:
99,72,101372,1,4,0:0:0:0:
121,76,101554,1,4,0:0:0:0:
121,76,101737,1,4,0:0:0:0:
254,305,101828,1,2,0:2:0:0:
254,305,101919,1,2,0:2:0:0:
254,305,102011,1,2,0:2:0:0:
121,76,102102,1,4,0:0:0:0:
121,76,102193,1,4,0:0:0:0:
402,98,102285,1,2,0:0:0:0:
105,60,102376,1,4,0:0:0:0:
425,96,102467,1,2,0:0:0:0:
402,98,102558,1,2,0:0:0:0:
402,98,102650,1,2,0:0:0:0:
402,98,102741,1,2,0:0:0:0:
402,98,102832,1,2,0:0:0:0:
416,95,102923,1,2,0:0:0:0:
416,95,103015,1,2,0:0:0:0:
416,95,103106,1,2,0:0:0:0:
442,338,103197,5,4,0:1:0:0:
85,52,103378,1,4,0:0:0:0:
85,52,103469,1,4,0:0:0:0:
80,44,103651,1,4,0:0:0:0:
395,57,103742,1,2,0:0:0:0:
85,52,103924,1,4,0:0:0:0:
241,287,104015,1,2,0:2:0:0:
241,287,104106,1,2,0:2:0:0:
85,52,104197,1,4,0:0:0:0:
388,54,104287,1,2,0:0:0:0:
90,61,104469,1,4,0:0:0:0:
98,71,104651,1,4,0:0:0:0:
245,294,104833,1,2,0:2:0:0:
103,81,104924,1,4,0:0:0:0:
245,293,105015,1,2,0:2:0:0:
378,82,105197,1,2,0:0:0:0:
375,324,105378,1,4,0:1:0:0:
245,294,105560,1,2,0:2:0:0:
98,83,105651,1,4,0:0:0:0:
386,83,105742,1,2,0:0:0:0:
115,90,105924,1,4,0:0:0:0:
120,88,106106,1,4,0:0:0:0:
121,92,106378,1,4,0:0:0:0:
245,294,106469,1,2,0:2:0:0:
126,99,106560,1,4,0:0:0:0:
420,64,106651,1,2,0:0:0:0:
97,95,106833,1,4,0:0:0:0:
238,296,106924,1,2,0:2:0:0:
245,294,107015,1,2,0:2:0:0:
117,105,107106,1,4,0:0:0:0:
429,82,107197,1,2,0:0:0:0:
107,86,107378,1,4,0:0:0:0:
94,66,107560,1,4,0:0:0:0:
245,292,107742,1,2,0:2:0:0:
79,105,107833,1,4,0:0:0:0:
245,294,107924,1,2,0:2:0:0:
99,95,108015,1,4,0:0:0:0:
411,59,108106,1,2,0:0:0:0:
97,87,108287,1,4,0:0:0:0:
245,292,108469,1,2,0:2:0:0:
429,62,108560,1,2,0:0:0:0:
424,62,108651,1,2,0:0:0:0:
82,83,108833,1,4,0:0:0:0:
449,316,109015,1,4,0:1:0:0:
71,66,109287,1,4,0:0:0:0:
245,292,109378,1,2,0:2:0:0:
91,59,109469,1,4,0:0:0:0:
422,94,109560,1,2,0:0:0:0:
94,63,109742,1,4,0:0:0:0:
245,292,109833,1,2,0:2:0:0:
245,292,109924,1,2,0:2:0:0:
104,64,110015,1,4,0:0:0:0:
493,94,110106,1,2,0:0:0:0:
106,65,110287,1,4,0:0:0:0:
111,96,110469,1,4,0:0:0:0:
123,103,110742,1,4,0:0:0:0:
245,292,110833,1,2,0:2:0:0:
130,81,110924,1,4,0:0:0:0:
452,52,111015,1,2,0:0:0:0:
144,97,111197,1,4,0:0:0:0:
245,292,111378,1,2,0:2:0:0:
163,90,111469,1,4,0:0:0:0:
474,60,111560,1,2,0:0:0:0:
254,287,111742,1,2,0:2:0:0:
146,84,111924,1,4,0:0:0:0:
483,62,112106,1,2,0:0:0:0:
142,95,112197,1,4,0:0:0:0:
245,292,112287,1,2,0:2:0:0:
258,295,112378,1,2,0:2:0:0:
472,52,112469,1,2,0:0:0:0:
147,100,112651,1,4,0:0:0:0:
466,63,112833,1,2,0:0:0:0:
466,61,112924,1,2,0:0:0:0:
245,292,113015,1,2,0:2:0:0:
147,70,113197,1,4,0:0:0:0:
472,52,113378,1,2,0:0:0:0:
461,150,113651,1,2,0:0:0:0:
245,292,113742,1,2,0:2:0:0:
135,70,113924,1,4,0:0:0:0:
460,97,114106,1,2,0:0:0:0:
465,62,114378,1,2,0:0:0:0:
462,84,114469,1,2,0:0:0:0:
462,81,114651,1,2,0:0:0:0:
109,71,114742,1,4,0:0:0:0:
442,335,114833,5,4,0:1:0:0:
85,49,115014,1,4,0:0:0:0:
85,49,115105,1,4,0:0:0:0:
80,41,115287,1,4,0:0:0:0:
395,54,115378,1,2,0:0:0:0:
85,49,115560,1,4,0:0:0:0:
241,284,115651,1,2,0:2:0:0:
241,284,115742,1,2,0:2:0:0:
85,49,115833,1,4,0:0:0:0:
388,51,115923,1,2,0:0:0:0:
90,58,116105,1,4,0:0:0:0:
98,68,116287,1,4,0:0:0:0:
245,291,116469,1,2,0:2:0:0:
103,78,116560,1,4,0:0:0:0:
245,290,116651,1,2,0:2:0:0:
378,79,116833,1,2,0:0:0:0:
375,321,117014,1,4,0:1:0:0:
245,291,117196,1,2,0:2:0:0:
98,80,117287,1,4,0:0:0:0:
386,80,117378,1,2,0:0:0:0:
115,87,117560,1,4,0:0:0:0:
120,85,117742,1,4,0:0:0:0:
121,89,118014,1,4,0:0:0:0:
245,291,118105,1,2,0:2:0:0:
126,96,118196,1,4,0:0:0:0:
420,61,118287,1,2,0:0:0:0:
97,92,118469,1,4,0:0:0:0:
238,293,118560,1,2,0:2:0:0:
245,291,118651,1,2,0:2:0:0:
117,102,118742,1,4,0:0:0:0:
429,79,118833,1,2,0:0:0:0:
107,83,119014,1,4,0:0:0:0:
94,63,119196,1,4,0:0:0:0:
245,289,119378,1,2,0:2:0:0:
79,102,119469,1,4,0:0:0:0:
245,291,119560,1,2,0:2:0:0:
99,92,119651,1,4,0:0:0:0:
411,56,119742,1,2,0:0:0:0:
97,84,119923,1,4,0:0:0:0:
245,289,120105,1,2,0:2:0:0:
429,59,120196,1,2,0:0:0:0:
424,59,120287,1,2,0:0:0:0:
82,80,120469,1,4,0:0:0:0:
449,313,120651,1,4,0:1:0:0:
71,63,120923,1,4,0:0:0:0:
245,289,121014,1,2,0:2:0:0:
91,56,121105,1,4,0:0:0:0:
422,91,121196,1,2,0:0:0:0:
94,60,121378,1,4,0:0:0:0:
245,289,121469,1,2,0:2:0:0:
245,289,121560,1,2,0:2:0:0:
104,61,121651,1,4,0:0:0:0:
493,91,121742,1,2,0:0:0:0:
106,62,121923,1,4,0:0:0:0:
111,93,122105,1,4,0:0:0:0:
123,100,122378,1,4,0:0:0:0:
245,289,122469,1,2,0:2:0:0:
130,78,122560,1,4,0:0:0:0:
452,49,122651,1,2,0:0:0:0:
144,94,122833,1,4,0:0:0:0:
245,289,123014,1,2,0:2:0:0:
163,87,123105,1,4,0:0:0:0:
474,57,123196,1,2,0:0:0:0:
254,284,123378,1,2,0:2:0:0:
146,81,123560,1,4,0:0:0:0:
483,59,123742,1,2,0:0:0:0:
142,92,123833,1,4,0:0:0:0:
245,289,123923,1,2,0:2:0:0:
258,292,124014,1,2,0:2:0:0:
472,49,124105,1,2,0:0:0:0:
147,97,124287,1,4,0:0:0:0:
466,60,124469,1,2,0:0:0:0:
466,58,124560,1,2,0:0:0:0:
245,289,124651,1,2,0:2:0:0:
147,67,124833,1,4,0:0:0:0:
472,49,125014,1,2,0:0:0:0:
409,85,125263,5,2,0:0:0:0:
147,67,125346,1,4,0:0:0:0:
147,67,125468,1,4,0:0:0:0:
419,85,125559,1,2,0:0:0:0:
154,68,125650,1,4,0:0:0:0:
394,92,125741,1,2,0:0:0:0:
147,67,126014,1,4,0:0:0:0:
155,64,126105,1,4,0:0:0:0:
155,64,126196,1,4,0:0:0:0:
155,64,126287,1,4,0:0:0:0:
155,64,126378,1,4,0:0:0:0:
473,346,126468,1,4,0:1:0:0:
161,73,126832,1,4,0:0:0:0:
163,86,126923,1,4,0:0:0:0:
163,85,127014,1,4,0:0:0:0:
163,85,127105,1,4,0:0:0:0:
163,85,127196,1,4,0:0:0:0:
163,85,127287,1,4,0:0:0:0:
163,85,127378,1,4,0:0:0:0:
151,84,127468,1,4,0:0:0:0:
488,348,127559,1,4,0:1:0:0:
163,92,127741,1,4,0:0:0:0:
163,92,127923,1,4,0:0:0:0:
163,92,128105,1,4,0:0:0:0:
488,348,128287,1,4,0:1:0:0:
166,99,128378,1,4,0:0:0:0:
166,99,128468,1,4,0:0:0:0:
156,92,128559,1,4,0:0:0:0:
156,93,128650,1,4,0:0:0:0:
156,93,128832,1,4,0:0:0:0:
488,348,129014,1,4,0:1:0:0:
384,91,129287,1,2,0:0:0:0:
160,102,129378,1,4,0:0:0:0:
160,102,129468,1,4,0:0:0:0:
384,91,129559,1,2,0:0:0:0:
161,108,129650,1,4,0:0:0:0:
161,108,129741,1,4,0:0:0:0:
389,89,129832,1,2,0:0:0:0:
153,119,129923,1,4,0:0:0:0:
153,119,130014,1,4,0:0:0:0:
167,103,130105,1,4,0:0:0:0:
159,117,130196,1,4,0:0:0:0:
159,118,130287,1,4,0:0:0:0:
159,118,130378,1,4,0:0:0:0:
485,348,130468,1,4,0:1:0:0:
366,89,130741,1,2,0:0:0:0:
165,128,130832,1,4,0:0:0:0:
366,89,131105,1,2,0:0:0:0:
163,136,131196,1,4,0:0:0:0:
480,354,131378,1,4,0:1:0:0:
165,128,131468,1,4,0:0:0:0:
165,128,131559,1,4,0:0:0:0:
366,89,131650,1,2,0:0:0:0:
356,86,131741,1,2,0:0:0:0:
484,358,131923,1,4,0:1:0:0:
153,115,132105,1,4,0:0:0:0:
370,97,132196,1,2,0:0:0:0:
151,119,132287,1,4,0:0:0:0:
151,119,132378,1,4,0:0:0:0:
151,119,132468,1,4,0:0:0:0:
151,119,132559,1,4,0:0:0:0:
151,122,132650,1,4,0:0:0:0:
151,122,132741,1,4,0:0:0:0:
151,122,132832,1,4,0:0:0:0:
151,122,132923,1,4,0:0:0:0:
460,340,133014,1,4,0:1:0:0:
157,123,133559,1,4,0:0:0:0:
157,123,133741,1,4,0:0:0:0:
157,123,133923,1,4,0:0:0:0:
157,123,134105,1,4,0:0:0:0:
157,123,134287,1,4,0:0:0:0:
157,123,134468,1,4,0:0:0:0:
24,358,134650,1,0,0:0:0:0:
24,358,134832,1,0,0:0:0:0:
24,358,135014,1,0,0:0:0:0:
492,362,135196,5,4,0:1:0:0:
144,63,135468,1,4,0:0:0:0:
114,61,135650,1,4,0:0:0:0:
411,79,135741,1,2,0:0:0:0:
131,74,135923,1,4,0:0:0:0:
261,307,136105,1,2,0:2:0:0:
151,73,136196,1,4,0:0:0:0:
437,98,136287,1,2,0:0:0:0:
128,73,136468,1,4,0:0:0:0:
146,90,136650,1,4,0:0:0:0:
261,307,136832,1,2,0:2:0:0:
448,88,136923,1,2,0:0:0:0:
159,75,137014,1,4,0:0:0:0:
461,93,137196,1,2,0:0:0:0:
452,95,137378,1,2,0:0:0:0:
450,109,137559,1,2,0:0:0:0:
156,76,137650,1,4,0:0:0:0:
152,84,137832,1,4,0:0:0:0:
471,104,137923,1,2,0:0:0:0:
155,89,138105,1,4,0:0:0:0:
491,108,138287,1,2,0:0:0:0:
152,102,138378,1,4,0:0:0:0:
156,103,138559,1,4,0:0:0:0:
492,110,138650,1,2,0:0:0:0:
171,119,138832,1,4,0:0:0:0:
246,305,139014,1,2,0:2:0:0:
487,92,139105,1,2,0:0:0:0:
501,96,139196,1,2,0:0:0:0:
165,122,139378,1,4,0:0:0:0:
156,103,139559,1,4,0:0:0:0:
253,297,139741,1,2,0:2:0:0:
506,91,139832,1,2,0:0:0:0:
149,110,139923,1,4,0:0:0:0:
511,92,140105,1,2,0:0:0:0:
482,97,140287,1,2,0:0:0:0:
270,300,140468,1,2,0:2:0:0:
149,108,140559,1,4,0:0:0:0:
149,110,140741,1,4,0:0:0:0:
477,111,140832,1,2,0:0:0:0:
156,119,141014,1,4,0:0:0:0:
168,119,141287,1,4,0:0:0:0:
161,117,141468,1,4,0:0:0:0:
503,101,141559,1,2,0:0:0:0:
166,113,141741,1,4,0:0:0:0:
271,298,141923,1,2,0:2:0:0:
505,112,142014,1,2,0:0:0:0:
505,112,142105,1,2,0:0:0:0:
165,111,142287,1,4,0:0:0:0:
161,117,142468,1,4,0:0:0:0:
475,108,142741,1,2,0:0:0:0:
154,106,142832,1,4,0:0:0:0:
477,109,143014,1,2,0:0:0:0:
475,123,143196,1,2,0:0:0:0:
489,132,143378,1,2,0:0:0:0:
130,93,143468,1,4,0:0:0:0:
131,92,143650,1,4,0:0:0:0:
480,141,143741,1,2,0:0:0:0:
131,100,143923,1,4,0:0:0:0:
475,138,144105,1,2,0:0:0:0:
130,99,144196,1,4,0:0:0:0:
131,99,144378,1,4,0:0:0:0:
480,141,144468,1,2,0:0:0:0:
134,97,144650,1,4,0:0:0:0:
272,293,144832,1,2,0:2:0:0:
138,104,144923,1,4,0:0:0:0:
491,139,145014,1,2,0:0:0:0:
135,108,145196,1,4,0:0:0:0:
496,151,145378,1,2,0:0:0:0:
135,118,145468,1,4,0:0:0:0:
494,148,145559,1,2,0:0:0:0:
492,147,145650,1,2,0:0:0:0:
477,142,145741,1,2,0:0:0:0:
132,117,145862,1,4,0:0:0:0:
132,117,145984,1,4,0:0:0:0:
132,117,146105,1,4,0:0:0:0:
132,117,146226,1,4,0:0:0:0:
135,118,146468,1,4,0:0:0:0:
132,117,146590,1,4,0:0:0:0:
506,347,146832,5,4,0:1:0:0:
141,117,147014,1,4,0:0:0:0:
132,117,147196,1,4,0:0:0:0:
420,97,147378,1,2,0:0:0:0:
141,117,147559,1,4,0:0:0:0:
141,117,147741,1,4,0:0:0:0:
431,93,147923,1,2,0:0:0:0:
126,95,148105,1,4,0:0:0:0:
430,94,148287,1,2,0:0:0:0:
120,98,148468,1,4,0:0:0:0:
431,93,148650,1,2,0:0:0:0:
126,95,148832,1,4,0:0:0:0:
126,95,149014,1,4,0:0:0:0:
120,98,149196,1,4,0:0:0:0:
485,348,149378,1,4,0:1:0:0:
456,108,149559,1,2,0:0:0:0:
469,103,149741,1,2,0:0:0:0:
120,98,149923,1,4,0:0:0:0:
120,98,150105,1,4,0:0:0:0:
470,103,150287,1,2,0:0:0:0:
120,98,150378,1,4,0:0:0:0:
120,98,150468,1,4,0:0:0:0:
105,96,150650,1,4,0:0:0:0:
483,105,150832,1,2,0:0:0:0:
120,98,151014,1,4,0:0:0:0:
120,98,151196,1,4,0:0:0:0:
120,98,151378,1,4,0:0:0:0:
438,81,151559,1,2,0:0:0:0:
130,104,151741,1,4,0:0:0:0:
130,104,151923,1,4,0:0:0:0:
126,101,152105,1,4,0:0:0:0:
136,93,152287,1,4,0:0:0:0:
441,93,152468,1,2,0:0:0:0:
494,343,152650,1,4,0:1:0:0:
153,98,152832,1,4,0:0:0:0:
151,98,153014,1,4,0:0:0:0:
452,84,153196,1,2,0:0:0:0:
156,104,153378,1,4,0:0:0:0:
156,104,153559,1,4,0:0:0:0:
486,87,153741,1,2,0:0:0:0:
161,109,153923,1,4,0:0:0:0:
161,109,154105,1,4,0:0:0:0:
147,97,154287,1,4,0:0:0:0:
481,98,154468,1,2,0:0:0:0:
153,111,154650,1,4,0:0:0:0:
153,111,154832,1,4,0:0:0:0:
133,103,155014,1,4,0:0:0:0:
138,113,155196,1,4,0:0:0:0:
460,103,155378,1,2,0:0:0:0:
147,113,155559,1,4,0:0:0:0:
142,115,155741,1,4,0:0:0:0:
142,115,155923,1,4,0:0:0:0:
486,104,156105,1,2,0:0:0:0:
151,121,156287,1,4,0:0:0:0:
151,121,156468,1,4,0:0:0:0:
486,104,156650,1,2,0:0:0:0:
145,125,156832,1,4,0:0:0:0:
496,355,157014,1,4,0:1:0:0:
145,125,157196,1,4,0:0:0:0:
490,348,157378,1,4,0:1:0:0:
151,125,157559,1,4,0:0:0:0:
485,343,157741,1,4,0:1:0:0:
145,125,157923,1,4,0:0:0:0:
485,343,158105,1,4,0:1:0:0:
476,107,158287,1,2,0:0:0:0:
224,323,158468,6,0,P|207:301|197:263,1,66.5,4|0,0:1|0:0,0:0:0:0:
246,191,160287,5,4,0:0:0:0:
246,191,160378,1,4,0:0:0:0:
246,191,160468,1,4,0:0:0:0:
132,123,160650,2,0,L|185:130,1,52.4999983978272,4|0,0:1|0:0,0:0:0:0:
246,191,161196,5,4,0:3:0:0:
457,87,161378,2,0,L|250:105,1,199.499993911743,4|0,0:1|0:0,0:0:0:0:
246,191,163196,5,4,0:0:0:0:
246,191,163287,1,4,0:0:0:0:
246,191,163378,1,4,0:0:0:0:
65,114,163559,2,0,L|196:125,1,122.499996261597,4|0,0:1|0:0,0:0:0:0:
246,191,164105,5,4,0:3:0:0:
26,214,164287,2,0,L|245:191,1,220.5,4|0,0:1|0:0,0:0:0:0:
487,19,170105,6,0,L|419:25,1,40.2500007677078,4|0,0:1|0:0,0:0:0:0:
317,97,170287,2,0,L|385:103,1,40.2500007677078,4|0,0:0|0:0,0:0:0:0:
501,113,170468,1,4,0:0:0:0:
211,298,170650,6,0,B|221:305|221:305|277:303,1,40.2500007677078,2|0,0:0|0:0,0:0:0:0:
423,322,170832,2,0,L|356:327,1,40.2500007677078,4|0,0:0|0:0,0:0:0:0:
254,381,171014,2,0,L|320:375,1,40.2500007677078,4|0,0:0|0:0,0:0:0:0:
104,170,171196,6,0,B|110:189|110:189|111:224,1,40.2500007677078,2|0,0:0|0:0,0:0:0:0:
248,304,171378,2,0,L|243:247,1,40.2500007677078,4|0,0:0|0:0,0:0:0:0:
68,344,171559,2,0,L|71:384,1,40.2500007677078,4|0,0:0|0:0,0:0:0:0:
190,199,171741,2,0,L|193:158,1,40.2500007677078,4|0,0:0|0:0,0:0:0:0:
23,0,171923,6,0,B|26:17|26:17|30:68,1,40.2500007677078,2|0,0:0|0:0,0:0:0:0:
104,170,172105,2,0,L|96:101,1,40.2500007677078,4|0,0:0|0:0,0:0:0:0:
174,19,172287,2,0,L|166:87,1,40.2500007677078,4|0,0:0|0:0,0:0:0:0:
104,170,172468,5,4,0:0:0:0:
269,38,172650,1,4,0:0:0:0:
347,162,172832,6,0,B|355:182|355:182|353:225,1,40.2500007677078,2|0,0:0|0:0,0:0:0:0:
445,358,173014,2,0,L|448:317,1,40.2500007677078,4|0,0:0|0:0,0:0:0:0:
295,308,173196,2,0,L|357:302,1,40.2500007677078,4|0,0:0|0:0,0:0:0:0:
490,210,173378,2,0,L|449:206,1,40.2500007677078,4|0,0:0|0:0,0:0:0:0:
269,37,173559,6,0,B|293:27|293:27|336:25,1,40.2500007677078,2|0,0:0|0:0,0:0:0:0:
511,22,173741,2,0,L|445:26,1,40.2500007677078,4|0,0:0|0:0,0:0:0:0:
269,49,173923,2,0,L|337:42,1,40.2500007677078,4|0,0:0|0:0,0:0:0:0:
490,210,174105,6,0,B|472:203|472:203|435:205,1,40.2500007677078,2|0,0:0|0:0,0:0:0:0:
256,231,174287,2,0,L|310:226,1,40.2500007677078,4|0,0:0|0:0,0:0:0:0:
445,283,174468,2,0,L|404:286,1,40.2500007677078,4|0,0:0|0:0,0:0:0:0:
203,300,174650,1,4,0:0:0:0:
269,49,174832,6,0,B|273:64|273:64|274:94,1,40.2500007677078,2|0,0:0|0:0,0:0:0:0:
203,300,175014,2,0,L|208:254,1,40.2500007677078,4|0,0:0|0:0,0:0:0:0:
134,0,175196,2,0,L|128:45,1,40.2500007677078,4|0,0:0|0:0,0:0:0:0:
115,234,175438,6,0,L|122:275,2,26.8333338451386,0|0|4,0:0|0:0|0:0,0:0:0:0:
490,347,175923,1,4,0:1:0:0:
137,104,176105,1,4,0:0:0:0:
451,86,176287,1,2,0:0:0:0:
151,108,176468,1,4,0:0:0:0:
149,108,176650,1,4,0:0:0:0:
149,108,176832,1,4,0:0:0:0:
475,82,177014,1,2,0:0:0:0:
151,108,177196,1,4,0:0:0:0:
151,108,177378,1,4,0:0:0:0:
149,108,177559,1,4,0:0:0:0:
491,107,177741,1,2,0:0:0:0:
476,354,177923,1,4,0:1:0:0:
149,113,178105,1,4,0:0:0:0:
149,113,178287,1,4,0:0:0:0:
491,107,178468,1,2,0:0:0:0:
144,101,178650,1,4,0:0:0:0:
144,101,178832,1,4,0:0:0:0:
144,101,179014,1,4,0:0:0:0:
500,104,179196,1,2,0:0:0:0:
495,361,179378,1,4,0:1:0:0:
165,99,179559,1,4,0:0:0:0:
165,99,179741,1,4,0:0:0:0:
489,103,179923,1,2,0:0:0:0:
167,88,180105,1,4,0:0:0:0:
167,88,180287,1,4,0:0:0:0:
167,88,180468,1,4,0:0:0:0:
464,91,180650,1,2,0:0:0:0:
476,343,180832,1,4,0:1:0:0:
442,338,181741,5,4,0:1:0:0:
85,52,181923,1,4,0:0:0:0:
85,52,182013,1,4,0:0:0:0:
80,44,182195,1,4,0:0:0:0:
395,57,182286,1,2,0:0:0:0:
85,52,182468,1,4,0:0:0:0:
241,287,182559,1,2,0:2:0:0:
241,287,182650,1,2,0:2:0:0:
85,52,182741,1,4,0:0:0:0:
388,54,182831,1,2,0:0:0:0:
90,61,183013,1,4,0:0:0:0:
98,71,183195,1,4,0:0:0:0:
245,294,183377,1,2,0:2:0:0:
103,81,183468,1,4,0:0:0:0:
245,293,183559,1,2,0:2:0:0:
378,82,183741,1,2,0:0:0:0:
375,324,183922,1,4,0:1:0:0:
245,294,184104,1,2,0:2:0:0:
98,83,184195,1,4,0:0:0:0:
386,83,184286,1,2,0:0:0:0:
115,90,184468,1,4,0:0:0:0:
120,88,184650,1,4,0:0:0:0:
121,92,184922,1,4,0:0:0:0:
245,294,185013,1,2,0:2:0:0:
126,99,185104,1,4,0:0:0:0:
420,64,185195,1,2,0:0:0:0:
97,95,185377,1,4,0:0:0:0:
238,296,185468,1,2,0:2:0:0:
245,294,185559,1,2,0:2:0:0:
117,105,185650,1,4,0:0:0:0:
429,82,185741,1,2,0:0:0:0:
107,86,185922,1,4,0:0:0:0:
94,66,186104,1,4,0:0:0:0:
245,292,186286,1,2,0:2:0:0:
79,105,186377,1,4,0:0:0:0:
245,294,186468,1,2,0:2:0:0:
99,95,186559,1,4,0:0:0:0:
411,59,186650,1,2,0:0:0:0:
97,87,186831,1,4,0:0:0:0:
245,292,187013,1,2,0:2:0:0:
429,62,187104,1,2,0:0:0:0:
424,62,187195,1,2,0:0:0:0:
82,83,187377,1,4,0:0:0:0:
449,316,187559,1,4,0:1:0:0:
71,66,187831,1,4,0:0:0:0:
245,292,187922,1,2,0:2:0:0:
91,59,188013,1,4,0:0:0:0:
422,94,188104,1,2,0:0:0:0:
94,63,188286,1,4,0:0:0:0:
245,292,188377,1,2,0:2:0:0:
245,292,188468,1,2,0:2:0:0:
104,64,188559,1,4,0:0:0:0:
493,94,188650,1,2,0:0:0:0:
106,65,188831,1,4,0:0:0:0:
111,96,189013,1,4,0:0:0:0:
123,103,189286,1,4,0:0:0:0:
245,292,189377,1,2,0:2:0:0:
130,81,189468,1,4,0:0:0:0:
452,52,189559,1,2,0:0:0:0:
144,97,189741,1,4,0:0:0:0:
245,292,189922,1,2,0:2:0:0:
163,90,190013,1,4,0:0:0:0:
474,60,190104,1,2,0:0:0:0:
254,287,190286,1,2,0:2:0:0:
146,84,190468,1,4,0:0:0:0:
483,62,190650,1,2,0:0:0:0:
142,95,190741,1,4,0:0:0:0:
245,292,190831,1,2,0:2:0:0:
258,295,190922,1,2,0:2:0:0:
472,52,191013,1,2,0:0:0:0:
147,100,191195,1,4,0:0:0:0:
466,63,191377,1,2,0:0:0:0:
466,61,191468,1,2,0:0:0:0:
245,292,191559,1,2,0:2:0:0:
147,70,191741,1,4,0:0:0:0:
472,52,191922,1,2,0:0:0:0:
461,150,192195,1,2,0:0:0:0:
245,292,192286,1,2,0:2:0:0:
135,70,192468,1,4,0:0:0:0:
460,97,192650,1,2,0:0:0:0:
465,62,192922,1,2,0:0:0:0:
462,84,193013,1,2,0:0:0:0:
462,81,193195,1,2,0:0:0:0:
109,71,193286,1,4,0:0:0:0:
442,335,193377,5,4,0:1:0:0:
85,49,193558,1,4,0:0:0:0:
85,49,193649,1,4,0:0:0:0:
80,41,193831,1,4,0:0:0:0:
395,54,193922,1,2,0:0:0:0:
85,49,194104,1,4,0:0:0:0:
241,284,194195,1,2,0:2:0:0:
241,284,194286,1,2,0:2:0:0:
85,49,194377,1,4,0:0:0:0:
388,51,194467,1,2,0:0:0:0:
90,58,194649,1,4,0:0:0:0:
98,68,194831,1,4,0:0:0:0:
245,291,195013,1,2,0:2:0:0:
103,78,195104,1,4,0:0:0:0:
245,290,195195,1,2,0:2:0:0:
378,79,195377,1,2,0:0:0:0:
375,321,195558,1,4,0:1:0:0:
245,291,195740,1,2,0:2:0:0:
98,80,195831,1,4,0:0:0:0:
386,80,195922,1,2,0:0:0:0:
115,87,196104,1,4,0:0:0:0:
120,85,196286,1,4,0:0:0:0:
121,89,196558,1,4,0:0:0:0:
245,291,196649,1,2,0:2:0:0:
126,96,196740,1,4,0:0:0:0:
420,61,196831,1,2,0:0:0:0:
97,92,197013,1,4,0:0:0:0:
238,293,197104,1,2,0:2:0:0:
245,291,197195,1,2,0:2:0:0:
117,102,197286,1,4,0:0:0:0:
429,79,197377,1,2,0:0:0:0:
107,83,197558,1,4,0:0:0:0:
94,63,197740,1,4,0:0:0:0:
245,289,197922,1,2,0:2:0:0:
79,102,198013,1,4,0:0:0:0:
245,291,198104,1,2,0:2:0:0:
99,92,198195,1,4,0:0:0:0:
411,56,198286,1,2,0:0:0:0:
97,84,198467,1,4,0:0:0:0:
245,289,198649,1,2,0:2:0:0:
429,59,198740,1,2,0:0:0:0:
424,59,198831,1,2,0:0:0:0:
82,80,199013,1,4,0:0:0:0:
449,313,199195,1,4,0:1:0:0:
71,63,199467,1,4,0:0:0:0:
245,289,199558,1,2,0:2:0:0:
91,56,199649,1,4,0:0:0:0:
422,91,199740,1,2,0:0:0:0:
94,60,199922,1,4,0:0:0:0:
245,289,200013,1,2,0:2:0:0:
245,289,200104,1,2,0:2:0:0:
104,61,200195,1,4,0:0:0:0:
493,91,200286,1,2,0:0:0:0:
106,62,200467,1,4,0:0:0:0:
111,93,200649,1,4,0:0:0:0:
123,100,200922,1,4,0:0:0:0:
245,289,201013,1,2,0:2:0:0:
130,78,201104,1,4,0:0:0:0:
452,49,201195,1,2,0:0:0:0:
144,94,201377,1,4,0:0:0:0:
245,289,201558,1,2,0:2:0:0:
163,87,201649,1,4,0:0:0:0:
474,57,201740,1,2,0:0:0:0:
254,284,201922,1,2,0:2:0:0:
146,81,202104,1,4,0:0:0:0:
483,59,202286,1,2,0:0:0:0:
142,92,202377,1,4,0:0:0:0:
245,289,202467,1,2,0:2:0:0:
258,292,202558,1,2,0:2:0:0:
472,49,202649,1,2,0:0:0:0:
147,97,202831,1,4,0:0:0:0:
466,60,203013,1,2,0:0:0:0:
466,58,203104,1,2,0:0:0:0:
245,289,203195,1,2,0:2:0:0:
147,67,203377,1,4,0:0:0:0:
199,299,203559,6,0,P|252:299|310:257,1,122.500001168251,2|0,0:0|0:0,0:0:0:0:
36,0,203832,6,0,P|16:25|-1:71,1,61.2500005841255,4|0,0:0|0:0,0:0:0:0:
58,354,204014,5,4,0:0:0:0:
58,354,204105,2,0,L|65:273,1,61.2500005841255,2|0,0:0|0:0,0:0:0:0:
130,21,204287,6,0,L|142:162,1,122.500001168251,4|0,0:1|0:0,0:0:0:0:
512,295,204559,5,4,0:0:0:0:
504,271,204649,1,4,0:0:0:0:
491,250,204740,1,4,0:0:0:0:
474,233,204831,1,4,0:0:0:0:
453,220,204922,1,4,0:0:0:0:
427,211,205014,6,0,L|181:189,1,218.75,4|0,0:1|0:0,0:0:0:0:
124,185,205559,1,4,0:0:0:0:
410,121,205741,6,0,L|354:125,1,43.75,4|0,0:1|0:0,0:0:0:0:
124,185,205923,1,4,0:0:0:0:
342,284,206059,5,2,0:0:0:0:
342,284,206105,2,0,L|297:280,1,43.75,4|0,0:1|0:0,0:0:0:0:
124,185,206287,1,4,0:0:0:0:
354,52,206468,5,4,0:0:0:0:
354,52,206514,2,4,L|283:58,1,65.625,4|0,0:1|0:0,0:0:0:0:
124,185,206832,1,4,0:1:0:0:
256,192,206923,12,4,230196,0:1:0:0:
