osu file format v14

[General]
AudioFilename: audio.mp3
AudioLeadIn: 0
PreviewTime: 103009
Countdown: 0
SampleSet: None
StackLeniency: 0.2
Mode: 0
LetterboxInBreaks: 0
WidescreenStoryboard: 1

[Editor]
Bookmarks: 0,2261,7023,9642,11440,17918,22144,28096,30537,37008,45735,57371,63930,68282,79918,91554,103197,114833,126469,135197,146833,170106,175924,181742,193378,205015,206833
DistanceSpacing: 1.6
BeatDivisor: 4
GridSize: 16
TimelineZoom: 3.799998

[Metadata]
Title:Neoprene Byzantine
TitleUnicode:Neoprene Byzantine
Artist:Closure In Moscow
ArtistUnicode:Closure In Moscow
Creator:Godot
Version:Foolish Desires
Source:
Tags:pink lemonade progrock english progressive rock
BeatmapID:1959012
BeatmapSetID:937839

[Difficulty]
HPDrainRate:0
CircleSize:4
OverallDifficulty:6
ApproachRate:9.6
SliderMultiplier:1.4
SliderTickRate:1

[Events]
//Background and Video events
0,0,"closure_bg.png",0,0
//Break Periods
2,2461,6514
2,9841,10931
2,13425,17409
2,22323,27567
2,30736,36499
//Storyboard Layer 0 (Background)
//Storyboard Layer 1 (Fail)
//Storyboard Layer 2 (Pass)
//Storyboard Layer 3 (Foreground)
//Storyboard Sound Samples

[TimingPoints]
0,238.095238095238,4,3,1,100,1,0
0,-86.9565217391304,7,3,1,100,0,1
1751,-166.666666666667,7,3,1,100,0,1
1785,-166.666666666667,7,3,1,100,0,0
7023,238.095238095238,4,3,1,100,1,0
7023,-105.263157894737,4,3,1,100,0,0
7261,-105.263157894737,4,3,1,100,0,1
8445,-80,4,3,1,100,0,1
8660,-105.263157894737,4,3,1,100,0,1
9403,-266.666666666667,4,3,1,100,0,0
11440,238.095238095238,4,3,1,100,1,0
11598,-166.666666666667,4,3,1,100,0,1
12670,-166.666666666667,4,3,1,100,0,0
17918,238.095238095238,4,3,1,100,1,0
18029,-105.263157894737,4,3,1,100,0,1
18791,-200,4,3,1,100,0,1
19168,-105.263157894737,4,3,1,100,0,1
19756,-95.2380952380952,4,3,1,100,0,1
19902,-95.2380952380952,4,3,1,100,0,0
19941,-95.2380952380952,4,3,1,100,0,1
20100,-95.2380952380952,4,3,1,100,0,0
20140,-95.2380952380952,4,3,1,100,0,1
20458,-133.333333333333,4,3,1,100,0,1
21006,-166.666666666667,4,3,1,100,0,1
21251,-166.666666666667,4,3,1,100,0,0
28195,-105.263157894737,4,3,1,100,0,1
29508,-105.263157894737,4,3,1,100,0,0
37008,363.636363636364,4,3,1,50,1,0
37008,-222.222222222222,4,3,1,50,0,0
45280,-222.222222222222,4,3,1,50,0,0
45735,363.636363636364,4,3,1,80,1,1
45735,-86.9565217391304,4,3,1,80,0,1
47189,-62.5,4,3,1,80,0,1
47735,-86.9565217391304,4,3,1,80,0,1
55462,-71.4285714285714,4,3,1,80,0,1
55916,-60.6060606060606,4,3,1,80,0,1
56644,-55.5555555555556,4,3,1,70,0,1
57371,361.44578313253,4,3,1,70,1,0
57371,-86.9565217391304,4,3,1,70,0,0
61708,370.37037037037,4,3,1,70,1,0
61708,-86.9565217391304,4,3,1,70,0,0
63930,352.941176470588,4,3,1,70,1,0
63930,-86.9565217391304,4,3,1,70,0,0
68282,363.636363636364,4,3,1,50,1,0
68282,-60.6060606060606,4,3,1,50,0,0
68312,-60.6060606060606,4,3,1,50,0,0
77009,-55.5555555555556,4,3,1,50,0,0
77372,-60.6060606060606,4,3,1,50,0,0
79918,-54.054054054054,4,3,1,60,0,0
91554,363.19612590799,4,3,1,50,1,0
91554,-200,4,3,1,50,0,0
97637,-133.333333333333,4,3,1,50,0,0
98363,-100,4,3,1,50,0,0
98454,379.746835443038,4,3,1,50,1,0
98833,357.142857142857,4,3,1,50,1,0
99100,-80,4,3,1,50,0,0
99547,365.07453605111,4,3,1,50,1,0
100277,-133.333333333333,4,3,1,50,0,0
101737,-133.333333333333,4,3,1,50,0,0
102102,-133.333333333333,4,3,1,52,0,0
102193,-133.333333333333,4,3,1,54,0,0
102285,-133.333333333333,4,3,1,56,0,0
102376,-133.333333333333,4,3,1,58,0,0
102467,-133.333333333333,4,3,1,60,0,0
102558,-133.333333333333,4,3,1,62,0,0
102650,-133.333333333333,4,3,1,64,0,0
102741,-133.333333333333,4,3,1,66,0,0
102832,-133.333333333333,4,3,1,68,0,0
102923,-133.333333333333,4,3,1,70,0,0
103197,363.636363636364,4,3,1,80,1,1
103197,-86.9565217391304,4,3,1,80,0,1
104651,-62.5,4,3,1,80,0,1
105197,-86.9565217391304,4,3,1,80,0,1
114810,-60.6060606060606,4,3,1,90,0,0
114833,-60.6060606060606,4,3,1,90,0,1
125015,331.491712707182,4,3,1,90,1,1
125015,-62.5,4,3,1,90,0,1
125378,363.636363636364,4,3,1,90,1,0
125378,-60.6060606060606,4,3,1,90,0,0
126014,-60.6060606060606,4,3,1,85,0,0
126105,-60.6060606060606,4,3,1,80,0,0
126196,-60.6060606060606,4,3,1,75,0,0
126287,-60.6060606060606,4,3,1,70,0,0
126468,-100,4,3,1,60,0,0
132105,-100,4,3,1,58,0,0
132196,-100,4,3,1,56,0,0
132287,-100,4,3,1,54,0,0
132378,-100,4,3,1,52,0,0
132468,-100,4,3,1,50,0,0
132650,-100,4,3,1,48,0,0
132832,-100,4,3,1,46,0,0
133014,-100,4,3,1,44,0,0
133559,-100,4,3,1,42,0,0
134105,-100,4,3,1,40,0,0
135923,-100,4,3,1,43,0,0
136287,-90.9090909090909,4,3,1,43,0,0
136650,-90.9090909090909,4,3,1,46,0,0
137378,-86.9565217391304,4,3,1,46,0,0
138105,-83.3333333333333,4,3,1,50,0,0
138832,-80,4,3,1,53,0,0
141014,-76.9230769230769,4,3,1,56,0,0
141741,-74.0740740740741,4,3,1,60,0,0
142468,-74.0740740740741,4,3,1,63,0,0
143014,-71.4285714285714,4,3,1,66,0,0
143923,-68.9655172413793,4,3,1,70,0,0
144468,-64.5161290322581,4,3,1,70,0,0
144923,-60.6060606060606,4,3,1,70,0,0
145378,-60.6060606060606,4,3,1,75,0,0
146832,-33.3333333333333,4,3,1,100,0,1
150287,-37.037037037037,4,3,1,100,0,1
152105,-41.6666666666667,4,3,1,100,0,1
152650,-33.3333333333333,4,3,1,100,0,1
153378,-40,4,3,1,100,0,1
154287,-33.3333333333333,4,3,1,100,0,1
155196,-44.4444444444445,4,3,1,100,0,1
155378,-42.5531914893617,4,3,1,100,0,1
155559,-39.2156862745098,4,3,1,100,0,1
155741,-35.0877192982456,4,3,1,100,0,1
155923,-33.3333333333333,4,3,1,100,0,1
157378,-37.037037037037,4,3,1,100,0,1
158468,-1000,4,3,1,90,0,0
160650,-333.333333333333,4,3,1,85,0,0
163559,-142.857142857143,4,3,1,80,0,0
164287,-1000,4,3,1,80,0,0
170105,-86.9565217391304,4,3,1,70,0,0
175923,-66.6666666666667,4,3,1,60,0,0
181741,-80,4,3,1,80,0,1
183014,-60.6060606060606,4,3,1,80,0,1
183923,-80,4,3,1,80,0,1
193378,-57.1428571428571,4,3,1,90,0,1
204968,-80,4,3,1,90,0,0
205014,-80,4,3,1,80,0,1
206059,-80,4,3,1,80,0,0
206105,-80,4,3,1,80,0,1
206468,-80,4,3,1,80,0,0
206514,-80,4,3,1,80,0,1
206787,-285.714285714286,4,3,1,80,0,0
206832,-285.714285714286,4,3,1,80,0,1
206878,-285.714285714286,4,3,1,80,0,0

[Colours]
Combo1 : 163,213,114
Combo2 : 239,189,139
Combo3 : 152,203,254
Combo4 : 229,176,255

[HitObjects]
0,108,0,5,4,0:1:0:0:
41,219,119,1,4,0:0:0:0:
21,253,238,2,0,P|34:226|43:217,1,40.2500007677078,0|0,0:0|0:0,0:0:0:0:
52,215,357,1,4,0:0:0:0:
64,210,476,1,4,0:0:0:0:
228,96,595,6,0,P|212:111|202:139,1,40.2500007677078,0|0,0:0|0:0,0:0:0:0:
209,331,714,2,0,L|200:243,1,80.5000015354157,4|0,0:1|0:0,0:0:0:0:
201,245,952,1,0,0:0:0:0:
286,384,1071,2,0,L|293:296,1,80.5000015354157,0|0,0:0|0:0,0:0:0:0:
512,311,1309,6,0,P|515:288|507:260,1,40.2500007677078,0|0,0:0|0:0,0:0:0:0:
451,167,1428,5,4,0:1:0:0:
451,167,1547,1,4,0:1:0:0:
344,140,1666,6,0,P|354:120|377:102,1,40.2500007677078,4|0,0:0|0:0,0:0:0:0:
436,0,1785,6,0,L|452:173,1,167.999994873047,4|0,0:1|0:0,0:0:0:0:
316,207,7023,5,4,0:0:0:0:
316,207,7102,1,4,0:0:0:0:
316,207,7181,1,4,0:0:0:0:
201,68,7261,6,0,P|232:74|254:82,1,44.3333321495056,4|0,1:0|0:0,0:0:0:0:
316,207,7380,2,0,L|320:145,1,44.3333321495056,4|0,1:0|0:0,0:0:0:0:
396,23,7538,6,0,P|372:27|337:47,1,44.3333321495056,2|0,0:0|0:0,0:0:0:0:
196,74,7657,2,0,P|220:78|255:98,1,44.3333321495056,4|0,0:0|0:0,0:0:0:0:
304,339,7816,6,0,L|321:123,1,199.499994672775,4|0,1:0|0:0,0:0:0:0:
320,131,8213,1,2,0:0:0:0:
144,325,8332,2,0,L|138:263,1,44.3333321495056,4|0,0:0|0:0,0:0:0:0:
197,74,8451,6,0,L|184:218,1,116.666666666667,4|0,0:1|0:0,0:0:0:0:
68,216,8689,2,0,P|96:199|141:194,1,44.3333321495057,2|0,0:0|0:0,0:0:0:0:
308,67,8808,6,0,P|278:46|242:40,1,44.3333321495057,2|0,0:0|0:0,0:0:0:0:
53,294,9007,1,4,0:0:0:0:
53,294,9205,1,4,0:0:0:0:
53,294,9403,2,0,L|60:367,1,52.5000020027161,4|0,0:1|0:0,0:0:0:0:
32,0,11440,5,4,0:0:0:0:
21,238,11598,5,4,0:1:0:0:
7,213,11678,1,4,0:0:0:0:
4,186,11757,1,4,0:0:0:0:
12,159,11836,1,4,0:0:0:0:
30,138,11916,1,4,0:0:0:0:
54,125,11995,1,4,0:0:0:0:
82,123,12074,1,4,0:0:0:0:
108,132,12154,1,4,0:0:0:0:
129,150,12233,1,4,0:0:0:0:
164,281,12313,6,0,P|142:261|130:241,1,41.9999987182617,4|0,0:1|0:0,0:0:0:0:
207,111,12471,1,4,0:0:0:0:
207,111,12511,2,0,P|213:140|210:163,1,41.9999987182617,4|0,0:1|0:0,0:0:0:0:
78,196,12670,6,0,L|279:220,1,195.999994018555,4|0,0:1|0:0,0:0:0:0:
497,16,17918,5,4,0:0:0:0:
511,364,18037,2,0,L|501:252,1,88.6666642990113,4|0,0:1|0:0,0:0:0:0:
462,138,18275,5,4,0:0:0:0:
462,138,18354,2,0,P|440:116|410:108,1,44.3333321495056,0|0,0:0|0:0,0:0:0:0:
254,243,18513,2,0,P|284:247|313:236,1,44.3333321495057,2|0,0:0|0:0,0:0:0:0:
355,132,18671,2,0,L|349:194,1,44.3333321495057,2|0,0:2|0:0,0:0:0:0:
179,35,18791,6,0,L|175:0,2,35,4|4|4,0:0|0:0|0:0,0:0:0:0:
179,35,19068,1,0,0:0:0:0:
179,35,19108,1,0,0:0:0:0:
181,53,19187,6,0,P|164:71|156:93,1,44.3333321495057,2|0,0:0|0:0,0:0:0:0:
260,238,19306,2,0,P|248:216|228:201,1,44.3333321495057,0|0,0:0|0:0,0:0:0:0:
0,235,19425,1,4,0:0:0:0:
0,235,19465,1,4,0:0:0:0:
0,235,19505,1,4,0:0:0:0:
0,235,19624,2,0,P|22:224|46:224,1,44.3333321495057,2|0,0:2|0:0,0:0:0:0:
41,223,19743,1,4,0:0:0:0:
41,223,19822,1,4,0:0:0:0:
101,302,19941,5,4,0:1:0:0:
167,359,20021,5,4,0:0:0:0:
300,323,20140,5,4,0:1:0:0:
374,374,20219,5,4,0:0:0:0:
397,259,20338,5,4,0:0:0:0:
512,143,20457,6,0,P|487:143|458:157,1,48.9999985046387,2|4,0:0|0:0,0:0:0:0:
401,264,20656,1,2,0:2:0:0:
401,264,20735,1,4,0:0:0:0:
376,50,20814,6,0,P|392:61|405:86,1,35.0000013351441,4|0,0:1|0:0,0:0:0:0:
415,89,20933,1,4,0:0:0:0:
415,89,20973,1,4,0:0:0:0:
415,89,21013,1,4,0:0:0:0:
415,89,21052,1,4,0:0:0:0:
298,157,21132,6,0,L|311:155,3,13.9999995727539,0|0|0|0,0:0|0:0|0:0|0:0,0:0:0:0:
0,0,21489,5,4,0:0:0:0:
0,0,21568,5,4,0:0:0:0:
40,70,21648,5,4,0:0:0:0:
95,8,21727,5,4,0:0:0:0:
153,75,21806,6,0,L|163:188,1,111.999996582031,4|0,0:1|0:0,0:0:0:0:
163,0,28076,5,2,0:0:0:0:
189,211,28195,2,0,L|199:106,1,88.6666642990113,4|0,0:1|0:0,0:0:0:0:
310,133,28394,6,0,P|298:151|265:173,1,44.3333321495057,0|0,0:0|0:0,0:0:0:0:
146,201,28513,1,4,0:0:0:0:
146,201,28592,2,0,P|166:208|205:207,1,44.3333321495057,0|2,0:0|0:0,0:0:0:0:
495,258,28830,6,0,L|476:89,1,155.16666252327,4|0,0:1|0:0,0:0:0:0:
400,0,29187,2,0,P|427:14|452:36,1,44.3333321495057,4|0,0:0|0:0,0:0:0:0:
473,111,29306,2,0,L|482:193,1,66.4999982242585,2|0,0:0|0:0,0:0:0:0:
367,347,29505,6,0,P|319:375|263:369,1,110.833330373764,4|0,0:1|0:0,0:0:0:0:
97,281,29783,6,0,P|144:252|201:259,1,110.833330373764,4|0,0:1|0:0,0:0:0:0:
363,331,30060,6,0,L|100:296,1,265.999992897034,4|0,0:1|0:0,0:0:0:0:
11,141,37008,6,0,L|81:147,1,62.9999980773926,4|0,0:0|0:0,0:0:0:0:
202,157,37735,1,2,0:0:0:0:
202,157,38098,1,2,0:2:0:0:
224,302,38462,6,0,L|294:295,1,62.9999980773926,4|2,0:0|0:2,0:0:0:0:
415,286,39189,1,2,0:0:0:0:
415,286,39552,1,2,0:2:0:0:
208,11,39917,6,0,P|195:37|194:74,1,62.9999980773926,4|2,0:0|0:2,0:0:0:0:
305,122,40644,1,2,0:0:0:0:
305,122,41008,1,2,0:2:0:0:
76,0,41371,6,0,P|47:-4|11:6,1,62.9999980773926,4|2,0:0|0:2,0:0:0:0:
0,126,42098,1,2,0:0:0:0:
0,126,42462,1,2,0:2:0:0:
226,302,42826,5,4,0:0:0:0:
226,302,43189,1,2,0:2:0:0:
457,280,43553,2,0,L|388:286,1,62.9999980773926,2|2,0:0|0:2,0:0:0:0:
307,248,44098,5,2,0:2:0:0:
307,248,44189,1,0,0:0:0:0:
307,248,44280,1,4,0:0:0:0:
338,157,44462,1,2,0:2:0:0:
338,157,44644,1,4,0:0:0:0:
345,3,45008,2,0,P|370:30|374:64,1,62.9999980773926,2|0,0:0|0:0,0:0:0:0:
33,13,45735,6,0,L|38:86,1,40.2500007677078,4|0,0:1|0:0,0:0:0:0:
33,383,45916,5,4,0:0:0:0:
33,383,46007,2,0,P|42:360|65:334,1,40.2500007677078,4|0,0:0|0:0,0:0:0:0:
195,311,46189,5,4,0:0:0:0:
195,311,46280,2,0,P|174:297|140:290,1,40.2500007677078,2|0,0:0|0:0,0:0:0:0:
0,235,46462,5,4,0:0:0:0:
12,228,46553,1,2,0:2:0:0:
24,221,46644,1,2,0:2:0:0:
142,76,46735,5,4,0:0:0:0:
142,76,46825,2,0,L|137:130,1,40.2500007677078,2|0,0:0|0:0,0:0:0:0:
277,281,47007,6,0,L|282:342,1,40.2500007677078,4|0,0:0|0:0,0:0:0:0:
289,329,47189,2,0,L|277:199,1,112,4|2,0:0|0:2,0:0:0:0:
383,55,47462,6,0,L|371:185,1,112,4|0,0:0|0:0,0:0:0:0:
371,103,47735,2,0,L|376:42,1,40.2500007677078,2|0,0:0|0:0,0:0:0:0:
506,213,47916,6,0,P|436:219|417:246,1,80.5000015354157,4|2,0:1|0:2,0:0:0:0:
430,297,48189,1,4,0:0:0:0:
510,201,48280,2,0,P|486:196|459:200,1,40.2500007677078,2|0,0:0|0:0,0:0:0:0:
430,297,48462,1,4,0:0:0:0:
0,270,48644,6,0,L|103:279,1,80.5000015354157,4|0,0:0|0:0,0:0:0:0:
239,177,48916,6,0,P|212:190|191:211,1,40.2500007677078,4|2,0:0|0:2,0:0:0:0:
137,379,49098,5,4,0:0:0:0:
140,382,49189,2,0,P|125:355|121:326,1,40.2500007677078,2|0,0:0|0:0,0:0:0:0:
170,54,49371,5,4,0:0:0:0:
170,54,49462,2,0,L|165:104,1,40.2500007677078,2|2,0:2|0:2,0:0:0:0:
118,197,49644,5,4,0:0:0:0:
118,196,49735,2,0,L|113:145,1,40.2500007677078,2|0,0:0|0:0,0:0:0:0:
394,120,49916,6,0,L|323:116,1,40.2500007677078,4|0,0:0|0:0,0:0:0:0:
239,177,50098,2,0,L|347:184,1,80.5000015354157,4|2,0:0|0:2,0:0:0:0:
512,98,50371,2,0,L|441:102,1,40.2500007677078,4|2,0:0|0:2,0:0:0:0:
254,49,50553,5,4,0:0:0:0:
254,49,50644,2,0,P|285:51|325:68,1,40.2500007677078,2|0,0:0|0:0,0:0:0:0:
326,262,50825,6,0,L|317:169,1,80.5000015354157,4|2,0:0|0:2,0:0:0:0:
462,354,51098,5,2,0:0:0:0:
462,354,51189,2,0,P|431:352|391:335,1,40.2500007677078,2|0,0:0|0:0,0:0:0:0:
397,134,51371,2,0,L|391:195,1,40.2500007677078,4|0,0:0|0:0,0:0:0:0:
176,253,51553,6,0,P|229:267|269:303,1,80.5000015354157,4|0,0:1|0:0,0:0:0:0:
95,370,51825,2,0,P|67:376|32:371,1,40.2500007677078,4|2,0:0|0:2,0:0:0:0:
27,142,52007,5,4,0:0:0:0:
27,142,52098,2,0,P|52:140|80:146,1,40.2500007677078,2|0,0:0|0:0,0:0:0:0:
283,97,52280,2,0,P|242:89|187:91,1,80.5000015354157,4|2,0:0|0:2,0:0:0:0:
176,253,52553,5,4,0:0:0:0:
176,253,52644,2,0,L|180:185,1,40.2500007677078,2|0,0:0|0:0,0:0:0:0:
280,56,52825,2,0,L|284:123,1,40.2500007677078,4|0,0:0|0:0,0:0:0:0:
261,355,53007,2,0,L|254:271,1,80.5000015354157,4|0,0:0|0:0,0:0:0:0:
367,78,53280,6,0,P|382:96|403:140,1,40.2500007677078,4|2,0:0|0:2,0:0:0:0:
475,332,53462,5,4,0:0:0:0:
475,332,53553,2,0,P|476:308|467:260,1,40.2500007677078,2|0,0:0|0:0,0:0:0:0:
457,9,53735,6,0,P|483:74|484:113,1,80.5000015354157,4|2,0:0|0:2,0:0:0:0:
385,355,54007,5,4,0:0:0:0:
385,355,54098,2,0,L|336:358,1,40.2500007677078,2|0,0:0|0:0,0:0:0:0:
164,296,54280,2,0,L|213:299,1,40.2500007677078,2|0,0:2|0:0,0:0:0:0:
143,85,54462,6,0,P|101:118|87:133,1,40.2500007677078,4|0,0:0|0:0,0:0:0:0:
1,228,54644,5,2,0:0:0:0:
1,228,54735,2,0,P|15:176|18:156,1,40.2500007677078,4|2,0:0|0:2,0:0:0:0:
246,96,54916,5,2,0:2:0:0:
246,96,55007,2,0,P|231:147|228:167,1,40.2500007677078,2|0,0:0|0:0,0:0:0:0:
104,239,55189,6,0,P|146:206|160:191,1,40.2500007677078,4|0,0:0|0:0,0:0:0:0:
308,20,55371,5,2,0:0:0:0:
308,20,55462,2,0,P|265:65|237:113,1,97.9999970092774,2|0,0:0|0:0,0:0:0:0:
164,296,55735,6,0,P|217:293|237:290,1,48.9999985046387,4|0,0:0|0:0,0:0:0:0:
485,30,55916,6,0,P|423:41|372:63,1,115.500001101494,2|0,0:0|0:0,0:0:0:0:
212,294,56189,6,0,P|266:264|308:227,1,115.500001101494,2|0,0:0|0:0,0:0:0:0:
308,20,56462,2,0,P|260:75|246:107,1,57.7500005507469,4|0,0:0|0:0,0:0:0:0:
383,329,56644,6,0,P|416:260|430:193,1,125.999996154785,2|0,0:0|0:0,0:0:0:0:
203,27,56916,5,2,0:0:0:0:
203,27,57007,2,0,P|196:99|203:133,1,62.9999980773926,2|0,0:0|0:0,0:0:0:0:
451,367,57189,5,2,0:0:0:0:
451,367,57280,1,4,0:0:0:0:
451,367,57371,6,0,P|392:329|354:330,1,80.5000015354157,4|0,0:1|0:0,0:0:0:0:
261,384,57642,2,0,P|287:365|329:354,3,40.2500007677078,0|0|0|0,0:0|0:0|0:0|0:0,0:0:0:0:
512,246,58033,5,0,0:0:0:0:
512,246,58093,2,0,P|442:250|412:273,1,80.5000015354157,0|0,0:0|0:0,0:0:0:0:
350,112,58455,6,0,P|403:156|414:192,1,80.5000015354157,0|0,0:0|0:0,0:0:0:0:
440,258,58726,1,0,0:0:0:0:
440,258,58816,1,0,0:0:0:0:
284,31,58997,5,0,0:0:0:0:
266,7,59087,1,0,0:0:0:0:
211,32,59178,1,2,0:0:0:0:
193,8,59268,1,2,0:0:0:0:
155,41,59358,1,4,0:0:0:0:
123,0,59449,1,4,0:0:0:0:
53,41,59539,6,0,P|23:39|-15:48,1,53.6666676902771,0|0,0:0|0:0,0:0:0:0:
162,173,59810,5,4,0:0:0:0:
162,173,59901,2,0,P|157:146|147:121,1,53.6666676902771,2|0,0:2|0:0,0:0:0:0:
322,257,60202,5,0,0:0:0:0:
322,257,60262,2,0,P|278:229|213:230,1,107.333335380554,2|0,0:0|0:0,0:0:0:0:
44,339,60624,6,0,L|48:280,1,40.2500007677078,4|0,0:0|0:0,0:0:0:0:
78,179,60804,5,2,0:0:0:0:
78,179,60895,2,0,L|82:237,1,40.2500007677078,2|4,0:0|0:0,0:0:0:0:
171,380,61075,5,4,0:0:0:0:
171,380,61166,1,4,0:0:0:0:
171,380,61256,1,4,0:0:0:0:
171,380,61346,2,0,L|174:328,1,40.2500007677078,4|4,0:0|0:0,0:0:0:0:
157,137,61527,5,4,0:0:0:0:
157,137,61617,1,4,0:0:0:0:
157,137,61708,2,0,P|204:118|269:124,1,80.5000015354157,4|0,0:1|0:0,0:0:0:0:
471,234,61985,6,0,P|443:191|387:157,1,80.5000015354157,4|4,0:0|0:0,0:0:0:0:
0,156,62387,5,0,0:0:0:0:
0,156,62448,2,0,L|8:256,1,80.5000015354157,2|4,0:0|0:0,0:0:0:0:
150,305,62819,6,0,L|158:204,1,80.5000015354157,4|0,0:0|0:0,0:0:0:0:
256,361,63096,5,2,0:0:0:0:
256,360,63189,2,0,P|236:362|216:359,1,40.2500007677078,2|0,0:0|0:0,0:0:0:0:
121,122,63374,6,0,P|150:143|166:171,1,40.2500007677078,4|0,0:0|0:0,0:0:0:0:
381,158,63559,5,2,0:0:0:0:
344,140,63651,1,2,0:0:0:0:
305,136,63744,1,4,0:0:0:0:
266,147,63836,1,4,0:0:0:0:
233,169,63930,6,0,L|226:240,1,53.6666676902771,4|0,0:1|0:0,0:0:0:0:
232,312,64165,1,0,0:0:0:0:
232,312,64282,1,2,0:2:0:0:
232,312,64400,1,0,0:0:0:0:
232,312,64518,1,0,0:0:0:0:
232,312,64635,6,0,B|202:291|202:291|118:288,1,107.333335380554,2|0,0:0|0:0,0:0:0:0:
35,289,64988,1,4,0:0:0:0:
35,289,65106,1,0,0:0:0:0:
35,289,65224,1,0,0:0:0:0:
35,289,65341,6,0,B|65:268|65:268|130:266,1,80.5000015354157,2|0,0:0|0:0,0:0:0:0:
291,198,65635,6,0,L|192:206,1,80.5000015354157,0|0,0:0|0:0,0:0:0:0:
0,122,65930,6,0,B|71:126|71:126|105:148,1,107.333335380554,0|0,0:0|0:0,0:0:0:0:
163,13,66282,6,0,B|189:-4|189:-4|221:1,1,53.6666676902771,0|0,0:0|0:0,0:0:0:0:
223,5,66518,1,0,0:0:0:0:
403,64,66635,6,0,B|377:47|377:47|345:52,1,53.6666676902771,0|2,0:0|0:2,0:0:0:0:
342,59,66871,1,0,0:0:0:0:
227,182,66988,6,0,B|244:156|244:156|239:124,1,53.6666676902771,0|2,0:0|0:2,0:0:0:0:
232,121,67224,1,0,0:0:0:0:
108,266,67341,6,0,B|91:292|91:292|96:324,1,53.6666676902771,0|2,0:0|0:2,0:0:0:0:
103,327,67577,1,0,0:0:0:0:
375,220,67694,6,0,B|349:202|349:202|317:207,1,53.6666676902771,0|2,0:0|0:2,0:0:0:0:
314,214,67930,1,0,0:0:0:0:
103,327,68047,6,0,B|129:344|129:344|161:339,1,53.6666676902771,0|2,0:0|0:2,0:0:0:0:
511,315,68282,6,0,B|482:292|482:292|369:302,1,115.500001101494,4|4,0:0|0:0,0:0:0:0:
391,20,68645,6,0,B|369:51|369:51|379:168,1,115.500001101494,2|0,0:0|0:0,0:0:0:0:
365,140,68918,2,0,L|356:40,1,57.7500005507469,4|2,0:0|0:2,0:0:0:0:
140,7,69191,6,0,B|171:28|171:28|288:18,1,115.500001101494,4|2,0:0|0:2,0:0:0:0:
257,27,69463,2,0,B|278:58|278:58|268:175,1,115.500001101494,4|0,0:0|0:0,0:0:0:0:
243,335,69736,6,0,L|257:169,1,115.500001101494,4|2,0:0|0:2,0:0:0:0:
247,206,70009,2,0,L|237:290,1,57.7500005507469,4|2,0:0|0:2,0:0:0:0:
18,264,70282,6,0,B|37:244|37:244|135:253,1,115.500001101494,2|2,0:0|0:2,0:0:0:0:
134,97,70554,2,0,L|-19:110,1,115.500001101494,4|0,0:0|0:0,0:0:0:0:
125,253,70827,2,0,L|278:266,1,115.500001101494,2|0,0:0|0:0,0:0:0:0:
486,196,71100,5,4,0:0:0:0:
486,196,71191,2,0,L|418:201,1,57.7500005507469,2|0,0:2|0:0,0:0:0:0:
370,205,71372,2,0,L|427:200,1,57.7500005507469,4|0,0:0|0:0,0:0:0:0:
500,112,71554,6,0,B|519:92|519:92|511:4,1,115.500001101494,2|2,0:0|0:2,0:0:0:0:
328,97,71827,5,4,0:0:0:0:
328,97,71918,2,0,L|392:102,1,57.7500005507469,2|0,0:2|0:0,0:0:0:0:
501,113,72100,2,0,L|374:101,1,115.500001101494,2|2,0:0|0:2,0:0:0:0:
185,45,72372,2,0,L|261:38,1,57.7500005507469,4|0,0:0|0:0,0:0:0:0:
36,131,72645,6,0,L|202:146,1,115.500001101494,4|0,0:0|0:0,0:0:0:0:
284,219,72918,1,4,0:0:0:0:
284,219,73009,2,0,L|373:212,1,57.7500005507469,2|0,0:2|0:0,0:0:0:0:
399,208,73191,2,0,L|309:216,1,57.7500005507469,2|0,0:0|0:0,0:0:0:0:
55,290,73372,5,2,0:2:0:0:
55,290,73463,1,4,0:0:0:0:
55,290,73554,2,0,L|125:296,1,57.7500005507469,0|0,0:0|0:0,0:0:0:0:
228,286,73736,2,0,L|93:296,1,115.500001101494,2|2,0:0|0:2,0:0:0:0:
197,206,74009,5,4,0:0:0:0:
197,206,74100,2,0,L|202:138,1,57.7500005507469,4|0,0:0|0:0,0:0:0:0:
242,17,74282,2,0,L|247:84,1,57.7500005507469,4|0,0:0|0:0,0:0:0:0:
399,208,74463,6,0,B|380:188|380:188|388:100,1,115.500001101494,2|2,0:0|0:2,0:0:0:0:
379,88,74736,2,0,L|372:165,1,57.7500005507469,4|2,0:0|0:2,0:0:0:0:
427,315,75009,6,0,B|407:296|407:296|319:304,1,115.500001101494,2|2,0:0|0:2,0:0:0:0:
146,294,75282,2,0,B|162:271|162:271|250:264,1,115.500001101494,4|0,0:0|0:0,0:0:0:0:
116,201,75554,6,0,L|-47:186,1,115.500001101494,4|0,0:0|0:0,0:0:0:0:
181,137,75827,5,4,0:0:0:0:
181,137,75918,2,0,L|251:143,1,57.7500005507469,2|0,0:2|0:0,0:0:0:0:
454,190,76100,2,0,L|383:196,1,57.7500005507469,2|0,0:0|0:0,0:0:0:0:
250,264,76282,6,0,L|320:257,1,57.7500005507469,2|4,0:2|0:0,0:0:0:0:
487,106,76463,2,0,L|416:99,1,57.7500005507469,0|0,0:0|0:0,0:0:0:0:
185,133,76645,6,0,L|255:139,1,57.7500005507469,2|0,0:0|0:0,0:0:0:0:
459,197,76827,2,0,L|388:203,1,57.7500005507469,2|4,0:2|0:0,0:0:0:0:
316,0,77009,6,0,B|332:15|332:15|326:104,1,62.9999980773926,4|0,0:0|0:0,0:0:0:0:
324,118,77191,2,0,L|329:55,1,62.9999980773926,4|0,0:0|0:0,0:0:0:0:
313,344,77372,6,0,L|299:195,1,115.500001101494,2|0,0:0|0:0,0:0:0:0:
307,219,77645,2,0,L|315:313,1,57.7500005507469,4|2,0:0|0:2,0:0:0:0:
120,25,77918,6,0,B|139:5|139:5|227:13,1,115.500001101494,2|2,0:0|0:2,0:0:0:0:
63,185,78191,2,0,B|43:165|43:165|51:77,1,115.500001101494,4|0,0:0|0:0,0:0:0:0:
121,244,78463,6,0,L|107:393,1,115.500001101494,4|2,0:0|0:2,0:0:0:0:
115,369,78736,2,0,L|123:275,1,57.7500005507469,4|2,0:0|0:2,0:0:0:0:
354,347,79009,6,0,B|338:370|338:370|250:377,1,115.500001101494,2|2,0:0|0:2,0:0:0:0:
266,190,79282,2,0,B|286:170|286:170|373:179,1,115.500001101494,4|0,0:0|0:0,0:0:0:0:
488,188,79554,2,0,L|331:174,1,115.500001101494,2|2,0:0|0:2,0:0:0:0:
0,0,79918,6,0,B|9:-11|9:-11|44:-11|44:-11|67:0|67:0|111:0|111:0|134:-11|134:-11|167:-11|167:-11|178:0,1,194.249999258995,4|0,0:1|0:0,0:0:0:0:
359,50,80282,6,0,L|230:61,1,129.499999505997,2|0,0:0|0:0,0:0:0:0:
19,112,80554,5,4,0:0:0:0:
19,112,80645,2,0,L|92:118,1,64.7499997529984,2|0,0:2|0:0,0:0:0:0:
512,125,80827,6,0,B|498:125|498:125|472:98|472:98|446:98|446:98|407:125|407:125|394:125,1,129.499999505997,2|2,0:0|0:2,0:0:0:0:
220,153,81100,6,0,B|272:157|272:157|288:176|288:176|340:181,1,129.499999505997,4|0,0:0|0:0,0:0:0:0:
389,323,81372,6,0,B|405:307|405:307|405:275|405:275|421:259|421:259|421:179,1,129.499999505997,4|0,0:0|0:0,0:0:0:0:
426,198,81645,2,0,L|426:272,1,64.7499997529984,4|2,0:0|0:2,0:0:0:0:
6,249,81918,6,0,B|22:265|22:265|54:265|54:265|70:249|70:249|102:249|102:249|115:234,1,129.499999505997,2|2,0:0|0:2,0:0:0:0:
231,200,82191,2,0,B|211:227|211:227|107:235,1,129.499999505997,4|0,0:0|0:0,0:0:0:0:
0,157,82463,6,0,L|74:163,1,64.7499997529984,2|0,0:2|0:0,0:0:0:0:
239,208,82645,1,2,0:2:0:0:
239,208,82736,1,0,0:0:0:0:
239,208,82827,6,0,B|240:192|240:192|224:160|224:160|256:160,1,64.7499997529984,4|0,0:0|0:0,0:0:0:0:
352,128,83009,5,4,0:0:0:0:
352,128,83100,2,0,B|352:112|352:112|336:80|336:80|336:48,2,64.7499997529984,0|2|0,0:0|0:0|0:0,0:0:0:0:
421,246,83463,6,0,L|429:340,1,64.7499997529984,4|2,0:0|0:2,0:0:0:0:
0,329,83736,6,0,B|13:295|13:295|43:276|43:276|107:271|107:271|124:285,1,129.499999505997,2|2,0:0|0:2,0:0:0:0:
102,264,84009,2,0,L|7:272,1,64.7499997529984,4|0,0:0|0:0,0:0:0:0:
315,163,84282,6,0,B|295:190|295:190|267:188|267:188|217:185|217:185|191:198,1,129.499999505997,4|0,0:0|0:0,0:0:0:0:
204,179,84554,2,0,L|268:184,1,64.7499997529984,4|2,0:0|0:2,0:0:0:0:
280,47,84827,2,0,B|307:67|307:67|315:171,1,129.499999505997,2|2,0:0|0:2,0:0:0:0:
262,359,85100,5,4,0:0:0:0:
262,359,85191,2,0,L|267:287,1,64.7499997529984,0|0,0:0|0:0,0:0:0:0:
314,162,85372,6,0,L|319:233,1,64.7499997529984,2|0,0:0|0:0,0:0:0:0:
420,349,85554,2,0,B|416:338|416:338|420:296|420:296|417:285,1,64.7499997529984,4|4,0:0|0:0,0:0:0:0:
280,47,85736,6,0,B|281:64|281:64|305:80|305:80|315:171,1,129.499999505997,4|4,0:1|0:0,0:0:0:0:
13,45,86100,2,0,L|171:58,1,129.499999505997,2|0,0:2|0:0,0:0:0:0:
188,155,86372,5,4,0:0:0:0:
188,155,86463,2,0,L|90:163,1,64.7499997529984,2|0,0:2|0:0,0:0:0:0:
0,351,86645,6,0,B|51:347|51:347|73:370|73:370|125:366,1,129.499999505997,2|2,0:0|0:2,0:0:0:0:
241,336,86918,6,0,B|221:344|221:344|207:344|207:344|192:351|192:351|177:351|177:351|163:358|163:358|146:358|146:358|134:366|134:366|119:366|119:366,1,129.499999505997,4|0,0:0|0:0,0:0:0:0:
135,244,87191,6,0,B|111:288|111:288|122:319|122:319|118:367|118:367,1,129.499999505997,4|0,0:0|0:0,0:0:0:0:
122,375,87463,2,0,L|131:268,1,64.7499997529984,4|2,0:0|0:2,0:0:0:0:
367,117,87736,6,0,B|342:140|342:140|296:124|296:124|238:129,1,129.499999505997,2|2,0:0|0:2,0:0:0:0:
184,134,88009,2,0,L|273:126,1,64.7499997529984,4|0,0:0|0:0,0:0:0:0:
496,64,88191,5,4,0:0:0:0:
496,64,88282,2,0,L|411:56,1,64.7499997529984,2|0,0:0|0:0,0:0:0:0:
179,22,88463,5,4,0:0:0:0:
179,22,88554,2,0,B|209:29|209:29|230:24|230:24|264:29,2,64.7499997529984,0|4|0,0:0|0:0|0:0,0:0:0:0:
57,204,88827,5,4,0:0:0:0:
57,204,88918,1,0,0:0:0:0:
57,204,89009,2,0,B|84:184|84:184|92:80,1,129.499999505997,2|2,0:0|0:2,0:0:0:0:
96,81,89282,2,0,L|88:165,1,64.7499997529984,4|2,0:0|0:2,0:0:0:0:
512,368,89554,6,0,B|459:371|459:371|467:378|467:378|403:380,1,129.499999505997,2|2,0:0|0:2,0:0:0:0:
188,328,89827,6,0,B|235:333|235:333|266:326|266:326|357:335,1,129.499999505997,4|0,0:0|0:0,0:0:0:0:
457,226,90100,5,4,0:0:0:0:
368,245,90282,5,0,0:0:0:0:
353,252,90372,1,2,0:0:0:0:
344,265,90463,1,2,0:0:0:0:
325,171,90645,5,4,0:0:0:0:
295,174,90735,1,4,0:0:0:0:
273,191,90826,1,4,0:0:0:0:
266,102,91009,5,4,0:0:0:0:
216,91,91099,1,4,0:0:0:0:
172,106,91190,1,4,0:0:0:0:
162,26,91372,5,4,0:0:0:0:
85,33,91462,1,4,0:0:0:0:
23,81,91554,6,0,P|5:151|16:188,1,105,4|0,0:1|0:0,0:0:0:0:
79,253,92189,1,6,0:0:0:0:
151,313,92280,6,0,L|214:317,1,52.5,2|0,0:0|0:0,0:0:0:0:
354,366,92643,5,4,0:0:0:0:
297,280,92825,1,4,0:0:0:0:
353,374,93006,2,0,P|378:384|431:377,1,70,2|4,0:0|0:0,0:0:0:0:
500,265,93551,5,4,0:0:0:0:
500,265,93642,1,4,0:0:0:0:
500,265,93733,2,0,P|500:239|491:219,1,35,4|0,0:1|0:0,0:0:0:0:
460,152,94005,5,4,0:0:0:0:
460,152,94096,2,0,P|438:136|417:132,1,35,2|4,0:0|0:0,0:0:0:0:
331,128,94368,5,4,0:0:0:0:
331,128,94459,2,0,P|306:136|290:152,1,35,2|0,0:0|0:0,0:0:0:0:
263,284,94731,6,0,L|269:214,1,70,4|0,0:0|0:0,0:0:0:0:
161,54,95185,5,2,0:0:0:0:
218,140,95549,1,4,0:0:0:0:
152,59,95912,1,2,0:0:0:0:
144,229,96184,5,2,0:0:0:0:
144,229,96275,1,4,0:0:0:0:
250,53,96457,1,4,0:0:0:0:
250,53,96547,1,4,0:0:0:0:
250,53,96638,1,2,0:0:0:0:
250,53,96729,2,0,L|360:61,1,105,2|0,0:0|0:0,0:0:0:0:
486,77,97455,5,0,0:0:0:0:
456,187,97637,2,0,L|461:217,4,26.2500010013581,4|4|0|4|4,0:0|0:0|0:0|0:0|0:0,0:0:0:0:
480,82,98091,5,2,0:0:0:0:
512,272,98363,2,0,L|506:312,2,35,4|4|0,0:0|0:0|0:0,0:0:0:0:
474,87,98833,5,4,0:0:0:0:
308,115,99100,2,0,L|263:122,4,43.75,4|4|4|4|4,0:0|0:0|0:0|0:0|0:0,0:0:0:0:
468,92,99547,5,2,0:0:0:0:
222,49,99820,1,4,0:0:0:0:
222,49,99912,1,4,0:0:0:0:
151,111,100094,5,4,0:0:0:0:
151,111,100185,1,4,0:0:0:0:
151,111,100277,2,0,P|116:127|102:137,1,52.5000020027161,4|0,0:1|0:0,0:0:0:0:
66,335,100550,5,4,0:0:0:0:
66,335,100642,1,4,0:0:0:0:
66,335,100733,1,4,0:0:0:0:
302,296,100916,5,4,0:0:0:0:
302,296,101007,1,2,0:0:0:0:
151,111,101372,5,4,0:0:0:0:
66,335,101554,5,4,0:0:0:0:
302,296,101737,6,0,L|389:303,1,78.7500030040742,4|2,0:0|0:2,0:0:0:0:
502,171,102102,5,4,0:0:0:0:
499,160,102193,1,4,0:0:0:0:
495,149,102284,1,2,0:0:0:0:
490,139,102375,1,4,0:0:0:0:
484,129,102467,1,2,0:0:0:0:
477,120,102558,1,2,0:0:0:0:
470,112,102649,1,2,0:0:0:0:
461,105,102741,1,2,0:0:0:0:
440,89,102832,1,2,0:0:0:0:
416,80,102923,1,2,0:0:0:0:
390,76,103014,1,2,0:0:0:0:
364,78,103106,1,2,0:0:0:0:
345,89,103197,6,0,L|341:149,1,40.2500007677078,4|0,0:1|0:0,0:0:0:0:
406,359,103378,5,4,0:0:0:0:
406,359,103469,2,0,P|382:338|353:326,1,40.2500007677078,4|0,0:0|0:0,0:0:0:0:
213,282,103651,5,4,0:0:0:0:
213,282,103742,2,0,P|244:279|275:286,1,40.2500007677078,2|0,0:0|0:0,0:0:0:0:
256,136,103924,5,4,0:0:0:0:
244,129,104015,1,2,0:2:0:0:
232,122,104106,1,2,0:2:0:0:
122,176,104197,5,4,0:0:0:0:
122,176,104287,2,0,P|149:192|169:216,1,40.2500007677078,2|0,0:0|0:0,0:0:0:0:
231,374,104469,6,0,L|292:368,1,40.2500007677078,4|0,0:0|0:0,0:0:0:0:
279,362,104651,2,0,L|149:374,1,112,4|2,0:0|0:2,0:0:0:0:
10,186,104924,6,0,L|140:174,1,112,4|0,0:0|0:0,0:0:0:0:
58,174,105197,2,0,L|-3:179,1,40.2500007677078,2|0,0:0|0:0,0:0:0:0:
98,18,105378,6,0,P|168:24|187:51,1,80.5000015354157,4|2,0:1|0:2,0:0:0:0:
174,102,105651,1,4,0:0:0:0:
94,6,105742,2,0,P|118:1|145:5,1,40.2500007677078,2|0,0:0|0:0,0:0:0:0:
174,102,105924,1,4,0:0:0:0:
457,346,106106,6,0,L|447:240,1,80.5000015354157,4|0,0:0|0:0,0:0:0:0:
411,63,106378,6,0,L|407:114,1,40.2500007677078,4|2,0:0|0:2,0:0:0:0:
364,268,106560,5,4,0:0:0:0:
364,268,106651,2,0,L|367:216,1,40.2500007677078,2|0,0:0|0:0,0:0:0:0:
264,0,106833,6,0,L|274:114,1,80.5000015354157,4|2,0:0|0:2,0:0:0:0:
278,314,107106,5,4,0:0:0:0:
278,314,107197,2,0,L|273:262,1,40.2500007677078,2|0,0:0|0:0,0:0:0:0:
271,80,107378,6,0,L|266:133,1,40.2500007677078,4|0,0:0|0:0,0:0:0:0:
371,348,107560,2,0,L|360:233,1,80.5000015354157,4|2,0:0|0:2,0:0:0:0:
108,188,107833,6,0,P|127:206|161:222,1,40.2500007677078,4|2,0:0|0:2,0:0:0:0:
310,82,108015,1,4,0:0:0:0:
310,82,108106,2,0,P|284:78|247:85,1,40.2500007677078,2|0,0:0|0:0,0:0:0:0:
131,293,108287,6,0,L|138:206,1,80.5000015354157,4|2,0:0|0:2,0:0:0:0:
3,88,108560,5,2,0:0:0:0:
3,88,108651,2,0,P|0:113|6:150,1,40.2500007677078,2|0,0:0|0:0,0:0:0:0:
204,29,108833,2,0,P|180:17|143:13,1,40.2500007677078,4|0,0:0|0:0,0:0:0:0:
132,292,109015,6,0,P|178:313|220:313,1,80.5000015354157,4|0,0:1|0:0,0:0:0:0:
409,218,109287,2,0,L|339:224,1,40.2500007677078,4|2,0:0|0:2,0:0:0:0:
173,136,109469,5,4,0:0:0:0:
173,136,109560,2,0,L|243:142,1,40.2500007677078,2|0,0:0|0:0,0:0:0:0:
381,40,109742,6,0,L|385:-2,2,40.2500007677078,4|2|2,0:0|0:2|0:2,0:0:0:0:
292,221,110015,5,4,0:0:0:0:
292,221,110106,2,0,L|285:150,1,40.2500007677078,2|0,0:0|0:0,0:0:0:0:
428,342,110287,6,0,P|397:324|363:317,1,40.2500007677078,4|0,0:0|0:0,0:0:0:0:
119,337,110469,2,0,P|171:363|211:365,1,80.5000015354157,4|0,0:0|0:0,0:0:0:0:
416,183,110742,6,0,P|380:186|348:200,1,40.2500007677078,4|2,0:0|0:2,0:0:0:0:
140,259,110924,5,4,0:0:0:0:
140,259,111015,1,2,0:0:0:0:
140,259,111106,1,0,0:0:0:0:
370,107,111197,6,0,P|333:90|293:87,1,80.5000015354157,4|2,0:0|0:2,0:0:0:0:
66,187,111469,5,4,0:0:0:0:
66,187,111560,2,0,P|101:183|133:169,1,40.2500007677078,2|0,0:0|0:0,0:0:0:0:
243,30,111742,6,0,P|212:11|177:4,1,40.2500007677078,2|0,0:2|0:0,0:0:0:0:
97,325,111924,6,0,P|123:295|139:258,1,80.5000015354157,4|2,0:0|0:0,0:0:0:0:
10,29,112197,6,0,P|5:68|14:107,1,80.5000015354157,4|2,0:0|0:2,0:0:0:0:
359,190,112469,6,0,P|328:172|293:164,1,40.2500007677078,2|0,0:0|0:0,0:0:0:0:
57,329,112651,6,0,P|92:325|124:311,1,40.2500007677078,4|0,0:0|0:0,0:0:0:0:
293,87,112833,5,2,0:0:0:0:
293,87,112924,2,0,P|253:95|219:115,1,80.5000015354157,2|0,0:0|0:0,0:0:0:0:
453,384,113197,6,0,P|460:348|456:314,1,40.2500007677078,4|0,0:0|0:0,0:0:0:0:
107,179,113378,6,0,P|80:208|64:245,1,80.5000015354157,2|0,0:0|0:0,0:0:0:0:
253,339,113651,5,2,0:0:0:0:
253,339,113742,2,0,L|304:343,1,40.2500007677078,2|0,0:2|0:0,0:0:0:0:
494,235,113924,6,0,L|436:240,1,40.2500007677078,4|0,0:0|0:0,0:0:0:0:
489,0,114106,5,2,0:0:0:0:
489,0,114197,2,0,L|485:51,1,40.2500007677078,0|0,0:0|0:0,0:0:0:0:
169,320,114378,5,2,0:0:0:0:
147,324,114469,1,2,0:0:0:0:
125,323,114560,1,0,0:0:0:0:
104,315,114651,1,2,0:0:0:0:
87,301,114742,1,4,0:0:0:0:
323,0,114833,6,0,P|377:29|431:91,1,115.500001101494,4|4,0:1|0:0,0:0:0:0:
282,220,115106,2,0,P|266:193|263:155,1,57.7500005507469,4|0,0:0|0:0,0:0:0:0:
509,212,115287,5,4,0:0:0:0:
509,212,115378,2,0,P|488:235|453:250,1,57.7500005507469,2|0,0:0|0:0,0:0:0:0:
178,81,115560,2,0,L|298:91,1,115.500001101494,4|2,0:0|0:2,0:0:0:0:
402,297,115833,5,4,0:0:0:0:
402,297,115924,2,0,L|321:304,1,57.7500005507469,2|0,0:0|0:0,0:0:0:0:
64,269,116106,6,0,L|125:273,1,57.7500005507469,4|0,0:0|0:0,0:0:0:0:
113,265,116287,2,0,L|-17:254,1,115.500001101494,4|2,0:0|0:2,0:0:0:0:
282,220,116560,6,0,L|412:208,1,115.500001101494,4|0,0:0|0:0,0:0:0:0:
330,208,116834,2,0,L|269:213,1,57.7500005507469,2|0,0:0|0:0,0:0:0:0:
14,97,117015,6,0,P|17:22|45:1,1,115.500001101494,4|2,0:1|0:2,0:0:0:0:
183,0,117287,1,4,0:0:0:0:
2,101,117379,2,0,P|-4:74|-1:44,1,57.7500005507469,2|0,0:0|0:0,0:0:0:0:
183,0,117559,1,4,0:0:0:0:
16,297,117742,6,0,L|28:155,1,115.500001101494,4|0,0:0|0:0,0:0:0:0:
268,349,118015,6,0,P|230:365|173:365,1,57.7500005507469,4|2,0:0|0:2,0:0:0:0:
86,134,118197,5,4,0:0:0:0:
86,134,118287,2,0,P|126:143|172:176,1,57.7500005507469,2|0,0:0|0:0,0:0:0:0:
445,288,118469,6,0,L|298:300,1,115.500001101494,4|2,0:0|0:2,0:0:0:0:
228,70,118742,5,4,0:0:0:0:
228,70,118833,2,0,L|308:78,1,57.7500005507469,2|0,0:0|0:0,0:0:0:0:
502,214,119015,6,0,L|430:207,1,57.7500005507469,4|0,0:0|0:0,0:0:0:0:
112,59,119197,2,0,L|249:71,1,115.500001101494,4|2,0:0|0:2,0:0:0:0:
190,328,119469,6,0,P|164:301|150:266,1,57.7500005507469,4|2,0:0|0:2,0:0:0:0:
377,166,119651,1,4,0:0:0:0:
377,166,119742,2,0,P|359:199|330:223,1,57.7500005507469,2|0,0:0|0:0,0:0:0:0:
57,244,119924,2,0,P|114:187|172:182,1,115.500001101494,4|2,0:0|0:2,0:0:0:0:
428,295,120197,5,2,0:0:0:0:
428,295,120287,2,0,L|352:295,1,57.7500005507469,2|0,0:0|0:0,0:0:0:0:
68,353,120469,6,0,P|102:369|142:368,1,57.7500005507469,4|0,0:0|0:0,0:0:0:0:
412,86,120651,6,0,P|336:92|296:114,1,115.500001101494,4|0,0:1|0:0,0:0:0:0:
274,384,120924,6,0,P|300:356|311:318,1,57.7500005507469,4|2,0:0|0:2,0:0:0:0:
302,111,121106,1,4,0:0:0:0:
302,111,121197,2,0,L|296:172,1,57.7500005507469,2|0,0:0|0:0,0:0:0:0:
504,289,121378,6,0,P|496:251|440:190,1,115.500001101494,4|2,0:0|0:2,0:0:0:0:
160,223,121651,5,4,0:0:0:0:
160,223,121742,2,0,P|198:231|241:222,1,57.7500005507469,2|0,0:0|0:0,0:0:0:0:
295,0,121924,6,0,P|266:26|248:66,1,57.7500005507469,4|0,0:0|0:0,0:0:0:0:
206,344,122106,6,0,L|218:197,1,115.500001101494,4|0,0:0|0:0,0:0:0:0:
117,22,122378,2,0,L|123:95,1,57.7500005507469,4|2,0:0|0:2,0:0:0:0:
138,304,122560,5,4,0:0:0:0:
138,304,122651,2,0,P|117:345|88:370,1,57.7500005507469,2|0,0:0|0:0,0:0:0:0:
27,139,122833,6,0,P|72:96|141:77,1,115.500001101494,4|2,0:0|0:2,0:0:0:0:
336,182,123106,5,4,0:0:0:0:
336,182,123197,2,0,P|335:222|304:259,1,57.7500005507469,2|0,0:0|0:0,0:0:0:0:
41,261,123378,6,0,P|52:222|92:195,1,57.7500005507469,2|0,0:2|0:0,0:0:0:0:
310,61,123560,6,0,P|342:84|355:130,1,57.7500005507469,4|0,0:0|0:0,0:0:0:0:
135,366,123742,5,2,0:0:0:0:
135,366,123833,2,0,P|122:328|138:282,1,57.7500005507469,4|2,0:0|0:2,0:0:0:0:
415,157,124015,5,2,0:2:0:0:
415,157,124106,2,0,P|427:194|411:240,1,57.7500005507469,2|0,0:0|0:0,0:0:0:0:
121,78,124287,6,0,P|153:54|201:55,1,57.7500005507469,4|0,0:0|0:0,0:0:0:0:
418,303,124469,5,2,0:0:0:0:
418,303,124560,2,0,P|366:338|291:331,1,115.500001101494,2|0,0:0|0:0,0:0:0:0:
237,13,124833,6,0,P|275:24|302:64,1,57.7500005507469,4|0,0:0|0:0,0:0:0:0:
141,370,125015,2,0,P|82:348|43:284,1,112,2|0,0:0|0:0,0:0:0:0:
364,28,125263,6,0,P|377:65|354:146,1,112,2|0,0:0|0:0,0:0:0:0:
72,105,125559,6,0,P|104:81|152:82,1,57.7500005507469,2|4,0:0|0:0,0:0:0:0:
506,280,125741,6,0,P|483:313|404:341,1,115.500001101494,2|0,0:0|0:0,0:0:0:0:
140,4,126014,1,4,0:0:0:0:
174,0,126104,1,4,0:0:0:0:
208,4,126195,1,4,0:0:0:0:
239,18,126286,1,4,0:0:0:0:
265,41,126377,1,4,0:0:0:0:
284,70,126468,6,0,L|293:195,1,105,4|0,0:1|0:0,0:0:0:0:
370,243,126832,5,4,0:0:0:0:
404,241,126922,1,4,0:0:0:0:
436,253,127013,1,4,0:0:0:0:
462,276,127104,1,4,0:0:0:0:
422,292,127196,5,4,0:0:0:0:
404,247,127286,1,4,0:0:0:0:
406,200,127377,1,4,0:0:0:0:
427,156,127468,1,4,0:0:0:0:
478,91,127559,6,0,P|504:85|533:88,1,35,4|0,0:1|0:0,0:0:0:0:
326,178,127741,5,4,0:0:0:0:
326,178,127832,1,0,0:0:0:0:
326,178,127923,2,0,P|299:176|271:164,1,35,4|0,0:0|0:0,0:0:0:0:
357,54,128105,6,0,L|361:106,1,35,4|0,0:0|0:0,0:0:0:0:
285,286,128287,2,0,L|288:251,3,23.3333333333333,4|0|0|4,0:1|0:0|0:0|0:0,0:0:0:0:
211,327,128529,5,0,0:0:0:0:
211,327,128590,1,0,0:0:0:0:
211,327,128650,2,0,P|194:320|165:323,1,35,4|0,0:0|0:0,0:0:0:0:
0,343,128832,6,0,P|14:331|43:326,1,35,4|0,0:0|0:0,0:0:0:0:
125,134,129014,6,0,L|116:228,1,70,4|0,0:1|0:0,0:0:0:0:
216,130,129287,5,2,0:0:0:0:
247,144,129377,1,4,0:0:0:0:
269,171,129468,1,4,0:0:0:0:
217,187,129559,1,2,0:0:0:0:
247,151,129649,1,4,0:0:0:0:
276,114,129740,1,4,0:0:0:0:
305,78,129832,5,2,0:0:0:0:
357,82,129922,1,4,0:0:0:0:
409,87,130013,1,4,0:0:0:0:
455,157,130106,5,4,0:0:0:0:
408,161,130196,1,4,0:0:0:0:
362,165,130286,1,4,0:0:0:0:
315,169,130379,1,4,0:0:0:0:
213,183,130468,6,0,P|188:196|160:245,1,70,4|0,0:1|0:0,0:0:0:0:
198,384,130741,5,2,0:0:0:0:
198,384,130832,2,0,L|190:298,1,70,4|0,0:0|0:0,0:0:0:0:
296,248,131105,5,2,0:0:0:0:
296,248,131196,2,0,P|271:275|245:287,1,35,4|0,0:0|0:0,0:0:0:0:
88,312,131378,2,0,P|119:292|147:288,1,35,4|4,0:1|0:0,0:0:0:0:
385,307,131559,5,4,0:0:0:0:
385,307,131650,1,2,0:0:0:0:
385,307,131741,2,0,L|333:311,1,35,2|0,0:0|0:0,0:0:0:0:
164,230,131923,2,0,P|197:244|218:264,1,35,4|0,0:1|0:0,0:0:0:0:
64,216,132105,5,4,0:0:0:0:
43,187,132195,1,2,0:0:0:0:
34,154,132286,1,4,0:0:0:0:
37,119,132377,1,4,0:0:0:0:
74,141,132468,5,4,0:0:0:0:
45,159,132558,1,4,0:0:0:0:
12,152,132649,1,4,0:0:0:0:
0,122,132740,1,4,0:0:0:0:
4,90,132831,1,4,0:0:0:0:
34,74,132922,1,4,0:0:0:0:
66,85,133014,6,0,B|145:55|155:120|234:91,1,175,4|0,0:1|0:0,0:0:0:0:
294,22,133559,5,4,0:0:0:0:
294,22,133741,1,4,0:0:0:0:
294,22,133923,1,4,0:0:0:0:
294,22,134105,2,0,L|389:30,1,70,4|4,0:0|0:0,0:0:0:0:
12,7,135196,6,0,L|101:-3,1,70,4|0,0:1|0:0,0:0:0:0:
82,0,135468,1,4,0:0:0:0:
218,57,135650,5,4,0:0:0:0:
218,57,135741,2,0,L|184:54,1,35,2|0,0:0|0:0,0:0:0:0:
15,108,135923,2,0,L|84:113,1,70,4|2,0:0|0:2,0:0:0:0:
224,204,136196,5,4,0:0:0:0:
224,204,136287,2,0,L|186:198,1,38.5000011749268,2|0,0:0|0:0,0:0:0:0:
185,198,136468,1,4,0:0:0:0:
368,235,136650,6,0,L|280:246,1,77.0000023498536,4|2,0:0|0:2,0:0:0:0:
106,269,136923,5,2,0:0:0:0:
106,269,137014,2,0,L|154:274,1,38.5000011749268,4|0,0:0|0:0,0:0:0:0:
144,273,137196,1,2,0:0:0:0:
469,294,137378,6,0,L|408:285,1,40.2500007677078,2|0,0:0|0:0,0:0:0:0:
321,143,137559,5,2,0:0:0:0:
321,143,137650,2,0,L|380:151,1,40.2500007677078,4|0,0:0|0:0,0:0:0:0:
506,189,137832,5,4,0:0:0:0:
506,189,137923,2,0,L|445:197,1,40.2500007677078,2|0,0:0|0:0,0:0:0:0:
333,232,138105,2,0,L|393:242,1,41.9999987182618,4|0,0:0|0:0,0:0:0:0:
469,294,138287,5,2,0:0:0:0:
469,294,138378,2,0,L|427:300,1,41.9999987182618,4|0,0:0|0:0,0:0:0:0:
277,299,138559,5,4,0:0:0:0:
277,299,138650,2,0,L|236:305,1,41.9999987182618,2|0,0:0|0:0,0:0:0:0:
115,351,138832,2,0,L|201:371,1,87.5,4|2,0:0|0:2,0:0:0:0:
11,311,139105,5,2,0:0:0:0:
11,311,139196,2,0,L|60:301,1,43.75,2|0,0:0|0:0,0:0:0:0:
53,302,139378,1,4,0:0:0:0:
366,128,139559,6,0,L|277:148,1,87.5,4|2,0:0|0:2,0:0:0:0:
181,78,139832,5,2,0:0:0:0:
181,78,139923,2,0,L|227:91,1,43.75,4|0,0:0|0:0,0:0:0:0:
421,5,140105,6,0,L|379:16,1,43.75,2|0,0:0|0:0,0:0:0:0:
77,4,140287,6,0,L|138:19,1,43.75,2|0,0:0|0:0,0:0:0:0:
408,116,140468,5,2,0:2:0:0:
408,116,140559,2,0,L|353:130,1,43.75,4|0,0:0|0:0,0:0:0:0:
165,172,140741,5,4,0:0:0:0:
165,172,140832,2,0,L|220:186,1,43.75,2|0,0:0|0:0,0:0:0:0:
492,196,141014,6,0,L|374:238,1,90.9999958343508,4|0,0:0|0:0,0:0:0:0:
223,265,141287,2,0,L|289:289,1,45.4999979171754,4|0,0:0|0:0,0:0:0:0:
468,324,141468,5,4,0:0:0:0:
468,324,141559,2,0,L|392:351,1,45.4999979171754,2|0,0:0|0:0,0:0:0:0:
57,283,141741,2,0,L|147:319,1,94.5000003604889,4|2,0:0|0:2,0:0:0:0:
304,173,142014,5,2,0:0:0:0:
304,173,142105,2,0,L|250:193,1,47.2500001802444,2|0,0:0|0:0,0:0:0:0:
259,189,142287,1,4,0:0:0:0:
0,0,142468,6,0,L|113:45,1,94.5000003604889,4|0,0:0|0:0,0:0:0:0:
352,106,142741,5,2,0:0:0:0:
352,106,142832,2,0,L|299:82,1,47.2500001802444,4|0,0:0|0:0,0:0:0:0:
80,181,143014,6,0,L|133:155,1,48.9999985046387,2|0,0:0|0:0,0:0:0:0:
420,211,143196,6,0,L|366:185,1,48.9999985046387,2|0,0:0|0:0,0:0:0:0:
113,88,143378,5,2,0:0:0:0:
113,88,143468,2,0,L|169:59,1,48.9999985046387,4|0,0:0|0:0,0:0:0:0:
478,318,143650,5,4,0:0:0:0:
478,318,143741,2,0,L|419:287,1,48.9999985046387,2|0,0:0|0:0,0:0:0:0:
158,233,143923,6,0,L|222:269,1,50.7500015487671,4|0,0:0|0:0,0:0:0:0:
479,69,144105,5,2,0:0:0:0:
479,69,144196,2,0,L|417:103,1,50.7500015487671,4|0,0:0|0:0,0:0:0:0:
39,144,144378,5,4,0:0:0:0:
39,144,144468,2,0,L|91:176,1,54.2500004138947,2|0,0:0|0:0,0:0:0:0:
512,153,144650,2,0,L|403:221,1,108.500000827789,4|2,0:0|0:2,0:0:0:0:
45,245,144923,5,4,0:0:0:0:
45,245,145014,2,0,L|117:293,1,57.7500005507469,2|0,0:0|0:0,0:0:0:0:
92,277,145196,1,4,0:0:0:0:
501,8,145378,6,0,P|476:7|443:10,1,38.5000003671646,2|0,0:0|0:0,0:0:0:0:
437,13,145499,5,0,0:0:0:0:
427,16,145560,1,2,0:0:0:0:
419,20,145620,1,0,0:0:0:0:
389,99,145741,5,2,0:0:0:0:
415,217,145862,5,4,0:0:0:0:
467,93,145984,5,4,0:0:0:0:
358,171,146105,5,4,0:0:0:0:
493,161,146226,5,4,0:0:0:0:
342,31,146468,1,4,0:0:0:0:
0,148,146832,6,0,P|46:118|96:106,1,105.000004005432,4|0,0:1|0:0,0:0:0:0:
393,313,147014,6,0,P|344:313|294:287,1,105.000004005432,4|0,0:0|0:0,0:0:0:0:
214,0,147196,5,4,0:0:0:0:
214,0,147286,1,0,0:0:0:0:
214,0,147377,2,0,P|182:39|175:93,1,105.000004005432,2|0,0:0|0:0,0:0:0:0:
196,304,147559,5,4,0:0:0:0:
238,372,147650,1,0,0:0:0:0:
318,379,147741,2,0,P|372:350|393:314,1,105.000004005432,4|0,0:0|0:0,0:0:0:0:
176,91,147923,6,0,L|188:226,1,105.000004005432,2|0,0:0|0:0,0:0:0:0:
465,264,148105,6,0,B|463:212|416:169,1,105.000004005432,4|0,0:0|0:0,0:0:0:0:
91,296,148287,6,0,L|267:309,1,105.000004005432,2|0,0:0|0:0,0:0:0:0:
419,172,148468,5,4,0:0:0:0:
176,91,148650,1,2,0:0:0:0:
314,305,148832,5,4,0:0:0:0:
314,305,148923,1,0,0:0:0:0:
314,305,149014,2,0,P|357:279|378:194,1,105.000004005432,4|0,0:0|0:0,0:0:0:0:
0,195,149196,6,0,L|158:208,1,105.000004005432,4|0,0:0|0:0,0:0:0:0:
398,0,149378,6,0,P|363:53|356:137,1,105.000004005432,4|0,0:1|0:0,0:0:0:0:
496,290,149559,5,2,0:0:0:0:
457,338,149649,1,0,0:0:0:0:
402,368,149740,1,2,0:0:0:0:
340,371,149831,1,0,0:0:0:0:
283,350,149924,5,4,0:0:0:0:
240,269,150014,1,0,0:0:0:0:
154,235,150105,1,4,0:0:0:0:
68,266,150196,1,0,0:0:0:0:
14,333,150287,6,0,L|147:321,1,94.5000003604889,2|4,0:0|0:0,0:0:0:0:
398,217,150468,2,0,L|224:201,1,94.5000003604889,4|0,0:0|0:0,0:0:0:0:
144,20,150651,5,4,0:0:0:0:
228,3,150741,1,0,0:0:0:0:
304,45,150832,1,2,0:0:0:0:
333,126,150923,1,0,0:0:0:0:
304,209,151015,6,0,B|246:231|246:231|170:229,1,105.000004005432,4|0,0:0|0:0,0:0:0:0:
42,9,151196,2,0,B|95:2|95:2|145:19,1,105.000004005432,4|0,0:0|0:0,0:0:0:0:
79,291,151378,2,0,B|30:266|30:266|-1:224,1,105.000004005432,4|0,0:0|0:0,0:0:0:0:
333,126,151559,6,0,B|378:131|378:131|407:143|407:143|436:145,1,105.000004005432,2|0,0:0|0:0,0:0:0:0:
279,309,151741,2,0,B|249:314|206:294|206:294|186:307|186:307|136:282|69:290,1,210.000008010865,4|0,0:0|0:0,0:0:0:0:
428,61,152105,6,0,L|437:165,1,83.9999974365235,4|0,0:0|0:0,0:0:0:0:
394,312,152287,6,0,L|403:207,1,83.9999974365235,4|0,0:0|0:0,0:0:0:0:
512,4,152468,6,0,L|502:108,1,83.9999974365235,2|0,0:0|0:0,0:0:0:0:
78,290,152650,6,0,L|95:94,1,105.000004005432,4|0,0:1|0:0,0:0:0:0:
320,31,152832,6,0,L|337:226,1,105.000004005432,4|0,0:0|0:0,0:0:0:0:
262,353,153014,6,0,L|261:160,1,105.000004005432,4|0,0:0|0:0,0:0:0:0:
146,13,153196,5,2,0:0:0:0:
61,50,153287,1,0,0:0:0:0:
10,127,153378,2,0,P|2:164|27:242,1,87.5,4|0,0:0|0:0,0:0:0:0:
346,272,153559,5,4,0:0:0:0:
382,187,153650,1,0,0:0:0:0:
375,96,153741,2,0,P|354:60|281:16,1,87.5,2|0,0:0|0:0,0:0:0:0:
34,281,153923,5,4,0:0:0:0:
92,350,154014,1,0,0:0:0:0:
179,377,154105,2,0,P|218:372|287:326,1,87.5,4|0,0:0|0:0,0:0:0:0:
146,13,154287,5,4,0:0:0:0:
122,22,154377,1,0,0:0:0:0:
105,38,154468,1,2,0:0:0:0:
95,61,154559,1,0,0:0:0:0:
104,108,154650,1,4,0:0:0:0:
143,134,154741,1,0,0:0:0:0:
189,128,154832,5,4,0:0:0:0:
216,55,154922,1,0,0:0:0:0:
281,13,155013,1,4,0:0:0:0:
358,16,155104,1,0,0:0:0:0:
420,64,155196,6,0,P|439:107|423:177,1,78.7500030040742,4|0,0:0|0:0,0:0:0:0:
311,325,155378,6,0,P|331:277|323:226,1,82.2499987449646,2|0,0:0|0:0,0:0:0:0:
173,205,155559,6,0,P|140:245|90:261,1,89.249998808384,4|0,0:0|0:0,0:0:0:0:
23,33,155741,6,0,P|68:58|120:56,1,99.7500009512901,4|0,0:0|0:0,0:0:0:0:
400,0,155923,5,4,0:0:0:0:
473,58,156013,1,0,0:0:0:0:
508,146,156104,1,2,0:0:0:0:
461,240,156196,1,0,0:0:0:0:
500,338,156287,2,0,L|360:350,1,105.000004005432,4|0,0:0|0:0,0:0:0:0:
85,352,156468,5,4,0:0:0:0:
81,342,156559,1,0,0:0:0:0:
77,334,156650,2,0,L|196:322,1,105.000004005432,2|0,0:0|0:0,0:0:0:0:
104,185,156832,6,0,L|-14:174,1,105.000004005432,4|0,0:0|0:0,0:0:0:0:
152,25,157014,5,4,0:1:0:0:
257,0,157105,1,0,0:0:0:0:
365,6,157196,2,0,P|416:23|466:51,1,105.000004005432,4|0,0:0|0:0,0:0:0:0:
224,323,157378,5,4,0:1:0:0:
144,270,157468,1,0,0:0:0:0:
104,185,157559,2,0,P|107:128|133:48,1,94.5000003604889,4|0,0:0|0:0,0:0:0:0:
494,124,157741,5,4,0:1:0:0:
502,215,157832,1,0,0:0:0:0:
473,290,157923,1,4,0:0:0:0:
418,340,158014,1,0,0:0:0:0:
360,360,158105,1,4,0:1:0:0:
309,360,158195,1,0,0:0:0:0:
268,351,158286,1,2,0:0:0:0:
241,337,158378,1,0,0:0:0:0:
224,323,158468,6,0,P|207:301|197:263,1,66.5,4|0,0:1|0:0,0:0:0:0:
246,191,160287,5,4,0:0:0:0:
246,191,160378,1,4,0:0:0:0:
246,191,160468,1,4,0:0:0:0:
132,123,160650,2,0,L|185:130,1,52.4999983978272,4|0,0:1|0:0,0:0:0:0:
246,191,161196,5,4,0:3:0:0:
457,87,161378,2,0,L|250:105,1,199.499993911743,4|0,0:1|0:0,0:0:0:0:
246,191,163196,5,4,0:0:0:0:
246,191,163287,1,4,0:0:0:0:
246,191,163378,1,4,0:0:0:0:
65,114,163559,2,0,L|196:125,1,122.499996261597,4|0,0:1|0:0,0:0:0:0:
246,191,164105,5,4,0:3:0:0:
26,214,164287,2,0,L|245:191,1,220.5,4|0,0:1|0:0,0:0:0:0:
487,19,170105,6,0,L|419:25,1,40.2500007677078,4|0,0:1|0:0,0:0:0:0:
317,97,170287,2,0,L|385:103,1,40.2500007677078,4|0,0:0|0:0,0:0:0:0:
501,113,170468,1,4,0:0:0:0:
211,298,170650,6,0,B|221:305|221:305|277:303,1,40.2500007677078,2|0,0:0|0:0,0:0:0:0:
423,322,170832,2,0,L|356:327,1,40.2500007677078,4|0,0:0|0:0,0:0:0:0:
254,381,171014,2,0,L|320:375,1,40.2500007677078,4|0,0:0|0:0,0:0:0:0:
104,170,171196,6,0,B|110:189|110:189|111:224,1,40.2500007677078,2|0,0:0|0:0,0:0:0:0:
248,304,171378,2,0,L|243:247,1,40.2500007677078,4|0,0:0|0:0,0:0:0:0:
68,344,171559,2,0,L|71:384,1,40.2500007677078,4|0,0:0|0:0,0:0:0:0:
190,199,171741,2,0,L|193:158,1,40.2500007677078,4|0,0:0|0:0,0:0:0:0:
23,0,171923,6,0,B|26:17|26:17|30:68,1,40.2500007677078,2|0,0:0|0:0,0:0:0:0:
104,170,172105,2,0,L|96:101,1,40.2500007677078,4|0,0:0|0:0,0:0:0:0:
174,19,172287,2,0,L|166:87,1,40.2500007677078,4|0,0:0|0:0,0:0:0:0:
104,170,172468,5,4,0:0:0:0:
269,38,172650,1,4,0:0:0:0:
347,162,172832,6,0,B|355:182|355:182|353:225,1,40.2500007677078,2|0,0:0|0:0,0:0:0:0:
445,358,173014,2,0,L|448:317,1,40.2500007677078,4|0,0:0|0:0,0:0:0:0:
295,308,173196,2,0,L|357:302,1,40.2500007677078,4|0,0:0|0:0,0:0:0:0:
490,210,173378,2,0,L|449:206,1,40.2500007677078,4|0,0:0|0:0,0:0:0:0:
269,37,173559,6,0,B|293:27|293:27|336:25,1,40.2500007677078,2|0,0:0|0:0,0:0:0:0:
511,22,173741,2,0,L|445:26,1,40.2500007677078,4|0,0:0|0:0,0:0:0:0:
269,49,173923,2,0,L|337:42,1,40.2500007677078,4|0,0:0|0:0,0:0:0:0:
490,210,174105,6,0,B|472:203|472:203|435:205,1,40.2500007677078,2|0,0:0|0:0,0:0:0:0:
256,231,174287,2,0,L|310:226,1,40.2500007677078,4|0,0:0|0:0,0:0:0:0:
445,283,174468,2,0,L|404:286,1,40.2500007677078,4|0,0:0|0:0,0:0:0:0:
203,300,174650,1,4,0:0:0:0:
269,49,174832,6,0,B|273:64|273:64|274:94,1,40.2500007677078,2|0,0:0|0:0,0:0:0:0:
203,300,175014,2,0,L|208:254,1,40.2500007677078,4|0,0:0|0:0,0:0:0:0:
134,0,175196,2,0,L|128:45,1,40.2500007677078,4|0,0:0|0:0,0:0:0:0:
115,234,175438,6,0,L|122:275,2,26.8333338451386,0|0|4,0:0|0:0|0:0,0:0:0:0:
421,99,175923,5,4,0:1:0:0:
421,99,176105,2,0,B|401:73|401:73|319:68,1,105.000004005432,4|2,0:0|0:0,0:0:0:0:
111,126,176468,5,4,0:0:0:0:
111,126,176650,1,4,0:0:0:0:
111,126,176832,2,0,B|131:100|131:100|213:95,1,105.000004005432,4|2,0:0|0:0,0:0:0:0:
301,207,177196,5,4,0:0:0:0:
365,328,177378,1,4,0:0:0:0:
293,289,177559,1,4,0:0:0:0:
460,210,177741,1,2,0:0:0:0:
153,358,177923,6,0,L|17:369,1,105.000004005432,4|4,0:1|0:0,0:0:0:0:
116,225,178287,2,0,L|220:234,1,105.000004005432,4|2,0:0|0:0,0:0:0:0:
157,55,178650,5,4,0:0:0:0:
129,132,178832,1,4,0:0:0:0:
253,125,179014,1,4,0:0:0:0:
22,66,179196,1,2,0:0:0:0:
389,161,179378,6,0,L|524:172,1,105.000004005432,4|4,0:1|0:0,0:0:0:0:
426,28,179742,2,0,L|321:37,1,105.000004005432,4|2,0:0|0:0,0:0:0:0:
84,207,180105,5,4,0:0:0:0:
8,298,180287,1,4,0:0:0:0:
91,292,180468,1,4,0:0:0:0:
0,215,180650,1,2,0:0:0:0:
182,369,180832,5,4,0:1:0:0:
438,249,181741,6,0,L|389:244,1,43.75,4|0,0:1|0:0,0:0:0:0:
200,122,181923,5,4,0:0:0:0:
200,122,182014,2,0,P|214:114|252:112,1,43.75,4|0,0:0|0:0,0:0:0:0:
335,298,182196,5,4,0:0:0:0:
335,298,182287,2,0,P|319:301|282:293,1,43.75,2|0,0:0|0:0,0:0:0:0:
317,0,182468,6,0,L|307:118,1,87.5,4|2,0:0|0:2,0:0:0:0:
225,248,182741,5,4,0:0:0:0:
225,248,182832,2,0,L|219:189,1,43.75,2|0,0:0|0:0,0:0:0:0:
55,59,183014,6,0,L|49:-1,1,57.7500005507469,4|0,0:0|0:0,0:0:0:0:
58,9,183195,2,0,L|68:139,1,115.500001101494,4|2,0:0|0:2,0:0:0:0:
133,305,183468,6,0,L|143:174,1,115.500001101494,4|0,0:0|0:0,0:0:0:0:
129,255,183741,2,0,L|123:315,1,57.7500005507469,2|0,0:0|0:0,0:0:0:0:
355,313,183923,6,0,P|285:307|266:280,1,87.5,4|2,0:1|0:2,0:0:0:0:
287,209,184196,1,4,0:0:0:0:
359,325,184287,2,0,P|335:330|308:326,1,43.75,2|0,0:0|0:0,0:0:0:0:
287,209,184468,1,4,0:0:0:0:
504,169,184650,6,0,L|389:159,1,87.5,4|0,0:0|0:0,0:0:0:0:
224,67,184923,6,0,L|282:62,1,43.75,4|2,0:0|0:2,0:0:0:0:
420,167,185105,5,4,0:0:0:0:
420,167,185196,2,0,L|376:163,1,43.75,2|0,0:0|0:0,0:0:0:0:
37,101,185378,6,0,P|87:86|129:85,1,87.5,4|2,0:0|0:2,0:0:0:0:
197,264,185650,5,4,0:0:0:0:
197,264,185741,2,0,P|174:248|162:228,1,43.75,2|0,0:0|0:0,0:0:0:0:
344,50,185923,2,0,P|360:72|366:95,1,43.75,4|0,0:0|0:0,0:0:0:0:
22,236,186105,6,0,P|65:206|104:192,1,87.5,4|2,0:0|0:2,0:0:0:0:
322,302,186378,2,0,L|261:295,1,43.75,4|2,0:0|0:2,0:0:0:0:
227,72,186559,5,4,0:0:0:0:
227,72,186650,2,0,P|255:71|276:80,1,43.75,2|0,0:0|0:0,0:0:0:0:
409,309,186832,2,0,L|295:299,1,87.5,4|2,0:0|0:2,0:0:0:0:
98,194,187105,5,2,0:0:0:0:
98,194,187196,2,0,L|156:188,1,43.75,2|0,0:0|0:0,0:0:0:0:
467,60,187378,6,0,L|416:54,1,43.75,4|0,0:0|0:0,0:0:0:0:
168,256,187559,6,0,P|201:295|244:307,1,87.5,4|0,0:1|0:0,0:0:0:0:
346,21,187832,6,0,P|314:29|295:42,1,43.75,4|2,0:0|0:2,0:0:0:0:
321,301,188014,5,4,0:0:0:0:
321,301,188105,2,0,P|331:270|331:247,1,43.75,2|0,0:0|0:0,0:0:0:0:
12,298,188287,6,0,L|130:308,1,87.5,4|2,0:0|0:2,0:0:0:0:
301,183,188559,5,4,0:0:0:0:
301,183,188650,2,0,L|243:188,1,43.75,2|0,0:0|0:0,0:0:0:0:
99,305,188832,6,0,L|156:310,1,43.75,4|0,0:0|0:0,0:0:0:0:
388,175,189014,2,0,L|284:184,1,87.5,4|0,0:0|0:0,0:0:0:0:
49,230,189287,6,0,L|109:224,1,43.75,4|2,0:0|0:2,0:0:0:0:
332,259,189468,5,4,0:0:0:0:
332,259,189559,2,0,P|330:278|303:308,1,43.75,2|0,0:0|0:0,0:0:0:0:
129,110,189741,6,0,L|246:120,1,87.5,4|2,0:0|0:2,0:0:0:0:
465,210,190014,5,4,0:0:0:0:
465,210,190105,2,0,P|465:235|456:256,1,43.75,2|0,0:0|0:0,0:0:0:0:
217,107,190287,6,0,P|223:82|238:65,1,43.75,2|0,0:2|0:0,0:0:0:0:
332,259,190468,6,0,P|277:276|221:269,1,87.5,4|2,0:0|0:0,0:0:0:0:
304,18,190741,6,0,P|327:9|350:10,1,43.75,4|2,0:0|0:2,0:0:0:0:
174,248,190923,5,2,0:2:0:0:
174,248,191014,2,0,P|149:249|127:242,1,43.75,2|0,0:0|0:0,0:0:0:0:
421,35,191196,6,0,P|458:74|469:126,1,87.5,4|2,0:0|0:0,0:0:0:0:
132,136,191468,5,2,0:0:0:0:
132,136,191559,2,0,P|115:116|109:94,1,43.75,2|0,0:2|0:0,0:0:0:0:
422,172,191741,6,0,P|416:196|403:215,1,43.75,4|0,0:0|0:0,0:0:0:0:
58,43,191923,6,0,P|64:18|77:0,1,43.75,2|0,0:0|0:0,0:0:0:0:
338,279,192105,5,0,0:0:0:0:
338,279,192196,2,0,L|332:212,1,43.75,2|2,0:0|0:2,0:0:0:0:
217,0,192378,5,0,0:0:0:0:
217,0,192469,2,0,L|211:66,1,43.75,4|0,0:0|0:0,0:0:0:0:
199,351,192650,6,0,L|204:284,1,43.75,2|0,0:0|0:0,0:0:0:0:
57,156,192832,6,0,L|113:151,1,43.75,0|2,0:0|0:0,0:0:0:0:
415,295,193014,5,2,0:0:0:0:
419,317,193105,1,0,0:0:0:0:
418,339,193196,1,2,0:0:0:0:
410,360,193287,1,4,0:0:0:0:
98,10,193378,6,0,P|165:-8|230:4,1,122.500001168251,4|0,0:1|0:0,0:0:0:0:
249,243,193650,6,0,P|229:210|228:166,1,61.2500005841255,4|0,0:0|0:0,0:0:0:0:
314,0,193832,5,4,0:0:0:0:
314,0,193923,2,0,P|324:37|312:79,1,61.2500005841255,2|0,0:0|0:0,0:0:0:0:
321,330,194105,6,0,L|332:193,1,122.500001168251,4|2,0:0|0:2,0:0:0:0:
232,16,194378,5,4,0:0:0:0:
232,16,194468,2,0,L|236:76,1,61.2500005841255,2|0,0:0|0:0,0:0:0:0:
73,259,194650,6,0,B|102:251|102:251|134:255,1,61.2500005841255,4|0,0:0|0:0,0:0:0:0:
122,263,194832,2,0,B|59:278|59:278|-8:274,1,122.500001168251,4|2,0:0|0:2,0:0:0:0:
296,135,195104,6,0,B|355:133|355:133|426:147,1,122.500001168251,4|0,0:0|0:0,0:0:0:0:
343,148,195378,2,0,B|309:155|309:155|282:143,1,61.2500005841255,2|0,0:0|0:0,0:0:0:0:
13,63,195559,6,0,B|48:14|48:14|111:0,1,122.500001168251,4|2,0:1|0:2,0:0:0:0:
206,83,195831,1,4,0:0:0:0:
0,59,195923,2,0,B|11:33|11:33|35:8,1,61.2500005841255,2|0,0:0|0:0,0:0:0:0:
206,83,196103,1,4,0:0:0:0:
0,384,196287,6,0,L|12:242,1,122.500001168251,4|0,0:0|0:0,0:0:0:0:
266,233,196559,5,4,0:0:0:0:
266,233,196650,2,0,P|261:265|229:308,1,61.2500005841255,2|4,0:2|0:0,0:0:0:0:
144,77,196832,6,0,L|213:82,1,61.2500005841255,2|0,0:0|0:0,0:0:0:0:
512,166,197014,6,0,L|372:178,1,122.500001168251,4|2,0:0|0:2,0:0:0:0:
266,24,197287,5,4,0:0:0:0:
266,24,197378,2,0,L|335:29,1,61.2500005841255,2|0,0:0|0:0,0:0:0:0:
409,256,197559,6,0,L|322:248,1,61.2500005841255,4|0,0:0|0:0,0:0:0:0:
21,66,197741,6,0,L|160:78,1,122.500001168251,4|2,0:0|0:2,0:0:0:0:
186,311,198014,6,0,P|161:281|154:237,1,61.2500005841255,4|2,0:0|0:2,0:0:0:0:
310,155,198196,5,4,0:0:0:0:
310,155,198287,2,0,P|325:119|320:75,1,61.2500005841255,2|0,0:0|0:0,0:0:0:0:
6,143,198468,6,0,P|55:194|104:202,1,122.500001168251,4|2,0:0|0:2,0:0:0:0:
273,0,198741,5,2,0:0:0:0:
273,0,198832,2,0,P|239:1|205:21,1,61.2500005841255,2|0,0:0|0:0,0:0:0:0:
186,311,199014,6,0,L|191:247,1,61.2500005841255,4|0,0:0|0:0,0:0:0:0:
433,1,199196,6,0,P|490:43|517:116,1,122.500001168251,4|0,0:1|0:0,0:0:0:0:
188,98,199468,6,0,P|227:88|256:93,1,61.2500005841255,4|2,0:0|0:2,0:0:0:0:
500,233,199650,5,4,0:0:0:0:
500,233,199741,2,0,L|434:227,1,61.2500005841255,2|0,0:0|0:0,0:0:0:0:
147,246,199923,6,0,P|178:195|248:157,1,122.500001168251,4|2,0:0|0:2,0:0:0:0:
444,308,200196,5,4,0:0:0:0:
444,308,200287,2,0,L|378:313,1,61.2500005841255,2|0,0:0|0:0,0:0:0:0:
126,92,200468,6,0,L|207:99,1,61.2500005841255,4|0,0:0|0:0,0:0:0:0:
382,313,200650,6,0,L|241:325,1,122.500001168251,4|0,0:0|0:0,0:0:0:0:
85,240,200923,6,0,L|166:247,1,61.2500005841255,4|2,0:0|0:2,0:0:0:0:
425,185,201105,5,4,0:0:0:0:
425,185,201196,2,0,L|358:180,1,61.2500005841255,2|0,0:0|0:0,0:0:0:0:
126,92,201378,6,0,L|248:83,1,122.500001168251,4|0,0:0|0:0,0:0:0:0:
471,11,201650,5,4,0:0:0:0:
471,11,201741,2,0,P|430:7|398:19,1,61.2500005841255,2|0,0:0|0:0,0:0:0:0:
382,227,201923,6,0,P|408:209|424:185,1,61.2500005841255,2|0,0:2|0:0,0:0:0:0:
126,93,202105,6,0,P|123:128|143:163,1,61.2500005841255,4|0,0:0|0:0,0:0:0:0:
489,129,202287,5,2,0:0:0:0:
489,129,202378,2,0,P|428:82|393:77,1,61.2500005841255,4|0,0:0|0:0,0:0:0:0:
226,0,202559,5,2,0:2:0:0:
226,0,202650,2,0,P|195:18|179:54,1,61.2500005841255,2|0,0:0|0:0,0:0:0:0:
375,343,202832,6,0,P|394:267|369:207,1,122.500001168251,4|2,0:0|0:0,0:0:0:0:
87,216,203105,5,2,0:0:0:0:
87,216,203196,2,0,P|113:238|153:243,1,61.2500005841255,2|0,0:2|0:0,0:0:0:0:
411,12,203378,6,0,P|376:3|347:9,1,61.2500005841255,4|0,0:0|0:0,0:0:0:0:
199,299,203559,6,0,P|252:299|310:257,1,122.500001168251,2|0,0:0|0:0,0:0:0:0:
36,0,203832,6,0,P|16:25|-1:71,1,61.2500005841255,4|0,0:0|0:0,0:0:0:0:
58,354,204014,5,4,0:0:0:0:
58,354,204105,2,0,L|65:273,1,61.2500005841255,2|0,0:0|0:0,0:0:0:0:
130,21,204287,6,0,L|142:162,1,122.500001168251,4|0,0:1|0:0,0:0:0:0:
512,295,204559,5,4,0:0:0:0:
504,271,204649,1,4,0:0:0:0:
491,250,204740,1,4,0:0:0:0:
474,233,204831,1,4,0:0:0:0:
453,220,204922,1,4,0:0:0:0:
427,211,205014,6,0,L|181:189,1,218.75,4|0,0:1|0:0,0:0:0:0:
124,185,205559,1,4,0:0:0:0:
410,121,205741,6,0,L|354:125,1,43.75,4|0,0:1|0:0,0:0:0:0:
124,185,205923,1,4,0:0:0:0:
342,284,206059,5,2,0:0:0:0:
342,284,206105,2,0,L|297:280,1,43.75,4|0,0:1|0:0,0:0:0:0:
124,185,206287,1,4,0:0:0:0:
354,52,206468,5,4,0:0:0:0:
354,52,206514,2,4,L|283:58,1,65.625,4|0,0:1|0:0,0:0:0:0:
124,185,206832,1,4,0:1:0:0:
256,192,206923,12,4,230196,0:1:0:0:
