osu file format v14

[General]
AudioFilename: audio.mp3
AudioLeadIn: 0
PreviewTime: 103555
Countdown: 0
SampleSet: Normal
StackLeniency: 0.2
Mode: 0
LetterboxInBreaks: 0
WidescreenStoryboard: 0

[Editor]
Bookmarks: 15401,20017,44632,84017,103709,123401,162786,182478
DistanceSpacing: 1
BeatDivisor: 8
GridSize: 4
TimelineZoom: 1

[Metadata]
Title:Tudiskava (Culprate Remix)
TitleUnicode:Tudiskava (Culprate Remix)
Artist:Clockvice, Raine & Vorso
ArtistUnicode:Clockvice, Raine & Vorso
Creator:Yoges
Version:Insane
Source:
Tags:glitch hop electronic inspected cool doggo
BeatmapID:1223840
BeatmapSetID:578185

[Difficulty]
HPDrainRate:5
CircleSize:3.8
OverallDifficulty:5
ApproachRate:9.2
SliderMultiplier:2.4
SliderTickRate:1

[Events]
//Background and Video events
0,0,"303116.jpg",0,0
//Break Periods
2,29601,100678
2,113601,123447
//Storyboard Layer 0 (Background)
//Storyboard Layer 1 (Fail)
//Storyboard Layer 2 (Pass)
//Storyboard Layer 3 (Foreground)
//Storyboard Sound Samples

[TimingPoints]
325,615.384615384615,4,1,0,40,1,0
18171,-58.8235294117647,4,1,0,40,0,0
18786,-100,4,1,0,40,0,0
19094,-58.8235294117647,4,1,0,40,0,0
19401,-50,4,1,0,40,0,0
20017,-83.3333333333333,4,1,0,40,0,0
24940,-58.8235294117647,4,1,0,40,0,0
25555,-83.3333333333333,4,1,0,40,0,0
104017,-66.6666666666667,4,1,0,40,0,0
104324,-50,4,1,0,40,0,0
104632,-66.6666666666667,4,1,0,40,0,0
104940,-50,4,1,0,40,0,0
105555,-66.6666666666667,4,1,0,40,0,0
106786,-50,4,1,0,40,0,0
107094,-66.6666666666667,4,1,0,40,0,0
107401,-50,4,1,0,40,0,0
108324,-66.6666666666667,4,1,0,40,0,0
108940,-50,4,1,0,40,0,0
109555,-66.6666666666667,4,1,0,40,0,0
109863,-50,4,1,0,40,0,0
110171,-66.6666666666667,4,1,0,40,0,0
111094,-50,4,1,0,40,0,0
112017,-40,4,1,0,40,0,0
112632,-33.3333333333333,4,1,0,40,0,0
112940,-66.6666666666667,4,1,0,40,0,0
115094,-50,4,1,0,40,0,0
115401,-66.6666666666667,4,1,0,40,0,0
116017,-50,4,1,0,40,0,0
116632,-66.6666666666667,4,1,0,40,0,0
116940,-50,4,1,0,40,0,0
117248,-66.6666666666667,4,1,0,40,0,0
118786,-50,4,1,0,40,0,0
119401,-66.6666666666667,4,1,0,40,0,0
119709,-50,4,1,0,40,0,0
120017,-66.6666666666667,4,1,0,40,0,0
120940,-50,4,1,0,40,0,0
122171,-66.6666666666667,4,1,0,40,0,0
123094,-40,4,1,0,40,0,0
124017,-90.9090909090909,4,1,0,40,0,0
124632,-66.6666666666667,4,1,0,40,0,0
125248,-55.5555555555556,4,1,0,40,0,0
125863,-47.6190476190476,4,1,0,40,0,0
128324,-40,4,1,0,40,0,0
128940,-33.3333333333333,4,1,0,40,0,1
129248,-40,4,1,0,40,0,1
129555,-50,4,1,0,40,0,1
130478,-40,4,1,0,40,0,1
130786,-66.6666666666667,4,1,0,40,0,1
131401,-40,4,1,0,40,0,1
132017,-66.6666666666667,4,1,0,40,0,1
133248,-100,4,1,0,40,0,0
138171,-100,4,1,0,40,0,1
143094,-100,4,1,0,40,0,0
148017,-100,4,1,0,40,0,1
152940,-100,4,1,0,40,0,0
157863,-100,4,1,0,40,0,1
162786,-100,4,1,0,40,0,0

[Colours]
Combo1 : 200,53,53
Combo2 : 167,95,154
Combo3 : 90,119,163
Combo4 : 64,128,128

[HitObjects]
380,228,15401,6,0,L|320:225,1,60
192,114,16324,6,0,L|195:185,1,60
162,278,16632,2,0,L|221:276,1,60
383,234,16940,2,0,L|323:231,1,60
423,382,17248,2,0,L|425:322,1,60
510,31,17555,6,0,P|488:85|435:108,1,120
338,101,18017,1,0,0:0:0:0:
189,12,18171,6,0,L|191:113,1,102.000001945496
278,324,18478,2,0,L|280:222,1,102.000001945496
189,12,18786,2,0,L|191:72,1,60
278,324,19094,2,0,L|280:222,1,102.000001945496
280,181,19324,5,0,0:0:0:0:
231,182,19401,2,0,L|332:179,1,102.000001945496
282,61,19709,5,0,0:0:0:0:
278,324,19863,1,0,0:0:0:0:
433,72,20017,6,0,B|416:147|458:141|436:222,1,143.999995605469
189,183,20632,2,0,L|332:178,1,143.999995605469
106,129,21094,2,0,P|88:196|123:259,1,143.999995605469
332,177,21555,2,0,L|246:181,1,71.9999978027344
412,265,21863,5,0,0:0:0:0:
422,73,22171,5,0,0:0:0:0:
412,265,22324,1,0,0:0:0:0:
199,105,22478,6,0,P|167:143|167:199,2,95.9999970703126
18,135,23094,2,0,P|63:188|65:259,1,143.999995605469
300,257,23555,2,0,B|225:247|237:289|160:280,1,143.999995605469
353,103,24017,2,0,L|357:187,1,71.9999978027344
292,352,24324,2,0,L|363:348,1,71.9999978027344
450,370,24632,1,0,0:0:0:0:
208,384,24786,1,0,0:0:0:0:
199,99,24940,6,0,P|263:153|187:189,1,204.000003890991
3,288,25555,6,0,P|64:254|129:280,1,143.999995605469
354,240,26017,2,0,B|335:310|378:313|362:381,1,143.999995605469
190,360,26478,2,0,L|273:356,1,71.9999978027344
286,172,26786,5,0,0:0:0:0:
264,173,27094,1,0,0:0:0:0:
230,80,27401,6,0,P|245:124|241:172,2,95.9999970703126
7,157,28017,2,0,B|68:154|68:154|91:140|91:140|146:138,1,143.999995605469
255,308,28478,2,0,P|187:295|163:230,1,143.999995605469
340,270,28940,2,0,L|423:267,1,71.9999978027344
394,146,29248,1,0,0:0:0:0:
382,365,29401,1,0,0:0:0:0:
256,192,101248,12,0,103709,0:0:0:0:
311,110,104017,6,0,P|304:154|318:196,1,90.0000034332277
443,265,104324,2,0,B|362:246|369:300|282:280,1,160
116,295,104632,2,0,P|155:273|199:270,1,90.0000034332277
115,382,104940,2,0,P|55:361|31:311,1,120
60,127,105248,6,0,L|-7:128,1,60
113,201,105401,1,0,0:0:0:0:
156,4,105555,2,0,L|159:126,1,120.000004577637
274,124,105863,1,0,0:0:0:0:
60,127,106017,1,0,0:0:0:0:
306,213,106171,6,0,P|358:165|362:108,1,120.000004577637
246,37,106478,2,0,L|343:35,1,90.0000034332277
469,30,106786,2,0,P|453:107|479:181,1,160
473,298,107094,2,0,P|443:265|399:259,1,90.0000034332277
306,213,107401,2,0,L|309:341,1,120
404,340,107709,5,0,0:0:0:0:
205,344,107863,1,0,0:0:0:0:
308,332,108017,1,0,0:0:0:0:
109,336,108171,1,0,0:0:0:0:
369,247,108324,2,0,L|472:245,1,90.0000034332277
395,28,108632,6,0,L|399:167,1,120.000004577637
190,164,108940,2,0,B|254:147|248:178|311:163,1,120
199,256,109248,2,0,P|130:235|98:147,1,160
296,253,109555,2,0,P|292:296|267:333,1,90.0000034332277
400,109,109863,2,0,P|342:116|307:163,1,120
155,69,110171,6,0,L|244:66,1,90.0000034332277
31,74,110478,2,0,L|30:15,2,60.0000022888184
153,215,110786,2,0,P|136:175|96:159,1,90.0000034332277
63,349,111094,6,0,B|148:328|148:367|236:343,1,160
324,170,111401,2,0,P|305:220|309:250,1,60
306,314,111555,2,0,P|310:343|325:369,1,60
510,318,111709,2,0,B|453:299|453:299|392:311,1,120
160,218,112017,2,0,B|230:212|230:212|271:231|271:231|304:225,1,150
400,68,112324,2,0,L|395:270,1,200
484,341,112632,6,0,L|487:246,1,90.0000034332277
496,5,112786,2,0,L|493:94,1,90.0000034332277
220,169,112940,6,0,B|264:161|264:161|309:169,1,90.0000034332277
204,360,113248,2,0,B|160:368|160:368|115:360,1,90.0000034332277
149,155,124017,6,0,L|158:242,1,88.000002685547
123,323,124427,1,0,0:0:0:0:
125,113,124632,6,0,L|138:232,1,120.000004577637
103,333,125042,1,0,0:0:0:0:
102,79,125248,6,0,L|118:222,1,143.999995605469
83,343,125658,1,0,0:0:0:0:
79,45,125863,6,0,L|97:211,1,167.999994873047
63,353,126273,1,0,0:0:0:0:
204,39,126478,6,0,L|222:205,1,167.999994873047
188,347,126888,1,0,0:0:0:0:
329,33,127094,6,0,L|347:199,1,167.999994873047
313,341,127504,1,0,0:0:0:0:
454,27,127709,6,0,L|472:193,1,167.999994873047
438,335,128119,1,0,0:0:0:0:
182,15,128324,6,0,B|165:91|209:86|190:169,1,150
16,115,128632,1,0,0:0:0:0:
31,114,128709,1,0,0:0:0:0:
45,113,128786,1,0,0:0:0:0:
274,211,128940,6,0,P|231:172|186:267,1,180.000006866455
372,190,129171,5,0,0:0:0:0:
372,190,129248,2,0,L|369:278,1,75
401,292,129401,2,0,L|398:366,1,75
315,87,129555,6,0,B|434:83,1,120
187,41,129863,2,0,P|160:109|116:124,1,120
39,76,130171,1,0,0:0:0:0:
244,198,130324,1,0,0:0:0:0:
434,82,130478,6,0,B|396:84|396:84|380:165|431:158|411:245,1,200
199,200,130786,6,0,L|304:195,1,90.0000034332277
4,255,131094,2,0,L|56:253,1,45.0000017166138
77,120,131248,2,0,L|129:118,1,45.0000017166138
311,356,131401,6,0,B|302:316|302:316|240:286|194:325,1,150
397,84,131709,5,0,0:0:0:0:
399,274,131863,1,0,0:0:0:0:
199,200,132017,2,0,L|304:195,1,90.0000034332277
101,74,132324,5,0,0:0:0:0:
103,264,132478,1,0,0:0:0:0:
389,198,132632,5,0,0:0:0:0:
199,200,132786,1,0,0:0:0:0:
254,10,132940,2,0,L|259:115,1,90.0000034332277
510,292,133248,5,0,0:0:0:0:
